osu file format v14

[General]
AudioFilename: audio.mp3
AudioLeadIn: 0
PreviewTime: 68
Countdown: 0
SampleSet: Soft
StackLeniency: 0.7
Mode: 3
LetterboxInBreaks: 0
SpecialStyle: 0
WidescreenStoryboard: 0

[Editor]
DistanceSpacing: 0.8
BeatDivisor: 2
GridSize: 32
TimelineZoom: 1

[Metadata]
Title:Cubone's Night Time
TitleUnicode:Cubone's Night Time
Artist:megawolf77
ArtistUnicode:megawolf77
Creator:Marcialus
Version:Normal
Source:
Tags:downtempo chill lullabye mw77 pokemon pokémon instrumental
BeatmapID:4212676
BeatmapSetID:2022624

[Difficulty]
HPDrainRate:6.5
CircleSize:10
OverallDifficulty:6.5
ApproachRate:5
SliderMultiplier:1.4
SliderTickRate:1

[Events]
//Background and Video events
0,0,"Cubone's Night Time.png",0,0
//Break Periods
//Storyboard Layer 0 (Background)
//Storyboard Layer 1 (Fail)
//Storyboard Layer 2 (Pass)
//Storyboard Layer 3 (Foreground)
//Storyboard Layer 4 (Overlay)
//Storyboard Sound Samples

[TimingPoints]
1268,600,4,2,1,10,1,0

[HitObjects]
128,192,68,5,0,0:0:0:0:
230,192,368,1,0,0:0:0:0:
384,192,668,1,0,0:0:0:0:
486,192,968,1,0,0:0:0:0:
384,192,1268,1,0,0:0:0:0:
179,192,1268,1,0,0:0:0:0:
230,192,1868,1,0,0:0:0:0:
128,192,2168,1,0,0:0:0:0:
230,192,2468,1,0,0:0:0:0:
25,192,3068,1,0,0:0:0:0:
281,192,3368,1,0,0:0:0:0:
332,192,3668,1,0,0:0:0:0:
384,192,3968,1,0,0:0:0:0:
384,192,4868,1,0,0:0:0:0:
486,192,5168,1,0,0:0:0:0:
384,192,5468,1,0,0:0:0:0:
281,192,5768,1,0,0:0:0:0:
230,192,6068,1,0,0:0:0:0:
435,192,6068,1,0,0:0:0:0:
230,192,6668,1,0,0:0:0:0:
25,192,6968,1,0,0:0:0:0:
486,192,7268,1,0,0:0:0:0:
281,192,7568,1,0,0:0:0:0:
128,192,8168,1,0,0:0:0:0:
76,192,8468,1,0,0:0:0:0:
25,192,9368,1,0,0:0:0:0:
128,192,9668,1,0,0:0:0:0:
230,192,9968,1,0,0:0:0:0:
384,192,10268,1,0,0:0:0:0:
486,192,10568,1,0,0:0:0:0:
384,192,10868,1,0,0:0:0:0:
179,192,10868,1,0,0:0:0:0:
230,192,11468,1,0,0:0:0:0:
128,192,11768,1,0,0:0:0:0:
230,192,12068,1,0,0:0:0:0:
25,192,12668,1,0,0:0:0:0:
281,192,12968,1,0,0:0:0:0:
332,192,13268,1,0,0:0:0:0:
384,192,13568,1,0,0:0:0:0:
384,192,14468,1,0,0:0:0:0:
486,192,14768,1,0,0:0:0:0:
384,192,15068,1,0,0:0:0:0:
281,192,15368,1,0,0:0:0:0:
435,192,15668,1,0,0:0:0:0:
179,192,15668,1,0,0:0:0:0:
230,192,16268,1,0,0:0:0:0:
128,192,16568,1,0,0:0:0:0:
230,192,16868,1,0,0:0:0:0:
486,192,17168,1,0,0:0:0:0:
281,192,17468,1,0,0:0:0:0:
384,192,17768,1,0,0:0:0:0:
76,192,17768,1,0,0:0:0:0:
128,192,18368,1,0,0:0:0:0:
25,192,18668,1,0,0:0:0:0:
230,192,19268,1,0,0:0:0:0:
332,192,19268,1,0,0:0:0:0:
281,192,19568,1,0,0:0:0:0:
384,192,19868,1,0,0:0:0:0:
384,192,20168,1,0,0:0:0:0:
76,192,20468,1,0,0:0:0:0:
281,192,20768,1,0,0:0:0:0:
230,192,21068,1,0,0:0:0:0:
128,192,21368,1,0,0:0:0:0:
230,192,21968,1,0,0:0:0:0:
281,192,22268,1,0,0:0:0:0:
384,192,22568,1,0,0:0:0:0:
435,192,22868,1,0,0:0:0:0:
230,192,23168,1,0,0:0:0:0:
384,192,23768,1,0,0:0:0:0:
230,192,24368,1,0,0:0:0:0:
281,192,24668,1,0,0:0:0:0:
384,192,24968,1,0,0:0:0:0:
179,192,25268,1,0,0:0:0:0:
486,192,25568,1,0,0:0:0:0:
384,192,26168,1,0,0:0:0:0:
281,192,26768,1,0,0:0:0:0:
230,192,27068,1,0,0:0:0:0:
230,192,27368,1,0,0:0:0:0:
332,192,27668,1,0,0:0:0:0:
281,192,27968,1,0,0:0:0:0:
384,192,28268,1,0,0:0:0:0:
281,192,28568,1,0,0:0:0:0:
179,192,28868,1,0,0:0:0:0:
384,192,29168,1,0,0:0:0:0:
281,192,29468,1,0,0:0:0:0:
128,192,29768,1,0,0:0:0:0:
76,192,30068,1,0,0:0:0:0:
25,192,30368,1,0,0:0:0:0:
128,192,30668,1,0,0:0:0:0:
230,192,30968,1,0,0:0:0:0:
281,192,31568,1,0,0:0:0:0:
384,192,31868,1,0,0:0:0:0:
486,192,32168,1,0,0:0:0:0:
179,192,32468,1,0,0:0:0:0:
230,192,32768,1,0,0:0:0:0:
332,192,33068,1,0,0:0:0:0:
435,192,33368,1,0,0:0:0:0:
76,192,33668,1,0,0:0:0:0:
230,192,33968,1,0,0:0:0:0:
128,192,34268,1,0,0:0:0:0:
25,192,34568,1,0,0:0:0:0:
435,192,34868,1,0,0:0:0:0:
230,192,35168,1,0,0:0:0:0:
25,192,35768,1,0,0:0:0:0:
230,192,36368,1,0,0:0:0:0:
486,192,36968,1,0,0:0:0:0:
179,192,36968,1,0,0:0:0:0:
281,192,37568,1,0,0:0:0:0:
384,192,37868,1,0,0:0:0:0:
486,192,38168,1,0,0:0:0:0:
76,192,38468,1,0,0:0:0:0:
435,192,39668,1,0,0:0:0:0:
332,192,40268,1,0,0:0:0:0:
179,192,40568,1,0,0:0:0:0:
332,192,40868,1,0,0:0:0:0:
76,192,41468,1,0,0:0:0:0:
179,192,41768,1,0,0:0:0:0:
435,192,42368,1,0,0:0:0:0:
435,192,43268,1,0,0:0:0:0:
486,192,43568,1,0,0:0:0:0:
435,192,43868,1,0,0:0:0:0:
332,192,44168,1,0,0:0:0:0:
179,192,44468,1,0,0:0:0:0:
179,192,45068,1,0,0:0:0:0:
76,192,45368,1,0,0:0:0:0:
179,192,45668,1,0,0:0:0:0:
76,192,45968,1,0,0:0:0:0:
25,192,46568,1,0,0:0:0:0:
