osu file format v14

[General]
AudioFilename: audio.ogg
AudioLeadIn: 0
PreviewTime: 206873
Countdown: 0
SampleSet: Soft
StackLeniency: 0.7
Mode: 3
LetterboxInBreaks: 0
SpecialStyle: 0
WidescreenStoryboard: 0

[Editor]
Bookmarks: 4528,8252,21494,28114,34735,41356,47977,61218,74459,87701,100942,127425,153908,180390,206873,233356,259839
DistanceSpacing: 0.8
BeatDivisor: 4
GridSize: 8
TimelineZoom: 2.200003

[Metadata]
Title:Mind/ /Pulse
TitleUnicode:Mind/ /Pulse
Artist:meganeko x Shirobon
ArtistUnicode:meganeko x Shirobon
Creator:AverageBoi
Version:Universe/ /Controller
Source:
Tags:PSY2K ep underground instrumental electronic rave techno psytrance synthwave acid 2021 chordjack hybrid sv slider velocity DV-i alphacomp
BeatmapID:3756090
BeatmapSetID:1830086

[Difficulty]
HPDrainRate:8.5
CircleSize:4
OverallDifficulty:7
ApproachRate:5
SliderMultiplier:1.4
SliderTickRate:1

[Events]
//Background and Video events
0,0,"mind pulse.png",0,0
//Break Periods
//Storyboard Layer 0 (Background)
//Storyboard Layer 1 (Fail)
//Storyboard Layer 2 (Pass)
//Storyboard Layer 3 (Foreground)
//Storyboard Layer 4 (Overlay)
//Storyboard Sound Samples
Sample,7425,0,"hot_pants_break-sequence5.wav",100
Sample,7632,0,"hot_pants_break-sequence6.wav",100
Sample,7839,0,"hot_pants_break-sequence7.wav",100
Sample,8045,0,"hot_pants_break-sequence8.wav",100
Sample,19011,0,"click-intro.wav",60
Sample,19839,0,"jungle_break-sequence8.wav",55
Sample,20252,0,"jungle_break-sequence11.wav",45
Sample,20666,0,"jungle_break-sequence13.wav",35
Sample,21080,0,"jungle_break-sequence15.wav",25
Sample,31632,0,"amen_break-sequence2.wav",90
Sample,32045,0,"amen_break-sequence4.wav",90
Sample,32252,0,"amen_break-sequence5.wav",90
Sample,32873,0,"amen_break-sequence5.wav",100
Sample,39701,0,"amen_break-sequence4.wav",80
Sample,62459,0,"b03.wav",60
Sample,64114,0,"b03.wav",60
Sample,65770,0,"b03.wav",60
Sample,67321,0,"tom01-high_pitched.wav",90
Sample,67425,0,"b03.wav",60
Sample,67632,0,"tom02-high_pitched.wav",90
Sample,69080,0,"b03.wav",60
Sample,70735,0,"b03.wav",60
Sample,72390,0,"b03.wav",60
Sample,75701,0,"b03.wav",90
Sample,77356,0,"b03.wav",90
Sample,79011,0,"b03.wav",90
Sample,80666,0,"b03.wav",90
Sample,82321,0,"b03.wav",90
Sample,83977,0,"b03.wav",90
Sample,85632,0,"b03.wav",90
Sample,87183,0,"tom01-high_pitched.wav",90
Sample,88942,0,"b03.wav",90
Sample,90597,0,"b03.wav",90
Sample,92252,0,"b03.wav",90
Sample,93908,0,"b03.wav",90
Sample,95563,0,"b03.wav",90
Sample,97218,0,"b03.wav",90
Sample,120597,0,"tom02-high_pitched.wav",90
Sample,124114,0,"crash_bandicoot.wav",55
Sample,124321,0,"hihat.wav",70
Sample,124735,0,"hihat.wav",70
Sample,124942,0,"crash_bandicoot.wav",55
Sample,125563,0,"hihat.wav",70
Sample,127218,0,"tom02-high_pitched.wav",90
Sample,128666,0,"b03.wav",90
Sample,130321,0,"b03.wav",90
Sample,131977,0,"b03.wav",90
Sample,133528,0,"tom01-high_pitched.wav",90
Sample,133632,0,"b03.wav",90
Sample,133839,0,"tom02-high_pitched.wav",90
Sample,135287,0,"b03.wav",90
Sample,136942,0,"b03.wav",90
Sample,138597,0,"b03.wav",90
Sample,140459,0,"tom02-high_pitched.wav",90
Sample,141908,0,"b03.wav",90
Sample,143563,0,"b03.wav",90
Sample,145218,0,"b03.wav",90
Sample,146770,0,"tom01-high_pitched.wav",90
Sample,146873,0,"b03.wav",90
Sample,147080,0,"tom02-high_pitched.wav",90
Sample,148528,0,"b03.wav",90
Sample,150183,0,"b03.wav",90
Sample,160321,0,"tom02-high_pitched.wav",90
Sample,161770,0,"b03.wav",90
Sample,163425,0,"b03.wav",90
Sample,168390,0,"b03.wav",90
Sample,170045,0,"b03.wav",90
Sample,171701,0,"b03.wav",90
Sample,173356,0,"b03.wav",90
Sample,175011,0,"b03.wav",90
Sample,176666,0,"b03.wav",90
Sample,178942,0,"tom03-high_pitched.wav",75
Sample,186804,0,"tom02-high_pitched.wav",90
Sample,193425,0,"tom02-high_pitched.wav",90
Sample,193839,0,"hihat.wav",70
Sample,194252,0,"hihat.wav",70
Sample,196735,0,"hihat.wav",70
Sample,197149,0,"hihat.wav",70
Sample,197563,0,"hihat.wav",70
Sample,198390,0,"hihat.wav",70
Sample,198804,0,"hihat.wav",70
Sample,199632,0,"hihat.wav",70
Sample,200045,0,"hihat.wav",70
Sample,200045,0,"tom02-high_pitched.wav",90
Sample,200252,0,"crash_bandicoot.wav",55
Sample,200459,0,"hihat.wav",70
Sample,200666,0,"snare444.wav",50
Sample,200873,0,"hihat.wav",70
Sample,201287,0,"hihat.wav",70
Sample,201494,0,"snare444.wav",50
Sample,201701,0,"hihat.wav",70
Sample,201908,0,"crash_bandicoot.wav",55
Sample,202114,0,"hihat.wav",70
Sample,202321,0,"snare444.wav",50
Sample,202528,0,"hihat.wav",70
Sample,202942,0,"hihat.wav",70
Sample,203252,0,"snare444.wav",50
Sample,203356,0,"hihat.wav",70
Sample,203563,0,"crash_bandicoot.wav",55
Sample,203770,0,"hihat.wav",70
Sample,203977,0,"crash_bandicoot.wav",55
Sample,204183,0,"hihat.wav",70
Sample,204390,0,"crash_bandicoot.wav",55
Sample,204804,0,"crash_bandicoot.wav",55
Sample,205011,0,"hihat.wav",70
Sample,233977,0,"hihat.wav",100
Sample,236873,0,"hihat.wav",100
Sample,237287,0,"hihat.wav",100
Sample,238528,0,"hihat.wav",100
Sample,239770,0,"tom02-high_pitched.wav",90
Sample,243597,0,"b03.wav",45
Sample,243908,0,"hihat.wav",100
Sample,245252,0,"b03.wav",45
Sample,245563,0,"hihat.wav",100
Sample,245977,0,"hihat.wav",100
Sample,246390,0,"tom02-high_pitched.wav",90
Sample,247218,0,"hihat.wav",100
Sample,250114,0,"hihat.wav",100
Sample,250528,0,"hihat.wav",100
Sample,251770,0,"hihat.wav",100
Sample,253011,0,"tom02-high_pitched.wav",90
Sample,258494,0,"b03.wav",45
Sample,258804,0,"hihat.wav",100
Sample,259425,0,"crash_bandicoot-short.wav",55

[TimingPoints]
-23,413.793103448276,4,2,1,50,1,0
28,-333.333333333333,4,2,1,50,0,0
3287,-322.58064516129,4,1,0,15,0,0
3365.8,-294.117647058824,4,1,0,15,0,0
3444.6,-263.157894736842,4,1,0,15,0,0
3523.4,-243.90243902439,4,1,0,15,0,0
3602.2,-227.272727272727,4,1,0,15,0,0
3681,-212.765957446809,4,1,0,15,0,0
3759.8,-196.078431372549,4,1,0,15,0,0
3838.6,-185.185185185185,4,1,0,15,0,0
3917.4,-175.438596491228,4,1,0,15,0,0
3996.2,-166.666666666667,4,1,0,15,0,0
4075,-156.25,4,1,0,15,0,0
4153.8,-149.253731343284,4,1,0,15,0,0
4232.6,-142.857142857143,4,1,0,15,0,0
4311.4,-136.986301369863,4,1,0,15,0,0
4390.2,-129.87012987013,4,1,0,15,0,0
4469,-125,4,1,0,15,0,0
4528,-40,4,2,1,50,0,0
4554,-10000,4,2,1,50,0,0
4632,-40,4,2,1,50,0,0
4658,-10000,4,2,1,50,0,0
4735,-40,4,2,1,50,0,0
4761,-10000,4,2,1,50,0,0
4839,-40,4,2,1,50,0,0
4864,-10000,4,2,1,50,0,0
4942,-125,4,2,1,50,0,0
7425,-113.636363636364,4,2,1,50,0,0
7476,-138.888888888889,4,2,1,50,0,0
7529,-104.166666666667,4,2,1,50,0,0
7580,-156.25,4,2,1,50,0,0
7632,-100,4,2,1,50,0,0
7684,-166.666666666667,4,2,1,50,0,0
7736,-89.2857142857143,4,2,1,50,0,0
7787,-208.333333333333,4,2,1,50,0,0
7839,-83.3333333333333,4,2,1,50,0,0
7891,-250,4,2,1,50,0,0
7942,-78.125,4,2,1,50,0,0
7994,-312.5,4,2,1,50,0,0
8046,-73.5294117647059,4,2,1,50,0,0
8098,-416.666666666667,4,2,1,50,0,0
8149,-69.4444444444444,4,2,1,50,0,0
8201,-625,4,2,1,50,0,0
8252,-111.111111111111,4,2,1,50,0,0
9908,-90.9090909090909,4,2,1,50,0,0
10011,-111.111111111111,4,2,1,50,0,0
10218,-90.9090909090909,4,2,1,50,0,0
10321,-111.111111111111,4,2,1,50,0,0
10528,-90.9090909090909,4,2,1,50,0,0
10632,-111.111111111111,4,2,1,50,0,0
10839,-90.9090909090909,4,2,1,50,0,0
10942,-111.111111111111,4,2,1,50,0,0
11149,-90.9090909090909,4,2,1,50,0,0
11252,-111.111111111111,4,2,1,50,0,0
16528,-90.9090909090909,4,2,1,50,0,0
16632,-111.111111111111,4,2,1,50,0,0
16839,-90.9090909090909,4,2,1,50,0,0
16942,-111.111111111111,4,2,1,50,0,0
17149,-90.9090909090909,4,2,1,50,0,0
17252,-111.111111111111,4,2,1,50,0,0
17459,-90.9090909090909,4,2,1,50,0,0
17563,-111.111111111111,4,2,1,50,0,0
17770,-90.9090909090909,4,2,1,50,0,0
17873,-111.111111111111,4,2,1,50,0,0
19218,-114.285714285714,4,2,1,50,0,0
19425,-117.647058823529,4,2,1,50,0,0
19632,-121.212121212121,4,2,1,50,0,0
19839,-125,4,2,1,50,0,0
20045,-129.032258064516,4,2,1,50,0,0
20252,-133.333333333333,4,2,1,50,0,0
20459,-137.931034482759,4,2,1,50,0,0
20666,-142.857142857143,4,2,1,50,0,0
20873,-148.148148148148,4,2,1,50,0,0
21080,-153.846153846154,4,2,1,50,0,0
21287,-160,4,2,1,50,0,0
21494,-166.666666666667,4,2,1,50,0,0
23149,-142.857142857143,4,2,1,50,0,0
23252,-166.666666666666,4,2,1,50,0,0
23459,-142.857142857143,4,2,1,50,0,0
23563,-166.666666666666,4,2,1,50,0,0
23770,-142.857142857143,4,2,1,50,0,0
23873,-166.666666666666,4,2,1,50,0,0
24080,-142.857142857143,4,2,1,50,0,0
24183,-166.666666666666,4,2,1,50,0,0
24390,-142.857142857143,4,2,1,50,0,0
24494,-166.666666666666,4,2,1,50,0,0
24597,-160,4,2,1,50,0,0
24804,-153.846153846154,4,2,1,50,0,0
25011,-148.148148148148,4,2,1,50,0,0
25218,-142.857142857143,4,2,1,50,0,0
25632,-137.931034482759,4,2,1,50,0,0
25839,-133.333333333334,4,2,1,50,0,0
26046,-129.032258064516,4,2,1,50,0,0
26252,-124.999999999999,4,2,1,50,0,0
27080,-58.8235294117647,4,2,1,50,0,0
27106,-1000,4,2,1,50,0,0
27132,-58.8235294117647,4,2,1,50,0,0
27158,-1000,4,2,1,50,0,0
27183,-58.8235294117647,4,2,1,50,0,0
27209,-1000,4,2,1,50,0,0
27235,-58.8235294117647,4,2,1,50,0,0
27261,-2000,4,2,1,50,0,0
27287,-111.111111111111,4,2,1,50,0,0
28114,-66.6666666666667,4,2,1,50,0,0
28321,-100,4,2,1,50,0,0
29770,-97.5609756097561,4,2,1,50,0,0
31425,-95.2380952380952,4,2,1,50,0,0
32252,-90.9090909090909,4,2,1,50,0,0
33080,-50,4,2,1,50,0,0
33106,-149.992500374981,4,2,1,50,0,0
33183,-66.6666666666667,4,2,1,50,0,0
33209,-200,4,2,1,50,0,0
33235,-66.6666666666667,4,2,1,50,0,0
33261,-200,4,2,1,50,0,0
33287,-66.6666666666667,4,2,1,50,0,0
33339,-200,4,2,1,50,0,0
33390,-50,4,2,1,50,0,0
33416,-149.992500374981,4,2,1,50,0,0
33494,-66.6666666666667,4,2,1,50,0,0
33545,-200,4,2,1,50,0,0
33597,-66.6666666666667,4,2,1,50,0,0
33649,-200,4,2,1,50,0,0
33701,-50,4,2,1,50,0,0
33727,-149.992500374981,4,2,1,50,0,0
33804,-50,4,2,1,50,0,0
33830,-149.992500374981,4,2,1,50,0,0
33908,-66.6666666666667,4,2,1,50,0,0
33959,-200,4,2,1,50,0,0
34011,-33.3333333333333,4,2,1,50,0,0
34037,-300.3003003003,4,2,1,50,0,0
34114,-40,4,2,1,50,0,0
34140,-200,4,2,1,50,0,0
34218,-50,4,2,1,50,0,0
34244,-149.992500374981,4,2,1,50,0,0
34321,-50,4,2,1,50,0,0
34356,-10000,4,2,1,50,0,0
34390,-51.2820512820513,4,2,1,50,0,0
34425,-2000,4,2,1,50,0,0
34459,-52.6315789473684,4,2,1,50,0,0
34494,-1000,4,2,1,50,0,0
34528,-33.3333333333333,4,2,1,50,0,0
34554,-303.030303030303,4,2,1,50,0,0
34632,-50,4,2,1,50,0,0
34666,-149.992500374981,4,2,1,50,0,0
34735,-44.4444444444445,4,2,1,50,0,0
34761,-10000,4,2,1,50,0,0
34787,-44.4444444444445,4,2,1,50,0,0
34813,-10000,4,2,1,50,0,0
34839,-50,4,2,1,50,0,0
34873,-10000,4,2,1,50,0,0
34908,-50,4,2,1,50,0,0
34942,-10000,4,2,1,50,0,0
34977,-50,4,2,1,50,0,0
35011,-10000,4,2,1,50,0,0
35045,-100,4,2,1,50,0,0
35356,-44.4444444444445,4,2,1,50,0,0
35382,-10000,4,2,1,50,0,0
35408,-44.4444444444445,4,2,1,50,0,0
35433,-10000,4,2,1,50,0,0
35459,-50,4,2,1,50,0,0
35494,-10000,4,2,1,50,0,0
35528,-50,4,2,1,50,0,0
35563,-10000,4,2,1,50,0,0
35597,-50,4,2,1,50,0,0
35632,-10000,4,2,1,50,0,0
35666,-100,4,2,1,50,0,0
35770,-44.4444444444445,4,2,1,50,0,0
35795,-10000,4,2,1,50,0,0
35821,-44.4444444444445,4,2,1,50,0,0
35847,-10000,4,2,1,50,0,0
35873,-50,4,2,1,50,0,0
35899,-10000,4,2,1,50,0,0
35925,-50,4,2,1,50,0,0
35951,-10000,4,2,1,50,0,0
35977,-100,4,2,1,50,0,0
36080,-44.4444444444445,4,2,1,50,0,0
36106,-10000,4,2,1,50,0,0
36132,-44.4444444444445,4,2,1,50,0,0
36158,-10000,4,2,1,50,0,0
36183,-50,4,2,1,50,0,0
36209,-10000,4,2,1,50,0,0
36235,-50,4,2,1,50,0,0
36261,-10000,4,2,1,50,0,0
36287,-100,4,2,1,50,0,0
36390,-44.4444444444445,4,2,1,50,0,0
36416,-10000,4,2,1,50,0,0
36442,-44.4444444444445,4,2,1,50,0,0
36468,-10000,4,2,1,50,0,0
36494,-50,4,2,1,50,0,0
36528,-10000,4,2,1,50,0,0
36563,-50,4,2,1,50,0,0
36597,-10000,4,2,1,50,0,0
36632,-50,4,2,1,50,0,0
36666,-10000,4,2,1,50,0,0
36700,-100,4,2,1,50,0,0
37011,-44.4444444444445,4,2,1,50,0,0
37037,-10000,4,2,1,50,0,0
37063,-44.4444444444445,4,2,1,50,0,0
37088,-10000,4,2,1,50,0,0
37114,-50,4,2,1,50,0,0
37149,-10000,4,2,1,50,0,0
37183,-50,4,2,1,50,0,0
37218,-10000,4,2,1,50,0,0
37252,-50,4,2,1,50,0,0
37287,-10000,4,2,1,50,0,0
37321,-100,4,2,1,50,0,0
37425,-44.4444444444445,4,2,1,50,0,0
37450,-10000,4,2,1,50,0,0
37476,-44.4444444444445,4,2,1,50,0,0
37502,-10000,4,2,1,50,0,0
37528,-50,4,2,1,50,0,0
37554,-10000,4,2,1,50,0,0
37580,-50,4,2,1,50,0,0
37606,-10000,4,2,1,50,0,0
37632,-100,4,2,1,50,0,0
37735,-44.4444444444445,4,2,1,50,0,0
37761,-10000,4,2,1,50,0,0
37787,-44.4444444444445,4,2,1,50,0,0
37813,-10000,4,2,1,50,0,0
37838,-50,4,2,1,50,0,0
37864,-10000,4,2,1,50,0,0
37890,-50,4,2,1,50,0,0
37916,-10000,4,2,1,50,0,0
37942,-100,4,2,1,50,0,0
38045,-44.4444444444445,4,2,1,50,0,0
38071,-10000,4,2,1,50,0,0
38097,-44.4444444444445,4,2,1,50,0,0
38123,-10000,4,2,1,50,0,0
38149,-50,4,2,1,50,0,0
38183,-10000,4,2,1,50,0,0
38218,-50,4,2,1,50,0,0
38252,-10000,4,2,1,50,0,0
38287,-50,4,2,1,50,0,0
38321,-10000,4,2,1,50,0,0
38355,-100,4,2,1,50,0,0
38666,-44.4444444444445,4,2,1,50,0,0
38692,-10000,4,2,1,50,0,0
38718,-44.4444444444445,4,2,1,50,0,0
38743,-10000,4,2,1,50,0,0
38769,-50,4,2,1,50,0,0
38804,-10000,4,2,1,50,0,0
38838,-50,4,2,1,50,0,0
38873,-10000,4,2,1,50,0,0
38907,-50,4,2,1,50,0,0
38942,-10000,4,2,1,50,0,0
38976,-100,4,2,1,50,0,0
39080,-62.5,4,2,1,50,0,0
39132,-250,4,2,1,50,0,0
39183,-55.5555555555556,4,2,1,50,0,0
39235,-500,4,2,1,50,0,0
39287,-50,4,2,1,50,0,0
39339,-100,4,2,1,50,0,0
39390,-200,4,2,1,50,0,0
39442,-400,4,2,1,50,0,0
39494,-66.6666666666667,4,2,1,50,0,0
39545,-200,4,2,1,50,0,0
39597,-57.1428571428571,4,2,1,50,0,0
39649,-400,4,2,1,50,0,0
39701,-66.6666666666667,4,2,1,50,0,0
39752,-200,4,2,1,50,0,0
39804,-57.1428571428571,4,2,1,50,0,0
39856,-400,4,2,1,50,0,0
39908,-52.6315789473684,4,2,1,50,0,0
39933,-10000,4,2,1,50,0,0
39959,-52.6315789473684,4,2,1,50,0,0
39984,-10000,4,2,1,50,0,0
40011,-52.6315789473684,4,2,1,50,0,0
40036,-10000,4,2,1,50,0,0
40063,-52.6315789473684,4,2,1,50,0,0
40088,-10000,4,2,1,50,0,0
40114,-33.3333333333333,4,2,1,50,0,0
40149,-303.030303030303,4,2,1,50,0,0
40252,-100,4,2,1,50,0,0
40321,-50,4,2,1,50,0,0
40347,-149.253731343284,4,2,1,50,0,0
40425,-100,4,2,1,50,0,0
40528,-40,4,2,1,50,0,0
40554,-200,4,2,1,50,0,0
40632,-100,4,2,1,50,0,0
40735,-33.3333333333333,4,2,1,50,0,0
40761,-300.3003003003,4,2,1,50,0,0
40839,-100,4,2,1,50,0,0
40942,-33.3333333333333,4,2,1,50,0,0
40968,-400,4,2,1,50,0,0
41045,-33.3333333333333,4,2,1,50,0,0
41071,-400,4,2,1,50,0,0
41149,-33.3333333333333,4,2,1,50,0,0
41175,-400,4,2,1,50,0,0
41252,-33.3333333333333,4,2,1,50,0,0
41278,-400,4,2,1,50,0,0
41356,-10000,4,2,1,50,0,0
41382,-33.3333333333333,4,2,1,50,0,0
41408,-10000,4,2,1,50,0,0
41433,-100,4,2,1,50,0,0
41459,-50,4,2,1,50,0,0
41485,-149.992500374981,4,2,1,50,0,0
41563,-50,4,2,1,50,0,0
41589,-149.992500374981,4,2,1,50,0,0
41666,-50,4,2,1,50,0,0
41692,-149.992500374981,4,2,1,50,0,0
41770,-50,4,2,1,50,0,0
41796,-149.992500374981,4,2,1,50,0,0
41873,-50,4,2,1,50,0,0
41899,-149.992500374981,4,2,1,50,0,0
41977,-10000,4,2,1,50,0,0
42002,-33.3333333333333,4,2,1,50,0,0
42028,-10000,4,2,1,50,0,0
42054,-100,4,2,1,50,0,0
42080,-50,4,2,1,50,0,0
42106,-149.992500374981,4,2,1,50,0,0
42183,-50,4,2,1,50,0,0
42209,-149.992500374981,4,2,1,50,0,0
42287,-50,4,2,1,50,0,0
42313,-149.992500374981,4,2,1,50,0,0
42390,-10000,4,2,1,50,0,0
42416,-33.3333333333333,4,2,1,50,0,0
42442,-10000,4,2,1,50,0,0
42468,-100,4,2,1,50,0,0
42494,-50,4,2,1,50,0,0
42520,-149.992500374981,4,2,1,50,0,0
42597,-50,4,2,1,50,0,0
42623,-149.992500374981,4,2,1,50,0,0
42701,-10000,4,2,1,50,0,0
42727,-33.3333333333333,4,2,1,50,0,0
42752,-10000,4,2,1,50,0,0
42778,-100,4,2,1,50,0,0
43011,-10000,4,2,1,50,0,0
43037,-33.3333333333333,4,2,1,50,0,0
43063,-10000,4,2,1,50,0,0
43089,-100,4,2,1,50,0,0
43114,-50,4,2,1,50,0,0
43140,-149.992500374981,4,2,1,50,0,0
43218,-50,4,2,1,50,0,0
43244,-149.992500374981,4,2,1,50,0,0
43321,-50,4,2,1,50,0,0
43347,-149.992500374981,4,2,1,50,0,0
43425,-50,4,2,1,50,0,0
43451,-149.992500374981,4,2,1,50,0,0
43528,-50,4,2,1,50,0,0
43554,-149.992500374981,4,2,1,50,0,0
43632,-10000,4,2,1,50,0,0
43658,-33.3333333333333,4,2,1,50,0,0
43683,-10000,4,2,1,50,0,0
43709,-100,4,2,1,50,0,0
43735,-50,4,2,1,50,0,0
43761,-149.992500374981,4,2,1,50,0,0
43839,-50,4,2,1,50,0,0
43865,-149.992500374981,4,2,1,50,0,0
43942,-50,4,2,1,50,0,0
43968,-149.992500374981,4,2,1,50,0,0
44045,-10000,4,2,1,50,0,0
44071,-33.3333333333333,4,2,1,50,0,0
44097,-10000,4,2,1,50,0,0
44123,-100,4,2,1,50,0,0
44149,-50,4,2,1,50,0,0
44175,-149.992500374981,4,2,1,50,0,0
44252,-50,4,2,1,50,0,0
44278,-149.992500374981,4,2,1,50,0,0
44356,-10000,4,2,1,50,0,0
44382,-33.3333333333333,4,2,1,50,0,0
44408,-10000,4,2,1,50,0,0
44433,-100,4,2,1,50,0,0
44666,-10000,4,2,1,50,0,0
44692,-33.3333333333333,4,2,1,50,0,0
44718,-1000,4,2,1,50,0,0
44744,-100,4,2,1,50,0,0
44770,-50,4,2,1,50,0,0
44796,-149.992500374981,4,2,1,50,0,0
44873,-50,4,2,1,50,0,0
44899,-149.992500374981,4,2,1,50,0,0
44977,-50,4,2,1,50,0,0
45003,-149.992500374981,4,2,1,50,0,0
45080,-50,4,2,1,50,0,0
45106,-149.992500374981,4,2,1,50,0,0
45183,-50,4,2,1,50,0,0
45209,-149.992500374981,4,2,1,50,0,0
45287,-10000,4,2,1,50,0,0
45313,-33.3333333333333,4,2,1,50,0,0
45339,-10000,4,2,1,50,0,0
45364,-100,4,2,1,50,0,0
45390,-50,4,2,1,50,0,0
45416,-149.992500374981,4,2,1,50,0,0
45494,-50,4,2,1,50,0,0
45520,-149.992500374981,4,2,1,50,0,0
45597,-50,4,2,1,50,0,0
45623,-149.992500374981,4,2,1,50,0,0
45701,-10000,4,2,1,50,0,0
45727,-33.3333333333333,4,2,1,50,0,0
45752,-10000,4,2,1,50,0,0
45778,-100,4,2,1,50,0,0
45804,-50,4,2,1,50,0,0
45830,-149.992500374981,4,2,1,50,0,0
45908,-50,4,2,1,50,0,0
45933,-10000,4,2,1,50,0,0
45959,-50,4,2,1,50,0,0
45985,-10000,4,2,1,50,0,0
46011,-50,4,2,1,50,0,0
46037,-10000,4,2,1,50,0,0
46063,-50,4,2,1,50,0,0
46089,-10000,4,2,1,50,0,0
46114,-100,4,2,1,50,0,0
46321,-66.6666666666667,4,2,1,50,0,0
46373,-200,4,2,1,50,0,0
46425,-66.6666666666667,4,2,1,50,0,0
46477,-200,4,2,1,50,0,0
46528,-66.6666666666667,4,2,1,50,0,0
46580,-200,4,2,1,50,0,0
46632,-66.6666666666667,4,2,1,50,0,0
46683,-200,4,2,1,50,0,0
46735,-66.6666666666667,4,2,1,50,0,0
46787,-200,4,2,1,50,0,0
46839,-66.6666666666667,4,2,1,50,0,0
46890,-200,4,2,1,50,0,0
46942,-66.6666666666667,4,2,1,50,0,0
46994,-200,4,2,1,50,0,0
47045,-66.6666666666667,4,2,1,50,0,0
47097,-200,4,2,1,50,0,0
47149,-66.6666666666667,4,2,1,50,0,0
47201,-200,4,2,1,50,0,0
47252,-66.6666666666667,4,2,1,50,0,0
47304,-200,4,2,1,50,0,0
47356,-100,4,2,1,50,0,0
47563,-41.6666666666667,4,2,1,50,0,0
47614,-55.5555555555556,4,2,1,50,0,0
47666,-83.3333333333333,4,2,1,50,0,0
47718,-100,4,2,1,50,0,0
47770,-125,4,2,1,50,0,0
47821,-166.666666666667,4,2,1,50,0,0
47873,-200,4,2,1,50,0,0
47977,-44.4444444444445,4,2,1,50,0,0
48003,-10000,4,2,1,50,0,0
48029,-44.4444444444445,4,2,1,50,0,0
48055,-10000,4,2,1,50,0,0
48081,-50,4,2,1,50,0,0
48115,-10000,4,2,1,50,0,0
48150,-50,4,2,1,50,0,0
48184,-10000,4,2,1,50,0,0
48219,-50,4,2,1,50,0,0
48253,-10000,4,2,1,50,0,0
48287,-100,4,2,1,50,0,0
48598,-44.4444444444445,4,2,1,50,0,0
48624,-10000,4,2,1,50,0,0
48650,-44.4444444444445,4,2,1,50,0,0
48675,-10000,4,2,1,50,0,0
48701,-50,4,2,1,50,0,0
48736,-10000,4,2,1,50,0,0
48770,-50,4,2,1,50,0,0
48805,-10000,4,2,1,50,0,0
48839,-50,4,2,1,50,0,0
48874,-10000,4,2,1,50,0,0
48908,-100,4,2,1,50,0,0
49012,-44.4444444444445,4,2,1,50,0,0
49037,-10000,4,2,1,50,0,0
49063,-44.4444444444445,4,2,1,50,0,0
49089,-10000,4,2,1,50,0,0
49115,-50,4,2,1,50,0,0
49141,-10000,4,2,1,50,0,0
49167,-50,4,2,1,50,0,0
49193,-10000,4,2,1,50,0,0
49219,-100,4,2,1,50,0,0
49322,-44.4444444444445,4,2,1,50,0,0
49348,-10000,4,2,1,50,0,0
49374,-44.4444444444445,4,2,1,50,0,0
49400,-10000,4,2,1,50,0,0
49425,-50,4,2,1,50,0,0
49451,-10000,4,2,1,50,0,0
49477,-50,4,2,1,50,0,0
49503,-10000,4,2,1,50,0,0
49529,-100,4,2,1,50,0,0
49632,-44.4444444444445,4,2,1,50,0,0
49658,-10000,4,2,1,50,0,0
49684,-44.4444444444445,4,2,1,50,0,0
49710,-10000,4,2,1,50,0,0
49736,-50,4,2,1,50,0,0
49770,-10000,4,2,1,50,0,0
49805,-50,4,2,1,50,0,0
49839,-10000,4,2,1,50,0,0
49874,-50,4,2,1,50,0,0
49908,-10000,4,2,1,50,0,0
49942,-100,4,2,1,50,0,0
50253,-44.4444444444445,4,2,1,50,0,0
50279,-10000,4,2,1,50,0,0
50305,-44.4444444444445,4,2,1,50,0,0
50330,-10000,4,2,1,50,0,0
50356,-50,4,2,1,50,0,0
50391,-10000,4,2,1,50,0,0
50425,-50,4,2,1,50,0,0
50460,-10000,4,2,1,50,0,0
50494,-50,4,2,1,50,0,0
50529,-10000,4,2,1,50,0,0
50563,-100,4,2,1,50,0,0
50667,-44.4444444444445,4,2,1,50,0,0
50692,-10000,4,2,1,50,0,0
50718,-44.4444444444445,4,2,1,50,0,0
50744,-10000,4,2,1,50,0,0
50770,-50,4,2,1,50,0,0
50796,-10000,4,2,1,50,0,0
50822,-50,4,2,1,50,0,0
50848,-10000,4,2,1,50,0,0
50874,-100,4,2,1,50,0,0
50977,-44.4444444444445,4,2,1,50,0,0
51003,-10000,4,2,1,50,0,0
51029,-44.4444444444445,4,2,1,50,0,0
51055,-10000,4,2,1,50,0,0
51080,-50,4,2,1,50,0,0
51106,-10000,4,2,1,50,0,0
51132,-50,4,2,1,50,0,0
51158,-10000,4,2,1,50,0,0
51184,-100,4,2,1,50,0,0
51287,-44.4444444444445,4,2,1,50,0,0
51313,-10000,4,2,1,50,0,0
51339,-44.4444444444445,4,2,1,50,0,0
51365,-10000,4,2,1,50,0,0
51391,-50,4,2,1,50,0,0
51425,-10000,4,2,1,50,0,0
51460,-50,4,2,1,50,0,0
51494,-10000,4,2,1,50,0,0
51529,-50,4,2,1,50,0,0
51563,-10000,4,2,1,50,0,0
51597,-100,4,2,1,50,0,0
51908,-44.4444444444445,4,2,1,50,0,0
51934,-10000,4,2,1,50,0,0
51960,-44.4444444444445,4,2,1,50,0,0
51985,-10000,4,2,1,50,0,0
52011,-50,4,2,1,50,0,0
52046,-10000,4,2,1,50,0,0
52080,-50,4,2,1,50,0,0
52115,-10000,4,2,1,50,0,0
52149,-50,4,2,1,50,0,0
52184,-10000,4,2,1,50,0,0
52218,-100,4,2,1,50,0,0
52322,-62.5,4,2,1,50,0,0
52374,-250,4,2,1,50,0,0
52425,-55.5555555555556,4,2,1,50,0,0
52477,-500,4,2,1,50,0,0
52528,-50,4,2,1,50,0,0
52580,-100,4,2,1,50,0,0
52631,-200,4,2,1,50,0,0
52683,-400,4,2,1,50,0,0
52735,-50,4,2,1,50,0,0
52761,-10000,4,2,1,50,0,0
52787,-50,4,2,1,50,0,0
52813,-10000,4,2,1,50,0,0
52839,-55.5555555555556,4,2,1,50,0,0
52864,-10000,4,2,1,50,0,0
52890,-55.5555555555556,4,2,1,50,0,0
52916,-10000,4,2,1,50,0,0
52942,-55.5555555555556,4,2,1,50,0,0
52968,-10000,4,2,1,50,0,0
52994,-55.5555555555556,4,2,1,50,0,0
53020,-10000,4,2,1,50,0,0
53045,-55.5555555555556,4,2,1,50,0,0
53071,-10000,4,2,1,50,0,0
53097,-55.5555555555556,4,2,1,50,0,0
53123,-10000,4,2,1,50,0,0
53149,-58.8235294117647,4,2,1,50,0,0
53183,-333.333333333333,4,2,1,50,0,0
53218,-55.5555555555556,4,2,1,50,0,0
53252,-500,4,2,1,50,0,0
53287,-52.6315789473684,4,2,1,50,0,0
53321,-1000,4,2,1,50,0,0
53356,-33.3333333333333,4,2,1,50,0,0
53391,-300.3003003003,4,2,1,50,0,0
53494,-100,4,2,1,50,0,0
53563,-50,4,2,1,50,0,0
53589,-149.992500374981,4,2,1,50,0,0
53667,-100,4,2,1,50,0,0
53770,-40,4,2,1,50,0,0
53796,-200,4,2,1,50,0,0
53874,-100,4,2,1,50,0,0
53977,-33.3333333333333,4,2,1,50,0,0
54003,-300.3003003003,4,2,1,50,0,0
54081,-100,4,2,1,50,0,0
54183,-33.3333333333333,4,2,1,50,0,0
54209,-400,4,2,1,50,0,0
54287,-33.3333333333333,4,2,1,50,0,0
54313,-400,4,2,1,50,0,0
54390,-40.8163265306122,4,2,1,50,0,0
54416,-3333.33333333333,4,2,1,50,0,0
54442,-40.8163265306122,4,2,1,50,0,0
54468,-3333.33333333333,4,2,1,50,0,0
54494,-40.8163265306122,4,2,1,50,0,0
54520,-3333.33333333333,4,2,1,50,0,0
54545,-40.8163265306122,4,2,1,50,0,0
54571,-3333.33333333333,4,2,1,50,0,0
54597,-10000,4,2,1,50,0,0
54623,-33.3333333333333,4,2,1,50,0,0
54649,-10000,4,2,1,50,0,0
54674,-100,4,2,1,50,0,0
54700,-33.3333333333333,4,2,1,50,0,0
54726,-303.030303030303,4,2,1,50,0,0
54804,-33.3333333333333,4,2,1,50,0,0
54830,-303.030303030303,4,2,1,50,0,0
54907,-33.3333333333333,4,2,1,50,0,0
54933,-303.030303030303,4,2,1,50,0,0
55011,-33.3333333333333,4,2,1,50,0,0
55037,-303.030303030303,4,2,1,50,0,0
55114,-33.3333333333333,4,2,1,50,0,0
55140,-303.030303030303,4,2,1,50,0,0
55218,-10000,4,2,1,50,0,0
55243,-33.3333333333333,4,2,1,50,0,0
55269,-10000,4,2,1,50,0,0
55295,-100,4,2,1,50,0,0
55321,-33.3333333333333,4,2,1,50,0,0
55347,-303.030303030303,4,2,1,50,0,0
55424,-33.3333333333333,4,2,1,50,0,0
55450,-303.030303030303,4,2,1,50,0,0
55528,-33.3333333333333,4,2,1,50,0,0
55554,-303.030303030303,4,2,1,50,0,0
55631,-10000,4,2,1,50,0,0
55657,-33.3333333333333,4,2,1,50,0,0
55683,-10000,4,2,1,50,0,0
55709,-100,4,2,1,50,0,0
55735,-33.3333333333333,4,2,1,50,0,0
55761,-303.030303030303,4,2,1,50,0,0
55838,-33.3333333333333,4,2,1,50,0,0
55864,-303.030303030303,4,2,1,50,0,0
55942,-10000,4,2,1,50,0,0
55968,-33.3333333333333,4,2,1,50,0,0
55993,-10000,4,2,1,50,0,0
56019,-100,4,2,1,50,0,0
56252,-10000,4,2,1,50,0,0
56278,-33.3333333333333,4,2,1,50,0,0
56304,-10000,4,2,1,50,0,0
56330,-100,4,2,1,50,0,0
56355,-40,4,2,1,50,0,0
56381,-200,4,2,1,50,0,0
56459,-40,4,2,1,50,0,0
56485,-200,4,2,1,50,0,0
56562,-40,4,2,1,50,0,0
56588,-200,4,2,1,50,0,0
56666,-40,4,2,1,50,0,0
56692,-200,4,2,1,50,0,0
56769,-40,4,2,1,50,0,0
56795,-200,4,2,1,50,0,0
56873,-10000,4,2,1,50,0,0
56899,-33.3333333333333,4,2,1,50,0,0
56924,-10000,4,2,1,50,0,0
56950,-100,4,2,1,50,0,0
56976,-40,4,2,1,50,0,0
57002,-200,4,2,1,50,0,0
57080,-40,4,2,1,50,0,0
57106,-200,4,2,1,50,0,0
57183,-40,4,2,1,50,0,0
57209,-200,4,2,1,50,0,0
57286,-10000,4,2,1,50,0,0
57312,-33.3333333333333,4,2,1,50,0,0
57338,-10000,4,2,1,50,0,0
57364,-100,4,2,1,50,0,0
57390,-40,4,2,1,50,0,0
57416,-200,4,2,1,50,0,0
57493,-40,4,2,1,50,0,0
57519,-200,4,2,1,50,0,0
57597,-10000,4,2,1,50,0,0
57623,-33.3333333333333,4,2,1,50,0,0
57649,-10000,4,2,1,50,0,0
57674,-100,4,2,1,50,0,0
57907,-10000,4,2,1,50,0,0
57933,-33.3333333333333,4,2,1,50,0,0
57959,-1000,4,2,1,50,0,0
57985,-100,4,2,1,50,0,0
58011,-50,4,2,1,50,0,0
58037,-149.992500374981,4,2,1,50,0,0
58114,-50,4,2,1,50,0,0
58140,-149.992500374981,4,2,1,50,0,0
58218,-50,4,2,1,50,0,0
58244,-149.992500374981,4,2,1,50,0,0
58321,-50,4,2,1,50,0,0
58347,-149.992500374981,4,2,1,50,0,0
58424,-50,4,2,1,50,0,0
58450,-149.992500374981,4,2,1,50,0,0
58528,-10000,4,2,1,50,0,0
58554,-33.3333333333333,4,2,1,50,0,0
58580,-10000,4,2,1,50,0,0
58605,-100,4,2,1,50,0,0
58631,-50,4,2,1,50,0,0
58657,-149.992500374981,4,2,1,50,0,0
58735,-50,4,2,1,50,0,0
58761,-149.992500374981,4,2,1,50,0,0
58838,-50,4,2,1,50,0,0
58864,-149.992500374981,4,2,1,50,0,0
58942,-10000,4,2,1,50,0,0
58968,-33.3333333333333,4,2,1,50,0,0
58993,-10000,4,2,1,50,0,0
59019,-100,4,2,1,50,0,0
59045,-50,4,2,1,50,0,0
59071,-149.992500374981,4,2,1,50,0,0
59149,-50,4,2,1,50,0,0
59175,-149.992500374981,4,2,1,50,0,0
59252,-50,4,2,1,50,0,0
59278,-149.992500374981,4,2,1,50,0,0
59356,-50,4,2,1,50,0,0
59382,-149.992500374981,4,2,1,50,0,0
59459,-50,4,2,1,50,0,0
59485,-149.992500374981,4,2,1,50,0,0
59563,-33.3333333333333,4,2,1,50,0,0
59614,-303.030303030303,4,2,1,50,0,0
59770,-50,4,2,1,50,0,0
59821,-149.992500374981,4,2,1,50,0,0
59977,-33.3333333333333,4,2,1,50,0,0
60002,-300.3003003003,4,2,1,50,0,0
60080,-33.3333333333333,4,2,1,50,0,0
60106,-300.3003003003,4,2,1,50,0,0
60183,-33.3333333333333,4,2,1,50,0,0
60209,-300.3003003003,4,2,1,50,0,0
60287,-33.3333333333333,4,2,1,50,0,0
60313,-300.3003003003,4,2,1,50,0,0
60390,-33.3333333333333,4,2,1,50,0,0
60416,-300.3003003003,4,2,1,50,0,0
60494,-33.3333333333333,4,2,1,50,0,0
60520,-300.3003003003,4,2,1,50,0,0
60597,-50,4,2,1,50,0,0
60649,-149.992500374981,4,2,1,50,0,0
60804,-40,4,2,1,50,0,0
60830,-200,4,2,1,50,0,0
60908,-40,4,2,1,50,0,0
60933,-200,4,2,1,50,0,0
61011,-40,4,2,1,50,0,0
61037,-200,4,2,1,50,0,0
61114,-40,4,2,1,50,0,0
61140,-200,4,2,1,50,0,0
61218,-111.111111111111,4,2,1,50,0,0
62873,-100,4,2,1,50,0,0
62977,-111.111111111111,4,2,1,50,0,0
63183,-100,4,2,1,50,0,0
63287,-111.111111111111,4,2,1,50,0,0
63494,-100,4,2,1,50,0,0
63597,-111.111111111111,4,2,1,50,0,0
63804,-100,4,2,1,50,0,0
63908,-111.111111111111,4,2,1,50,0,0
64114,-100,4,2,1,50,0,0
64218,-111.111111111111,4,2,1,50,0,0
69494,-100,4,2,1,50,0,0
69597,-111.111111111111,4,2,1,50,0,0
69804,-100,4,2,1,50,0,0
69908,-111.111111111111,4,2,1,50,0,0
70114,-100,4,2,1,50,0,0
70218,-111.111111111111,4,2,1,50,0,0
70425,-100,4,2,1,50,0,0
70528,-111.111111111111,4,2,1,50,0,0
70735,-100,4,2,1,50,0,0
70839,-111.111111111111,4,2,1,50,0,0
73218,-80,4,2,1,50,0,0
73270,-133.333333333333,4,2,1,50,0,0
73321,-80,4,2,1,50,0,0
73373,-133.333333333333,4,2,1,50,0,0
73425,-80,4,2,1,50,0,0
73477,-133.333333333333,4,2,1,50,0,0
73528,-80,4,2,1,50,0,0
73580,-133.333333333333,4,2,1,50,0,0
73632,-66.6666666666667,4,2,1,50,0,0
73683,-200,4,2,1,50,0,0
73735,-66.6666666666667,4,2,1,50,0,0
73787,-200,4,2,1,50,0,0
73839,-66.6666666666667,4,2,1,50,0,0
73890,-200,4,2,1,50,0,0
73942,-57.1428571428571,4,2,1,50,0,0
73994,-400,4,2,1,50,0,0
74045,-57.1428571428571,4,2,1,50,0,0
74097,-400,4,2,1,50,0,0
74149,-50,4,2,1,50,0,0
74201,-10000,4,2,1,50,0,0
74252,-50,4,2,1,50,0,0
74304,-10000,4,2,1,50,0,0
74356,-66.6666666666667,4,2,1,50,0,0
74408,-200,4,2,1,50,0,0
74459,-100,4,2,1,50,0,0
76114,-86.9565217391304,4,2,1,50,0,0
76218,-100,4,2,1,50,0,0
76425,-86.9565217391304,4,2,1,50,0,0
76528,-100,4,2,1,50,0,0
76735,-86.9565217391304,4,2,1,50,0,0
76839,-100,4,2,1,50,0,0
77045,-86.9565217391304,4,2,1,50,0,0
77149,-100,4,2,1,50,0,0
77356,-86.9565217391304,4,2,1,50,0,0
77459,-100,4,2,1,50,0,0
82735,-86.9565217391304,4,2,1,50,0,0
82839,-100,4,2,1,50,0,0
83045,-86.9565217391304,4,2,1,50,0,0
83149,-100,4,2,1,50,0,0
83356,-86.9565217391304,4,2,1,50,0,0
83459,-100,4,2,1,50,0,0
83666,-86.9565217391304,4,2,1,50,0,0
83770,-100,4,2,1,50,0,0
83977,-86.9565217391304,4,2,1,50,0,0
84080,-100,4,2,1,50,0,0
86045,-80,4,2,1,50,0,0
86097,-133.333333333333,4,2,1,50,0,0
86149,-80,4,2,1,50,0,0
86201,-133.333333333333,4,2,1,50,0,0
86252,-80,4,2,1,50,0,0
86304,-133.333333333333,4,2,1,50,0,0
86356,-80,4,2,1,50,0,0
86408,-133.333333333333,4,2,1,50,0,0
86459,-80,4,2,1,50,0,0
86511,-133.333333333333,4,2,1,50,0,0
86563,-80,4,2,1,50,0,0
86614,-133.333333333333,4,2,1,50,0,0
86666,-80,4,2,1,50,0,0
86718,-133.333333333333,4,2,1,50,0,0
86770,-80,4,2,1,50,0,0
86821,-133.333333333333,4,2,1,50,0,0
86873,-66.6666666666667,4,2,1,50,0,0
86925,-200,4,2,1,50,0,0
86977,-66.6666666666667,4,2,1,50,0,0
87028,-200,4,2,1,50,0,0
87080,-66.6666666666667,4,2,1,50,0,0
87132,-200,4,2,1,50,0,0
87183,-66.6666666666667,4,2,1,50,0,0
87235,-200,4,2,1,50,0,0
87287,-57.1428571428571,4,2,1,50,0,0
87339,-400,4,2,1,50,0,0
87390,-57.1428571428571,4,2,1,50,0,0
87442,-400,4,2,1,50,0,0
87494,-57.1428571428571,4,2,1,50,0,0
87545,-400,4,2,1,50,0,0
87597,-57.1428571428571,4,2,1,50,0,0
87649,-400,4,2,1,50,0,0
87701,-50,4,2,1,50,0,0
87727,-10000,4,2,1,50,0,0
87752,-50,4,2,1,50,0,0
87778,-10000,4,2,1,50,0,0
87804,-100,4,2,1,50,0,0
88011,-50,4,2,1,50,0,0
88037,-10000,4,2,1,50,0,0
88063,-50,4,2,1,50,0,0
88089,-10000,4,2,1,50,0,0
88114,-100,4,2,1,50,0,0
88321,-50,4,2,1,50,0,0
88347,-10000,4,2,1,50,0,0
88373,-50,4,2,1,50,0,0
88399,-10000,4,2,1,50,0,0
88425,-52.6315789473684,4,2,1,50,0,0
88451,-1000,4,2,1,50,0,0
88477,-52.6315789473684,4,2,1,50,0,0
88502,-1000,4,2,1,50,0,0
88528,-55.5555555555556,4,2,1,50,0,0
88554,-500,4,2,1,50,0,0
88580,-55.5555555555556,4,2,1,50,0,0
88606,-500,4,2,1,50,0,0
88632,-58.8235294117647,4,2,1,50,0,0
88658,-333.333333333333,4,2,1,50,0,0
88683,-58.8235294117647,4,2,1,50,0,0
88709,-333.333333333333,4,2,1,50,0,0
88735,-62.5,4,2,1,50,0,0
88761,-250,4,2,1,50,0,0
88787,-62.5,4,2,1,50,0,0
88813,-250,4,2,1,50,0,0
88839,-66.6666666666667,4,2,1,50,0,0
88864,-200,4,2,1,50,0,0
88890,-66.6666666666667,4,2,1,50,0,0
88916,-200,4,2,1,50,0,0
88942,-66.6666666666667,4,2,1,50,0,0
88968,-200,4,2,1,50,0,0
88994,-66.6666666666667,4,2,1,50,0,0
89020,-200,4,2,1,50,0,0
89045,-66.6666666666667,4,2,1,50,0,0
89071,-200,4,2,1,50,0,0
89097,-66.6666666666667,4,2,1,50,0,0
89123,-200,4,2,1,50,0,0
89149,-100,4,2,1,50,0,0
89356,-50,4,2,1,50,0,0
89382,-10000,4,2,1,50,0,0
89407,-50,4,2,1,50,0,0
89433,-10000,4,2,1,50,0,0
89459,-100,4,2,1,50,0,0
89666,-50,4,2,1,50,0,0
89692,-10000,4,2,1,50,0,0
89718,-50,4,2,1,50,0,0
89744,-10000,4,2,1,50,0,0
89769,-100,4,2,1,50,0,0
89977,-50,4,2,1,50,0,0
90002,-10000,4,2,1,50,0,0
90028,-52.6315789473684,4,2,1,50,0,0
90054,-1000,4,2,1,50,0,0
90080,-55.5555555555556,4,2,1,50,0,0
90106,-500,4,2,1,50,0,0
90132,-58.8235294117647,4,2,1,50,0,0
90158,-333.333333333333,4,2,1,50,0,0
90183,-62.5,4,2,1,50,0,0
90209,-250,4,2,1,50,0,0
90235,-66.6666666666667,4,2,1,50,0,0
90261,-200,4,2,1,50,0,0
90287,-66.6666666666667,4,2,1,50,0,0
90313,-200,4,2,1,50,0,0
90339,-66.6666666666667,4,2,1,50,0,0
90364,-200,4,2,1,50,0,0
90390,-66.6666666666667,4,2,1,50,0,0
90416,-200,4,2,1,50,0,0
90442,-66.6666666666667,4,2,1,50,0,0
90468,-200,4,2,1,50,0,0
90494,-100,4,2,1,50,0,0
90597,-40,4,2,1,50,0,0
90623,-200,4,2,1,50,0,0
90701,-40,4,2,1,50,0,0
90727,-200,4,2,1,50,0,0
90804,-66.6666666666667,4,2,1,50,0,0
90856,-200,4,2,1,50,0,0
90908,-40,4,2,1,50,0,0
90933,-200,4,2,1,50,0,0
91011,-50,4,2,1,50,0,0
91037,-10000,4,2,1,50,0,0
91062,-50,4,2,1,50,0,0
91088,-10000,4,2,1,50,0,0
91114,-100,4,2,1,50,0,0
91321,-50,4,2,1,50,0,0
91347,-10000,4,2,1,50,0,0
91373,-50,4,2,1,50,0,0
91399,-10000,4,2,1,50,0,0
91424,-100,4,2,1,50,0,0
91631,-50,4,2,1,50,0,0
91657,-10000,4,2,1,50,0,0
91683,-50,4,2,1,50,0,0
91709,-10000,4,2,1,50,0,0
91735,-52.6315789473684,4,2,1,50,0,0
91761,-1000,4,2,1,50,0,0
91787,-52.6315789473684,4,2,1,50,0,0
91812,-1000,4,2,1,50,0,0
91838,-55.5555555555556,4,2,1,50,0,0
91864,-500,4,2,1,50,0,0
91890,-55.5555555555556,4,2,1,50,0,0
91916,-500,4,2,1,50,0,0
91942,-58.8235294117647,4,2,1,50,0,0
91968,-333.333333333333,4,2,1,50,0,0
91993,-58.8235294117647,4,2,1,50,0,0
92019,-333.333333333333,4,2,1,50,0,0
92045,-62.5,4,2,1,50,0,0
92071,-250,4,2,1,50,0,0
92097,-62.5,4,2,1,50,0,0
92123,-250,4,2,1,50,0,0
92149,-66.6666666666667,4,2,1,50,0,0
92174,-200,4,2,1,50,0,0
92200,-66.6666666666667,4,2,1,50,0,0
92226,-200,4,2,1,50,0,0
92252,-66.6666666666667,4,2,1,50,0,0
92278,-200,4,2,1,50,0,0
92304,-66.6666666666667,4,2,1,50,0,0
92330,-200,4,2,1,50,0,0
92355,-66.6666666666667,4,2,1,50,0,0
92381,-200,4,2,1,50,0,0
92407,-66.6666666666667,4,2,1,50,0,0
92433,-200,4,2,1,50,0,0
92459,-100,4,2,1,50,0,0
92666,-50,4,2,1,50,0,0
92692,-10000,4,2,1,50,0,0
92717,-50,4,2,1,50,0,0
92743,-10000,4,2,1,50,0,0
92769,-100,4,2,1,50,0,0
92976,-50,4,2,1,50,0,0
93002,-10000,4,2,1,50,0,0
93028,-50,4,2,1,50,0,0
93054,-10000,4,2,1,50,0,0
93079,-100,4,2,1,50,0,0
93287,-50,4,2,1,50,0,0
93312,-10000,4,2,1,50,0,0
93338,-52.6315789473684,4,2,1,50,0,0
93364,-1000,4,2,1,50,0,0
93390,-55.5555555555556,4,2,1,50,0,0
93416,-500,4,2,1,50,0,0
93442,-58.8235294117647,4,2,1,50,0,0
93468,-333.333333333333,4,2,1,50,0,0
93493,-62.5,4,2,1,50,0,0
93519,-250,4,2,1,50,0,0
93545,-66.6666666666667,4,2,1,50,0,0
93571,-200,4,2,1,50,0,0
93597,-66.6666666666667,4,2,1,50,0,0
93623,-200,4,2,1,50,0,0
93649,-66.6666666666667,4,2,1,50,0,0
93674,-200,4,2,1,50,0,0
93700,-66.6666666666667,4,2,1,50,0,0
93726,-200,4,2,1,50,0,0
93752,-66.6666666666667,4,2,1,50,0,0
93778,-200,4,2,1,50,0,0
93804,-100,4,2,1,50,0,0
93907,-40,4,2,1,50,0,0
93933,-200,4,2,1,50,0,0
94011,-40,4,2,1,50,0,0
94037,-200,4,2,1,50,0,0
94114,-66.6666666666667,4,2,1,50,0,0
94166,-200,4,2,1,50,0,0
94218,-40,4,2,1,50,0,0
94243,-200,4,2,1,50,0,0
94321,-50,4,2,1,50,0,0
94347,-10000,4,2,1,50,0,0
94372,-50,4,2,1,50,0,0
94398,-10000,4,2,1,50,0,0
94424,-100,4,2,1,50,0,0
94631,-50,4,2,1,50,0,0
94657,-10000,4,2,1,50,0,0
94683,-50,4,2,1,50,0,0
94709,-10000,4,2,1,50,0,0
94734,-100,4,2,1,50,0,0
94941,-50,4,2,1,50,0,0
94967,-10000,4,2,1,50,0,0
94993,-50,4,2,1,50,0,0
95019,-10000,4,2,1,50,0,0
95045,-52.6315789473684,4,2,1,50,0,0
95071,-1000,4,2,1,50,0,0
95097,-52.6315789473684,4,2,1,50,0,0
95122,-1000,4,2,1,50,0,0
95148,-55.5555555555556,4,2,1,50,0,0
95174,-500,4,2,1,50,0,0
95200,-55.5555555555556,4,2,1,50,0,0
95226,-500,4,2,1,50,0,0
95252,-58.8235294117647,4,2,1,50,0,0
95278,-333.333333333333,4,2,1,50,0,0
95303,-58.8235294117647,4,2,1,50,0,0
95329,-333.333333333333,4,2,1,50,0,0
95355,-62.5,4,2,1,50,0,0
95381,-250,4,2,1,50,0,0
95407,-62.5,4,2,1,50,0,0
95433,-250,4,2,1,50,0,0
95459,-66.6666666666667,4,2,1,50,0,0
95484,-200,4,2,1,50,0,0
95510,-66.6666666666667,4,2,1,50,0,0
95536,-200,4,2,1,50,0,0
95562,-66.6666666666667,4,2,1,50,0,0
95588,-200,4,2,1,50,0,0
95614,-66.6666666666667,4,2,1,50,0,0
95640,-200,4,2,1,50,0,0
95665,-66.6666666666667,4,2,1,50,0,0
95691,-200,4,2,1,50,0,0
95717,-66.6666666666667,4,2,1,50,0,0
95743,-200,4,2,1,50,0,0
95769,-100,4,2,1,50,0,0
95976,-50,4,2,1,50,0,0
96002,-10000,4,2,1,50,0,0
96027,-50,4,2,1,50,0,0
96053,-10000,4,2,1,50,0,0
96079,-100,4,2,1,50,0,0
96286,-50,4,2,1,50,0,0
96312,-10000,4,2,1,50,0,0
96338,-50,4,2,1,50,0,0
96364,-10000,4,2,1,50,0,0
96389,-100,4,2,1,50,0,0
96597,-50,4,2,1,50,0,0
96622,-10000,4,2,1,50,0,0
96648,-52.6315789473684,4,2,1,50,0,0
96674,-1000,4,2,1,50,0,0
96700,-55.5555555555556,4,2,1,50,0,0
96726,-500,4,2,1,50,0,0
96752,-58.8235294117647,4,2,1,50,0,0
96778,-333.333333333333,4,2,1,50,0,0
96803,-62.5,4,2,1,50,0,0
96829,-250,4,2,1,50,0,0
96855,-66.6666666666667,4,2,1,50,0,0
96881,-200,4,2,1,50,0,0
96907,-66.6666666666667,4,2,1,50,0,0
96933,-200,4,2,1,50,0,0
96959,-66.6666666666667,4,2,1,50,0,0
96984,-200,4,2,1,50,0,0
97010,-66.6666666666667,4,2,1,50,0,0
97036,-200,4,2,1,50,0,0
97062,-66.6666666666667,4,2,1,50,0,0
97088,-200,4,2,1,50,0,0
97114,-100,4,2,1,50,0,0
97217,-40,4,2,1,50,0,0
97243,-200,4,2,1,50,0,0
97321,-40,4,2,1,50,0,0
97347,-200,4,2,1,50,0,0
97424,-66.6666666666667,4,2,1,50,0,0
97476,-200,4,2,1,50,0,0
97528,-40,4,2,1,50,0,0
97553,-200,4,2,1,50,0,0
97632,-50,4,2,1,50,0,0
97683,-10000,4,2,1,50,0,0
97735,-66.6666666666667,4,2,1,50,0,0
97787,-200,4,2,1,50,0,0
97839,-66.6666666666667,4,2,1,50,0,0
97890,-200,4,2,1,50,0,0
97942,-50,4,2,1,50,0,0
97994,-10000,4,2,1,50,0,0
98045,-100,4,2,1,50,0,0
98252,-50,4,2,1,50,0,0
98304,-10000,4,2,1,50,0,0
98356,-66.6666666666667,4,2,1,50,0,0
98408,-200,4,2,1,50,0,0
98459,-50,4,2,1,50,0,0
98511,-10000,4,2,1,50,0,0
98563,-66.6666666666667,4,2,1,50,0,0
98614,-200,4,2,1,50,0,0
98666,-66.6666666666667,4,2,1,50,0,0
98718,-200,4,2,1,50,0,0
98770,-50,4,2,1,50,0,0
98822,-10000,4,2,1,50,0,0
98873,-57.1428571428571,4,2,1,50,0,0
98925,-400,4,2,1,50,0,0
98977,-57.1428571428571,4,2,1,50,0,0
99028,-400,4,2,1,50,0,0
99080,-50,4,2,1,50,0,0
99132,-10000,4,2,1,50,0,0
99183,-57.1428571428571,4,2,1,50,0,0
99235,-400,4,2,1,50,0,0
99287,-52.6315789473684,4,2,1,50,0,0
99313,-1000,4,2,1,50,0,0
99339,-52.6315789473684,4,2,1,50,0,0
99365,-1000,4,2,1,50,0,0
99390,-52.6315789473684,4,2,1,50,0,0
99416,-1000,4,2,1,50,0,0
99442,-52.6315789473684,4,2,1,50,0,0
99468,-1000,4,2,1,50,0,0
99494,-55.5555555555556,4,2,1,50,0,0
99520,-500,4,2,1,50,0,0
99545,-55.5555555555556,4,2,1,50,0,0
99571,-500,4,2,1,50,0,0
99597,-55.5555555555556,4,2,1,50,0,0
99623,-500,4,2,1,50,0,0
99649,-55.5555555555556,4,2,1,50,0,0
99675,-500,4,2,1,50,0,0
99701,-52.6315789473684,4,2,1,50,0,0
99727,-1000,4,2,1,50,0,0
99753,-52.6315789473684,4,2,1,50,0,0
99779,-1000,4,2,1,50,0,0
99804,-52.6315789473684,4,2,1,50,0,0
99830,-1000,4,2,1,50,0,0
99856,-52.6315789473684,4,2,1,50,0,0
99882,-1000,4,2,1,50,0,0
99908,-55.5555555555556,4,2,1,50,0,0
99934,-500,4,2,1,50,0,0
99959,-55.5555555555556,4,2,1,50,0,0
99985,-500,4,2,1,50,0,0
100011,-55.5555555555556,4,2,1,50,0,0
100037,-500,4,2,1,50,0,0
100063,-55.5555555555556,4,2,1,50,0,0
100089,-500,4,2,1,50,0,0
100114,-52.6315789473684,4,2,1,50,0,0
100140,-1000,4,2,1,50,0,0
100166,-52.6315789473684,4,2,1,50,0,0
100192,-1000,4,2,1,50,0,0
100218,-52.6315789473684,4,2,1,50,0,0
100244,-1000,4,2,1,50,0,0
100270,-52.6315789473684,4,2,1,50,0,0
100296,-1000,4,2,1,50,0,0
100321,-55.5555555555556,4,2,1,50,0,0
100347,-500,4,2,1,50,0,0
100373,-55.5555555555556,4,2,1,50,0,0
100399,-500,4,2,1,50,0,0
100425,-52.6315789473684,4,2,1,50,0,0
100451,-1000,4,2,1,50,0,0
100477,-52.6315789473684,4,2,1,50,0,0
100503,-1000,4,2,1,50,0,0
100529,-52.6315789473684,4,2,1,50,0,0
100555,-1000,4,2,1,50,0,0
100581,-52.6315789473684,4,2,1,50,0,0
100607,-1000,4,2,1,50,0,0
100632,-55.5555555555556,4,2,1,50,0,0
100658,-500,4,2,1,50,0,0
100684,-55.5555555555556,4,2,1,50,0,0
100710,-500,4,2,1,50,0,0
100735,-52.6315789473684,4,2,1,50,0,0
100761,-1000,4,2,1,50,0,0
100787,-52.6315789473684,4,2,1,50,0,0
100813,-1000,4,2,1,50,0,0
100839,-52.6315789473684,4,2,1,50,0,0
100865,-1000,4,2,1,50,0,0
100891,-52.6315789473684,4,2,1,50,0,0
100917,-1000,4,2,1,50,0,0
100942,-100,4,2,1,50,0,0
100994,-105.263157894737,4,2,1,50,0,0
101045,-111.111111111111,4,2,1,50,0,0
101097,-117.647058823529,4,2,1,50,0,0
101149,-125,4,2,1,50,0,0
101201,-133.333333333333,4,2,1,50,0,0
101252,-142.857142857143,4,2,1,50,0,0
101304,-153.846153846154,4,2,1,50,0,0
101356,-166.666666666667,4,2,1,50,0,0
102597,-153.846153846154,4,2,1,50,0,0
105080,-142.857142857143,4,2,1,50,0,0
107356,-137.931034482759,4,2,1,50,0,0
107459,-133.333333333333,4,2,1,50,0,0
107563,-76.1904761904762,4,2,1,50,0,0
107632,-95.2380952380952,4,2,1,50,0,0
107701,-102.564102564103,4,2,1,50,0,0
107770,-111.111111111111,4,2,1,50,0,0
107839,-121.212121212121,4,2,1,50,0,0
107908,-133.333333333333,4,2,1,50,0,0
107977,-148.148148148148,4,2,1,50,0,0
108045,-166.666666666667,4,2,1,50,0,0
108528,-163.934426229508,4,2,1,50,0,0
108597,-158.730158730159,4,2,1,50,0,0
108666,-153.846153846154,4,2,1,50,0,0
108735,-147.058823529412,4,2,1,50,0,0
108804,-138.888888888889,4,2,1,50,0,0
108873,-131.578947368421,4,2,1,50,0,0
108942,-123.456790123457,4,2,1,50,0,0
109011,-114.942528735632,4,2,1,50,0,0
109080,-107.52688172043,4,2,1,50,0,0
109149,-100,4,2,1,50,0,0
109218,-76.1904761904762,4,2,1,50,0,0
109287,-95.2380952380952,4,2,1,50,0,0
109356,-102.564102564103,4,2,1,50,0,0
109425,-111.111111111111,4,2,1,50,0,0
109494,-121.212121212121,4,2,1,50,0,0
109563,-133.333333333333,4,2,1,50,0,0
109632,-148.148148148148,4,2,1,50,0,0
109700,-166.666666666667,4,2,1,50,0,0
110183,-163.934426229508,4,2,1,50,0,0
110252,-158.730158730159,4,2,1,50,0,0
110321,-153.846153846154,4,2,1,50,0,0
110390,-147.058823529412,4,2,1,50,0,0
110459,-138.888888888889,4,2,1,50,0,0
110528,-131.578947368421,4,2,1,50,0,0
110597,-123.456790123457,4,2,1,50,0,0
110666,-114.942528735632,4,2,1,50,0,0
110735,-107.52688172043,4,2,1,50,0,0
110804,-100,4,2,1,50,0,0
110873,-102.040816326531,4,2,1,50,0,0
110942,-104.166666666667,4,2,1,50,0,0
111011,-106.382978723404,4,2,1,50,0,0
111080,-108.695652173913,4,2,1,50,0,0
111149,-111.111111111111,4,2,1,50,0,0
111218,-113.636363636364,4,2,1,50,0,0
111287,-116.279069767442,4,2,1,50,0,0
111356,-119.047619047619,4,2,1,50,0,0
111425,-120.481927710843,4,2,1,50,0,0
111494,-123.456790123457,4,2,1,50,0,0
111563,-126.582278481013,4,2,1,50,0,0
111632,-129.87012987013,4,2,1,50,0,0
111701,-133.333333333333,4,2,1,50,0,0
112114,-129.032258064516,4,2,1,50,0,0
112528,-125,4,2,1,50,0,0
113356,-121.212121212121,4,2,1,50,0,0
114183,-117.647058823529,4,2,1,50,0,0
115839,-114.285714285714,4,2,1,50,0,0
117494,-111.111111111111,4,2,1,50,0,0
118321,-108.108108108108,4,2,1,50,0,0
119149,-105.263157894737,4,2,1,50,0,0
119977,-102.564102564103,4,2,1,50,0,0
120804,-90.9090909090909,4,2,1,50,0,0
120856,-111.111111111111,4,2,1,50,0,0
120908,-90.9090909090909,4,2,1,50,0,0
120959,-111.111111111111,4,2,1,50,0,0
121011,-90.9090909090909,4,2,1,50,0,0
121063,-111.111111111111,4,2,1,50,0,0
121114,-90.9090909090909,4,2,1,50,0,0
121166,-111.111111111111,4,2,1,50,0,0
121218,-90.9090909090909,4,2,1,50,0,0
121270,-111.111111111111,4,2,1,50,0,0
121321,-90.9090909090909,4,2,1,50,0,0
121373,-111.111111111111,4,2,1,50,0,0
121425,-90.9090909090909,4,2,1,50,0,0
121477,-111.111111111111,4,2,1,50,0,0
121528,-90.9090909090909,4,2,1,50,0,0
121580,-111.111111111111,4,2,1,50,0,0
121632,-83.3333333333333,4,2,1,50,0,0
121683,-125,4,2,1,50,0,0
121735,-83.3333333333333,4,2,1,50,0,0
121787,-125,4,2,1,50,0,0
121839,-83.3333333333333,4,2,1,50,0,0
121890,-125,4,2,1,50,0,0
121942,-83.3333333333333,4,2,1,50,0,0
121994,-125,4,2,1,50,0,0
122045,-83.3333333333333,4,2,1,50,0,0
122097,-125,4,2,1,50,0,0
122149,-83.3333333333333,4,2,1,50,0,0
122201,-125,4,2,1,50,0,0
122252,-83.3333333333333,4,2,1,50,0,0
122304,-125,4,2,1,50,0,0
122356,-83.3333333333333,4,2,1,50,0,0
122408,-125,4,2,1,50,0,0
122459,-76.9230769230769,4,2,1,50,0,0
122511,-142.857142857143,4,2,1,50,0,0
122563,-76.9230769230769,4,2,1,50,0,0
122614,-142.857142857143,4,2,1,50,0,0
122666,-76.9230769230769,4,2,1,50,0,0
122718,-142.857142857143,4,2,1,50,0,0
122770,-76.9230769230769,4,2,1,50,0,0
122821,-142.857142857143,4,2,1,50,0,0
122873,-76.9230769230769,4,2,1,50,0,0
122925,-142.857142857143,4,2,1,50,0,0
122977,-76.9230769230769,4,2,1,50,0,0
123028,-142.857142857143,4,2,1,50,0,0
123080,-76.9230769230769,4,2,1,50,0,0
123132,-142.857142857143,4,2,1,50,0,0
123183,-76.9230769230769,4,2,1,50,0,0
123235,-142.857142857143,4,2,1,50,0,0
123287,-71.4285714285714,4,2,1,50,0,0
123339,-166.666666666667,4,2,1,50,0,0
123390,-71.4285714285714,4,2,1,50,0,0
123442,-166.666666666667,4,2,1,50,0,0
123494,-71.4285714285714,4,2,1,50,0,0
123545,-166.666666666667,4,2,1,50,0,0
123597,-71.4285714285714,4,2,1,50,0,0
123649,-166.666666666667,4,2,1,50,0,0
123701,-71.4285714285714,4,2,1,50,0,0
123752,-166.666666666667,4,2,1,50,0,0
123804,-71.4285714285714,4,2,1,50,0,0
123856,-166.666666666667,4,2,1,50,0,0
123908,-71.4285714285714,4,2,1,50,0,0
123959,-166.666666666667,4,2,1,50,0,0
124011,-71.4285714285714,4,2,1,50,0,0
124063,-166.666666666667,4,2,1,50,0,0
124114,-66.6666666666667,4,2,1,50,0,0
124166,-200,4,2,1,50,0,0
124218,-66.6666666666667,4,2,1,50,0,0
124270,-200,4,2,1,50,0,0
124321,-66.6666666666667,4,2,1,50,0,0
124373,-200,4,2,1,50,0,0
124425,-66.6666666666667,4,2,1,50,0,0
124477,-200,4,2,1,50,0,0
124528,-66.6666666666667,4,2,1,50,0,0
124580,-200,4,2,1,50,0,0
124632,-66.6666666666667,4,2,1,50,0,0
124683,-200,4,2,1,50,0,0
124735,-66.6666666666667,4,2,1,50,0,0
124787,-200,4,2,1,50,0,0
124839,-66.6666666666667,4,2,1,50,0,0
124890,-200,4,2,1,50,0,0
124942,-60.6060606060606,4,2,1,50,0,0
124994,-285.714285714286,4,2,1,50,0,0
125045,-60.6060606060606,4,2,1,50,0,0
125097,-285.714285714286,4,2,1,50,0,0
125149,-60.6060606060606,4,2,1,50,0,0
125201,-285.714285714286,4,2,1,50,0,0
125252,-60.6060606060606,4,2,1,50,0,0
125304,-285.714285714286,4,2,1,50,0,0
125356,-60.6060606060606,4,2,1,50,0,0
125408,-285.714285714286,4,2,1,50,0,0
125459,-60.6060606060606,4,2,1,50,0,0
125511,-285.714285714286,4,2,1,50,0,0
125563,-60.6060606060606,4,2,1,50,0,0
125614,-285.714285714286,4,2,1,50,0,0
125666,-60.6060606060606,4,2,1,50,0,0
125718,-285.714285714286,4,2,1,50,0,0
125770,-111.111111111111,4,2,1,50,0,0
125873,-133.333333333333,4,2,1,50,0,0
126080,-111.111111111111,4,2,1,50,0,0
126183,-133.333333333333,4,2,1,50,0,0
126390,-111.111111111111,4,2,1,50,0,0
126493,-133.333333333333,4,2,1,50,0,0
126701,-111.111111111111,4,2,1,50,0,0
126804,-57.1428571428571,4,2,1,50,0,0
126830,-133.333333333333,4,2,1,50,0,0
126908,-57.1428571428571,4,2,1,50,0,0
126934,-133.333333333333,4,2,1,50,0,0
127011,-50,4,2,1,50,0,0
127037,-149.992500374981,4,2,1,50,0,0
127114,-50,4,2,1,50,0,0
127140,-149.992500374981,4,2,1,50,0,0
127218,-40,4,2,1,50,0,0
127244,-200,4,2,1,50,0,0
127321,-40,4,2,1,50,0,0
127347,-200,4,2,1,50,0,0
127425,-50,4,2,1,50,0,0
127451,-10000,4,2,1,50,0,0
127476,-50,4,2,1,50,0,0
127502,-10000,4,2,1,50,0,0
127528,-100,4,2,1,50,0,0
127735,-50,4,2,1,50,0,0
127761,-10000,4,2,1,50,0,0
127787,-50,4,2,1,50,0,0
127813,-10000,4,2,1,50,0,0
127838,-100,4,2,1,50,0,0
128045,-50,4,2,1,50,0,0
128071,-10000,4,2,1,50,0,0
128097,-50,4,2,1,50,0,0
128123,-10000,4,2,1,50,0,0
128149,-52.6315789473684,4,2,1,50,0,0
128175,-1000,4,2,1,50,0,0
128201,-52.6315789473684,4,2,1,50,0,0
128226,-1000,4,2,1,50,0,0
128252,-55.5555555555556,4,2,1,50,0,0
128278,-500,4,2,1,50,0,0
128304,-55.5555555555556,4,2,1,50,0,0
128330,-500,4,2,1,50,0,0
128356,-58.8235294117647,4,2,1,50,0,0
128382,-333.333333333333,4,2,1,50,0,0
128407,-58.8235294117647,4,2,1,50,0,0
128433,-333.333333333333,4,2,1,50,0,0
128459,-62.5,4,2,1,50,0,0
128485,-250,4,2,1,50,0,0
128511,-62.5,4,2,1,50,0,0
128537,-250,4,2,1,50,0,0
128563,-66.6666666666667,4,2,1,50,0,0
128588,-200,4,2,1,50,0,0
128614,-66.6666666666667,4,2,1,50,0,0
128640,-200,4,2,1,50,0,0
128666,-66.6666666666667,4,2,1,50,0,0
128692,-200,4,2,1,50,0,0
128718,-66.6666666666667,4,2,1,50,0,0
128744,-200,4,2,1,50,0,0
128769,-66.6666666666667,4,2,1,50,0,0
128795,-200,4,2,1,50,0,0
128821,-66.6666666666667,4,2,1,50,0,0
128847,-200,4,2,1,50,0,0
128873,-100,4,2,1,50,0,0
129080,-50,4,2,1,50,0,0
129106,-10000,4,2,1,50,0,0
129131,-50,4,2,1,50,0,0
129157,-10000,4,2,1,50,0,0
129183,-100,4,2,1,50,0,0
129390,-50,4,2,1,50,0,0
129416,-10000,4,2,1,50,0,0
129442,-50,4,2,1,50,0,0
129468,-10000,4,2,1,50,0,0
129493,-100,4,2,1,50,0,0
129701,-50,4,2,1,50,0,0
129726,-10000,4,2,1,50,0,0
129752,-52.6315789473684,4,2,1,50,0,0
129778,-1000,4,2,1,50,0,0
129804,-55.5555555555556,4,2,1,50,0,0
129830,-500,4,2,1,50,0,0
129856,-58.8235294117647,4,2,1,50,0,0
129882,-333.333333333333,4,2,1,50,0,0
129907,-62.5,4,2,1,50,0,0
129933,-250,4,2,1,50,0,0
129959,-66.6666666666667,4,2,1,50,0,0
129985,-200,4,2,1,50,0,0
130011,-66.6666666666667,4,2,1,50,0,0
130037,-200,4,2,1,50,0,0
130063,-66.6666666666667,4,2,1,50,0,0
130088,-200,4,2,1,50,0,0
130114,-66.6666666666667,4,2,1,50,0,0
130140,-200,4,2,1,50,0,0
130166,-66.6666666666667,4,2,1,50,0,0
130192,-200,4,2,1,50,0,0
130218,-100,4,2,1,50,0,0
130321,-40,4,2,1,50,0,0
130347,-200,4,2,1,50,0,0
130425,-40,4,2,1,50,0,0
130451,-200,4,2,1,50,0,0
130528,-66.6666666666667,4,2,1,50,0,0
130580,-200,4,2,1,50,0,0
130632,-40,4,2,1,50,0,0
130657,-200,4,2,1,50,0,0
130735,-50,4,2,1,50,0,0
130761,-10000,4,2,1,50,0,0
130786,-50,4,2,1,50,0,0
130812,-10000,4,2,1,50,0,0
130838,-100,4,2,1,50,0,0
131045,-50,4,2,1,50,0,0
131071,-10000,4,2,1,50,0,0
131097,-50,4,2,1,50,0,0
131123,-10000,4,2,1,50,0,0
131148,-100,4,2,1,50,0,0
131355,-50,4,2,1,50,0,0
131381,-10000,4,2,1,50,0,0
131407,-50,4,2,1,50,0,0
131433,-10000,4,2,1,50,0,0
131459,-52.6315789473684,4,2,1,50,0,0
131485,-1000,4,2,1,50,0,0
131511,-52.6315789473684,4,2,1,50,0,0
131536,-1000,4,2,1,50,0,0
131562,-55.5555555555556,4,2,1,50,0,0
131588,-500,4,2,1,50,0,0
131614,-55.5555555555556,4,2,1,50,0,0
131640,-500,4,2,1,50,0,0
131666,-58.8235294117647,4,2,1,50,0,0
131692,-333.333333333333,4,2,1,50,0,0
131717,-58.8235294117647,4,2,1,50,0,0
131743,-333.333333333333,4,2,1,50,0,0
131769,-62.5,4,2,1,50,0,0
131795,-250,4,2,1,50,0,0
131821,-62.5,4,2,1,50,0,0
131847,-250,4,2,1,50,0,0
131873,-66.6666666666667,4,2,1,50,0,0
131898,-200,4,2,1,50,0,0
131924,-66.6666666666667,4,2,1,50,0,0
131950,-200,4,2,1,50,0,0
131976,-66.6666666666667,4,2,1,50,0,0
132002,-200,4,2,1,50,0,0
132028,-66.6666666666667,4,2,1,50,0,0
132054,-200,4,2,1,50,0,0
132079,-66.6666666666667,4,2,1,50,0,0
132105,-200,4,2,1,50,0,0
132131,-66.6666666666667,4,2,1,50,0,0
132157,-200,4,2,1,50,0,0
132183,-100,4,2,1,50,0,0
132390,-50,4,2,1,50,0,0
132416,-10000,4,2,1,50,0,0
132441,-50,4,2,1,50,0,0
132467,-10000,4,2,1,50,0,0
132493,-100,4,2,1,50,0,0
132700,-50,4,2,1,50,0,0
132726,-10000,4,2,1,50,0,0
132752,-50,4,2,1,50,0,0
132778,-10000,4,2,1,50,0,0
132803,-100,4,2,1,50,0,0
133011,-50,4,2,1,50,0,0
133036,-10000,4,2,1,50,0,0
133062,-52.6315789473684,4,2,1,50,0,0
133088,-1000,4,2,1,50,0,0
133114,-55.5555555555556,4,2,1,50,0,0
133140,-500,4,2,1,50,0,0
133166,-58.8235294117647,4,2,1,50,0,0
133192,-333.333333333333,4,2,1,50,0,0
133217,-62.5,4,2,1,50,0,0
133243,-250,4,2,1,50,0,0
133269,-66.6666666666667,4,2,1,50,0,0
133295,-200,4,2,1,50,0,0
133321,-66.6666666666667,4,2,1,50,0,0
133347,-200,4,2,1,50,0,0
133373,-66.6666666666667,4,2,1,50,0,0
133398,-200,4,2,1,50,0,0
133424,-66.6666666666667,4,2,1,50,0,0
133450,-200,4,2,1,50,0,0
133476,-66.6666666666667,4,2,1,50,0,0
133502,-200,4,2,1,50,0,0
133528,-100,4,2,1,50,0,0
133631,-40,4,2,1,50,0,0
133657,-200,4,2,1,50,0,0
133735,-40,4,2,1,50,0,0
133761,-200,4,2,1,50,0,0
133838,-66.6666666666667,4,2,1,50,0,0
133890,-200,4,2,1,50,0,0
133942,-40,4,2,1,50,0,0
133967,-200,4,2,1,50,0,0
134045,-50,4,2,1,50,0,0
134071,-10000,4,2,1,50,0,0
134096,-50,4,2,1,50,0,0
134122,-10000,4,2,1,50,0,0
134148,-100,4,2,1,50,0,0
134355,-50,4,2,1,50,0,0
134381,-10000,4,2,1,50,0,0
134407,-50,4,2,1,50,0,0
134433,-10000,4,2,1,50,0,0
134458,-100,4,2,1,50,0,0
134665,-50,4,2,1,50,0,0
134691,-10000,4,2,1,50,0,0
134717,-50,4,2,1,50,0,0
134743,-10000,4,2,1,50,0,0
134769,-52.6315789473684,4,2,1,50,0,0
134795,-1000,4,2,1,50,0,0
134821,-52.6315789473684,4,2,1,50,0,0
134846,-1000,4,2,1,50,0,0
134872,-55.5555555555556,4,2,1,50,0,0
134898,-500,4,2,1,50,0,0
134924,-55.5555555555556,4,2,1,50,0,0
134950,-500,4,2,1,50,0,0
134976,-58.8235294117647,4,2,1,50,0,0
135002,-333.333333333333,4,2,1,50,0,0
135027,-58.8235294117647,4,2,1,50,0,0
135053,-333.333333333333,4,2,1,50,0,0
135079,-62.5,4,2,1,50,0,0
135105,-250,4,2,1,50,0,0
135131,-62.5,4,2,1,50,0,0
135157,-250,4,2,1,50,0,0
135183,-66.6666666666667,4,2,1,50,0,0
135208,-200,4,2,1,50,0,0
135234,-66.6666666666667,4,2,1,50,0,0
135260,-200,4,2,1,50,0,0
135286,-66.6666666666667,4,2,1,50,0,0
135312,-200,4,2,1,50,0,0
135338,-66.6666666666667,4,2,1,50,0,0
135364,-200,4,2,1,50,0,0
135389,-66.6666666666667,4,2,1,50,0,0
135415,-200,4,2,1,50,0,0
135441,-66.6666666666667,4,2,1,50,0,0
135467,-200,4,2,1,50,0,0
135493,-100,4,2,1,50,0,0
135700,-50,4,2,1,50,0,0
135726,-10000,4,2,1,50,0,0
135751,-50,4,2,1,50,0,0
135777,-10000,4,2,1,50,0,0
135803,-100,4,2,1,50,0,0
136010,-50,4,2,1,50,0,0
136036,-10000,4,2,1,50,0,0
136062,-50,4,2,1,50,0,0
136088,-10000,4,2,1,50,0,0
136113,-100,4,2,1,50,0,0
136321,-50,4,2,1,50,0,0
136346,-10000,4,2,1,50,0,0
136372,-52.6315789473684,4,2,1,50,0,0
136398,-1000,4,2,1,50,0,0
136424,-55.5555555555556,4,2,1,50,0,0
136450,-500,4,2,1,50,0,0
136476,-58.8235294117647,4,2,1,50,0,0
136502,-333.333333333333,4,2,1,50,0,0
136527,-62.5,4,2,1,50,0,0
136553,-250,4,2,1,50,0,0
136579,-66.6666666666667,4,2,1,50,0,0
136605,-200,4,2,1,50,0,0
136631,-66.6666666666667,4,2,1,50,0,0
136657,-200,4,2,1,50,0,0
136683,-66.6666666666667,4,2,1,50,0,0
136708,-200,4,2,1,50,0,0
136734,-66.6666666666667,4,2,1,50,0,0
136760,-200,4,2,1,50,0,0
136786,-66.6666666666667,4,2,1,50,0,0
136812,-200,4,2,1,50,0,0
136838,-100,4,2,1,50,0,0
136941,-40,4,2,1,50,0,0
136967,-200,4,2,1,50,0,0
137045,-40,4,2,1,50,0,0
137071,-200,4,2,1,50,0,0
137148,-66.6666666666667,4,2,1,50,0,0
137200,-200,4,2,1,50,0,0
137252,-40,4,2,1,50,0,0
137277,-200,4,2,1,50,0,0
137356,-50,4,2,1,50,0,0
137382,-10000,4,2,1,50,0,0
137407,-50,4,2,1,50,0,0
137433,-10000,4,2,1,50,0,0
137459,-100,4,2,1,50,0,0
137666,-50,4,2,1,50,0,0
137692,-10000,4,2,1,50,0,0
137718,-50,4,2,1,50,0,0
137744,-10000,4,2,1,50,0,0
137769,-100,4,2,1,50,0,0
137976,-50,4,2,1,50,0,0
138002,-10000,4,2,1,50,0,0
138028,-50,4,2,1,50,0,0
138054,-10000,4,2,1,50,0,0
138080,-52.6315789473684,4,2,1,50,0,0
138106,-1000,4,2,1,50,0,0
138132,-52.6315789473684,4,2,1,50,0,0
138157,-1000,4,2,1,50,0,0
138183,-55.5555555555556,4,2,1,50,0,0
138209,-500,4,2,1,50,0,0
138235,-55.5555555555556,4,2,1,50,0,0
138261,-500,4,2,1,50,0,0
138287,-58.8235294117647,4,2,1,50,0,0
138313,-333.333333333333,4,2,1,50,0,0
138338,-58.8235294117647,4,2,1,50,0,0
138364,-333.333333333333,4,2,1,50,0,0
138390,-62.5,4,2,1,50,0,0
138416,-250,4,2,1,50,0,0
138442,-62.5,4,2,1,50,0,0
138468,-250,4,2,1,50,0,0
138494,-66.6666666666667,4,2,1,50,0,0
138519,-200,4,2,1,50,0,0
138545,-66.6666666666667,4,2,1,50,0,0
138571,-200,4,2,1,50,0,0
138597,-66.6666666666667,4,2,1,50,0,0
138623,-200,4,2,1,50,0,0
138649,-66.6666666666667,4,2,1,50,0,0
138675,-200,4,2,1,50,0,0
138700,-66.6666666666667,4,2,1,50,0,0
138726,-200,4,2,1,50,0,0
138752,-66.6666666666667,4,2,1,50,0,0
138778,-200,4,2,1,50,0,0
138804,-100,4,2,1,50,0,0
139011,-50,4,2,1,50,0,0
139063,-10000,4,2,1,50,0,0
139114,-66.6666666666667,4,2,1,50,0,0
139166,-200,4,2,1,50,0,0
139218,-66.6666666666667,4,2,1,50,0,0
139270,-200,4,2,1,50,0,0
139321,-50,4,2,1,50,0,0
139373,-10000,4,2,1,50,0,0
139425,-66.6666666666667,4,2,1,50,0,0
139477,-200,4,2,1,50,0,0
139528,-66.6666666666667,4,2,1,50,0,0
139580,-200,4,2,1,50,0,0
139632,-50,4,2,1,50,0,0
139683,-10000,4,2,1,50,0,0
139735,-66.6666666666667,4,2,1,50,0,0
139787,-200,4,2,1,50,0,0
139839,-66.6666666666667,4,2,1,50,0,0
139891,-200,4,2,1,50,0,0
139942,-50,4,2,1,50,0,0
139994,-10000,4,2,1,50,0,0
140045,-66.6666666666667,4,2,1,50,0,0
140097,-200,4,2,1,50,0,0
140149,-66.6666666666667,4,2,1,50,0,0
140201,-200,4,2,1,50,0,0
140252,-50,4,2,1,50,0,0
140304,-10000,4,2,1,50,0,0
140356,-57.1428571428571,4,2,1,50,0,0
140408,-400,4,2,1,50,0,0
140459,-57.1428571428571,4,2,1,50,0,0
140511,-400,4,2,1,50,0,0
140563,-57.1428571428571,4,2,1,50,0,0
140615,-400,4,2,1,50,0,0
140666,-50,4,2,1,50,0,0
140692,-10000,4,2,1,50,0,0
140717,-50,4,2,1,50,0,0
140743,-10000,4,2,1,50,0,0
140769,-100,4,2,1,50,0,0
140976,-50,4,2,1,50,0,0
141002,-10000,4,2,1,50,0,0
141028,-50,4,2,1,50,0,0
141054,-10000,4,2,1,50,0,0
141079,-100,4,2,1,50,0,0
141286,-50,4,2,1,50,0,0
141312,-10000,4,2,1,50,0,0
141338,-50,4,2,1,50,0,0
141364,-10000,4,2,1,50,0,0
141390,-52.6315789473684,4,2,1,50,0,0
141416,-1000,4,2,1,50,0,0
141442,-52.6315789473684,4,2,1,50,0,0
141467,-1000,4,2,1,50,0,0
141493,-55.5555555555556,4,2,1,50,0,0
141519,-500,4,2,1,50,0,0
141545,-55.5555555555556,4,2,1,50,0,0
141571,-500,4,2,1,50,0,0
141597,-58.8235294117647,4,2,1,50,0,0
141623,-333.333333333333,4,2,1,50,0,0
141648,-58.8235294117647,4,2,1,50,0,0
141674,-333.333333333333,4,2,1,50,0,0
141700,-62.5,4,2,1,50,0,0
141726,-250,4,2,1,50,0,0
141752,-62.5,4,2,1,50,0,0
141778,-250,4,2,1,50,0,0
141804,-66.6666666666667,4,2,1,50,0,0
141829,-200,4,2,1,50,0,0
141855,-66.6666666666667,4,2,1,50,0,0
141881,-200,4,2,1,50,0,0
141907,-66.6666666666667,4,2,1,50,0,0
141933,-200,4,2,1,50,0,0
141959,-66.6666666666667,4,2,1,50,0,0
141985,-200,4,2,1,50,0,0
142010,-66.6666666666667,4,2,1,50,0,0
142036,-200,4,2,1,50,0,0
142062,-66.6666666666667,4,2,1,50,0,0
142088,-200,4,2,1,50,0,0
142114,-100,4,2,1,50,0,0
142321,-50,4,2,1,50,0,0
142347,-10000,4,2,1,50,0,0
142372,-50,4,2,1,50,0,0
142398,-10000,4,2,1,50,0,0
142424,-100,4,2,1,50,0,0
142631,-50,4,2,1,50,0,0
142657,-10000,4,2,1,50,0,0
142683,-50,4,2,1,50,0,0
142709,-10000,4,2,1,50,0,0
142734,-100,4,2,1,50,0,0
142942,-50,4,2,1,50,0,0
142967,-10000,4,2,1,50,0,0
142993,-52.6315789473684,4,2,1,50,0,0
143019,-1000,4,2,1,50,0,0
143045,-55.5555555555556,4,2,1,50,0,0
143071,-500,4,2,1,50,0,0
143097,-58.8235294117647,4,2,1,50,0,0
143123,-333.333333333333,4,2,1,50,0,0
143148,-62.5,4,2,1,50,0,0
143174,-250,4,2,1,50,0,0
143200,-66.6666666666667,4,2,1,50,0,0
143226,-200,4,2,1,50,0,0
143252,-66.6666666666667,4,2,1,50,0,0
143278,-200,4,2,1,50,0,0
143304,-66.6666666666667,4,2,1,50,0,0
143329,-200,4,2,1,50,0,0
143355,-66.6666666666667,4,2,1,50,0,0
143381,-200,4,2,1,50,0,0
143407,-66.6666666666667,4,2,1,50,0,0
143433,-200,4,2,1,50,0,0
143459,-100,4,2,1,50,0,0
143562,-40,4,2,1,50,0,0
143588,-200,4,2,1,50,0,0
143666,-40,4,2,1,50,0,0
143692,-200,4,2,1,50,0,0
143769,-66.6666666666667,4,2,1,50,0,0
143821,-200,4,2,1,50,0,0
143873,-40,4,2,1,50,0,0
143898,-200,4,2,1,50,0,0
143976,-50,4,2,1,50,0,0
144002,-10000,4,2,1,50,0,0
144027,-50,4,2,1,50,0,0
144053,-10000,4,2,1,50,0,0
144079,-100,4,2,1,50,0,0
144286,-50,4,2,1,50,0,0
144312,-10000,4,2,1,50,0,0
144338,-50,4,2,1,50,0,0
144364,-10000,4,2,1,50,0,0
144389,-100,4,2,1,50,0,0
144596,-50,4,2,1,50,0,0
144622,-10000,4,2,1,50,0,0
144648,-50,4,2,1,50,0,0
144674,-10000,4,2,1,50,0,0
144700,-52.6315789473684,4,2,1,50,0,0
144726,-1000,4,2,1,50,0,0
144752,-52.6315789473684,4,2,1,50,0,0
144777,-1000,4,2,1,50,0,0
144803,-55.5555555555556,4,2,1,50,0,0
144829,-500,4,2,1,50,0,0
144855,-55.5555555555556,4,2,1,50,0,0
144881,-500,4,2,1,50,0,0
144907,-58.8235294117647,4,2,1,50,0,0
144933,-333.333333333333,4,2,1,50,0,0
144958,-58.8235294117647,4,2,1,50,0,0
144984,-333.333333333333,4,2,1,50,0,0
145010,-62.5,4,2,1,50,0,0
145036,-250,4,2,1,50,0,0
145062,-62.5,4,2,1,50,0,0
145088,-250,4,2,1,50,0,0
145114,-66.6666666666667,4,2,1,50,0,0
145139,-200,4,2,1,50,0,0
145165,-66.6666666666667,4,2,1,50,0,0
145191,-200,4,2,1,50,0,0
145217,-66.6666666666667,4,2,1,50,0,0
145243,-200,4,2,1,50,0,0
145269,-66.6666666666667,4,2,1,50,0,0
145295,-200,4,2,1,50,0,0
145320,-66.6666666666667,4,2,1,50,0,0
145346,-200,4,2,1,50,0,0
145372,-66.6666666666667,4,2,1,50,0,0
145398,-200,4,2,1,50,0,0
145424,-100,4,2,1,50,0,0
145631,-50,4,2,1,50,0,0
145657,-10000,4,2,1,50,0,0
145682,-50,4,2,1,50,0,0
145708,-10000,4,2,1,50,0,0
145734,-100,4,2,1,50,0,0
145941,-50,4,2,1,50,0,0
145967,-10000,4,2,1,50,0,0
145993,-50,4,2,1,50,0,0
146019,-10000,4,2,1,50,0,0
146044,-100,4,2,1,50,0,0
146252,-50,4,2,1,50,0,0
146277,-10000,4,2,1,50,0,0
146303,-52.6315789473684,4,2,1,50,0,0
146329,-1000,4,2,1,50,0,0
146355,-55.5555555555556,4,2,1,50,0,0
146381,-500,4,2,1,50,0,0
146407,-58.8235294117647,4,2,1,50,0,0
146433,-333.333333333333,4,2,1,50,0,0
146458,-62.5,4,2,1,50,0,0
146484,-250,4,2,1,50,0,0
146510,-66.6666666666667,4,2,1,50,0,0
146536,-200,4,2,1,50,0,0
146562,-66.6666666666667,4,2,1,50,0,0
146588,-200,4,2,1,50,0,0
146614,-66.6666666666667,4,2,1,50,0,0
146639,-200,4,2,1,50,0,0
146665,-66.6666666666667,4,2,1,50,0,0
146691,-200,4,2,1,50,0,0
146717,-66.6666666666667,4,2,1,50,0,0
146743,-200,4,2,1,50,0,0
146769,-100,4,2,1,50,0,0
146872,-40,4,2,1,50,0,0
146898,-200,4,2,1,50,0,0
146976,-40,4,2,1,50,0,0
147002,-200,4,2,1,50,0,0
147079,-66.6666666666667,4,2,1,50,0,0
147131,-200,4,2,1,50,0,0
147183,-40,4,2,1,50,0,0
147208,-200,4,2,1,50,0,0
147286,-50,4,2,1,50,0,0
147312,-10000,4,2,1,50,0,0
147337,-50,4,2,1,50,0,0
147363,-10000,4,2,1,50,0,0
147389,-100,4,2,1,50,0,0
147596,-50,4,2,1,50,0,0
147622,-10000,4,2,1,50,0,0
147648,-50,4,2,1,50,0,0
147674,-10000,4,2,1,50,0,0
147699,-100,4,2,1,50,0,0
147906,-50,4,2,1,50,0,0
147932,-10000,4,2,1,50,0,0
147958,-50,4,2,1,50,0,0
147984,-10000,4,2,1,50,0,0
148010,-52.6315789473684,4,2,1,50,0,0
148036,-1000,4,2,1,50,0,0
148062,-52.6315789473684,4,2,1,50,0,0
148087,-1000,4,2,1,50,0,0
148113,-55.5555555555556,4,2,1,50,0,0
148139,-500,4,2,1,50,0,0
148165,-55.5555555555556,4,2,1,50,0,0
148191,-500,4,2,1,50,0,0
148217,-58.8235294117647,4,2,1,50,0,0
148243,-333.333333333333,4,2,1,50,0,0
148268,-58.8235294117647,4,2,1,50,0,0
148294,-333.333333333333,4,2,1,50,0,0
148320,-62.5,4,2,1,50,0,0
148346,-250,4,2,1,50,0,0
148372,-62.5,4,2,1,50,0,0
148398,-250,4,2,1,50,0,0
148424,-66.6666666666667,4,2,1,50,0,0
148449,-200,4,2,1,50,0,0
148475,-66.6666666666667,4,2,1,50,0,0
148501,-200,4,2,1,50,0,0
148527,-66.6666666666667,4,2,1,50,0,0
148553,-200,4,2,1,50,0,0
148579,-66.6666666666667,4,2,1,50,0,0
148605,-200,4,2,1,50,0,0
148630,-66.6666666666667,4,2,1,50,0,0
148656,-200,4,2,1,50,0,0
148682,-66.6666666666667,4,2,1,50,0,0
148708,-200,4,2,1,50,0,0
148734,-100,4,2,1,50,0,0
148941,-50,4,2,1,50,0,0
148967,-10000,4,2,1,50,0,0
148992,-50,4,2,1,50,0,0
149018,-10000,4,2,1,50,0,0
149044,-100,4,2,1,50,0,0
149251,-50,4,2,1,50,0,0
149277,-10000,4,2,1,50,0,0
149303,-50,4,2,1,50,0,0
149329,-10000,4,2,1,50,0,0
149354,-100,4,2,1,50,0,0
149562,-50,4,2,1,50,0,0
149587,-10000,4,2,1,50,0,0
149613,-52.6315789473684,4,2,1,50,0,0
149639,-1000,4,2,1,50,0,0
149665,-55.5555555555556,4,2,1,50,0,0
149691,-500,4,2,1,50,0,0
149717,-58.8235294117647,4,2,1,50,0,0
149743,-333.333333333333,4,2,1,50,0,0
149768,-62.5,4,2,1,50,0,0
149794,-250,4,2,1,50,0,0
149820,-66.6666666666667,4,2,1,50,0,0
149846,-200,4,2,1,50,0,0
149872,-66.6666666666667,4,2,1,50,0,0
149898,-200,4,2,1,50,0,0
149924,-66.6666666666667,4,2,1,50,0,0
149949,-200,4,2,1,50,0,0
149975,-66.6666666666667,4,2,1,50,0,0
150001,-200,4,2,1,50,0,0
150027,-66.6666666666667,4,2,1,50,0,0
150053,-200,4,2,1,50,0,0
150079,-100,4,2,1,50,0,0
150182,-40,4,2,1,50,0,0
150208,-200,4,2,1,50,0,0
150286,-40,4,2,1,50,0,0
150312,-200,4,2,1,50,0,0
150389,-66.6666666666667,4,2,1,50,0,0
150441,-200,4,2,1,50,0,0
150493,-40,4,2,1,50,0,0
150518,-200,4,2,1,50,0,0
150597,-50,4,2,1,50,0,0
150648,-10000,4,2,1,50,0,0
150700,-66.6666666666667,4,2,1,50,0,0
150752,-200,4,2,1,50,0,0
150804,-66.6666666666667,4,2,1,50,0,0
150855,-200,4,2,1,50,0,0
150907,-50,4,2,1,50,0,0
150959,-10000,4,2,1,50,0,0
151010,-100,4,2,1,50,0,0
151217,-50,4,2,1,50,0,0
151269,-10000,4,2,1,50,0,0
151321,-66.6666666666667,4,2,1,50,0,0
151373,-200,4,2,1,50,0,0
151424,-50,4,2,1,50,0,0
151476,-10000,4,2,1,50,0,0
151528,-57.1428571428571,4,2,1,50,0,0
151579,-400,4,2,1,50,0,0
151631,-57.1428571428571,4,2,1,50,0,0
151683,-400,4,2,1,50,0,0
151735,-57.1428571428571,4,2,1,50,0,0
151786,-400,4,2,1,50,0,0
151838,-50,4,2,1,50,0,0
151890,-10000,4,2,1,50,0,0
151942,-57.1428571428571,4,2,1,50,0,0
151993,-400,4,2,1,50,0,0
152045,-50,4,2,1,50,0,0
152097,-10000,4,2,1,50,0,0
152148,-57.1428571428571,4,2,1,50,0,0
152200,-400,4,2,1,50,0,0
152252,-52.6315789473684,4,2,1,50,0,0
152278,-1000,4,2,1,50,0,0
152304,-100,4,2,1,50,0,0
152459,-55.5555555555556,4,2,1,50,0,0
152485,-500,4,2,1,50,0,0
152511,-55.5555555555556,4,2,1,50,0,0
152536,-500,4,2,1,50,0,0
152562,-55.5555555555556,4,2,1,50,0,0
152588,-500,4,2,1,50,0,0
152614,-55.5555555555556,4,2,1,50,0,0
152640,-500,4,2,1,50,0,0
152666,-100,4,2,1,50,0,0
152873,-52.6315789473684,4,2,1,50,0,0
152899,-1000,4,2,1,50,0,0
152925,-52.6315789473684,4,2,1,50,0,0
152950,-1000,4,2,1,50,0,0
152976,-52.6315789473684,4,2,1,50,0,0
153002,-1000,4,2,1,50,0,0
153028,-52.6315789473684,4,2,1,50,0,0
153054,-1000,4,2,1,50,0,0
153080,-100,4,2,1,50,0,0
153287,-55.5555555555556,4,2,1,50,0,0
153313,-500,4,2,1,50,0,0
153339,-55.5555555555556,4,2,1,50,0,0
153364,-500,4,2,1,50,0,0
153390,-55.5555555555556,4,2,1,50,0,0
153416,-500,4,2,1,50,0,0
153442,-55.5555555555556,4,2,1,50,0,0
153468,-500,4,2,1,50,0,0
153494,-100,4,2,1,50,0,0
153701,-52.6315789473684,4,2,1,50,0,0
153727,-1000,4,2,1,50,0,0
153753,-52.6315789473684,4,2,1,50,0,0
153778,-1000,4,2,1,50,0,0
153804,-52.6315789473684,4,2,1,50,0,0
153830,-1000,4,2,1,50,0,0
153856,-52.6315789473684,4,2,1,50,0,0
153882,-1000,4,2,1,50,0,0
153908,-80,4,2,1,50,0,0
154011,-133.333333333333,4,2,1,50,0,0
154114,-80,4,2,1,50,0,0
154166,-133.333333333333,4,2,1,50,0,0
154218,-66.6666666666667,4,2,1,50,0,0
154270,-200,4,2,1,50,0,0
154321,-80,4,2,1,50,0,0
154373,-133.333333333333,4,2,1,50,0,0
154425,-66.6666666666667,4,2,1,50,0,0
154477,-200,4,2,1,50,0,0
154528,-62.5,4,2,1,50,0,0
154580,-250,4,2,1,50,0,0
154632,-58.8235294117647,4,2,1,50,0,0
154683,-333.333333333333,4,2,1,50,0,0
154735,-100,4,2,1,50,0,0
154942,-66.6666666666667,4,2,1,50,0,0
154968,-200,4,2,1,50,0,0
154994,-66.6666666666667,4,2,1,50,0,0
155020,-200,4,2,1,50,0,0
155045,-62.5,4,2,1,50,0,0
155071,-250,4,2,1,50,0,0
155097,-62.5,4,2,1,50,0,0
155123,-250,4,2,1,50,0,0
155149,-55.5555555555556,4,2,1,50,0,0
155175,-500,4,2,1,50,0,0
155201,-55.5555555555556,4,2,1,50,0,0
155227,-500,4,2,1,50,0,0
155252,-58.8235294117647,4,2,1,50,0,0
155278,-333.333333333333,4,2,1,50,0,0
155304,-58.8235294117647,4,2,1,50,0,0
155330,-333.333333333333,4,2,1,50,0,0
155356,-58.8235294117647,4,2,1,50,0,0
155382,-333.333333333333,4,2,1,50,0,0
155408,-58.8235294117647,4,2,1,50,0,0
155434,-333.333333333333,4,2,1,50,0,0
155459,-100,4,2,1,50,0,0
155563,-50,4,2,1,50,0,0
155589,-149.925037481259,4,2,1,50,0,0
155666,-50,4,2,1,50,0,0
155692,-149.925037481259,4,2,1,50,0,0
155770,-50,4,2,1,50,0,0
155796,-149.925037481259,4,2,1,50,0,0
155873,-66.6666666666667,4,2,1,50,0,0
155899,-200,4,2,1,50,0,0
155925,-66.6666666666667,4,2,1,50,0,0
155951,-200,4,2,1,50,0,0
155977,-80,4,2,1,50,0,0
156002,-133.333333333333,4,2,1,50,0,0
156028,-80,4,2,1,50,0,0
156054,-133.333333333333,4,2,1,50,0,0
156080,-66.6666666666667,4,2,1,50,0,0
156132,-200,4,2,1,50,0,0
156183,-62.5,4,2,1,50,0,0
156235,-250,4,2,1,50,0,0
156287,-58.8235294117647,4,2,1,50,0,0
156338,-333.333333333333,4,2,1,50,0,0
156390,-100,4,2,1,50,0,0
156597,-66.6666666666667,4,2,1,50,0,0
156623,-200,4,2,1,50,0,0
156649,-66.6666666666667,4,2,1,50,0,0
156675,-200,4,2,1,50,0,0
156700,-62.5,4,2,1,50,0,0
156726,-250,4,2,1,50,0,0
156752,-62.5,4,2,1,50,0,0
156778,-250,4,2,1,50,0,0
156804,-55.5555555555556,4,2,1,50,0,0
156830,-500,4,2,1,50,0,0
156856,-55.5555555555556,4,2,1,50,0,0
156882,-500,4,2,1,50,0,0
156907,-58.8235294117647,4,2,1,50,0,0
156933,-333.333333333333,4,2,1,50,0,0
156959,-58.8235294117647,4,2,1,50,0,0
156985,-333.333333333333,4,2,1,50,0,0
157011,-58.8235294117647,4,2,1,50,0,0
157037,-333.333333333333,4,2,1,50,0,0
157063,-58.8235294117647,4,2,1,50,0,0
157089,-333.333333333333,4,2,1,50,0,0
157114,-100,4,2,1,50,0,0
157218,-80,4,2,1,50,0,0
157321,-133.333333333333,4,2,1,50,0,0
157424,-80,4,2,1,50,0,0
157476,-133.333333333333,4,2,1,50,0,0
157528,-66.6666666666667,4,2,1,50,0,0
157580,-200,4,2,1,50,0,0
157631,-80,4,2,1,50,0,0
157683,-133.333333333333,4,2,1,50,0,0
157735,-66.6666666666667,4,2,1,50,0,0
157787,-200,4,2,1,50,0,0
157838,-62.5,4,2,1,50,0,0
157890,-250,4,2,1,50,0,0
157942,-58.8235294117647,4,2,1,50,0,0
157993,-333.333333333333,4,2,1,50,0,0
158045,-100,4,2,1,50,0,0
158252,-66.6666666666667,4,2,1,50,0,0
158278,-200,4,2,1,50,0,0
158304,-66.6666666666667,4,2,1,50,0,0
158330,-200,4,2,1,50,0,0
158355,-62.5,4,2,1,50,0,0
158381,-250,4,2,1,50,0,0
158407,-62.5,4,2,1,50,0,0
158433,-250,4,2,1,50,0,0
158459,-55.5555555555556,4,2,1,50,0,0
158485,-500,4,2,1,50,0,0
158511,-55.5555555555556,4,2,1,50,0,0
158537,-500,4,2,1,50,0,0
158562,-58.8235294117647,4,2,1,50,0,0
158588,-333.333333333333,4,2,1,50,0,0
158614,-58.8235294117647,4,2,1,50,0,0
158640,-333.333333333333,4,2,1,50,0,0
158666,-58.8235294117647,4,2,1,50,0,0
158692,-333.333333333333,4,2,1,50,0,0
158718,-58.8235294117647,4,2,1,50,0,0
158744,-333.333333333333,4,2,1,50,0,0
158769,-100,4,2,1,50,0,0
158873,-50,4,2,1,50,0,0
158899,-149.992500374981,4,2,1,50,0,0
158976,-50,4,2,1,50,0,0
159002,-149.992500374981,4,2,1,50,0,0
159080,-50,4,2,1,50,0,0
159106,-149.992500374981,4,2,1,50,0,0
159183,-71.4285714285714,4,2,1,50,0,0
159209,-166.666666666667,4,2,1,50,0,0
159235,-71.4285714285714,4,2,1,50,0,0
159261,-166.666666666667,4,2,1,50,0,0
159287,-83.3333333333333,4,2,1,50,0,0
159312,-125,4,2,1,50,0,0
159338,-83.3333333333333,4,2,1,50,0,0
159364,-125,4,2,1,50,0,0
159390,-71.4285714285714,4,2,1,50,0,0
159442,-166.666666666667,4,2,1,50,0,0
159493,-66.6666666666667,4,2,1,50,0,0
159545,-200,4,2,1,50,0,0
159597,-62.5,4,2,1,50,0,0
159648,-250,4,2,1,50,0,0
159700,-100,4,2,1,50,0,0
159907,-66.6666666666667,4,2,1,50,0,0
159933,-200,4,2,1,50,0,0
159959,-66.6666666666667,4,2,1,50,0,0
159985,-200,4,2,1,50,0,0
160010,-60.6060606060606,4,2,1,50,0,0
160036,-285.714285714286,4,2,1,50,0,0
160062,-60.6060606060606,4,2,1,50,0,0
160088,-285.714285714286,4,2,1,50,0,0
160114,-100,4,2,1,50,0,0
160218,-66.6666666666667,4,2,1,50,0,0
160244,-200,4,2,1,50,0,0
160270,-66.6666666666667,4,2,1,50,0,0
160296,-200,4,2,1,50,0,0
160321,-60.6060606060606,4,2,1,50,0,0
160347,-285.714285714286,4,2,1,50,0,0
160373,-60.6060606060606,4,2,1,50,0,0
160399,-285.714285714286,4,2,1,50,0,0
160425,-100,4,2,1,50,0,0
160528,-80,4,2,1,50,0,0
160631,-133.333333333333,4,2,1,50,0,0
160734,-80,4,2,1,50,0,0
160786,-133.333333333333,4,2,1,50,0,0
160838,-66.6666666666667,4,2,1,50,0,0
160890,-200,4,2,1,50,0,0
160941,-80,4,2,1,50,0,0
160993,-133.333333333333,4,2,1,50,0,0
161045,-66.6666666666667,4,2,1,50,0,0
161097,-200,4,2,1,50,0,0
161148,-62.5,4,2,1,50,0,0
161200,-250,4,2,1,50,0,0
161252,-58.8235294117647,4,2,1,50,0,0
161303,-333.333333333333,4,2,1,50,0,0
161355,-100,4,2,1,50,0,0
161562,-66.6666666666667,4,2,1,50,0,0
161588,-200,4,2,1,50,0,0
161614,-66.6666666666667,4,2,1,50,0,0
161640,-200,4,2,1,50,0,0
161665,-62.5,4,2,1,50,0,0
161691,-250,4,2,1,50,0,0
161717,-62.5,4,2,1,50,0,0
161743,-250,4,2,1,50,0,0
161769,-55.5555555555556,4,2,1,50,0,0
161795,-500,4,2,1,50,0,0
161821,-55.5555555555556,4,2,1,50,0,0
161847,-500,4,2,1,50,0,0
161872,-58.8235294117647,4,2,1,50,0,0
161898,-333.333333333333,4,2,1,50,0,0
161924,-58.8235294117647,4,2,1,50,0,0
161950,-333.333333333333,4,2,1,50,0,0
161976,-58.8235294117647,4,2,1,50,0,0
162002,-333.333333333333,4,2,1,50,0,0
162028,-58.8235294117647,4,2,1,50,0,0
162054,-333.333333333333,4,2,1,50,0,0
162079,-100,4,2,1,50,0,0
162183,-50,4,2,1,50,0,0
162209,-149.992500374981,4,2,1,50,0,0
162286,-50,4,2,1,50,0,0
162312,-149.992500374981,4,2,1,50,0,0
162390,-50,4,2,1,50,0,0
162416,-149.992500374981,4,2,1,50,0,0
162493,-66.6666666666667,4,2,1,50,0,0
162519,-200,4,2,1,50,0,0
162545,-66.6666666666667,4,2,1,50,0,0
162571,-200,4,2,1,50,0,0
162597,-80,4,2,1,50,0,0
162622,-133.333333333333,4,2,1,50,0,0
162648,-80,4,2,1,50,0,0
162674,-133.333333333333,4,2,1,50,0,0
162700,-66.6666666666667,4,2,1,50,0,0
162752,-200,4,2,1,50,0,0
162803,-62.5,4,2,1,50,0,0
162855,-250,4,2,1,50,0,0
162907,-58.8235294117647,4,2,1,50,0,0
162958,-333.333333333333,4,2,1,50,0,0
163010,-100,4,2,1,50,0,0
163217,-66.6666666666667,4,2,1,50,0,0
163243,-200,4,2,1,50,0,0
163269,-66.6666666666667,4,2,1,50,0,0
163295,-200,4,2,1,50,0,0
163320,-62.5,4,2,1,50,0,0
163346,-250,4,2,1,50,0,0
163372,-62.5,4,2,1,50,0,0
163398,-250,4,2,1,50,0,0
163424,-55.5555555555556,4,2,1,50,0,0
163450,-500,4,2,1,50,0,0
163476,-55.5555555555556,4,2,1,50,0,0
163502,-500,4,2,1,50,0,0
163527,-58.8235294117647,4,2,1,50,0,0
163553,-333.333333333333,4,2,1,50,0,0
163579,-58.8235294117647,4,2,1,50,0,0
163605,-333.333333333333,4,2,1,50,0,0
163631,-58.8235294117647,4,2,1,50,0,0
163657,-333.333333333333,4,2,1,50,0,0
163683,-58.8235294117647,4,2,1,50,0,0
163709,-333.333333333333,4,2,1,50,0,0
163734,-100,4,2,1,50,0,0
163838,-80,4,2,1,50,0,0
163941,-133.333333333333,4,2,1,50,0,0
164044,-80,4,2,1,50,0,0
164096,-133.333333333333,4,2,1,50,0,0
164148,-66.6666666666667,4,2,1,50,0,0
164200,-200,4,2,1,50,0,0
164251,-80,4,2,1,50,0,0
164303,-133.333333333333,4,2,1,50,0,0
164355,-66.6666666666667,4,2,1,50,0,0
164407,-200,4,2,1,50,0,0
164458,-62.5,4,2,1,50,0,0
164510,-250,4,2,1,50,0,0
164562,-58.8235294117647,4,2,1,50,0,0
164613,-333.333333333333,4,2,1,50,0,0
164665,-100,4,2,1,50,0,0
164872,-66.6666666666667,4,2,1,50,0,0
164898,-200,4,2,1,50,0,0
164924,-66.6666666666667,4,2,1,50,0,0
164950,-200,4,2,1,50,0,0
164975,-62.5,4,2,1,50,0,0
165001,-250,4,2,1,50,0,0
165027,-62.5,4,2,1,50,0,0
165053,-250,4,2,1,50,0,0
165079,-55.5555555555556,4,2,1,50,0,0
165105,-500,4,2,1,50,0,0
165131,-55.5555555555556,4,2,1,50,0,0
165157,-500,4,2,1,50,0,0
165182,-58.8235294117647,4,2,1,50,0,0
165208,-333.333333333333,4,2,1,50,0,0
165234,-58.8235294117647,4,2,1,50,0,0
165260,-333.333333333333,4,2,1,50,0,0
165286,-58.8235294117647,4,2,1,50,0,0
165312,-333.333333333333,4,2,1,50,0,0
165338,-58.8235294117647,4,2,1,50,0,0
165364,-333.333333333333,4,2,1,50,0,0
165389,-100,4,2,1,50,0,0
165494,-50,4,2,1,50,0,0
165520,-149.992500374981,4,2,1,50,0,0
165597,-50,4,2,1,50,0,0
165623,-149.992500374981,4,2,1,50,0,0
165701,-57.1428571428571,4,2,1,50,0,0
165727,-133.333333333333,4,2,1,50,0,0
165804,-57.1428571428571,4,2,1,50,0,0
165830,-133.333333333333,4,2,1,50,0,0
165908,-33.3333333333333,4,2,1,50,0,0
165933,-400,4,2,1,50,0,0
166011,-33.3333333333333,4,2,1,50,0,0
166036,-303.030303030303,4,2,1,50,0,0
166114,-33.3333333333333,4,2,1,50,0,0
166139,-303.030303030303,4,2,1,50,0,0
166218,-33.3333333333333,4,2,1,50,0,0
166243,-303.030303030303,4,2,1,50,0,0
166321,-33.3333333333333,4,2,1,50,0,0
166346,-303.030303030303,4,2,1,50,0,0
166425,-33.3333333333333,4,2,1,50,0,0
166450,-303.030303030303,4,2,1,50,0,0
166528,-52.6315789473684,4,2,1,50,0,0
166554,-1000,4,2,1,50,0,0
166580,-52.6315789473684,4,2,1,50,0,0
166606,-1000,4,2,1,50,0,0
166632,-52.6315789473684,4,2,1,50,0,0
166658,-1000,4,2,1,50,0,0
166683,-52.6315789473684,4,2,1,50,0,0
166709,-1000,4,2,1,50,0,0
166735,-57.1428571428571,4,2,1,50,0,0
166761,-400,4,2,1,50,0,0
166787,-57.1428571428571,4,2,1,50,0,0
166813,-400,4,2,1,50,0,0
166839,-57.1428571428571,4,2,1,50,0,0
166865,-400,4,2,1,50,0,0
166890,-57.1428571428571,4,2,1,50,0,0
166916,-400,4,2,1,50,0,0
166942,-62.5,4,2,1,50,0,0
166968,-250,4,2,1,50,0,0
166994,-62.5,4,2,1,50,0,0
167020,-250,4,2,1,50,0,0
167045,-62.5,4,2,1,50,0,0
167071,-250,4,2,1,50,0,0
167097,-62.5,4,2,1,50,0,0
167123,-250,4,2,1,50,0,0
167149,-66.6666666666667,4,2,1,50,0,0
167252,-200,4,2,1,50,0,0
167355,-66.6666666666667,4,2,1,50,0,0
167407,-200,4,2,1,50,0,0
167459,-58.8235294117647,4,2,1,50,0,0
167511,-333.333333333333,4,2,1,50,0,0
167562,-66.6666666666667,4,2,1,50,0,0
167614,-200,4,2,1,50,0,0
167666,-58.8235294117647,4,2,1,50,0,0
167718,-333.333333333333,4,2,1,50,0,0
167769,-54.054054054054,4,2,1,50,0,0
167821,-666.666666666667,4,2,1,50,0,0
167873,-50,4,2,1,50,0,0
167924,-10000,4,2,1,50,0,0
167976,-100,4,2,1,50,0,0
168183,-58.8235294117647,4,2,1,50,0,0
168209,-333.333333333333,4,2,1,50,0,0
168235,-58.8235294117647,4,2,1,50,0,0
168261,-333.333333333333,4,2,1,50,0,0
168286,-55.5555555555556,4,2,1,50,0,0
168312,-500,4,2,1,50,0,0
168338,-55.5555555555556,4,2,1,50,0,0
168364,-500,4,2,1,50,0,0
168390,-50,4,2,1,50,0,0
168416,-10000,4,2,1,50,0,0
168442,-50,4,2,1,50,0,0
168468,-10000,4,2,1,50,0,0
168493,-52.6315789473684,4,2,1,50,0,0
168519,-1000,4,2,1,50,0,0
168545,-52.6315789473684,4,2,1,50,0,0
168571,-1000,4,2,1,50,0,0
168597,-52.6315789473684,4,2,1,50,0,0
168623,-1000,4,2,1,50,0,0
168649,-52.6315789473684,4,2,1,50,0,0
168675,-1000,4,2,1,50,0,0
168700,-100,4,2,1,50,0,0
168804,-33.3333333333333,4,2,1,50,0,0
168830,-300.3003003003,4,2,1,50,0,0
168907,-33.3333333333333,4,2,1,50,0,0
168933,-300.3003003003,4,2,1,50,0,0
169011,-33.3333333333333,4,2,1,50,0,0
169037,-300.3003003003,4,2,1,50,0,0
169114,-58.8235294117647,4,2,1,50,0,0
169140,-333.333333333333,4,2,1,50,0,0
169166,-58.8235294117647,4,2,1,50,0,0
169192,-333.333333333333,4,2,1,50,0,0
169218,-66.6666666666667,4,2,1,50,0,0
169243,-200,4,2,1,50,0,0
169269,-66.6666666666667,4,2,1,50,0,0
169295,-200,4,2,1,50,0,0
169321,-58.8235294117647,4,2,1,50,0,0
169373,-333.333333333333,4,2,1,50,0,0
169424,-54.054054054054,4,2,1,50,0,0
169476,-666.666666666667,4,2,1,50,0,0
169528,-50,4,2,1,50,0,0
169579,-10000,4,2,1,50,0,0
169631,-100,4,2,1,50,0,0
169839,-58.8235294117647,4,2,1,50,0,0
169865,-333.333333333333,4,2,1,50,0,0
169891,-58.8235294117647,4,2,1,50,0,0
169917,-333.333333333333,4,2,1,50,0,0
169942,-55.5555555555556,4,2,1,50,0,0
169968,-500,4,2,1,50,0,0
169994,-55.5555555555556,4,2,1,50,0,0
170020,-500,4,2,1,50,0,0
170045,-50,4,2,1,50,0,0
170097,-10000,4,2,1,50,0,0
170149,-50,4,2,1,50,0,0
170201,-10000,4,2,1,50,0,0
170253,-52.6315789473684,4,2,1,50,0,0
170304,-1000,4,2,1,50,0,0
170356,-52.6315789473684,4,2,1,50,0,0
170407,-1000,4,2,1,50,0,0
170459,-66.6666666666667,4,2,1,50,0,0
170562,-200,4,2,1,50,0,0
170665,-66.6666666666667,4,2,1,50,0,0
170717,-200,4,2,1,50,0,0
170769,-58.8235294117647,4,2,1,50,0,0
170821,-333.333333333333,4,2,1,50,0,0
170872,-66.6666666666667,4,2,1,50,0,0
170924,-200,4,2,1,50,0,0
170976,-58.8235294117647,4,2,1,50,0,0
171028,-333.333333333333,4,2,1,50,0,0
171079,-54.054054054054,4,2,1,50,0,0
171131,-666.666666666667,4,2,1,50,0,0
171183,-50,4,2,1,50,0,0
171234,-10000,4,2,1,50,0,0
171286,-100,4,2,1,50,0,0
171493,-58.8235294117647,4,2,1,50,0,0
171519,-333.333333333333,4,2,1,50,0,0
171545,-58.8235294117647,4,2,1,50,0,0
171571,-333.333333333333,4,2,1,50,0,0
171596,-55.5555555555556,4,2,1,50,0,0
171622,-500,4,2,1,50,0,0
171648,-55.5555555555556,4,2,1,50,0,0
171674,-500,4,2,1,50,0,0
171700,-50,4,2,1,50,0,0
171726,-10000,4,2,1,50,0,0
171752,-50,4,2,1,50,0,0
171778,-10000,4,2,1,50,0,0
171803,-52.6315789473684,4,2,1,50,0,0
171829,-1000,4,2,1,50,0,0
171855,-52.6315789473684,4,2,1,50,0,0
171881,-1000,4,2,1,50,0,0
171907,-52.6315789473684,4,2,1,50,0,0
171933,-1000,4,2,1,50,0,0
171959,-52.6315789473684,4,2,1,50,0,0
171985,-1000,4,2,1,50,0,0
172010,-100,4,2,1,50,0,0
172114,-40,4,2,1,50,0,0
172140,-200,4,2,1,50,0,0
172217,-40,4,2,1,50,0,0
172243,-200,4,2,1,50,0,0
172321,-40,4,2,1,50,0,0
172347,-200,4,2,1,50,0,0
172425,-62.5,4,2,1,50,0,0
172451,-250,4,2,1,50,0,0
172477,-62.5,4,2,1,50,0,0
172503,-250,4,2,1,50,0,0
172529,-68.9655172413793,4,2,1,50,0,0
172554,-181.818181818182,4,2,1,50,0,0
172580,-68.9655172413793,4,2,1,50,0,0
172606,-181.818181818182,4,2,1,50,0,0
172632,-62.5,4,2,1,50,0,0
172684,-250,4,2,1,50,0,0
172735,-57.1428571428571,4,2,1,50,0,0
172787,-400,4,2,1,50,0,0
172839,-52.6315789473684,4,2,1,50,0,0
172890,-1000,4,2,1,50,0,0
172942,-100,4,2,1,50,0,0
173148,-62.5,4,2,1,50,0,0
173174,-250,4,2,1,50,0,0
173200,-62.5,4,2,1,50,0,0
173226,-250,4,2,1,50,0,0
173251,-58.8235294117647,4,2,1,50,0,0
173277,-333.333333333333,4,2,1,50,0,0
173303,-58.8235294117647,4,2,1,50,0,0
173329,-333.333333333333,4,2,1,50,0,0
173355,-54.054054054054,4,2,1,50,0,0
173408,-666.666666666667,4,2,1,50,0,0
173459,-54.054054054054,4,2,1,50,0,0
173512,-666.666666666667,4,2,1,50,0,0
173563,-57.1428571428571,4,2,1,50,0,0
173616,-400,4,2,1,50,0,0
173666,-57.1428571428571,4,2,1,50,0,0
173719,-400,4,2,1,50,0,0
173770,-80,4,2,1,50,0,0
173873,-133.333333333333,4,2,1,50,0,0
173976,-80,4,2,1,50,0,0
174028,-133.333333333333,4,2,1,50,0,0
174080,-66.6666666666667,4,2,1,50,0,0
174132,-200,4,2,1,50,0,0
174183,-80,4,2,1,50,0,0
174235,-133.333333333333,4,2,1,50,0,0
174287,-66.6666666666667,4,2,1,50,0,0
174339,-200,4,2,1,50,0,0
174390,-62.5,4,2,1,50,0,0
174442,-250,4,2,1,50,0,0
174494,-58.8235294117647,4,2,1,50,0,0
174545,-333.333333333333,4,2,1,50,0,0
174597,-100,4,2,1,50,0,0
174804,-66.6666666666667,4,2,1,50,0,0
174830,-200,4,2,1,50,0,0
174856,-66.6666666666667,4,2,1,50,0,0
174882,-200,4,2,1,50,0,0
174907,-62.5,4,2,1,50,0,0
174933,-250,4,2,1,50,0,0
174959,-62.5,4,2,1,50,0,0
174985,-250,4,2,1,50,0,0
175011,-55.5555555555556,4,2,1,50,0,0
175037,-500,4,2,1,50,0,0
175063,-55.5555555555556,4,2,1,50,0,0
175089,-500,4,2,1,50,0,0
175114,-58.8235294117647,4,2,1,50,0,0
175140,-333.333333333333,4,2,1,50,0,0
175166,-58.8235294117647,4,2,1,50,0,0
175192,-333.333333333333,4,2,1,50,0,0
175218,-58.8235294117647,4,2,1,50,0,0
175244,-333.333333333333,4,2,1,50,0,0
175270,-58.8235294117647,4,2,1,50,0,0
175296,-333.333333333333,4,2,1,50,0,0
175321,-100,4,2,1,50,0,0
175425,-50,4,2,1,50,0,0
175451,-149.992500374981,4,2,1,50,0,0
175528,-50,4,2,1,50,0,0
175554,-149.992500374981,4,2,1,50,0,0
175632,-50,4,2,1,50,0,0
175658,-149.992500374981,4,2,1,50,0,0
175735,-66.6666666666667,4,2,1,50,0,0
175761,-200,4,2,1,50,0,0
175787,-66.6666666666667,4,2,1,50,0,0
175813,-200,4,2,1,50,0,0
175839,-66.6666666666667,4,2,1,50,0,0
175864,-200,4,2,1,50,0,0
175890,-66.6666666666667,4,2,1,50,0,0
175916,-200,4,2,1,50,0,0
175942,-66.6666666666667,4,2,1,50,0,0
175994,-200,4,2,1,50,0,0
176045,-62.5,4,2,1,50,0,0
176097,-250,4,2,1,50,0,0
176149,-58.8235294117647,4,2,1,50,0,0
176200,-333.333333333333,4,2,1,50,0,0
176252,-100,4,2,1,50,0,0
176459,-66.6666666666667,4,2,1,50,0,0
176485,-200,4,2,1,50,0,0
176511,-66.6666666666667,4,2,1,50,0,0
176537,-200,4,2,1,50,0,0
176562,-62.5,4,2,1,50,0,0
176588,-250,4,2,1,50,0,0
176614,-62.5,4,2,1,50,0,0
176640,-250,4,2,1,50,0,0
176666,-55.5555555555556,4,2,1,50,0,0
176718,-500,4,2,1,50,0,0
176770,-55.5555555555556,4,2,1,50,0,0
176822,-500,4,2,1,50,0,0
176874,-58.8235294117647,4,2,1,50,0,0
176925,-333.333333333333,4,2,1,50,0,0
176977,-58.8235294117647,4,2,1,50,0,0
177028,-333.333333333333,4,2,1,50,0,0
177080,-50,4,2,1,50,0,0
177132,-10000,4,2,1,50,0,0
177183,-100,4,2,1,50,0,0
177286,-80,4,2,1,50,0,0
177338,-133.333333333333,4,2,1,50,0,0
177390,-66.6666666666667,4,2,1,50,0,0
177442,-200,4,2,1,50,0,0
177493,-80,4,2,1,50,0,0
177545,-133.333333333333,4,2,1,50,0,0
177597,-66.6666666666667,4,2,1,50,0,0
177649,-200,4,2,1,50,0,0
177700,-62.5,4,2,1,50,0,0
177752,-250,4,2,1,50,0,0
177804,-58.8235294117647,4,2,1,50,0,0
177855,-333.333333333333,4,2,1,50,0,0
177907,-50,4,2,1,50,0,0
177959,-10000,4,2,1,50,0,0
178011,-100,4,2,1,50,0,0
178114,-66.6666666666667,4,2,1,50,0,0
178140,-200,4,2,1,50,0,0
178166,-66.6666666666667,4,2,1,50,0,0
178192,-200,4,2,1,50,0,0
178217,-62.5,4,2,1,50,0,0
178243,-250,4,2,1,50,0,0
178269,-62.5,4,2,1,50,0,0
178295,-250,4,2,1,50,0,0
178321,-55.5555555555556,4,2,1,50,0,0
178347,-500,4,2,1,50,0,0
178373,-55.5555555555556,4,2,1,50,0,0
178399,-500,4,2,1,50,0,0
178424,-58.8235294117647,4,2,1,50,0,0
178450,-333.333333333333,4,2,1,50,0,0
178476,-58.8235294117647,4,2,1,50,0,0
178502,-333.333333333333,4,2,1,50,0,0
178528,-58.8235294117647,4,2,1,50,0,0
178554,-333.333333333333,4,2,1,50,0,0
178580,-58.8235294117647,4,2,1,50,0,0
178606,-333.333333333333,4,2,1,50,0,0
178631,-100,4,2,1,50,0,0
178735,-50,4,2,1,50,0,0
178761,-149.992500374981,4,2,1,50,0,0
178838,-50,4,2,1,50,0,0
178864,-149.992500374981,4,2,1,50,0,0
178942,-50,4,2,1,50,0,0
178968,-149.992500374981,4,2,1,50,0,0
179045,-71.4285714285714,4,2,1,50,0,0
179071,-166.666666666667,4,2,1,50,0,0
179097,-71.4285714285714,4,2,1,50,0,0
179123,-166.666666666667,4,2,1,50,0,0
179149,-71.4285714285714,4,2,1,50,0,0
179174,-166.666666666667,4,2,1,50,0,0
179200,-71.4285714285714,4,2,1,50,0,0
179226,-166.666666666667,4,2,1,50,0,0
179252,-71.4285714285714,4,2,1,50,0,0
179304,-166.666666666667,4,2,1,50,0,0
179355,-66.6666666666667,4,2,1,50,0,0
179407,-200,4,2,1,50,0,0
179459,-62.5,4,2,1,50,0,0
179510,-250,4,2,1,50,0,0
179562,-100,4,2,1,50,0,0
179769,-66.6666666666667,4,2,1,50,0,0
179795,-200,4,2,1,50,0,0
179821,-66.6666666666667,4,2,1,50,0,0
179847,-200,4,2,1,50,0,0
179872,-60.6060606060606,4,2,1,50,0,0
179898,-285.714285714286,4,2,1,50,0,0
179924,-60.6060606060606,4,2,1,50,0,0
179950,-285.714285714286,4,2,1,50,0,0
179976,-100,4,2,1,50,0,0
180080,-66.6666666666667,4,2,1,50,0,0
180106,-200,4,2,1,50,0,0
180132,-66.6666666666667,4,2,1,50,0,0
180158,-200,4,2,1,50,0,0
180183,-60.6060606060606,4,2,1,50,0,0
180209,-285.714285714286,4,2,1,50,0,0
180235,-60.6060606060606,4,2,1,50,0,0
180261,-285.714285714286,4,2,1,50,0,0
180287,-100,4,2,1,50,0,0
180390,-125,4,2,1,50,0,0
180597,-83.3333333333333,4,2,1,50,0,0
180623,-250,4,2,1,50,0,0
180649,-83.3333333333333,4,2,1,50,0,0
180675,-250,4,2,1,50,0,0
180701,-83.3333333333333,4,2,1,50,0,0
180727,-250,4,2,1,50,0,0
180752,-83.3333333333333,4,2,1,50,0,0
180778,-250,4,2,1,50,0,0
180804,-78.125,4,2,1,50,0,0
180830,-312.5,4,2,1,50,0,0
180856,-78.125,4,2,1,50,0,0
180882,-312.5,4,2,1,50,0,0
180908,-78.125,4,2,1,50,0,0
180934,-312.5,4,2,1,50,0,0
180959,-78.125,4,2,1,50,0,0
180985,-312.5,4,2,1,50,0,0
181011,-125,4,2,1,50,0,0
181425,-83.3333333333333,4,2,1,50,0,0
181451,-250,4,2,1,50,0,0
181477,-83.3333333333333,4,2,1,50,0,0
181503,-250,4,2,1,50,0,0
181529,-83.3333333333333,4,2,1,50,0,0
181555,-250,4,2,1,50,0,0
181580,-83.3333333333333,4,2,1,50,0,0
181606,-250,4,2,1,50,0,0
181632,-78.125,4,2,1,50,0,0
181658,-312.5,4,2,1,50,0,0
181684,-78.125,4,2,1,50,0,0
181710,-312.5,4,2,1,50,0,0
181736,-78.125,4,2,1,50,0,0
181762,-312.5,4,2,1,50,0,0
181787,-78.125,4,2,1,50,0,0
181813,-312.5,4,2,1,50,0,0
181839,-125,4,2,1,50,0,0
182252,-83.3333333333333,4,2,1,50,0,0
182278,-250,4,2,1,50,0,0
182304,-83.3333333333333,4,2,1,50,0,0
182330,-250,4,2,1,50,0,0
182356,-83.3333333333333,4,2,1,50,0,0
182382,-250,4,2,1,50,0,0
182407,-83.3333333333333,4,2,1,50,0,0
182433,-250,4,2,1,50,0,0
182459,-78.125,4,2,1,50,0,0
182485,-312.5,4,2,1,50,0,0
182511,-78.125,4,2,1,50,0,0
182537,-312.5,4,2,1,50,0,0
182563,-78.125,4,2,1,50,0,0
182589,-312.5,4,2,1,50,0,0
182614,-78.125,4,2,1,50,0,0
182640,-312.5,4,2,1,50,0,0
182666,-125,4,2,1,50,0,0
183080,-83.3333333333333,4,2,1,50,0,0
183106,-250,4,2,1,50,0,0
183132,-83.3333333333333,4,2,1,50,0,0
183158,-250,4,2,1,50,0,0
183184,-83.3333333333333,4,2,1,50,0,0
183210,-250,4,2,1,50,0,0
183235,-83.3333333333333,4,2,1,50,0,0
183261,-250,4,2,1,50,0,0
183287,-78.125,4,2,1,50,0,0
183313,-312.5,4,2,1,50,0,0
183339,-78.125,4,2,1,50,0,0
183365,-312.5,4,2,1,50,0,0
183391,-78.125,4,2,1,50,0,0
183417,-312.5,4,2,1,50,0,0
183442,-78.125,4,2,1,50,0,0
183468,-312.5,4,2,1,50,0,0
183494,-125,4,2,1,50,0,0
183908,-83.3333333333333,4,2,1,50,0,0
183934,-250,4,2,1,50,0,0
183960,-83.3333333333333,4,2,1,50,0,0
183986,-250,4,2,1,50,0,0
184012,-83.3333333333333,4,2,1,50,0,0
184038,-250,4,2,1,50,0,0
184063,-83.3333333333333,4,2,1,50,0,0
184089,-250,4,2,1,50,0,0
184115,-78.125,4,2,1,50,0,0
184141,-312.5,4,2,1,50,0,0
184167,-78.125,4,2,1,50,0,0
184193,-312.5,4,2,1,50,0,0
184219,-78.125,4,2,1,50,0,0
184245,-312.5,4,2,1,50,0,0
184270,-78.125,4,2,1,50,0,0
184296,-312.5,4,2,1,50,0,0
184322,-125,4,2,1,50,0,0
184735,-83.3333333333333,4,2,1,50,0,0
184761,-250,4,2,1,50,0,0
184787,-83.3333333333333,4,2,1,50,0,0
184813,-250,4,2,1,50,0,0
184839,-83.3333333333333,4,2,1,50,0,0
184865,-250,4,2,1,50,0,0
184890,-83.3333333333333,4,2,1,50,0,0
184916,-250,4,2,1,50,0,0
184942,-78.125,4,2,1,50,0,0
184968,-312.5,4,2,1,50,0,0
184994,-78.125,4,2,1,50,0,0
185020,-312.5,4,2,1,50,0,0
185046,-78.125,4,2,1,50,0,0
185072,-312.5,4,2,1,50,0,0
185097,-78.125,4,2,1,50,0,0
185123,-312.5,4,2,1,50,0,0
185149,-125,4,2,1,50,0,0
185563,-83.3333333333333,4,2,1,50,0,0
185589,-250,4,2,1,50,0,0
185615,-83.3333333333333,4,2,1,50,0,0
185641,-250,4,2,1,50,0,0
185667,-83.3333333333333,4,2,1,50,0,0
185693,-250,4,2,1,50,0,0
185718,-83.3333333333333,4,2,1,50,0,0
185744,-250,4,2,1,50,0,0
185770,-78.125,4,2,1,50,0,0
185796,-312.5,4,2,1,50,0,0
185822,-78.125,4,2,1,50,0,0
185848,-312.5,4,2,1,50,0,0
185874,-78.125,4,2,1,50,0,0
185900,-312.5,4,2,1,50,0,0
185925,-78.125,4,2,1,50,0,0
185951,-312.5,4,2,1,50,0,0
185977,-125,4,2,1,50,0,0
186390,-83.3333333333333,4,2,1,50,0,0
186416,-250,4,2,1,50,0,0
186442,-83.3333333333333,4,2,1,50,0,0
186468,-250,4,2,1,50,0,0
186494,-83.3333333333333,4,2,1,50,0,0
186520,-250,4,2,1,50,0,0
186545,-83.3333333333333,4,2,1,50,0,0
186571,-250,4,2,1,50,0,0
186597,-78.125,4,2,1,50,0,0
186623,-312.5,4,2,1,50,0,0
186649,-78.125,4,2,1,50,0,0
186675,-312.5,4,2,1,50,0,0
186701,-78.125,4,2,1,50,0,0
186727,-312.5,4,2,1,50,0,0
186752,-78.125,4,2,1,50,0,0
186778,-312.5,4,2,1,50,0,0
186804,-78.125,4,2,1,50,0,0
186856,-312.5,4,2,1,50,0,0
186908,-78.125,4,2,1,50,0,0
186960,-312.5,4,2,1,50,0,0
187011,-68.9655172413793,4,2,1,50,0,0
187037,-277.777777777778,4,2,1,50,0,0
187063,-68.9655172413793,4,2,1,50,0,0
187089,-277.777777777778,4,2,1,50,0,0
187115,-68.9655172413793,4,2,1,50,0,0
187141,-277.777777777778,4,2,1,50,0,0
187166,-69.4444444444444,4,2,1,50,0,0
187192,-277.777777777778,4,2,1,50,0,0
187218,-69.4444444444444,4,2,1,50,0,0
187244,-277.777777777778,4,2,1,50,0,0
187270,-69.4444444444444,4,2,1,50,0,0
187296,-277.777777777778,4,2,1,50,0,0
187322,-69.4444444444444,4,2,1,50,0,0
187348,-277.777777777778,4,2,1,50,0,0
187373,-69.4444444444444,4,2,1,50,0,0
187399,-277.777777777778,4,2,1,50,0,0
187425,-65.359477124183,4,2,1,50,0,0
187451,-370.37037037037,4,2,1,50,0,0
187477,-65.359477124183,4,2,1,50,0,0
187503,-370.37037037037,4,2,1,50,0,0
187529,-65.359477124183,4,2,1,50,0,0
187555,-370.37037037037,4,2,1,50,0,0
187580,-65.359477124183,4,2,1,50,0,0
187606,-370.37037037037,4,2,1,50,0,0
187632,-111.111111111111,4,2,1,50,0,0
188045,-65.359477124183,4,2,1,50,0,0
188071,-370.37037037037,4,2,1,50,0,0
188097,-65.359477124183,4,2,1,50,0,0
188123,-370.37037037037,4,2,1,50,0,0
188149,-65.359477124183,4,2,1,50,0,0
188175,-370.37037037037,4,2,1,50,0,0
188200,-65.359477124183,4,2,1,50,0,0
188226,-370.37037037037,4,2,1,50,0,0
188252,-65.359477124183,4,2,1,50,0,0
188278,-370.37037037037,4,2,1,50,0,0
188304,-65.359477124183,4,2,1,50,0,0
188330,-370.37037037037,4,2,1,50,0,0
188356,-65.359477124183,4,2,1,50,0,0
188382,-370.37037037037,4,2,1,50,0,0
188407,-65.359477124183,4,2,1,50,0,0
188433,-370.37037037037,4,2,1,50,0,0
188459,-111.111111111111,4,2,1,50,0,0
188666,-68.9655172413793,4,2,1,50,0,0
188692,-277.777777777778,4,2,1,50,0,0
188718,-68.9655172413793,4,2,1,50,0,0
188744,-277.777777777778,4,2,1,50,0,0
188770,-68.9655172413793,4,2,1,50,0,0
188796,-277.777777777778,4,2,1,50,0,0
188821,-69.4444444444444,4,2,1,50,0,0
188847,-277.777777777778,4,2,1,50,0,0
188873,-69.4444444444444,4,2,1,50,0,0
188899,-277.777777777778,4,2,1,50,0,0
188925,-69.4444444444444,4,2,1,50,0,0
188951,-277.777777777778,4,2,1,50,0,0
188977,-69.4444444444444,4,2,1,50,0,0
189003,-277.777777777778,4,2,1,50,0,0
189028,-69.4444444444444,4,2,1,50,0,0
189054,-277.777777777778,4,2,1,50,0,0
189080,-65.359477124183,4,2,1,50,0,0
189106,-370.37037037037,4,2,1,50,0,0
189132,-65.359477124183,4,2,1,50,0,0
189158,-370.37037037037,4,2,1,50,0,0
189184,-65.359477124183,4,2,1,50,0,0
189210,-370.37037037037,4,2,1,50,0,0
189235,-65.359477124183,4,2,1,50,0,0
189261,-370.37037037037,4,2,1,50,0,0
189287,-111.111111111111,4,2,1,50,0,0
189700,-65.359477124183,4,2,1,50,0,0
189726,-370.37037037037,4,2,1,50,0,0
189752,-65.359477124183,4,2,1,50,0,0
189778,-370.37037037037,4,2,1,50,0,0
189804,-65.359477124183,4,2,1,50,0,0
189830,-370.37037037037,4,2,1,50,0,0
189855,-65.359477124183,4,2,1,50,0,0
189881,-370.37037037037,4,2,1,50,0,0
189907,-65.359477124183,4,2,1,50,0,0
189933,-370.37037037037,4,2,1,50,0,0
189959,-65.359477124183,4,2,1,50,0,0
189985,-370.37037037037,4,2,1,50,0,0
190011,-65.359477124183,4,2,1,50,0,0
190037,-370.37037037037,4,2,1,50,0,0
190062,-65.359477124183,4,2,1,50,0,0
190088,-370.37037037037,4,2,1,50,0,0
190114,-111.111111111111,4,2,1,50,0,0
190321,-88.8888888888889,4,2,1,50,0,0
190477,-148.148148148148,4,2,1,50,0,0
190632,-111.111111111111,4,2,1,50,0,0
191356,-88.8888888888889,4,2,1,50,0,0
191459,-148.148148148148,4,2,1,50,0,0
191563,-111.111111111111,4,2,1,50,0,0
191977,-85.4700854700855,4,2,1,50,0,0
192133,-158.730158730159,4,2,1,50,0,0
192288,-111.111111111111,4,2,1,50,0,0
192804,-101.010101010101,4,2,1,50,0,0
192856,-123.456790123457,4,2,1,50,0,0
192908,-101.010101010101,4,2,1,50,0,0
192959,-123.456790123457,4,2,1,50,0,0
193011,-92.5925925925926,4,2,1,50,0,0
193063,-138.888888888889,4,2,1,50,0,0
193114,-92.5925925925926,4,2,1,50,0,0
193166,-138.888888888889,4,2,1,50,0,0
193218,-80.9716599190283,4,2,1,50,0,0
193270,-150.375939849624,4,2,1,50,0,0
193321,-80.9716599190283,4,2,1,50,0,0
193373,-150.375939849624,4,2,1,50,0,0
193425,-75.187969924812,4,2,1,50,0,0
193477,-175.438596491228,4,2,1,50,0,0
193528,-75.187969924812,4,2,1,50,0,0
193580,-175.438596491228,4,2,1,50,0,0
193632,-66.6666666666667,4,2,1,50,0,0
193683,-200,4,2,1,50,0,0
193735,-100,4,2,1,50,0,0
193839,-90.9090909090909,4,2,1,50,0,0
193890,-111.111111111111,4,2,1,50,0,0
193942,-100,4,2,1,50,0,0
194045,-90.9090909090909,4,2,1,50,0,0
194096,-111.111111111111,4,2,1,50,0,0
194148,-100,4,2,1,50,0,0
194252,-90.9090909090909,4,2,1,50,0,0
194303,-111.111111111111,4,2,1,50,0,0
194355,-100,4,2,1,50,0,0
194459,-90.9090909090909,4,2,1,50,0,0
194510,-111.111111111111,4,2,1,50,0,0
194562,-100,4,2,1,50,0,0
194666,-90.9090909090909,4,2,1,50,0,0
194717,-111.111111111111,4,2,1,50,0,0
194769,-100,4,2,1,50,0,0
194873,-90.9090909090909,4,2,1,50,0,0
194924,-111.111111111111,4,2,1,50,0,0
194976,-100,4,2,1,50,0,0
195080,-90.9090909090909,4,2,1,50,0,0
195131,-111.111111111111,4,2,1,50,0,0
195183,-100,4,2,1,50,0,0
195287,-83.3333333333333,4,2,1,50,0,0
195338,-125,4,2,1,50,0,0
195390,-100,4,2,1,50,0,0
195494,-83.3333333333333,4,2,1,50,0,0
195545,-125,4,2,1,50,0,0
195597,-100,4,2,1,50,0,0
195701,-83.3333333333333,4,2,1,50,0,0
195752,-125,4,2,1,50,0,0
195804,-100,4,2,1,50,0,0
195908,-83.3333333333333,4,2,1,50,0,0
195959,-125,4,2,1,50,0,0
196011,-100,4,2,1,50,0,0
196114,-83.3333333333333,4,2,1,50,0,0
196165,-125,4,2,1,50,0,0
196217,-100,4,2,1,50,0,0
196321,-83.3333333333333,4,2,1,50,0,0
196372,-125,4,2,1,50,0,0
196424,-100,4,2,1,50,0,0
196528,-83.3333333333333,4,2,1,50,0,0
196579,-125,4,2,1,50,0,0
196631,-100,4,2,1,50,0,0
196735,-83.3333333333333,4,2,1,50,0,0
196786,-125,4,2,1,50,0,0
196838,-100,4,2,1,50,0,0
196942,-76.9230769230769,4,2,1,50,0,0
196993,-142.857142857143,4,2,1,50,0,0
197045,-100,4,2,1,50,0,0
197149,-76.9230769230769,4,2,1,50,0,0
197200,-142.857142857143,4,2,1,50,0,0
197252,-100,4,2,1,50,0,0
197356,-76.9230769230769,4,2,1,50,0,0
197407,-142.857142857143,4,2,1,50,0,0
197459,-100,4,2,1,50,0,0
197563,-76.9230769230769,4,2,1,50,0,0
197614,-142.857142857143,4,2,1,50,0,0
197666,-100,4,2,1,50,0,0
197770,-76.9230769230769,4,2,1,50,0,0
197821,-142.857142857143,4,2,1,50,0,0
197873,-100,4,2,1,50,0,0
197977,-76.9230769230769,4,2,1,50,0,0
198028,-142.857142857143,4,2,1,50,0,0
198080,-100,4,2,1,50,0,0
198183,-76.9230769230769,4,2,1,50,0,0
198234,-142.857142857143,4,2,1,50,0,0
198286,-100,4,2,1,50,0,0
198390,-76.9230769230769,4,2,1,50,0,0
198441,-142.857142857143,4,2,1,50,0,0
198493,-100,4,2,1,50,0,0
198597,-71.4285714285714,4,2,1,50,0,0
198648,-166.666666666667,4,2,1,50,0,0
198700,-100,4,2,1,50,0,0
198804,-71.4285714285714,4,2,1,50,0,0
198855,-166.666666666667,4,2,1,50,0,0
198907,-100,4,2,1,50,0,0
199011,-71.4285714285714,4,2,1,50,0,0
199062,-166.666666666667,4,2,1,50,0,0
199114,-100,4,2,1,50,0,0
199218,-71.4285714285714,4,2,1,50,0,0
199269,-166.666666666667,4,2,1,50,0,0
199321,-100,4,2,1,50,0,0
199425,-71.4285714285714,4,2,1,50,0,0
199476,-166.666666666667,4,2,1,50,0,0
199528,-100,4,2,1,50,0,0
199632,-71.4285714285714,4,2,1,50,0,0
199683,-166.666666666667,4,2,1,50,0,0
199735,-100,4,2,1,50,0,0
199839,-71.4285714285714,4,2,1,50,0,0
199890,-166.666666666667,4,2,1,50,0,0
199942,-100,4,2,1,50,0,0
200045,-71.4285714285714,4,2,1,50,0,0
200096,-166.666666666667,4,2,1,50,0,0
200148,-100,4,2,1,50,0,0
200252,-66.6666666666667,4,2,1,50,0,0
200304,-200,4,2,1,50,0,0
200356,-66.6666666666667,4,2,1,50,0,0
200408,-200,4,2,1,50,0,0
200459,-66.6666666666667,4,2,1,50,0,0
200511,-200,4,2,1,50,0,0
200563,-66.6666666666667,4,2,1,50,0,0
200614,-200,4,2,1,50,0,0
200666,-66.6666666666667,4,2,1,50,0,0
200718,-200,4,2,1,50,0,0
200770,-66.6666666666667,4,2,1,50,0,0
200821,-200,4,2,1,50,0,0
200873,-66.6666666666667,4,2,1,50,0,0
200925,-200,4,2,1,50,0,0
200977,-66.6666666666667,4,2,1,50,0,0
201028,-200,4,2,1,50,0,0
201080,-66.6666666666667,4,2,1,50,0,0
201132,-200,4,2,1,50,0,0
201183,-66.6666666666667,4,2,1,50,0,0
201235,-200,4,2,1,50,0,0
201287,-66.6666666666667,4,2,1,50,0,0
201339,-200,4,2,1,50,0,0
201390,-66.6666666666667,4,2,1,50,0,0
201442,-200,4,2,1,50,0,0
201494,-66.6666666666667,4,2,1,50,0,0
201545,-200,4,2,1,50,0,0
201597,-66.6666666666667,4,2,1,50,0,0
201649,-200,4,2,1,50,0,0
201701,-66.6666666666667,4,2,1,50,0,0
201752,-200,4,2,1,50,0,0
201804,-66.6666666666667,4,2,1,50,0,0
201856,-200,4,2,1,50,0,0
201908,-62.5,4,2,1,50,0,0
201959,-250,4,2,1,50,0,0
202011,-62.5,4,2,1,50,0,0
202063,-250,4,2,1,50,0,0
202114,-62.5,4,2,1,50,0,0
202166,-250,4,2,1,50,0,0
202218,-62.5,4,2,1,50,0,0
202270,-250,4,2,1,50,0,0
202321,-62.5,4,2,1,50,0,0
202373,-250,4,2,1,50,0,0
202425,-62.5,4,2,1,50,0,0
202477,-250,4,2,1,50,0,0
202528,-62.5,4,2,1,50,0,0
202580,-250,4,2,1,50,0,0
202632,-62.5,4,2,1,50,0,0
202683,-250,4,2,1,50,0,0
202735,-62.5,4,2,1,50,0,0
202787,-250,4,2,1,50,0,0
202839,-62.5,4,2,1,50,0,0
202890,-250,4,2,1,50,0,0
202942,-62.5,4,2,1,50,0,0
202994,-250,4,2,1,50,0,0
203045,-62.5,4,2,1,50,0,0
203097,-250,4,2,1,50,0,0
203149,-62.5,4,2,1,50,0,0
203201,-250,4,2,1,50,0,0
203252,-62.5,4,2,1,50,0,0
203304,-250,4,2,1,50,0,0
203356,-62.5,4,2,1,50,0,0
203408,-250,4,2,1,50,0,0
203459,-62.5,4,2,1,50,0,0
203511,-250,4,2,1,50,0,0
203563,-58.8235294117647,4,2,1,50,0,0
203614,-333.333333333333,4,2,1,50,0,0
203666,-58.8235294117647,4,2,1,50,0,0
203718,-333.333333333333,4,2,1,50,0,0
203770,-58.8235294117647,4,2,1,50,0,0
203821,-333.333333333333,4,2,1,50,0,0
203873,-58.8235294117647,4,2,1,50,0,0
203925,-333.333333333333,4,2,1,50,0,0
203977,-55.5555555555556,4,2,1,50,0,0
204028,-500,4,2,1,50,0,0
204080,-55.5555555555556,4,2,1,50,0,0
204132,-500,4,2,1,50,0,0
204183,-55.5555555555556,4,2,1,50,0,0
204235,-500,4,2,1,50,0,0
204287,-55.5555555555556,4,2,1,50,0,0
204339,-500,4,2,1,50,0,0
204390,-52.6315789473684,4,2,1,50,0,0
204442,-1000,4,2,1,50,0,0
204494,-52.6315789473684,4,2,1,50,0,0
204545,-1000,4,2,1,50,0,0
204597,-52.6315789473684,4,2,1,50,0,0
204649,-1000,4,2,1,50,0,0
204701,-52.6315789473684,4,2,1,50,0,0
204752,-1000,4,2,1,50,0,0
204804,-50,4,2,1,50,0,0
204856,-10000,4,2,1,50,0,0
204908,-50,4,2,1,50,0,0
204959,-10000,4,2,1,50,0,0
205011,-50,4,2,1,50,0,0
205063,-10000,4,2,1,50,0,0
205114,-50,4,2,1,50,0,0
205140,-10000,4,2,1,50,0,0
205166,-50,4,2,1,50,0,0
205192,-10000,4,2,1,50,0,0
205218,-500,4,2,1,50,0,0
205321,-181.818181818182,4,2,1,50,0,0
205373,-142.857142857143,4,2,1,50,0,0
205425,-86.9565217391306,4,2,1,50,0,0
205477,-76.9230769230769,4,2,1,50,0,0
205528,-500,4,2,1,50,0,0
205631,-181.818181818182,4,2,1,50,0,0
205683,-142.857142857143,4,2,1,50,0,0
205735,-86.9565217391306,4,2,1,50,0,0
205787,-76.9230769230769,4,2,1,50,0,0
205839,-500,4,2,1,50,0,0
205890,-153.846153846154,4,2,1,50,0,0
205942,-111.111111111111,4,2,1,50,0,0
205994,-68.9655172413793,4,2,1,50,0,0
206045,-500,4,2,1,50,0,0
206096,-153.846153846154,4,2,1,50,0,0
206148,-111.111111111111,4,2,1,50,0,0
206200,-68.9655172413793,4,2,1,50,0,0
206252,-500,4,2,1,50,0,0
206303,-153.846153846154,4,2,1,50,0,0
206355,-111.111111111111,4,2,1,50,0,0
206407,-68.9655172413793,4,2,1,50,0,0
206459,-800,4,2,1,50,0,0
206542,-303.030303030303,4,2,1,50,0,0
206625,-114.285714285714,4,2,1,50,0,0
206708,-70.1754385964912,4,2,1,50,0,0
206790,-53.3333333333333,4,2,1,50,0,0
206873,-57.1428571428571,4,2,1,50,0,1
206924,-400,4,2,1,50,0,1
206976,-100,4,2,1,50,0,1
218459,-90.9090909090909,4,2,1,50,0,1
218485,-103.412616339193,4,2,1,50,0,1
218563,-83.3333333333333,4,2,1,50,0,1
218589,-107.135204628241,4,2,1,50,0,1
218666,-76.9230769230769,4,2,1,50,0,1
218692,-111.111111111111,4,2,1,50,0,1
218770,-71.4285714285714,4,2,1,50,0,1
218796,-115.380177685474,4,2,1,50,0,1
218873,-66.6666666666667,4,2,1,50,0,1
218899,-119.990400767939,4,2,1,50,0,1
218977,-66.6666666666667,4,2,1,50,0,1
219003,-119.990400767939,4,2,1,50,0,1
219080,-57.1428571428571,4,2,1,50,0,1
219106,-133.333333333333,4,2,1,50,0,1
219183,-57.1428571428571,4,2,1,50,0,1
219209,-133.333333333333,4,2,1,50,0,1
219287,-50,4,2,1,50,0,1
219313,-149.925037481259,4,2,1,50,0,1
219390,-50,4,2,1,50,0,1
219416,-149.925037481259,4,2,1,50,0,1
219494,-50,4,2,1,50,0,1
219520,-149.925037481259,4,2,1,50,0,1
219597,-50,4,2,1,50,0,1
219623,-149.925037481259,4,2,1,50,0,1
219701,-40,4,2,1,50,0,1
219727,-303.030303030303,4,2,1,50,0,1
219804,-40,4,2,1,50,0,1
219830,-200,4,2,1,50,0,1
219908,-40,4,2,1,50,0,1
219934,-200,4,2,1,50,0,1
220011,-40,4,2,1,50,0,1
220037,-200,4,2,1,50,0,1
220114,-57.1428571428571,4,2,1,50,0,1
220165,-400,4,2,1,50,0,1
220217,-100,4,2,1,50,0,1
231701,-90.9090909090909,4,2,1,50,0,0
231727,-103.412616339193,4,2,1,50,0,0
231805,-83.3333333333333,4,2,1,50,0,0
231831,-107.135204628241,4,2,1,50,0,0
231908,-76.9230769230769,4,2,1,50,0,0
231934,-111.111111111111,4,2,1,50,0,0
232012,-71.4285714285714,4,2,1,50,0,0
232038,-115.380177685474,4,2,1,50,0,0
232115,-66.6666666666667,4,2,1,50,0,0
232141,-119.990400767939,4,2,1,50,0,0
232219,-66.6666666666667,4,2,1,50,0,0
232245,-119.990400767939,4,2,1,50,0,0
232322,-57.1428571428571,4,2,1,50,0,0
232348,-133.333333333333,4,2,1,50,0,0
232425,-57.1428571428571,4,2,1,50,0,0
232451,-133.333333333333,4,2,1,50,0,0
232529,-50,4,2,1,50,0,0
232555,-149.925037481259,4,2,1,50,0,0
232632,-50,4,2,1,50,0,0
232658,-149.925037481259,4,2,1,50,0,0
232736,-50,4,2,1,50,0,0
232762,-149.925037481259,4,2,1,50,0,0
232839,-50,4,2,1,50,0,0
232865,-149.925037481259,4,2,1,50,0,0
232943,-40,4,2,1,50,0,0
232969,-303.030303030303,4,2,1,50,0,0
233046,-40,4,2,1,50,0,0
233072,-200,4,2,1,50,0,0
233150,-40,4,2,1,50,0,0
233176,-200,4,2,1,50,0,0
233253,-40,4,2,1,50,0,0
233279,-200,4,2,1,50,0,0
233356,-75.187969924812,4,2,1,50,0,1
233459,-151.515151515152,4,2,1,50,0,1
233563,-100,4,2,1,50,0,1
235011,-80,4,2,1,50,0,1
235114,-133.333333333333,4,2,1,50,0,1
235218,-100,4,2,1,50,0,1
236667,-80,4,2,1,50,0,1
236770,-133.333333333333,4,2,1,50,0,1
236874,-100,4,2,1,50,0,1
238322,-80,4,2,1,50,0,1
238425,-133.333333333333,4,2,1,50,0,1
238529,-100,4,2,1,50,0,1
239563,-80,4,2,1,50,0,1
239666,-133.333333333333,4,2,1,50,0,1
239770,-100,4,2,1,50,0,1
239977,-75.187969924812,4,2,1,50,0,1
240080,-151.515151515152,4,2,1,50,0,1
240184,-100,4,2,1,50,0,1
241632,-80,4,2,1,50,0,1
241735,-133.333333333333,4,2,1,50,0,1
241839,-100,4,2,1,50,0,1
243287,-80,4,2,1,50,0,1
243390,-133.333333333333,4,2,1,50,0,1
243494,-100,4,2,1,50,0,1
244942,-80,4,2,1,50,0,1
245045,-133.333333333333,4,2,1,50,0,1
245149,-76.9230769230769,4,2,1,50,0,1
245175,-111.111111111111,4,2,1,50,0,1
245253,-71.4285714285714,4,2,1,50,0,1
245279,-115.380177685474,4,2,1,50,0,1
245356,-66.6666666666667,4,2,1,50,0,1
245382,-119.990400767939,4,2,1,50,0,1
245460,-66.6666666666667,4,2,1,50,0,1
245486,-119.990400767939,4,2,1,50,0,1
245563,-57.1428571428571,4,2,1,50,0,1
245589,-133.333333333333,4,2,1,50,0,1
245666,-57.1428571428571,4,2,1,50,0,1
245692,-133.333333333333,4,2,1,50,0,1
245770,-50,4,2,1,50,0,1
245796,-149.925037481259,4,2,1,50,0,1
245873,-50,4,2,1,50,0,1
245899,-149.925037481259,4,2,1,50,0,1
245977,-50,4,2,1,50,0,1
246003,-149.925037481259,4,2,1,50,0,1
246080,-50,4,2,1,50,0,1
246106,-149.925037481259,4,2,1,50,0,1
246184,-40,4,2,1,50,0,1
246210,-303.030303030303,4,2,1,50,0,1
246287,-40,4,2,1,50,0,1
246313,-200,4,2,1,50,0,1
246391,-40,4,2,1,50,0,1
246417,-200,4,2,1,50,0,1
246494,-40,4,2,1,50,0,1
246520,-200,4,2,1,50,0,1
246597,-75.187969924812,4,2,1,50,0,1
246700,-151.515151515152,4,2,1,50,0,1
246804,-100,4,2,1,50,0,1
248252,-80,4,2,1,50,0,1
248355,-133.333333333333,4,2,1,50,0,1
248459,-100,4,2,1,50,0,1
249908,-80,4,2,1,50,0,1
250011,-133.333333333333,4,2,1,50,0,1
250115,-100,4,2,1,50,0,1
251563,-80,4,2,1,50,0,1
251666,-133.333333333333,4,2,1,50,0,1
251770,-100,4,2,1,50,0,1
252804,-80,4,2,1,50,0,1
252907,-133.333333333333,4,2,1,50,0,1
253011,-100,4,2,1,50,0,1
253218,-75.187969924812,4,2,1,50,0,1
253321,-151.515151515152,4,2,1,50,0,1
253425,-100,4,2,1,50,0,1
254873,-80,4,2,1,50,0,1
254976,-133.333333333333,4,2,1,50,0,1
255080,-100,4,2,1,50,0,1
256528,-80,4,2,1,50,0,1
256631,-133.333333333333,4,2,1,50,0,1
256735,-100,4,2,1,50,0,1
258183,-80,4,2,1,50,0,1
258286,-133.333333333333,4,2,1,50,0,1
258390,-76.9230769230769,4,2,1,50,0,1
258416,-111.111111111111,4,2,1,50,0,1
258494,-71.4285714285714,4,2,1,50,0,1
258520,-115.380177685474,4,2,1,50,0,1
258597,-66.6666666666667,4,2,1,50,0,1
258623,-119.990400767939,4,2,1,50,0,1
258701,-66.6666666666667,4,2,1,50,0,1
258727,-119.990400767939,4,2,1,50,0,1
258804,-57.1428571428571,4,2,1,50,0,1
258830,-133.333333333333,4,2,1,50,0,1
258907,-57.1428571428571,4,2,1,50,0,1
258933,-133.333333333333,4,2,1,50,0,1
259011,-50,4,2,1,50,0,1
259037,-149.925037481259,4,2,1,50,0,1
259114,-50,4,2,1,50,0,1
259140,-149.925037481259,4,2,1,50,0,1
259218,-50,4,2,1,50,0,1
259244,-149.925037481259,4,2,1,50,0,1
259321,-50,4,2,1,50,0,1
259347,-149.925037481259,4,2,1,50,0,1
259425,-40,4,2,1,50,0,1
259451,-303.030303030303,4,2,1,50,0,1
259528,-40,4,2,1,50,0,1
259554,-200,4,2,1,50,0,1
259632,-40,4,2,1,50,0,1
259658,-200,4,2,1,50,0,1
259735,-40,4,2,1,50,0,1
259761,-200,4,2,1,50,0,1
259839,-111.111111111111,4,2,1,50,0,0
260252,-114.285714285714,4,2,1,50,0,0
260666,-117.647058823529,4,2,1,50,0,0
261080,-121.212121212121,4,2,1,50,0,0
261494,-125,4,2,1,50,0,0
261908,-129.032258064516,4,2,1,50,0,0
262322,-133.333333333333,4,2,1,50,0,0
262736,-137.931034482759,4,2,1,50,0,0
263149,-142.857142857143,4,2,1,50,0,0
263563,-148.148148148148,4,2,1,50,0,0
263977,-153.846153846154,4,2,1,50,0,0
264391,-160,4,2,1,50,0,0
264804,-166.666666666667,4,2,1,50,0,0
264863,-161.290322580645,4,2,1,50,0,0
264922,-156.25,4,2,1,50,0,0
264981,-151.515151515152,4,2,1,50,0,0
265040,-147.058823529412,4,2,1,50,0,0
265099,-142.857142857143,4,2,1,50,0,0
265159,-138.888888888889,4,2,1,50,0,0
265218,-135.135135135135,4,2,1,50,0,0
265277,-129.87012987013,4,2,1,50,0,0
265336,-125,4,2,1,50,0,0
265395,-120.481927710843,4,2,1,50,0,0
265454,-116.279069767442,4,2,1,50,0,0
265513,-112.359550561798,4,2,1,50,0,0
265572,-108.695652173913,4,2,1,50,0,0
265631,-105.263157894737,4,2,1,50,0,0
265691,-101.010101010101,4,2,1,50,0,0
265750,-97.0873786407767,4,2,1,50,0,0
265809,-92.5925925925926,4,2,1,50,0,0
265868,-89.2857142857143,4,2,1,50,0,0
265927,-85.4700854700855,4,2,1,50,0,0
265986,-80,4,2,1,50,0,0

[HitObjects]
192,192,4942,128,0,6183:0:0:0:100:hot_pants_break-sequence1.wav
320,192,5149,1,0,0:0:0:100:hot_pants_break-sequence2.wav
320,192,5356,1,0,0:0:0:100:hot_pants_break-sequence3.wav
64,192,5563,1,0,0:0:0:100:hot_pants_break-sequence4.wav
448,192,5666,1,0,0:0:0:0:
64,192,5770,1,0,0:0:0:100:hot_pants_break-sequence5.wav
448,192,5873,1,0,0:0:0:0:
64,192,5977,1,0,0:0:0:100:hot_pants_break-sequence6.wav
320,192,6183,1,0,0:0:0:100:hot_pants_break-sequence7.wav
448,192,6390,1,0,0:0:0:100:hot_pants_break-sequence8.wav
64,192,6494,1,0,0:0:0:0:
448,192,6597,1,0,0:0:0:100:hot_pants_break-sequence1.wav
64,192,6701,1,0,0:0:0:0:
448,192,6804,1,0,0:0:0:100:hot_pants_break-sequence2.wav
192,192,7011,1,0,0:0:0:100:hot_pants_break-sequence3.wav
64,192,7218,1,0,0:0:0:100:hot_pants_break-sequence4.wav
448,192,7321,1,0,0:0:0:0:
64,192,7425,1,0,0:0:0:10:snare-riser.wav
448,192,7528,1,0,0:0:0:20:snare-riser.wav
64,192,7632,1,0,0:0:0:25:snare-riser.wav
448,192,7735,1,0,0:0:0:35:snare-riser.wav
64,192,7839,1,0,0:0:0:40:snare-riser.wav
448,192,7942,1,0,0:0:0:50:snare-riser.wav
448,192,8045,1,0,0:0:0:55:snare-riser.wav
64,192,8149,1,0,0:0:0:60:snare-riser.wav
64,192,8252,128,0,8459:0:0:0:85:jungle_break-sequence1.wav
320,192,8252,128,0,8666:0:0:0:0:
448,192,8252,128,0,8873:0:0:0:0:
192,192,8459,1,0,0:0:0:85:jungle_break-sequence2.wav
64,192,8666,1,0,0:0:0:85:jungle_break-sequence3.wav
192,192,8666,1,0,0:0:0:0:
320,192,8873,1,0,0:0:0:85:jungle_break-sequence4.wav
192,192,8977,1,0,0:0:0:0:
192,192,9080,1,0,0:0:0:85:jungle_break-sequence5.wav
448,192,9218,1,0,0:0:0:0:
64,192,9287,1,0,0:0:0:85:jungle_break-sequence6.wav
320,192,9494,1,0,0:0:0:85:jungle_break-sequence7.wav
448,192,9494,1,0,0:0:0:0:
320,192,9701,1,0,0:0:0:85:jungle_break-sequence3.wav
448,192,9701,1,0,0:0:0:0:
320,192,9908,128,0,10114:0:0:0:85:jungle_break-sequence4.wav
64,192,10011,1,0,0:0:0:0:
64,192,10114,1,0,0:0:0:85:jungle_break-sequence5.wav
192,192,10218,128,0,10425:0:0:0:0:
320,192,10321,1,0,0:0:0:85:jungle_break-sequence3.wav
448,192,10321,1,0,0:0:0:0:
320,192,10528,128,0,10735:0:0:0:85:jungle_break-sequence4.wav
64,192,10632,1,0,0:0:0:0:
448,192,10735,1,0,0:0:0:85:jungle_break-sequence5.wav
192,192,10839,128,0,11045:0:0:0:0:
320,192,10942,1,0,0:0:0:85:jungle_break-sequence6.wav
64,192,11149,128,0,11356:0:0:0:85:jungle_break-sequence7.wav
320,192,11149,1,0,0:0:0:0:
448,192,11356,1,0,0:0:0:85:jungle_break-sequence8.wav
320,192,11459,1,0,0:0:0:0:
192,192,11563,1,0,0:0:0:85:jungle_break-sequence1.wav
448,192,11563,1,0,0:0:0:0:
192,192,11770,1,0,0:0:0:85:jungle_break-sequence2.wav
64,192,11977,1,0,0:0:0:85:jungle_break-sequence3.wav
320,192,11977,1,0,0:0:0:0:
192,192,12183,1,0,0:0:0:85:jungle_break-sequence4.wav
320,192,12287,1,0,0:0:0:0:
320,192,12390,1,0,0:0:0:85:jungle_break-sequence5.wav
64,192,12528,1,0,0:0:0:0:
448,192,12597,1,0,0:0:0:85:jungle_break-sequence6.wav
64,192,12804,1,0,0:0:0:85:jungle_break-sequence7.wav
192,192,12804,1,0,0:0:0:0:
64,192,13011,1,0,0:0:0:85:jungle_break-sequence7.wav
192,192,13011,1,0,0:0:0:0:
320,192,13218,1,0,0:0:0:85:jungle_break-sequence8.wav
448,192,13321,1,0,0:0:0:0:
448,192,13425,1,0,0:0:0:85:jungle_break-sequence10.wav
64,192,13632,1,0,0:0:0:85:jungle_break-sequence11.wav
192,192,13632,1,0,0:0:0:0:
320,192,13839,1,0,0:0:0:85:jungle_break-sequence12.wav
192,192,13942,1,0,0:0:0:0:
448,192,14045,1,0,0:0:0:85:jungle_break-sequence13.wav
320,192,14149,1,0,0:0:0:0:
64,192,14252,1,0,0:0:0:85:jungle_break-sequence14.wav
192,192,14252,1,0,0:0:0:0:
320,192,14356,1,0,0:0:0:0:
192,192,14459,1,0,0:0:0:85:jungle_break-sequence15.wav
320,192,14563,1,0,0:0:0:0:
320,192,14666,1,0,0:0:0:85:jungle_break-sequence16.wav
192,192,14770,1,0,0:0:0:0:
64,192,14873,128,0,15494:0:0:0:50:kick-intro.wav
192,192,14873,128,0,15287:0:0:0:85:jungle_break-sequence1.wav
448,192,14873,128,0,15080:0:0:0:0:
320,192,15080,1,0,0:0:0:85:jungle_break-sequence2.wav
320,192,15287,1,0,0:0:0:50:kick-intro.wav
448,192,15287,1,0,0:0:0:85:jungle_break-sequence3.wav
192,192,15494,1,0,0:0:0:85:jungle_break-sequence4.wav
320,192,15597,1,0,0:0:0:0:
192,192,15701,1,0,0:0:0:50:kick-intro.wav
320,192,15701,1,0,0:0:0:85:jungle_break-sequence5.wav
64,192,15839,1,0,0:0:0:0:
448,192,15908,1,0,0:0:0:85:jungle_break-sequence6.wav
64,192,16114,1,0,0:0:0:50:kick-intro.wav
192,192,16114,1,0,0:0:0:85:jungle_break-sequence7.wav
64,192,16321,1,0,0:0:0:85:jungle_break-sequence3.wav
192,192,16321,1,0,0:0:0:0:
192,192,16528,128,0,16735:0:0:0:50:kick-intro.wav
320,192,16528,1,0,0:0:0:85:jungle_break-sequence4.wav
448,192,16632,1,0,0:0:0:0:
448,192,16735,1,0,0:0:0:85:jungle_break-sequence5.wav
320,192,16839,128,0,17045:0:0:0:0:
64,192,16942,1,0,0:0:0:50:kick-intro.wav
192,192,16942,1,0,0:0:0:85:jungle_break-sequence3.wav
192,192,17149,128,0,17356:0:0:0:85:jungle_break-sequence4.wav
320,192,17252,1,0,0:0:0:0:
64,192,17356,1,0,0:0:0:50:kick-intro.wav
448,192,17356,1,0,0:0:0:85:jungle_break-sequence5.wav
320,192,17459,128,0,17666:0:0:0:0:
192,192,17563,1,0,0:0:0:85:jungle_break-sequence6.wav
192,192,17770,1,0,0:0:0:50:kick-intro.wav
448,192,17770,128,0,17977:0:0:0:85:jungle_break-sequence7.wav
64,192,17977,1,0,0:0:0:85:jungle_break-sequence8.wav
192,192,18080,1,0,0:0:0:0:
64,192,18183,1,0,0:0:0:45:kick-intro.wav
320,192,18183,1,0,0:0:0:80:jungle_break-sequence1.wav
320,192,18390,1,0,0:0:0:80:jungle_break-sequence2.wav
64,192,18494,1,0,0:0:0:0:
192,192,18597,1,0,0:0:0:45:kick-intro.wav
448,192,18597,1,0,0:0:0:75:jungle_break-sequence3.wav
320,192,18804,1,0,0:0:0:75:jungle_break-sequence4.wav
64,192,18908,1,0,0:0:0:0:
192,192,19011,1,0,0:0:0:40:kick-intro.wav
448,192,19011,1,0,0:0:0:70:jungle_break-sequence5.wav
320,192,19063,1,0,0:0:0:60:click-intro.wav
192,192,19114,1,0,0:0:0:60:click-intro.wav
320,192,19166,1,0,0:0:0:60:click-intro.wav
64,192,19218,1,0,0:0:0:70:jungle_break-sequence6.wav
320,192,19425,1,0,0:0:0:40:kick-intro.wav
448,192,19425,1,0,0:0:0:65:jungle_break-sequence7.wav
320,192,19632,1,0,0:0:0:60:jungle_break-sequence7.wav
448,192,19632,1,0,0:0:0:0:
192,192,19839,1,0,0:0:0:35:kick-intro.wav
64,192,19942,1,0,0:0:0:0:
64,192,20045,1,0,0:0:0:50:jungle_break-sequence10.wav
448,192,20252,1,0,0:0:0:30:kick-intro.wav
320,192,20459,1,0,0:0:0:40:jungle_break-sequence12.wav
320,192,20563,1,0,0:0:0:0:
192,192,20666,1,0,0:0:0:25:kick-intro.wav
64,192,20873,1,0,0:0:0:30:jungle_break-sequence13.wav
64,192,21080,1,0,0:0:0:20:kick-intro.wav
64,192,21183,1,0,0:0:0:0:
64,192,21494,128,0,21701:0:0:0:15:kick-intro.wav
320,192,21494,128,0,21804:0:0:0:0:
448,192,21494,128,0,22114:0:0:0:0:
192,192,21804,1,0,0:0:0:0:
192,192,22114,1,0,0:0:0:0:
192,192,22528,1,0,0:0:0:0:
192,192,22839,1,0,0:0:0:0:
448,192,23149,128,0,23356:0:0:0:0:
192,192,23459,128,0,23666:0:0:0:0:
320,192,23770,128,0,23977:0:0:0:0:
192,192,24080,128,0,24287:0:0:0:0:
320,192,24183,1,0,0:0:0:0:
64,192,24390,128,0,24597:0:0:0:0:
320,192,24494,1,0,0:0:0:0:
192,192,24701,1,0,0:0:0:0:
320,192,24804,1,0,0:0:0:0:
192,192,25011,1,0,0:0:0:0:
320,192,25114,1,0,0:0:0:0:
192,192,25321,1,0,0:0:0:0:
320,192,25425,1,0,0:0:0:0:
320,192,25839,1,0,0:0:0:0:
320,192,26045,1,0,0:0:0:0:
192,192,26149,1,0,0:0:0:0:
320,192,26356,1,0,0:0:0:0:
192,192,26459,1,0,0:0:0:0:
192,192,26770,1,0,0:0:0:0:
192,192,26977,1,0,0:0:0:0:
320,192,27080,128,0,27287:0:0:0:0:
192,192,27287,1,0,0:0:0:0:
320,192,27390,1,0,0:0:0:0:
192,192,27494,1,0,0:0:0:0:
320,192,27701,1,0,0:0:0:0:
448,192,27752,1,0,0:0:0:0:
192,192,27804,1,0,0:0:0:0:
64,192,27908,1,0,0:0:0:0:
192,192,28011,1,0,0:0:0:0:
64,192,28114,128,0,28528:0:0:0:80:LR3_BassDropSSG.wav
320,192,28114,1,0,0:0:0:20:amen_break-sequence1.wav
448,192,28114,1,0,0:0:0:40:crash_bandicoot.wav
448,192,28528,1,0,0:0:0:20:amen_break-sequence3.wav
64,192,28735,128,0,28942:0:0:0:20:amen_break-sequence4.wav
320,192,28942,1,0,0:0:0:20:amen_break-sequence5.wav
64,192,29149,128,0,29356:0:0:0:35:amen_break-sequence3.wav
448,192,29356,1,0,0:0:0:35:amen_break-sequence4.wav
64,192,29459,1,0,0:0:0:0:
320,192,29563,1,0,0:0:0:35:amen_break-sequence5.wav
64,192,29666,1,0,0:0:0:0:
192,192,29770,128,0,29977:0:0:0:45:amen_break-sequence1.wav
64,192,29977,1,0,0:0:0:45:amen_break-sequence2.wav
192,192,30080,1,0,0:0:0:0:
320,192,30183,1,0,0:0:0:45:amen_break-sequence3.wav
448,192,30183,1,0,0:0:0:0:
192,192,30287,1,0,0:0:0:0:
320,192,30390,128,0,30597:0:0:0:45:amen_break-sequence4.wav
64,192,30597,1,0,0:0:0:45:amen_break-sequence5.wav
320,192,30701,1,0,0:0:0:0:
64,192,30804,1,0,0:0:0:75:amen_break-sequence3.wav
192,192,30804,128,0,31011:0:0:0:0:
448,192,31011,1,0,0:0:0:75:amen_break-sequence4.wav
192,192,31114,128,0,31321:0:0:0:0:
64,192,31218,1,0,0:0:0:75:amen_break-sequence5.wav
320,192,31321,1,0,0:0:0:0:
64,192,31425,1,0,0:0:0:10:snare-riser.wav
192,192,31425,1,0,0:0:0:90:amen_break-sequence1.wav
448,192,31425,128,0,31632:0:0:0:0:
320,192,31528,1,0,0:0:0:10:snare-riser.wav
192,192,31632,1,0,0:0:0:20:snare-riser.wav
448,192,31735,1,0,0:0:0:20:snare-riser.wav
64,192,31839,1,0,0:0:0:25:snare-riser.wav
192,192,31839,1,0,0:0:0:90:amen_break-sequence3.wav
448,192,31942,1,0,0:0:0:25:snare-riser.wav
320,192,32045,128,0,32252:0:0:0:35:snare-riser.wav
192,192,32149,1,0,0:0:0:35:snare-riser.wav
448,192,32252,1,0,0:0:0:40:snare-riser.wav
320,192,32356,1,0,0:0:0:40:snare-riser.wav
64,192,32459,1,0,0:0:0:50:snare-riser.wav
448,192,32459,128,0,32666:0:0:0:100:amen_break-sequence3.wav
192,192,32563,1,0,0:0:0:50:snare-riser.wav
64,192,32666,1,0,0:0:0:55:snare-riser.wav
320,192,32666,1,0,0:0:0:100:amen_break-sequence4.wav
192,192,32770,1,0,0:0:0:55:snare-riser.wav
448,192,32770,1,0,0:0:0:0:
320,192,32873,1,0,0:0:0:60:snare-riser.wav
192,192,32977,1,0,0:0:0:60:snare-riser.wav
448,192,32977,1,0,0:0:0:0:
64,192,33080,1,0,0:0:0:35:snareA-predrop.wav
320,192,33080,1,0,0:0:0:0:
192,192,33183,1,0,0:0:0:65:snareB-predrop.wav
320,192,33235,1,0,0:0:0:65:snareB-predrop.wav
192,192,33287,1,0,0:0:0:20:snareA-predrop.wav
448,192,33287,1,0,0:0:0:0:
64,192,33390,1,0,0:0:0:35:snareA-predrop.wav
320,192,33390,1,0,0:0:0:0:
192,192,33494,1,0,0:0:0:65:snareB-predrop.wav
64,192,33597,1,0,0:0:0:20:snareA-predrop.wav
320,192,33597,1,0,0:0:0:0:
192,192,33701,1,0,0:0:0:35:snareA-predrop.wav
448,192,33701,1,0,0:0:0:0:
64,192,33804,1,0,0:0:0:35:snareA-predrop.wav
448,192,33804,1,0,0:0:0:0:
320,192,33908,1,0,0:0:0:0:
64,192,34011,1,0,0:0:0:70:Tom BD1.wav
192,192,34011,1,0,0:0:0:0:
64,192,34114,1,0,0:0:0:70:Tom BD2.wav
192,192,34114,1,0,0:0:0:0:
320,192,34218,1,0,0:0:0:70:Tom BD3.wav
448,192,34218,1,0,0:0:0:0:
320,192,34321,1,0,0:0:0:90:snareB-predrop.wav
448,192,34321,1,0,0:0:0:70:Tom BD1.wav
64,192,34390,1,0,0:0:0:70:Tom BD1.wav
192,192,34390,1,0,0:0:0:0:
320,192,34459,1,0,0:0:0:70:Tom BD2.wav
448,192,34459,1,0,0:0:0:0:
64,192,34528,1,0,0:0:0:70:Tom BD3.wav
192,192,34528,1,0,0:0:0:0:
320,192,34632,1,0,0:0:0:70:Tom BDP.wav
448,192,34632,1,0,0:0:0:0:
64,192,34735,128,0,35045:0:0:0:90:LR3_BassCC2F_short.wav
192,192,34735,128,0,34977:0:0:0:90:kickA-firstdrop.wav
320,192,34735,128,0,34908:0:0:0:40:crash_bandicoot.wav
448,192,34735,128,0,34839:0:0:0:0:
320,192,35045,1,0,0:0:0:90:kickA-firstdrop.wav
448,192,35045,1,0,0:0:0:0:
192,192,35149,1,0,0:0:0:80:snareA-firstdrop v2.wav
320,192,35149,1,0,0:0:0:0:
448,192,35149,1,0,0:0:0:0:
64,192,35356,128,0,35666:0:0:0:90:LR3_BassCC2F_short.wav
192,192,35356,128,0,35597:0:0:0:90:kickA-firstdrop.wav
320,192,35356,128,0,35528:0:0:0:0:
448,192,35356,128,0,35459:0:0:0:0:
64,192,35770,128,0,35977:0:0:0:90:LR3_BassCC2F_short.wav
192,192,35770,128,0,35925:0:0:0:90:kickA-firstdrop.wav
320,192,35770,128,0,35873:0:0:0:0:
448,192,35770,128,0,35821:0:0:0:0:
320,192,35977,1,0,0:0:0:80:snareA-firstdrop v2.wav
448,192,35977,1,0,0:0:0:0:
64,192,36080,128,0,36287:0:0:0:90:LR3_BassCC2F_short.wav
192,192,36080,128,0,36287:0:0:0:90:kickA-firstdrop.wav
320,192,36080,128,0,36235:0:0:0:0:
448,192,36080,128,0,36183:0:0:0:0:
64,192,36390,128,0,36494:0:0:0:90:LR3_BassCC2F_short.wav
192,192,36390,128,0,36494:0:0:0:90:kickA-firstdrop.wav
320,192,36390,128,0,36563:0:0:0:0:
448,192,36390,128,0,36632:0:0:0:0:
192,192,36701,128,0,36804:0:0:0:90:kickA-firstdrop.wav
320,192,36701,128,0,36804:0:0:0:0:
64,192,36804,1,0,0:0:0:80:snareA-firstdrop v2.wav
448,192,36804,1,0,0:0:0:0:
64,192,37011,128,0,37114:0:0:0:90:LR3_BassCC2F_short.wav
192,192,37011,128,0,37183:0:0:0:90:kickA-firstdrop.wav
320,192,37011,128,0,37114:0:0:0:0:
448,192,37011,128,0,37252:0:0:0:0:
192,192,37321,128,0,37528:0:0:0:0:
320,192,37321,128,0,37528:0:0:0:0:
64,192,37425,128,0,37528:0:0:0:90:LR3_BassCC2F_short.wav
448,192,37425,128,0,37528:0:0:0:90:kickA-firstdrop.wav
64,192,37632,128,0,37839:0:0:0:80:snareA-firstdrop v2.wav
192,192,37632,128,0,37839:0:0:0:0:
320,192,37632,1,0,0:0:0:0:
320,192,37735,128,0,37839:0:0:0:90:LR3_BassCC2F_short.wav
448,192,37735,128,0,37839:0:0:0:90:kickA-firstdrop.wav
64,192,38045,128,0,38149:0:0:0:90:LR3_BassCC2F_short.wav
192,192,38045,128,0,38218:0:0:0:90:kickA-firstdrop.wav
320,192,38045,128,0,38287:0:0:0:0:
448,192,38045,128,0,38356:0:0:0:0:
64,192,38356,1,0,0:0:0:90:kickA-firstdrop.wav
192,192,38356,1,0,0:0:0:0:
64,192,38459,1,0,0:0:0:80:snareA-firstdrop v2.wav
192,192,38459,1,0,0:0:0:0:
320,192,38459,1,0,0:0:0:0:
64,192,38666,128,0,38770:0:0:0:90:LR3_BassCC2F_short.wav
192,192,38666,128,0,38839:0:0:0:90:kickA-firstdrop.wav
320,192,38666,128,0,38908:0:0:0:0:
448,192,38666,128,0,38977:0:0:0:0:
64,192,39080,1,0,0:0:0:90:kickA-firstdrop.wav
448,192,39080,1,0,0:0:0:0:
192,192,39183,1,0,0:0:0:0:
64,192,39287,1,0,0:0:0:80:snareA-firstdrop v2.wav
192,192,39287,1,0,0:0:0:80:amen_break-sequence1.wav
448,192,39287,1,0,0:0:0:0:
64,192,39494,1,0,0:0:0:70:kickB-firstdrop v2.wav
320,192,39494,1,0,0:0:0:80:amen_break-sequence2.wav
192,192,39597,1,0,0:0:0:80:amen_break-sequence3.wav
448,192,39597,1,0,0:0:0:0:
320,192,39701,1,0,0:0:0:70:kickB-firstdrop v2.wav
192,192,39804,1,0,0:0:0:0:
448,192,39804,1,0,0:0:0:0:
64,192,39908,128,0,40114:0:0:0:0:
320,192,40114,128,0,40321:0:0:0:100:snaremix1-firstdrop.wav
448,192,40114,128,0,40321:0:0:0:0:
64,192,40321,1,0,0:0:0:70:kickB-firstdrop v2.wav
64,192,40528,1,0,0:0:0:70:kickB-firstdrop v2.wav
192,192,40528,1,0,0:0:0:0:
64,192,40735,1,0,0:0:0:70:kickB-firstdrop v2.wav
192,192,40735,1,0,0:0:0:0:
320,192,40735,1,0,0:0:0:0:
64,192,40942,1,0,0:0:0:100:h01-firstdrop.wav
192,192,40942,1,0,0:0:0:0:
320,192,40942,1,0,0:0:0:0:
448,192,40942,1,0,0:0:0:0:
64,192,41356,1,0,0:0:0:100:LR3_BassSSBE-short.wav
192,192,41356,1,0,0:0:0:100:kickB-firstdrop.wav
320,192,41356,1,0,0:0:0:0:
448,192,41356,1,0,0:0:0:0:
320,192,41563,1,0,0:0:0:0:
192,192,41666,1,0,0:0:0:100:kickB-firstdrop.wav
64,192,41770,1,0,0:0:0:100:snareB-firstdrop.wav
448,192,41770,1,0,0:0:0:0:
320,192,41873,1,0,0:0:0:0:
64,192,41977,1,0,0:0:0:100:LR3_BassSSBE-short.wav
192,192,41977,1,0,0:0:0:100:kickB-firstdrop.wav
320,192,41977,1,0,0:0:0:0:
448,192,41977,1,0,0:0:0:0:
192,192,42183,1,0,0:0:0:0:
320,192,42287,1,0,0:0:0:0:
64,192,42390,1,0,0:0:0:100:LR3_BassSSBE-short.wav
192,192,42390,1,0,0:0:0:100:kickB-firstdrop.wav
320,192,42390,1,0,0:0:0:0:
448,192,42390,1,0,0:0:0:0:
192,192,42597,1,0,0:0:0:100:snareB-firstdrop.wav
320,192,42597,1,0,0:0:0:0:
64,192,42701,1,0,0:0:0:100:LR3_BassSSBE-short.wav
192,192,42701,1,0,0:0:0:100:kickB-firstdrop.wav
320,192,42701,1,0,0:0:0:0:
448,192,42701,1,0,0:0:0:0:
64,192,43011,1,0,0:0:0:100:LR3_BassSSBE-short.wav
192,192,43011,1,0,0:0:0:100:kickB-firstdrop.wav
320,192,43011,1,0,0:0:0:0:
448,192,43011,1,0,0:0:0:0:
192,192,43218,1,0,0:0:0:0:
64,192,43321,1,0,0:0:0:100:kickB-firstdrop.wav
320,192,43321,1,0,0:0:0:0:
64,192,43425,1,0,0:0:0:100:snareB-firstdrop.wav
448,192,43425,1,0,0:0:0:0:
192,192,43528,1,0,0:0:0:0:
64,192,43632,1,0,0:0:0:100:LR3_BassSSBE-short.wav
192,192,43632,1,0,0:0:0:100:kickB-firstdrop.wav
320,192,43632,1,0,0:0:0:0:
448,192,43632,1,0,0:0:0:0:
320,192,43839,1,0,0:0:0:0:
192,192,43942,1,0,0:0:0:0:
448,192,43942,1,0,0:0:0:0:
64,192,44045,1,0,0:0:0:100:LR3_BassSSBE-short.wav
192,192,44045,1,0,0:0:0:100:kickB-firstdrop.wav
320,192,44045,1,0,0:0:0:0:
448,192,44045,1,0,0:0:0:0:
192,192,44252,1,0,0:0:0:100:snareB-firstdrop.wav
320,192,44252,1,0,0:0:0:0:
64,192,44356,1,0,0:0:0:100:LR3_BassSSBE-short.wav
192,192,44356,1,0,0:0:0:100:kickB-firstdrop.wav
320,192,44356,1,0,0:0:0:0:
448,192,44356,1,0,0:0:0:0:
64,192,44666,1,0,0:0:0:100:LR3_BassSSBE-short.wav
192,192,44666,1,0,0:0:0:100:kickB-firstdrop.wav
320,192,44666,1,0,0:0:0:0:
448,192,44666,1,0,0:0:0:0:
320,192,44873,1,0,0:0:0:0:
192,192,44977,1,0,0:0:0:100:kickB-firstdrop.wav
64,192,45080,1,0,0:0:0:100:snareB-firstdrop.wav
448,192,45080,1,0,0:0:0:0:
320,192,45183,1,0,0:0:0:0:
64,192,45287,1,0,0:0:0:100:LR3_BassSSBE-short.wav
192,192,45287,1,0,0:0:0:100:kickB-firstdrop.wav
320,192,45287,1,0,0:0:0:0:
448,192,45287,1,0,0:0:0:0:
192,192,45494,1,0,0:0:0:0:
320,192,45597,1,0,0:0:0:0:
64,192,45701,1,0,0:0:0:100:LR3_BassSSBE-short.wav
192,192,45701,1,0,0:0:0:100:kickB-firstdrop.wav
320,192,45701,1,0,0:0:0:0:
448,192,45701,1,0,0:0:0:0:
64,192,45908,128,0,46114:0:0:0:100:snareB-firstdrop.wav
448,192,45908,128,0,46114:0:0:0:0:
320,192,46114,1,0,0:0:0:60:snareC-firstdrop.wav
192,192,46166,1,0,0:0:0:60:snareC-firstdrop.wav
320,192,46218,1,0,0:0:0:60:snareC-firstdrop.wav
64,192,46321,128,0,46528:0:0:0:90:amen_break-sequence1.wav
192,192,46321,128,0,46528:0:0:0:0:
448,192,46528,1,0,0:0:0:90:amen_break-sequence2.wav
192,192,46632,128,0,46839:0:0:0:0:
320,192,46632,128,0,46839:0:0:0:0:
64,192,46735,1,0,0:0:0:90:amen_break-sequence3.wav
448,192,46735,1,0,0:0:0:0:
320,192,46942,128,0,47149:0:0:0:90:amen_break-sequence4.wav
448,192,46942,128,0,47149:0:0:0:0:
64,192,47045,1,0,0:0:0:0:
192,192,47149,1,0,0:0:0:90:amen_break-sequence5.wav
64,192,47252,128,0,47356:0:0:0:0:
448,192,47252,128,0,47356:0:0:0:0:
192,192,47356,1,0,0:0:0:100:VVE2_woop.wav
320,192,47356,1,0,0:0:0:90:kickA-firstdrop.wav
64,192,47563,1,0,0:0:0:100:snaremix2-firstdrop.wav
192,192,47563,1,0,0:0:0:0:
320,192,47563,1,0,0:0:0:0:
448,192,47563,1,0,0:0:0:0:
64,192,47977,128,0,48287:0:0:0:90:LR3_BassCC2F_short.wav
192,192,47977,128,0,48218:0:0:0:90:kickA-firstdrop.wav
320,192,47977,128,0,48149:0:0:0:40:crash_bandicoot.wav
448,192,47977,128,0,48080:0:0:0:0:
320,192,48287,1,0,0:0:0:90:kickA-firstdrop.wav
448,192,48287,1,0,0:0:0:0:
192,192,48390,1,0,0:0:0:80:snareA-firstdrop v2.wav
320,192,48390,1,0,0:0:0:0:
448,192,48390,1,0,0:0:0:0:
64,192,48597,128,0,48701:0:0:0:90:LR3_BassCC2F_short.wav
192,192,48597,128,0,48770:0:0:0:90:kickA-firstdrop.wav
320,192,48597,128,0,48839:0:0:0:0:
448,192,48597,128,0,48908:0:0:0:0:
64,192,49011,128,0,49218:0:0:0:90:LR3_BassCC2F_short.wav
192,192,49011,128,0,49166:0:0:0:90:kickA-firstdrop.wav
320,192,49011,128,0,49114:0:0:0:0:
448,192,49011,128,0,49063:0:0:0:0:
320,192,49218,1,0,0:0:0:80:snareA-firstdrop v2.wav
448,192,49218,1,0,0:0:0:0:
64,192,49321,128,0,49425:0:0:0:90:LR3_BassCC2F_short.wav
192,192,49321,128,0,49477:0:0:0:90:kickA-firstdrop.wav
320,192,49321,128,0,49528:0:0:0:0:
448,192,49321,128,0,49528:0:0:0:0:
64,192,49632,128,0,49873:0:0:0:90:LR3_BassCC2F_short.wav
192,192,49632,128,0,49804:0:0:0:90:kickA-firstdrop.wav
320,192,49632,128,0,49735:0:0:0:0:
448,192,49632,128,0,49735:0:0:0:0:
192,192,49942,128,0,50045:0:0:0:90:kickA-firstdrop.wav
320,192,49942,128,0,50045:0:0:0:0:
64,192,50045,1,0,0:0:0:80:snareA-firstdrop v2.wav
448,192,50045,1,0,0:0:0:0:
64,192,50252,128,0,50494:0:0:0:90:LR3_BassCC2F_short.wav
192,192,50252,128,0,50356:0:0:0:90:kickA-firstdrop.wav
320,192,50252,128,0,50425:0:0:0:0:
448,192,50252,128,0,50356:0:0:0:0:
192,192,50563,128,0,50770:0:0:0:0:
320,192,50563,128,0,50770:0:0:0:0:
64,192,50666,128,0,50770:0:0:0:90:LR3_BassCC2F_short.wav
448,192,50666,128,0,50770:0:0:0:90:kickA-firstdrop.wav
192,192,50873,1,0,0:0:0:80:snareA-firstdrop v2.wav
320,192,50873,128,0,51080:0:0:0:0:
448,192,50873,128,0,51080:0:0:0:0:
64,192,50977,128,0,51080:0:0:0:90:LR3_BassCC2F_short.wav
192,192,50977,128,0,51080:0:0:0:90:kickA-firstdrop.wav
64,192,51287,128,0,51597:0:0:0:90:LR3_BassCC2F_short.wav
192,192,51287,128,0,51528:0:0:0:90:kickA-firstdrop.wav
320,192,51287,128,0,51459:0:0:0:0:
448,192,51287,128,0,51390:0:0:0:0:
320,192,51597,1,0,0:0:0:90:kickA-firstdrop.wav
448,192,51597,1,0,0:0:0:0:
192,192,51701,1,0,0:0:0:80:snareA-firstdrop v2.wav
320,192,51701,1,0,0:0:0:0:
448,192,51701,1,0,0:0:0:0:
64,192,51908,128,0,52011:0:0:0:90:LR3_BassCC2F_short.wav
192,192,51908,128,0,52080:0:0:0:90:kickA-firstdrop.wav
320,192,51908,128,0,52149:0:0:0:0:
448,192,51908,128,0,52218:0:0:0:0:
64,192,52321,1,0,0:0:0:90:kickA-firstdrop.wav
448,192,52321,1,0,0:0:0:0:
192,192,52425,1,0,0:0:0:0:
64,192,52528,1,0,0:0:0:80:snareA-firstdrop v2.wav
192,192,52528,1,0,0:0:0:0:
448,192,52528,1,0,0:0:0:0:
64,192,52735,1,0,0:0:0:90:amen_break-ride_stutter.wav
192,192,52787,1,0,0:0:0:90:amen_break-ride_stutter.wav
320,192,52839,128,0,53149:0:0:0:90:amen_break-sequence3.wav
448,192,52839,128,0,53149:0:0:0:0:
64,192,53149,1,0,0:0:0:90:kickA-firstdrop.wav
192,192,53149,1,0,0:0:0:0:
320,192,53218,1,0,0:0:0:90:kickA-firstdrop.wav
448,192,53218,1,0,0:0:0:0:
64,192,53287,1,0,0:0:0:90:kickA-firstdrop.wav
192,192,53287,1,0,0:0:0:0:
320,192,53356,128,0,53770:0:0:0:100:snaremix1-firstdrop.wav
448,192,53356,128,0,53563:0:0:0:0:
192,192,53563,128,0,53770:0:0:0:70:kickB-firstdrop v2.wav
64,192,53770,1,0,0:0:0:70:kickB-firstdrop v2.wav
448,192,53770,1,0,0:0:0:0:
64,192,53977,1,0,0:0:0:70:kickB-firstdrop v2.wav
320,192,53977,1,0,0:0:0:0:
448,192,53977,1,0,0:0:0:0:
64,192,54183,1,0,0:0:0:100:snaremix2-firstdrop.wav
192,192,54183,1,0,0:0:0:0:
320,192,54183,1,0,0:0:0:0:
448,192,54183,1,0,0:0:0:0:
64,192,54597,1,0,0:0:0:100:LR3_BassSSBE-short.wav
192,192,54597,1,0,0:0:0:100:kickB-firstdrop.wav
320,192,54597,1,0,0:0:0:0:
448,192,54597,1,0,0:0:0:0:
192,192,54701,1,0,0:0:0:0:
64,192,54804,1,0,0:0:0:0:
448,192,54804,1,0,0:0:0:0:
192,192,54908,1,0,0:0:0:100:kickB-firstdrop.wav
64,192,55011,1,0,0:0:0:100:snareB-firstdrop.wav
448,192,55011,1,0,0:0:0:0:
320,192,55114,1,0,0:0:0:0:
64,192,55218,1,0,0:0:0:100:LR3_BassSSBE-short.wav
192,192,55218,1,0,0:0:0:100:kickB-firstdrop.wav
320,192,55218,1,0,0:0:0:0:
448,192,55218,1,0,0:0:0:0:
64,192,55321,1,0,0:0:0:0:
320,192,55425,1,0,0:0:0:0:
448,192,55425,1,0,0:0:0:0:
192,192,55528,1,0,0:0:0:0:
64,192,55632,1,0,0:0:0:100:LR3_BassSSBE-short.wav
192,192,55632,1,0,0:0:0:100:kickB-firstdrop.wav
320,192,55632,1,0,0:0:0:0:
448,192,55632,1,0,0:0:0:0:
448,192,55735,1,0,0:0:0:0:
192,192,55839,1,0,0:0:0:100:snareB-firstdrop.wav
320,192,55839,1,0,0:0:0:0:
64,192,55942,1,0,0:0:0:100:LR3_BassSSBE-short.wav
192,192,55942,1,0,0:0:0:100:kickB-firstdrop.wav
320,192,55942,1,0,0:0:0:0:
448,192,55942,1,0,0:0:0:0:
64,192,56252,1,0,0:0:0:80:LR3_BassSSBE-short.wav
192,192,56252,1,0,0:0:0:80:kickB-firstdrop.wav
320,192,56252,1,0,0:0:0:0:
448,192,56252,1,0,0:0:0:0:
320,192,56356,1,0,0:0:0:0:
64,192,56459,1,0,0:0:0:0:
448,192,56459,1,0,0:0:0:0:
192,192,56563,1,0,0:0:0:80:kickB-firstdrop.wav
320,192,56563,1,0,0:0:0:0:
64,192,56666,1,0,0:0:0:80:snareB-firstdrop.wav
448,192,56666,1,0,0:0:0:0:
192,192,56770,1,0,0:0:0:0:
64,192,56873,1,0,0:0:0:80:LR3_BassSSBE-short.wav
192,192,56873,1,0,0:0:0:80:kickB-firstdrop.wav
320,192,56873,1,0,0:0:0:0:
448,192,56873,1,0,0:0:0:0:
320,192,56977,1,0,0:0:0:0:
64,192,57080,1,0,0:0:0:0:
448,192,57080,1,0,0:0:0:0:
192,192,57183,1,0,0:0:0:0:
320,192,57183,1,0,0:0:0:0:
64,192,57287,1,0,0:0:0:80:LR3_BassSSBE-short.wav
192,192,57287,1,0,0:0:0:80:kickB-firstdrop.wav
320,192,57287,1,0,0:0:0:0:
448,192,57287,1,0,0:0:0:0:
448,192,57390,1,0,0:0:0:0:
64,192,57494,1,0,0:0:0:80:snareB-firstdrop.wav
192,192,57494,1,0,0:0:0:0:
64,192,57597,1,0,0:0:0:80:LR3_BassSSBE-short.wav
192,192,57597,1,0,0:0:0:80:kickB-firstdrop.wav
320,192,57597,1,0,0:0:0:0:
448,192,57597,1,0,0:0:0:0:
64,192,57908,1,0,0:0:0:60:LR3_BassSSBE-short.wav
192,192,57908,1,0,0:0:0:60:kickB-firstdrop.wav
320,192,57908,1,0,0:0:0:0:
448,192,57908,1,0,0:0:0:0:
64,192,58011,1,0,0:0:0:0:
192,192,58114,1,0,0:0:0:0:
320,192,58114,1,0,0:0:0:0:
448,192,58218,1,0,0:0:0:60:kickB-firstdrop.wav
64,192,58321,1,0,0:0:0:60:snareB-firstdrop.wav
192,192,58321,1,0,0:0:0:0:
320,192,58425,1,0,0:0:0:0:
64,192,58528,1,0,0:0:0:60:LR3_BassSSBE-short.wav
192,192,58528,1,0,0:0:0:60:kickB-firstdrop.wav
320,192,58528,1,0,0:0:0:0:
448,192,58528,1,0,0:0:0:0:
192,192,58632,1,0,0:0:0:0:
64,192,58735,1,0,0:0:0:0:
448,192,58735,1,0,0:0:0:0:
320,192,58839,1,0,0:0:0:0:
64,192,58942,1,0,0:0:0:60:LR3_BassSSBE-short.wav
192,192,58942,1,0,0:0:0:60:kickB-firstdrop.wav
320,192,58942,1,0,0:0:0:0:
448,192,58942,1,0,0:0:0:0:
320,192,59149,1,0,0:0:0:80:snareA-firstdrop v2.wav
448,192,59149,128,0,59252:0:0:0:0:
64,192,59252,128,0,59356:0:0:0:0:
192,192,59356,1,0,0:0:0:60:kickB-firstdrop.wav
448,192,59356,128,0,59459:0:0:0:0:
64,192,59459,128,0,59563:0:0:0:0:
192,192,59563,1,0,0:0:0:90:amen_break-sequence1.wav
320,192,59563,1,0,0:0:0:0:
320,192,59770,1,0,0:0:0:90:amen_break-sequence2.wav
448,192,59977,1,0,0:0:0:0:
448,192,60080,1,0,0:0:0:0:
448,192,60183,1,0,0:0:0:0:
320,192,60287,1,0,0:0:0:0:
320,192,60390,1,0,0:0:0:0:
192,192,60494,1,0,0:0:0:0:
64,192,60597,1,0,0:0:0:90:amen_break-sequence3.wav
448,192,60597,1,0,0:0:0:0:
448,192,60804,1,0,0:0:0:90:amen_break-sequence4.wav
64,192,60908,1,0,0:0:0:0:
448,192,60908,1,0,0:0:0:0:
192,192,61011,1,0,0:0:0:90:amen_break-sequence4.wav
64,192,61114,1,0,0:0:0:0:
320,192,61114,1,0,0:0:0:0:
192,192,61218,1,0,0:0:0:25:kickB-firstdrop v2.wav
448,192,61218,1,0,0:0:0:0:
320,192,61425,1,0,0:0:0:100:hihat.wav
448,192,61528,1,0,0:0:0:60:b03.wav
64,192,61632,1,0,0:0:0:25:kickB-firstdrop v2.wav
320,192,61632,1,0,0:0:0:50:snare444.wav
192,192,61839,1,0,0:0:0:100:hihat.wav
64,192,61942,1,0,0:0:0:0:
192,192,62045,1,0,0:0:0:25:kickB-firstdrop v2.wav
448,192,62045,1,0,0:0:0:0:
320,192,62252,1,0,0:0:0:100:hihat.wav
448,192,62356,1,0,0:0:0:60:b03.wav
64,192,62459,1,0,0:0:0:25:kickB-firstdrop v2.wav
320,192,62459,1,0,0:0:0:50:snare444.wav
192,192,62666,1,0,0:0:0:100:hihat.wav
64,192,62770,1,0,0:0:0:0:
320,192,62873,128,0,62977:0:0:0:25:kickB-firstdrop v2.wav
448,192,62873,1,0,0:0:0:0:
320,192,63080,1,0,0:0:0:100:hihat.wav
448,192,63183,128,0,63287:0:0:0:60:b03.wav
64,192,63287,1,0,0:0:0:25:kickB-firstdrop v2.wav
192,192,63287,1,0,0:0:0:50:snare444.wav
192,192,63494,128,0,63597:0:0:0:100:hihat.wav
64,192,63597,1,0,0:0:0:0:
320,192,63701,1,0,0:0:0:25:kickB-firstdrop v2.wav
448,192,63701,1,0,0:0:0:0:
192,192,63804,128,0,63908:0:0:0:0:
320,192,63908,1,0,0:0:0:100:hihat.wav
448,192,64011,1,0,0:0:0:60:b03.wav
64,192,64114,128,0,64218:0:0:0:25:kickB-firstdrop v2.wav
192,192,64114,1,0,0:0:0:50:snare444.wav
320,192,64321,1,0,0:0:0:100:hihat.wav
64,192,64425,1,0,0:0:0:0:
192,192,64528,1,0,0:0:0:25:kickB-firstdrop v2.wav
448,192,64528,1,0,0:0:0:0:
320,192,64735,1,0,0:0:0:100:hihat.wav
192,192,64839,1,0,0:0:0:60:b03.wav
64,192,64942,1,0,0:0:0:25:kickB-firstdrop v2.wav
320,192,64942,1,0,0:0:0:50:snare444.wav
192,192,65149,1,0,0:0:0:100:hihat.wav
320,192,65252,1,0,0:0:0:0:
192,192,65356,1,0,0:0:0:25:kickB-firstdrop v2.wav
448,192,65356,1,0,0:0:0:0:
320,192,65563,1,0,0:0:0:100:hihat.wav
192,192,65666,1,0,0:0:0:60:b03.wav
64,192,65770,1,0,0:0:0:25:kickB-firstdrop v2.wav
320,192,65770,1,0,0:0:0:50:snare444.wav
192,192,65977,1,0,0:0:0:100:hihat.wav
320,192,66080,1,0,0:0:0:0:
64,192,66183,1,0,0:0:0:25:kickB-firstdrop v2.wav
448,192,66183,1,0,0:0:0:0:
320,192,66390,1,0,0:0:0:100:hihat.wav
192,192,66494,1,0,0:0:0:60:b03.wav
64,192,66597,1,0,0:0:0:25:kickB-firstdrop v2.wav
448,192,66597,1,0,0:0:0:50:snare444.wav
192,192,66804,1,0,0:0:0:100:hihat.wav
320,192,66908,1,0,0:0:0:0:
64,192,67011,1,0,0:0:0:25:kickB-firstdrop v2.wav
448,192,67011,1,0,0:0:0:0:
320,192,67218,1,0,0:0:0:100:hihat.wav
192,192,67321,1,0,0:0:0:60:b03.wav
64,192,67425,1,0,0:0:0:25:kickB-firstdrop v2.wav
448,192,67425,1,0,0:0:0:50:snare444.wav
320,192,67632,1,0,0:0:0:100:hihat.wav
320,192,67735,1,0,0:0:0:0:
192,192,67839,1,0,0:0:0:25:kickB-firstdrop v2.wav
448,192,67839,1,0,0:0:0:0:
448,192,68045,1,0,0:0:0:100:hihat.wav
192,192,68149,1,0,0:0:0:60:b03.wav
64,192,68252,1,0,0:0:0:25:kickB-firstdrop v2.wav
320,192,68252,1,0,0:0:0:50:snare444.wav
64,192,68459,1,0,0:0:0:100:hihat.wav
320,192,68563,1,0,0:0:0:0:
192,192,68666,1,0,0:0:0:25:kickB-firstdrop v2.wav
448,192,68666,1,0,0:0:0:0:
448,192,68873,1,0,0:0:0:100:hihat.wav
192,192,68977,1,0,0:0:0:60:b03.wav
64,192,69080,1,0,0:0:0:25:kickB-firstdrop v2.wav
320,192,69080,1,0,0:0:0:50:snare444.wav
64,192,69287,1,0,0:0:0:100:hihat.wav
320,192,69390,1,0,0:0:0:0:
64,192,69494,1,0,0:0:0:25:kickB-firstdrop v2.wav
192,192,69494,128,0,69597:0:0:0:0:
320,192,69701,1,0,0:0:0:100:hihat.wav
64,192,69804,128,0,69908:0:0:0:60:b03.wav
320,192,69908,1,0,0:0:0:25:kickB-firstdrop v2.wav
448,192,69908,1,0,0:0:0:50:snare444.wav
192,192,70114,128,0,70218:0:0:0:100:hihat.wav
448,192,70218,1,0,0:0:0:0:
64,192,70321,1,0,0:0:0:25:kickB-firstdrop v2.wav
192,192,70321,1,0,0:0:0:0:
448,192,70425,128,0,70528:0:0:0:0:
192,192,70528,1,0,0:0:0:100:hihat.wav
64,192,70632,1,0,0:0:0:60:b03.wav
320,192,70735,128,0,70839:0:0:0:25:kickB-firstdrop v2.wav
448,192,70735,1,0,0:0:0:50:snare444.wav
320,192,70942,1,0,0:0:0:100:hihat.wav
448,192,71045,1,0,0:0:0:0:
192,192,71149,1,0,0:0:0:25:kickB-firstdrop v2.wav
320,192,71149,1,0,0:0:0:0:
448,192,71356,1,0,0:0:0:100:hihat.wav
64,192,71459,1,0,0:0:0:60:b03.wav
192,192,71563,1,0,0:0:0:25:kickB-firstdrop v2.wav
320,192,71563,1,0,0:0:0:50:snare444.wav
64,192,71770,1,0,0:0:0:100:hihat.wav
448,192,71873,1,0,0:0:0:0:
192,192,71977,1,0,0:0:0:25:kickB-firstdrop v2.wav
320,192,71977,1,0,0:0:0:0:
448,192,72183,1,0,0:0:0:100:hihat.wav
64,192,72287,1,0,0:0:0:60:b03.wav
192,192,72390,1,0,0:0:0:25:kickB-firstdrop v2.wav
320,192,72390,1,0,0:0:0:50:snare444.wav
64,192,72597,1,0,0:0:0:100:hihat.wav
448,192,72701,1,0,0:0:0:0:
320,192,72804,1,0,0:0:0:0:
320,192,73011,1,0,0:0:0:100:hihat.wav
192,192,73218,128,0,73321:0:0:0:0:
64,192,73321,128,0,73425:0:0:0:0:
320,192,73425,128,0,73528:0:0:0:100:hihat.wav
448,192,73528,128,0,73632:0:0:0:0:
64,192,73632,128,0,73735:0:0:0:0:
192,192,73735,128,0,73839:0:0:0:0:
448,192,73839,128,0,73942:0:0:0:100:hihat.wav
320,192,73942,128,0,74045:0:0:0:90:tom01-high_pitched.wav
64,192,74045,1,0,0:0:0:50:snare444.wav
448,192,74045,128,0,74149:0:0:0:0:
192,192,74149,1,0,0:0:0:0:
320,192,74149,128,0,74252:0:0:0:0:
64,192,74252,1,0,0:0:0:100:hihat.wav
448,192,74252,128,0,74356:0:0:0:90:tom02-high_pitched.wav
192,192,74356,128,0,74459:0:0:0:0:
64,192,74459,1,0,0:0:0:85:kick444.wav
320,192,74459,1,0,0:0:0:35:crash_bandicoot.wav
448,192,74459,1,0,0:0:0:0:
320,192,74666,1,0,0:0:0:100:hihat.wav
192,192,74770,1,0,0:0:0:45:b03.wav
64,192,74873,1,0,0:0:0:85:kick444.wav
448,192,74873,1,0,0:0:0:70:snare444.wav
320,192,74873,1,0,0:0:0:0:
192,192,75080,1,0,0:0:0:100:hihat.wav
64,192,75183,1,0,0:0:0:0:
192,192,75287,1,0,0:0:0:85:kick444.wav
448,192,75287,1,0,0:0:0:0:
320,192,75390,1,0,0:0:0:0:
64,192,75494,1,0,0:0:0:100:hihat.wav
320,192,75494,1,0,0:0:0:0:
192,192,75597,1,0,0:0:0:45:b03.wav
64,192,75701,1,0,0:0:0:85:kick444.wav
448,192,75701,1,0,0:0:0:70:snare444.wav
320,192,75701,1,0,0:0:0:0:
192,192,75804,1,0,0:0:0:0:
320,192,75908,1,0,0:0:0:100:hihat.wav
192,192,76011,1,0,0:0:0:0:
64,192,76114,128,0,76218:0:0:0:85:kick444.wav
320,192,76114,128,0,76218:0:0:0:0:
448,192,76321,1,0,0:0:0:100:hihat.wav
64,192,76425,128,0,76528:0:0:0:45:b03.wav
192,192,76425,128,0,76528:0:0:0:0:
320,192,76528,1,0,0:0:0:85:kick444.wav
448,192,76528,1,0,0:0:0:70:snare444.wav
64,192,76735,128,0,76839:0:0:0:100:hihat.wav
448,192,76735,128,0,76839:0:0:0:0:
192,192,76839,1,0,0:0:0:0:
64,192,76942,1,0,0:0:0:85:kick444.wav
448,192,76942,1,0,0:0:0:0:
192,192,77045,128,0,77149:0:0:0:0:
320,192,77045,128,0,77149:0:0:0:0:
64,192,77149,1,0,0:0:0:100:hihat.wav
448,192,77149,1,0,0:0:0:0:
320,192,77252,1,0,0:0:0:45:b03.wav
64,192,77356,128,0,77459:0:0:0:85:kick444.wav
192,192,77356,128,0,77459:0:0:0:70:snare444.wav
320,192,77459,1,0,0:0:0:0:
448,192,77563,1,0,0:0:0:100:hihat.wav
192,192,77666,1,0,0:0:0:0:
64,192,77770,1,0,0:0:0:85:kick444.wav
448,192,77770,1,0,0:0:0:0:
64,192,77977,1,0,0:0:0:100:hihat.wav
320,192,78080,1,0,0:0:0:45:b03.wav
64,192,78183,1,0,0:0:0:85:kick444.wav
320,192,78183,1,0,0:0:0:70:snare444.wav
448,192,78183,1,0,0:0:0:0:
448,192,78390,1,0,0:0:0:100:hihat.wav
64,192,78494,1,0,0:0:0:0:
320,192,78597,1,0,0:0:0:85:kick444.wav
448,192,78597,1,0,0:0:0:0:
192,192,78701,1,0,0:0:0:0:
320,192,78804,1,0,0:0:0:100:hihat.wav
448,192,78804,1,0,0:0:0:0:
64,192,78908,1,0,0:0:0:45:b03.wav
192,192,79011,1,0,0:0:0:85:kick444.wav
448,192,79011,1,0,0:0:0:70:snare444.wav
64,192,79011,1,0,0:0:0:0:
320,192,79114,1,0,0:0:0:0:
448,192,79218,1,0,0:0:0:100:hihat.wav
192,192,79321,1,0,0:0:0:0:
320,192,79425,1,0,0:0:0:85:kick444.wav
448,192,79425,1,0,0:0:0:0:
64,192,79632,1,0,0:0:0:100:hihat.wav
192,192,79735,1,0,0:0:0:45:b03.wav
192,192,79839,1,0,0:0:0:85:kick444.wav
448,192,79839,1,0,0:0:0:70:snare444.wav
320,192,79839,1,0,0:0:0:0:
448,192,80045,1,0,0:0:0:100:hihat.wav
320,192,80149,1,0,0:0:0:0:
64,192,80252,1,0,0:0:0:85:kick444.wav
320,192,80252,1,0,0:0:0:0:
192,192,80356,1,0,0:0:0:0:
64,192,80459,1,0,0:0:0:100:hihat.wav
448,192,80459,1,0,0:0:0:0:
192,192,80563,1,0,0:0:0:45:b03.wav
320,192,80563,1,0,0:0:0:90:tom01-high_pitched.wav
64,192,80666,1,0,0:0:0:85:kick444.wav
448,192,80666,1,0,0:0:0:70:snare444.wav
320,192,80770,1,0,0:0:0:0:
192,192,80873,1,0,0:0:0:100:hihat.wav
448,192,80873,1,0,0:0:0:90:tom02-high_pitched.wav
192,192,80977,1,0,0:0:0:0:
64,192,81080,1,0,0:0:0:85:kick444.wav
320,192,81080,1,0,0:0:0:0:
448,192,81287,1,0,0:0:0:100:hihat.wav
192,192,81390,1,0,0:0:0:45:b03.wav
192,192,81494,1,0,0:0:0:85:kick444.wav
448,192,81494,1,0,0:0:0:70:snare444.wav
64,192,81494,1,0,0:0:0:0:
320,192,81701,1,0,0:0:0:100:hihat.wav
64,192,81804,1,0,0:0:0:0:
192,192,81908,1,0,0:0:0:85:kick444.wav
448,192,81908,1,0,0:0:0:0:
448,192,82011,1,0,0:0:0:0:
64,192,82114,1,0,0:0:0:100:hihat.wav
320,192,82114,1,0,0:0:0:0:
192,192,82218,1,0,0:0:0:45:b03.wav
320,192,82321,1,0,0:0:0:85:kick444.wav
448,192,82321,1,0,0:0:0:70:snare444.wav
64,192,82321,1,0,0:0:0:0:
320,192,82425,1,0,0:0:0:0:
64,192,82528,1,0,0:0:0:100:hihat.wav
192,192,82632,1,0,0:0:0:0:
64,192,82735,128,0,82839:0:0:0:85:kick444.wav
448,192,82735,128,0,82839:0:0:0:0:
320,192,82942,1,0,0:0:0:100:hihat.wav
64,192,83045,128,0,83149:0:0:0:45:b03.wav
192,192,83045,128,0,83149:0:0:0:0:
320,192,83149,1,0,0:0:0:85:kick444.wav
448,192,83149,1,0,0:0:0:70:snare444.wav
64,192,83356,128,0,83459:0:0:0:100:hihat.wav
320,192,83356,128,0,83459:0:0:0:0:
448,192,83459,1,0,0:0:0:0:
64,192,83563,1,0,0:0:0:85:kick444.wav
320,192,83563,1,0,0:0:0:0:
192,192,83666,128,0,83770:0:0:0:0:
448,192,83666,128,0,83770:0:0:0:0:
64,192,83770,1,0,0:0:0:100:hihat.wav
320,192,83770,1,0,0:0:0:0:
448,192,83873,1,0,0:0:0:45:b03.wav
64,192,83977,128,0,84080:0:0:0:85:kick444.wav
192,192,83977,128,0,84080:0:0:0:70:snare444.wav
448,192,84080,1,0,0:0:0:0:
320,192,84183,1,0,0:0:0:100:hihat.wav
192,192,84287,1,0,0:0:0:0:
320,192,84390,1,0,0:0:0:85:kick444.wav
448,192,84390,1,0,0:0:0:0:
192,192,84597,1,0,0:0:0:100:hihat.wav
64,192,84701,1,0,0:0:0:45:b03.wav
64,192,84804,1,0,0:0:0:85:kick444.wav
448,192,84804,1,0,0:0:0:70:snare444.wav
320,192,84804,1,0,0:0:0:0:
320,192,85011,1,0,0:0:0:100:hihat.wav
448,192,85114,1,0,0:0:0:0:
192,192,85218,1,0,0:0:0:85:kick444.wav
448,192,85218,1,0,0:0:0:0:
192,192,85425,1,0,0:0:0:100:hihat.wav
64,192,85528,1,0,0:0:0:45:b03.wav
64,192,85632,1,0,0:0:0:85:kick444.wav
320,192,85632,1,0,0:0:0:70:snare444.wav
448,192,85632,1,0,0:0:0:0:
192,192,85735,1,0,0:0:0:0:
320,192,85839,1,0,0:0:0:100:hihat.wav
448,192,85942,1,0,0:0:0:0:
64,192,86045,1,0,0:0:0:85:kick444.wav
448,192,86045,128,0,86252:0:0:0:0:
192,192,86045,1,0,0:0:0:0:
320,192,86149,128,0,86252:0:0:0:0:
192,192,86252,128,0,86356:0:0:0:100:hihat.wav
64,192,86356,128,0,86459:0:0:0:45:b03.wav
320,192,86459,128,0,86563:0:0:0:70:snare444.wav
448,192,86459,1,0,0:0:0:0:
64,192,86563,128,0,86666:0:0:0:0:
448,192,86666,128,0,86770:0:0:0:100:hihat.wav
192,192,86770,128,0,86873:0:0:0:0:
448,192,86873,128,0,86977:0:0:0:0:
64,192,86977,128,0,87080:0:0:0:0:
320,192,87080,128,0,87183:0:0:0:100:hihat.wav
64,192,87183,128,0,87287:0:0:0:45:b03.wav
192,192,87287,1,0,0:0:0:70:snare444.wav
448,192,87287,128,0,87390:0:0:0:90:b03.wav
64,192,87390,128,0,87494:0:0:0:0:
320,192,87390,1,0,0:0:0:0:
192,192,87494,1,0,0:0:0:100:hihat.wav
448,192,87494,128,0,87597:0:0:0:90:tom02-high_pitched.wav
320,192,87597,128,0,87701:0:0:0:0:
64,192,87701,128,0,87804:0:0:0:85:kick444.wav
192,192,87701,128,0,87804:0:0:0:35:crash_bandicoot.wav
448,192,87701,1,0,0:0:0:0:
192,192,87908,1,0,0:0:0:100:hihat.wav
320,192,88011,128,0,88114:0:0:0:45:b03.wav
448,192,88011,128,0,88114:0:0:0:0:
64,192,88114,1,0,0:0:0:85:kick444.wav
192,192,88114,1,0,0:0:0:70:snare444.wav
192,192,88321,128,0,88425:0:0:0:100:hihat.wav
448,192,88321,128,0,88528:0:0:0:0:
64,192,88425,1,0,0:0:0:0:
64,192,88528,128,0,89149:0:0:0:85:kick444.wav
192,192,88528,128,0,88839:0:0:0:0:
320,192,88632,1,0,0:0:0:0:
448,192,88735,1,0,0:0:0:100:hihat.wav
320,192,88839,1,0,0:0:0:45:b03.wav
192,192,88942,1,0,0:0:0:85:kick444.wav
448,192,88942,1,0,0:0:0:70:snare444.wav
192,192,89149,1,0,0:0:0:100:hihat.wav
192,192,89252,1,0,0:0:0:0:
64,192,89356,128,0,89459:0:0:0:85:kick444.wav
320,192,89356,128,0,89459:0:0:0:0:
64,192,89563,1,0,0:0:0:100:hihat.wav
192,192,89666,128,0,89770:0:0:0:45:b03.wav
448,192,89666,128,0,89770:0:0:0:0:
64,192,89770,1,0,0:0:0:85:kick444.wav
320,192,89770,1,0,0:0:0:70:snare444.wav
320,192,89977,128,0,90080:0:0:0:100:hihat.wav
448,192,89977,128,0,90183:0:0:0:0:
64,192,90080,1,0,0:0:0:0:
64,192,90183,128,0,90494:0:0:0:85:kick444.wav
192,192,90183,128,0,90390:0:0:0:0:
320,192,90287,1,0,0:0:0:0:
448,192,90390,1,0,0:0:0:100:hihat.wav
320,192,90494,1,0,0:0:0:45:b03.wav
192,192,90597,1,0,0:0:0:85:kick444.wav
448,192,90597,1,0,0:0:0:70:snare444.wav
192,192,90701,1,0,0:0:0:0:
320,192,90804,1,0,0:0:0:100:hihat.wav
64,192,90908,128,0,91011:0:0:0:0:
320,192,91011,128,0,91114:0:0:0:85:kick444.wav
448,192,91011,128,0,91114:0:0:0:0:
320,192,91218,1,0,0:0:0:100:hihat.wav
64,192,91321,128,0,91425:0:0:0:45:b03.wav
192,192,91321,128,0,91425:0:0:0:0:
320,192,91425,1,0,0:0:0:85:kick444.wav
448,192,91425,1,0,0:0:0:70:snare444.wav
64,192,91632,128,0,91839:0:0:0:100:hihat.wav
320,192,91632,128,0,91735:0:0:0:0:
448,192,91735,1,0,0:0:0:0:
320,192,91839,128,0,92149:0:0:0:85:kick444.wav
448,192,91839,128,0,92459:0:0:0:0:
192,192,91942,1,0,0:0:0:0:
64,192,92045,1,0,0:0:0:100:hihat.wav
192,192,92149,1,0,0:0:0:45:b03.wav
64,192,92252,1,0,0:0:0:85:kick444.wav
320,192,92252,1,0,0:0:0:70:snare444.wav
320,192,92459,1,0,0:0:0:100:hihat.wav
320,192,92563,1,0,0:0:0:0:
192,192,92666,128,0,92770:0:0:0:85:kick444.wav
448,192,92666,128,0,92770:0:0:0:0:
448,192,92873,1,0,0:0:0:100:hihat.wav
64,192,92977,128,0,93080:0:0:0:45:b03.wav
320,192,92977,128,0,93080:0:0:0:0:
192,192,93080,1,0,0:0:0:85:kick444.wav
448,192,93080,1,0,0:0:0:70:snare444.wav
64,192,93287,128,0,93494:0:0:0:100:hihat.wav
192,192,93287,128,0,93390:0:0:0:0:
448,192,93390,1,0,0:0:0:0:
320,192,93494,128,0,93701:0:0:0:85:kick444.wav
448,192,93494,128,0,93804:0:0:0:0:
192,192,93597,1,0,0:0:0:0:
64,192,93701,1,0,0:0:0:100:hihat.wav
192,192,93804,1,0,0:0:0:45:b03.wav
64,192,93908,1,0,0:0:0:85:kick444.wav
320,192,93908,1,0,0:0:0:70:snare444.wav
320,192,94011,1,0,0:0:0:0:
192,192,94114,1,0,0:0:0:100:hihat.wav
448,192,94218,128,0,94321:0:0:0:0:
64,192,94321,128,0,94425:0:0:0:85:kick444.wav
192,192,94321,128,0,94425:0:0:0:0:
192,192,94528,1,0,0:0:0:100:hihat.wav
320,192,94632,128,0,94735:0:0:0:45:b03.wav
448,192,94632,128,0,94735:0:0:0:0:
64,192,94735,1,0,0:0:0:85:kick444.wav
192,192,94735,1,0,0:0:0:70:snare444.wav
192,192,94942,128,0,95045:0:0:0:100:hihat.wav
448,192,94942,128,0,95149:0:0:0:0:
64,192,95045,1,0,0:0:0:0:
64,192,95149,128,0,95770:0:0:0:85:kick444.wav
192,192,95149,128,0,95459:0:0:0:0:
320,192,95252,1,0,0:0:0:0:
448,192,95356,1,0,0:0:0:100:hihat.wav
320,192,95459,1,0,0:0:0:45:b03.wav
192,192,95563,1,0,0:0:0:85:kick444.wav
448,192,95563,1,0,0:0:0:70:snare444.wav
192,192,95770,1,0,0:0:0:100:hihat.wav
192,192,95873,1,0,0:0:0:0:
64,192,95977,128,0,96080:0:0:0:85:kick444.wav
320,192,95977,128,0,96080:0:0:0:0:
64,192,96183,1,0,0:0:0:100:hihat.wav
192,192,96287,128,0,96390:0:0:0:45:b03.wav
448,192,96287,128,0,96390:0:0:0:0:
64,192,96390,1,0,0:0:0:85:kick444.wav
320,192,96390,1,0,0:0:0:70:snare444.wav
320,192,96597,128,0,96701:0:0:0:100:hihat.wav
448,192,96597,128,0,96804:0:0:0:0:
64,192,96701,1,0,0:0:0:0:
64,192,96804,128,0,97114:0:0:0:85:kick444.wav
192,192,96804,128,0,97011:0:0:0:0:
320,192,96908,1,0,0:0:0:0:
448,192,97011,1,0,0:0:0:100:hihat.wav
320,192,97114,1,0,0:0:0:45:b03.wav
192,192,97218,1,0,0:0:0:85:kick444.wav
448,192,97218,1,0,0:0:0:70:snare444.wav
192,192,97321,1,0,0:0:0:0:
320,192,97425,1,0,0:0:0:100:hihat.wav
64,192,97528,128,0,97632:0:0:0:0:
192,192,97632,1,0,0:0:0:85:kick444.wav
320,192,97632,128,0,97735:0:0:0:55:crash_bandicoot-short.wav
448,192,97632,128,0,97735:0:0:0:0:
64,192,97735,1,0,0:0:0:0:
320,192,97839,1,0,0:0:0:100:hihat.wav
64,192,97942,128,0,98045:0:0:0:85:kick444.wav
192,192,97942,128,0,98045:0:0:0:85:snareB-predrop.wav
64,192,98252,128,0,98459:0:0:0:85:kick444.wav
320,192,98252,128,0,98356:0:0:0:100:hihat.wav
448,192,98356,1,0,0:0:0:0:
192,192,98459,1,0,0:0:0:85:kick444.wav
320,192,98459,128,0,98770:0:0:0:55:crash_bandicoot-short.wav
448,192,98459,128,0,99080:0:0:0:0:
64,192,98563,1,0,0:0:0:0:
192,192,98666,1,0,0:0:0:100:hihat.wav
64,192,98770,1,0,0:0:0:85:kick444.wav
192,192,98770,1,0,0:0:0:85:snareB-predrop.wav
320,192,98873,1,0,0:0:0:0:
64,192,98977,1,0,0:0:0:0:
64,192,99080,1,0,0:0:0:85:kick444.wav
320,192,99080,1,0,0:0:0:100:hihat.wav
320,192,99183,1,0,0:0:0:0:
192,192,99183,1,0,0:0:0:85:kick444.wav
448,192,99287,1,0,0:0:0:55:crash_bandicoot.wav
192,192,99287,1,0,0:0:0:85:kick444.wav
64,192,99287,1,0,0:0:0:0:
192,192,99494,1,0,0:0:0:100:hihat.wav
320,192,99494,128,0,99701:0:0:0:75:tom03-high_pitched.wav
448,192,99597,1,0,0:0:0:75:tom01-high_pitched.wav
64,192,99701,1,0,0:0:0:70:snare444.wav
192,192,99701,1,0,0:0:0:75:tom02-high_pitched.wav
448,192,99804,1,0,0:0:0:0:
192,192,99908,128,0,100218:0:0:0:100:hihat.wav
64,192,100011,1,0,0:0:0:75:tom03-high_pitched.wav
448,192,100011,1,0,0:0:0:0:
320,192,100114,128,0,100218:0:0:0:0:
64,192,100218,1,0,0:0:0:75:tom03-high_pitched.wav
448,192,100218,1,0,0:0:0:0:
320,192,100321,128,0,100528:0:0:0:100:hihat.wav
192,192,100425,128,0,100528:0:0:0:75:tom02-high_pitched.wav
64,192,100528,1,0,0:0:0:70:snare444.wav
448,192,100528,1,0,0:0:0:75:tom03-high_pitched.wav
320,192,100632,1,0,0:0:0:75:tom01-high_pitched.wav
64,192,100735,128,0,100839:0:0:0:80:piano_F#6H_Gb6H.wav
448,192,100735,128,0,100942:0:0:0:100:hihat.wav
192,192,100839,1,0,0:0:0:80:piano_G#6H_Ab6H.wav
64,192,100942,1,0,0:0:0:80:piano_A#6H_Bb6H.wav
320,192,100942,1,0,0:0:0:55:crash_bandicoot.wav
448,192,101149,1,0,0:0:0:80:piano_C#7H_Db7H.wav
320,192,101356,1,0,0:0:0:80:piano_F#6H_Gb6H.wav
192,192,101563,1,0,0:0:0:80:piano_F6H.wav
64,192,101770,1,0,0:0:0:80:piano_D#6H_Eb6H.wav
64,192,104045,1,0,0:0:0:80:piano_D#6H_Eb6H.wav
192,192,104149,1,0,0:0:0:80:piano_F#6H_Gb6H.wav
320,192,104252,1,0,0:0:0:80:piano_G#6H_Ab6H.wav
448,192,104459,1,0,0:0:0:80:piano_A#6H_Bb6H.wav
192,192,104666,1,0,0:0:0:80:piano_F#6H_Gb6H.wav
64,192,104873,1,0,0:0:0:80:piano_F6H.wav
192,192,105080,1,0,0:0:0:80:piano_G#6H_Ab6H.wav
448,192,105701,1,0,0:0:0:80:piano_A#6H_Bb6H.wav
320,192,105908,1,0,0:0:0:80:piano_F#6H_Gb6H.wav
320,192,106114,1,0,0:0:0:80:piano_F6H.wav
192,192,106321,1,0,0:0:0:80:piano_D#6H_Eb6H.wav
64,192,106942,1,0,0:0:0:80:piano_C#6H_Db6H.wav
64,192,107356,1,0,0:0:0:80:piano_A#5H_Bb5H.wav
192,192,107459,1,0,0:0:0:70:piano_C#6H_Db6H.wav
448,192,107459,1,0,0:0:0:0:
64,192,107563,1,0,0:0:0:80:piano_D#6H_Eb6H.wav
320,192,107563,1,0,0:0:0:0:
64,192,108390,1,0,0:0:0:80:piano_A#5H_Bb5H.wav
320,192,108390,1,0,0:0:0:0:
64,192,108701,1,0,0:0:0:80:piano_C#6H_Db6H.wav
448,192,108701,1,0,0:0:0:0:
192,192,109011,1,0,0:0:0:80:piano_D#6H_Eb6H.wav
448,192,109011,1,0,0:0:0:0:
320,192,109218,1,0,0:0:0:80:piano_F6H.wav
448,192,109218,1,0,0:0:0:0:
64,192,110045,1,0,0:0:0:80:piano_A#5H_Bb5H.wav
192,192,110045,1,0,0:0:0:0:
64,192,110356,1,0,0:0:0:80:piano_C#6H_Db6H.wav
320,192,110356,1,0,0:0:0:0:
192,192,110666,1,0,0:0:0:80:piano_F6H.wav
320,192,110666,1,0,0:0:0:0:
192,192,110873,1,0,0:0:0:80:piano_F#6H_Gb6H.wav
448,192,110873,1,0,0:0:0:0:
320,192,111183,1,0,0:0:0:80:piano_G#6H_Ab6H.wav
448,192,111183,1,0,0:0:0:0:
192,192,111494,1,0,0:0:0:80:piano_F#6H_Gb6H.wav
448,192,111494,1,0,0:0:0:0:
64,192,111701,1,0,0:0:0:80:piano_F6H.wav
320,192,111701,1,0,0:0:0:0:
64,192,112321,1,0,0:0:0:80:piano_F6H.wav
192,192,112425,1,0,0:0:0:80:piano_F#6H_Gb6H.wav
64,192,112528,1,0,0:0:0:80:piano_G#6H_Ab6H.wav
320,192,112528,1,0,0:0:0:0:
192,192,112839,1,0,0:0:0:80:piano_C#7H_Db7H.wav
448,192,112839,1,0,0:0:0:0:
64,192,113149,1,0,0:0:0:80:piano_A#6H_Bb6H.wav
320,192,113149,1,0,0:0:0:0:
320,192,113356,1,0,0:0:0:80:piano_F#6H_Gb6H.wav
192,192,113563,1,0,0:0:0:80:piano_F6H.wav
64,192,113770,1,0,0:0:0:80:piano_D#6H_Eb6H.wav
64,192,113977,1,0,0:0:0:80:piano_F#6H_Gb6H.wav
192,192,114080,1,0,0:0:0:80:piano_G#6H_Ab6H.wav
320,192,114183,1,0,0:0:0:80:piano_A#6H_Bb6H.wav
448,192,114183,1,0,0:0:0:55:crash_bandicoot.wav
448,192,114390,1,0,0:0:0:80:piano_C#7H_Db7H.wav
320,192,114597,1,0,0:0:0:80:piano_F#6H_Gb6H.wav
448,192,114701,1,0,0:0:0:0:
192,192,114804,1,0,0:0:0:80:piano_F6H.wav
64,192,115011,1,0,0:0:0:80:piano_D#6H_Eb6H.wav
320,192,115321,1,0,0:0:0:0:
192,192,115632,1,0,0:0:0:0:
64,192,116045,1,0,0:0:0:0:
448,192,116356,1,0,0:0:0:0:
320,192,116666,1,0,0:0:0:0:
192,192,116977,1,0,0:0:0:0:
64,192,117287,1,0,0:0:0:80:piano_D#6H_Eb6H.wav
192,192,117390,1,0,0:0:0:80:piano_F#6H_Gb6H.wav
320,192,117494,1,0,0:0:0:80:piano_G#6H_Ab6H.wav
448,192,117701,1,0,0:0:0:80:piano_A#6H_Bb6H.wav
192,192,117908,1,0,0:0:0:80:piano_F#6H_Gb6H.wav
64,192,118114,1,0,0:0:0:80:piano_F6H.wav
192,192,118321,1,0,0:0:0:80:piano_G#6H_Ab6H.wav
320,192,118632,1,0,0:0:0:0:
448,192,118942,1,0,0:0:0:80:piano_A#6H_Bb6H.wav
320,192,119149,1,0,0:0:0:80:piano_F#6H_Gb6H.wav
320,192,119356,1,0,0:0:0:80:piano_F6H.wav
192,192,119563,1,0,0:0:0:80:piano_D#6H_Eb6H.wav
448,192,119666,1,0,0:0:0:0:
64,192,119770,1,0,0:0:0:0:
320,192,119977,1,0,0:0:0:0:
64,192,120183,1,0,0:0:0:80:piano_C#6H_Db6H.wav
192,192,120287,1,0,0:0:0:90:tom01-high_pitched.wav
64,192,120597,1,0,0:0:0:80:piano_A#5H_Bb5H.wav
192,192,120701,1,0,0:0:0:70:piano_C#6H_Db6H.wav
64,192,120804,1,0,0:0:0:80:piano_D#6H_Eb6H.wav
320,192,120804,1,0,0:0:0:55:crash_bandicoot.wav
192,192,121011,1,0,0:0:0:70:hihat.wav
64,192,121218,1,0,0:0:0:0:
320,192,121321,1,0,0:0:0:0:
192,192,121425,1,0,0:0:0:70:hihat.wav
448,192,121528,1,0,0:0:0:0:
64,192,121632,1,0,0:0:0:80:piano_A#5H_Bb5H.wav
192,192,121632,1,0,0:0:0:0:
320,192,121735,1,0,0:0:0:0:
192,192,121839,1,0,0:0:0:70:hihat.wav
64,192,121942,1,0,0:0:0:80:piano_C#6H_Db6H.wav
320,192,121942,1,0,0:0:0:0:
448,192,122045,1,0,0:0:0:0:
192,192,122252,1,0,0:0:0:80:piano_D#6H_Eb6H.wav
320,192,122252,1,0,0:0:0:70:hihat.wav
192,192,122459,1,0,0:0:0:80:piano_F6H.wav
448,192,122459,1,0,0:0:0:55:crash_bandicoot.wav
320,192,122666,1,0,0:0:0:70:hihat.wav
64,192,122873,1,0,0:0:0:0:
320,192,122977,1,0,0:0:0:0:
192,192,123080,1,0,0:0:0:70:hihat.wav
448,192,123183,1,0,0:0:0:0:
64,192,123287,1,0,0:0:0:80:piano_A#5H_Bb5H.wav
192,192,123287,1,0,0:0:0:0:
320,192,123390,1,0,0:0:0:0:
448,192,123494,1,0,0:0:0:70:hihat.wav
64,192,123597,1,0,0:0:0:80:piano_C#6H_Db6H.wav
320,192,123597,1,0,0:0:0:0:
192,192,123701,1,0,0:0:0:0:
192,192,123908,1,0,0:0:0:80:piano_F6H.wav
320,192,123908,1,0,0:0:0:70:hihat.wav
192,192,124114,1,0,0:0:0:80:piano_F#6H_Gb6H.wav
448,192,124114,1,0,0:0:0:10:snare-riser.wav
320,192,124218,1,0,0:0:0:10:snare-riser.wav
64,192,124321,1,0,0:0:0:20:snare-riser.wav
320,192,124425,1,0,0:0:0:80:piano_G#6H_Ab6H.wav
448,192,124425,1,0,0:0:0:20:snare-riser.wav
64,192,124528,1,0,0:0:0:25:snare-riser.wav
192,192,124528,1,0,0:0:0:0:
320,192,124632,1,0,0:0:0:25:snare-riser.wav
192,192,124735,1,0,0:0:0:80:piano_F#6H_Gb6H.wav
448,192,124735,1,0,0:0:0:35:snare-riser.wav
64,192,124839,1,0,0:0:0:35:snare-riser.wav
192,192,124942,1,0,0:0:0:80:piano_F6H.wav
320,192,124942,1,0,0:0:0:40:snare-riser.wav
448,192,125045,1,0,0:0:0:40:snare-riser.wav
64,192,125149,1,0,0:0:0:50:snare-riser.wav
192,192,125149,1,0,0:0:0:70:hihat.wav
320,192,125252,1,0,0:0:0:50:snare-riser.wav
64,192,125356,1,0,0:0:0:55:snare-riser.wav
448,192,125356,1,0,0:0:0:0:
192,192,125459,1,0,0:0:0:55:snare-riser.wav
320,192,125459,1,0,0:0:0:0:
64,192,125563,1,0,0:0:0:80:piano_F6H.wav
448,192,125563,1,0,0:0:0:60:snare-riser.wav
192,192,125666,1,0,0:0:0:80:piano_F#6H_Gb6H.wav
320,192,125666,1,0,0:0:0:60:snare-riser.wav
64,192,125770,128,0,125977:0:0:0:50:piano_G#6H_Ab6H.wav
448,192,126080,128,0,126287:0:0:0:50:piano_C#7H_Db7H.wav
320,192,126390,128,0,126597:0:0:0:50:piano_A#6H_Bb6H.wav
64,192,126597,1,0,0:0:0:80:piano_F#6H_Gb6H.wav
192,192,126701,128,0,126804:0:0:0:0:
320,192,126804,1,0,0:0:0:80:piano_F6H.wav
448,192,126804,1,0,0:0:0:80:hihat.wav
448,192,126908,1,0,0:0:0:90:tom01-high_pitched.wav
64,192,127011,1,0,0:0:0:80:piano_D#6H_Eb6H.wav
192,192,127011,1,0,0:0:0:50:snare444.wav
192,192,127114,1,0,0:0:0:0:
448,192,127114,1,0,0:0:0:0:
320,192,127218,1,0,0:0:0:90:hihat.wav
64,192,127321,1,0,0:0:0:0:
320,192,127321,1,0,0:0:0:0:
64,192,127425,128,0,127528:0:0:0:85:kick444.wav
192,192,127425,128,0,127528:0:0:0:55:crash_bandicoot.wav
448,192,127425,1,0,0:0:0:0:
320,192,127528,1,0,0:0:0:0:
192,192,127632,1,0,0:0:0:100:hihat.wav
320,192,127735,128,0,127839:0:0:0:45:b03.wav
448,192,127735,128,0,127839:0:0:0:0:
64,192,127839,1,0,0:0:0:85:kick444.wav
192,192,127839,1,0,0:0:0:70:snare444.wav
320,192,127942,1,0,0:0:0:0:
192,192,128045,128,0,128149:0:0:0:100:hihat.wav
448,192,128045,128,0,128252:0:0:0:0:
64,192,128149,1,0,0:0:0:0:
64,192,128252,128,0,128873:0:0:0:85:kick444.wav
192,192,128252,128,0,128563:0:0:0:0:
320,192,128356,1,0,0:0:0:0:
448,192,128459,1,0,0:0:0:100:hihat.wav
448,192,128563,1,0,0:0:0:45:b03.wav
192,192,128666,1,0,0:0:0:85:kick444.wav
320,192,128666,1,0,0:0:0:70:snare444.wav
448,192,128770,1,0,0:0:0:0:
192,192,128873,1,0,0:0:0:100:hihat.wav
192,192,128977,1,0,0:0:0:0:
64,192,129080,128,0,129183:0:0:0:85:kick444.wav
320,192,129080,128,0,129183:0:0:0:0:
448,192,129183,1,0,0:0:0:0:
64,192,129287,1,0,0:0:0:100:hihat.wav
192,192,129390,128,0,129494:0:0:0:45:b03.wav
448,192,129390,128,0,129494:0:0:0:0:
64,192,129494,1,0,0:0:0:85:kick444.wav
320,192,129494,1,0,0:0:0:70:snare444.wav
192,192,129597,1,0,0:0:0:0:
320,192,129701,128,0,129804:0:0:0:100:hihat.wav
448,192,129701,128,0,129908:0:0:0:0:
64,192,129804,1,0,0:0:0:0:
64,192,129908,128,0,130218:0:0:0:85:kick444.wav
192,192,129908,128,0,130114:0:0:0:0:
320,192,130011,1,0,0:0:0:0:
448,192,130114,1,0,0:0:0:100:hihat.wav
320,192,130218,1,0,0:0:0:45:b03.wav
192,192,130321,1,0,0:0:0:85:kick444.wav
448,192,130321,1,0,0:0:0:70:snare444.wav
192,192,130425,1,0,0:0:0:0:
320,192,130528,1,0,0:0:0:100:hihat.wav
64,192,130632,128,0,130735:0:0:0:0:
320,192,130735,128,0,130839:0:0:0:85:kick444.wav
448,192,130735,128,0,130839:0:0:0:0:
192,192,130839,1,0,0:0:0:0:
320,192,130942,1,0,0:0:0:100:hihat.wav
64,192,131045,128,0,131149:0:0:0:45:b03.wav
192,192,131045,128,0,131149:0:0:0:0:
320,192,131149,1,0,0:0:0:85:kick444.wav
448,192,131149,1,0,0:0:0:70:snare444.wav
192,192,131252,1,0,0:0:0:0:
64,192,131356,128,0,131563:0:0:0:100:hihat.wav
320,192,131356,128,0,131459:0:0:0:0:
448,192,131459,1,0,0:0:0:0:
320,192,131563,128,0,131873:0:0:0:85:kick444.wav
448,192,131563,128,0,132183:0:0:0:0:
192,192,131666,1,0,0:0:0:0:
64,192,131770,1,0,0:0:0:100:hihat.wav
64,192,131873,1,0,0:0:0:45:b03.wav
192,192,131977,1,0,0:0:0:85:kick444.wav
320,192,131977,1,0,0:0:0:70:snare444.wav
64,192,132080,1,0,0:0:0:0:
320,192,132183,1,0,0:0:0:100:hihat.wav
320,192,132287,1,0,0:0:0:0:
192,192,132390,128,0,132494:0:0:0:85:kick444.wav
448,192,132390,128,0,132494:0:0:0:0:
64,192,132494,1,0,0:0:0:0:
448,192,132597,1,0,0:0:0:100:hihat.wav
64,192,132701,128,0,132804:0:0:0:45:b03.wav
320,192,132701,128,0,132804:0:0:0:0:
192,192,132804,1,0,0:0:0:85:kick444.wav
448,192,132804,1,0,0:0:0:70:snare444.wav
320,192,132908,1,0,0:0:0:0:
64,192,133011,128,0,133218:0:0:0:100:hihat.wav
192,192,133011,128,0,133114:0:0:0:0:
448,192,133114,1,0,0:0:0:0:
320,192,133218,128,0,133425:0:0:0:85:kick444.wav
448,192,133218,128,0,133528:0:0:0:0:
192,192,133321,1,0,0:0:0:0:
64,192,133425,1,0,0:0:0:100:hihat.wav
192,192,133528,1,0,0:0:0:45:b03.wav
64,192,133632,1,0,0:0:0:85:kick444.wav
320,192,133632,1,0,0:0:0:70:snare444.wav
320,192,133735,1,0,0:0:0:0:
192,192,133839,1,0,0:0:0:100:hihat.wav
448,192,133942,128,0,134045:0:0:0:0:
64,192,134045,128,0,134149:0:0:0:85:kick444.wav
192,192,134045,128,0,134149:0:0:0:0:
320,192,134149,1,0,0:0:0:0:
192,192,134252,1,0,0:0:0:100:hihat.wav
320,192,134356,128,0,134459:0:0:0:45:b03.wav
448,192,134356,128,0,134459:0:0:0:0:
64,192,134459,1,0,0:0:0:85:kick444.wav
192,192,134459,1,0,0:0:0:70:snare444.wav
320,192,134563,1,0,0:0:0:0:
192,192,134666,128,0,134770:0:0:0:100:hihat.wav
448,192,134666,128,0,134873:0:0:0:0:
64,192,134770,1,0,0:0:0:0:
64,192,134873,128,0,135494:0:0:0:85:kick444.wav
192,192,134873,128,0,135183:0:0:0:0:
320,192,134977,1,0,0:0:0:0:
448,192,135080,1,0,0:0:0:100:hihat.wav
448,192,135183,1,0,0:0:0:45:b03.wav
192,192,135287,1,0,0:0:0:85:kick444.wav
320,192,135287,1,0,0:0:0:70:snare444.wav
448,192,135390,1,0,0:0:0:0:
192,192,135494,1,0,0:0:0:100:hihat.wav
192,192,135597,1,0,0:0:0:0:
64,192,135701,128,0,135804:0:0:0:85:kick444.wav
320,192,135701,128,0,135804:0:0:0:0:
448,192,135804,1,0,0:0:0:0:
64,192,135908,1,0,0:0:0:100:hihat.wav
192,192,136011,128,0,136114:0:0:0:45:b03.wav
448,192,136011,128,0,136114:0:0:0:0:
64,192,136114,1,0,0:0:0:85:kick444.wav
320,192,136114,1,0,0:0:0:70:snare444.wav
192,192,136218,1,0,0:0:0:0:
320,192,136321,128,0,136425:0:0:0:100:hihat.wav
448,192,136321,128,0,136528:0:0:0:0:
64,192,136425,1,0,0:0:0:0:
64,192,136528,128,0,136839:0:0:0:85:kick444.wav
192,192,136528,128,0,136735:0:0:0:0:
320,192,136632,1,0,0:0:0:0:
448,192,136735,1,0,0:0:0:100:hihat.wav
320,192,136839,1,0,0:0:0:45:b03.wav
192,192,136942,1,0,0:0:0:85:kick444.wav
448,192,136942,1,0,0:0:0:70:snare444.wav
192,192,137045,1,0,0:0:0:0:
320,192,137149,1,0,0:0:0:100:hihat.wav
64,192,137252,128,0,137356:0:0:0:0:
320,192,137356,128,0,137459:0:0:0:85:kick444.wav
448,192,137356,128,0,137459:0:0:0:0:
192,192,137459,1,0,0:0:0:0:
320,192,137563,1,0,0:0:0:100:hihat.wav
64,192,137666,128,0,137770:0:0:0:45:b03.wav
192,192,137666,128,0,137770:0:0:0:0:
320,192,137770,1,0,0:0:0:85:kick444.wav
448,192,137770,1,0,0:0:0:70:snare444.wav
192,192,137873,1,0,0:0:0:0:
64,192,137977,128,0,138183:0:0:0:100:hihat.wav
320,192,137977,128,0,138080:0:0:0:0:
448,192,138080,1,0,0:0:0:0:
320,192,138183,128,0,138494:0:0:0:85:kick444.wav
448,192,138183,128,0,138804:0:0:0:0:
192,192,138287,1,0,0:0:0:0:
64,192,138390,1,0,0:0:0:100:hihat.wav
64,192,138494,1,0,0:0:0:45:b03.wav
192,192,138597,1,0,0:0:0:85:kick444.wav
320,192,138597,1,0,0:0:0:70:snare444.wav
64,192,138701,1,0,0:0:0:0:
320,192,138804,1,0,0:0:0:100:hihat.wav
320,192,138908,1,0,0:0:0:0:
64,192,139011,128,0,139114:0:0:0:0:
448,192,139011,128,0,139218:0:0:0:0:
192,192,139114,1,0,0:0:0:0:
64,192,139218,128,0,139321:0:0:0:100:hihat.wav
192,192,139321,128,0,139528:0:0:0:0:
320,192,139321,128,0,139425:0:0:0:0:
64,192,139425,1,0,0:0:0:50:snare444.wav
448,192,139425,1,0,0:0:0:0:
320,192,139528,128,0,139632:0:0:0:0:
64,192,139632,128,0,139839:0:0:0:100:hihat.wav
192,192,139632,128,0,139735:0:0:0:0:
448,192,139735,128,0,139839:0:0:0:0:
320,192,139839,1,0,0:0:0:0:
448,192,139942,128,0,140149:0:0:0:0:
64,192,140045,128,0,140149:0:0:0:100:hihat.wav
192,192,140149,128,0,140252:0:0:0:90:tom01-high_pitched.wav
64,192,140252,1,0,0:0:0:50:snare444.wav
320,192,140252,128,0,140356:0:0:0:0:
448,192,140356,128,0,140563:0:0:0:0:
64,192,140459,128,0,140563:0:0:0:100:hihat.wav
192,192,140563,128,0,140666:0:0:0:0:
64,192,140666,1,0,0:0:0:85:kick444.wav
320,192,140666,128,0,140770:0:0:0:55:crash_bandicoot.wav
448,192,140666,128,0,140770:0:0:0:0:
192,192,140770,1,0,0:0:0:0:
320,192,140873,1,0,0:0:0:100:hihat.wav
64,192,140977,128,0,141080:0:0:0:45:b03.wav
192,192,140977,128,0,141080:0:0:0:0:
320,192,141080,1,0,0:0:0:85:kick444.wav
448,192,141080,1,0,0:0:0:70:snare444.wav
192,192,141183,1,0,0:0:0:0:
64,192,141287,128,0,141494:0:0:0:100:hihat.wav
320,192,141287,128,0,141390:0:0:0:0:
448,192,141390,1,0,0:0:0:0:
320,192,141494,128,0,141804:0:0:0:85:kick444.wav
448,192,141494,128,0,142114:0:0:0:0:
192,192,141597,1,0,0:0:0:0:
64,192,141701,1,0,0:0:0:100:hihat.wav
64,192,141804,1,0,0:0:0:45:b03.wav
192,192,141908,1,0,0:0:0:85:kick444.wav
320,192,141908,1,0,0:0:0:70:snare444.wav
64,192,142011,1,0,0:0:0:0:
320,192,142114,1,0,0:0:0:100:hihat.wav
320,192,142218,1,0,0:0:0:0:
192,192,142321,128,0,142425:0:0:0:85:kick444.wav
448,192,142321,128,0,142425:0:0:0:0:
64,192,142425,1,0,0:0:0:0:
448,192,142528,1,0,0:0:0:100:hihat.wav
64,192,142632,128,0,142735:0:0:0:45:b03.wav
320,192,142632,128,0,142735:0:0:0:0:
192,192,142735,1,0,0:0:0:85:kick444.wav
448,192,142735,1,0,0:0:0:70:snare444.wav
320,192,142839,1,0,0:0:0:0:
64,192,142942,128,0,143149:0:0:0:100:hihat.wav
192,192,142942,128,0,143045:0:0:0:0:
448,192,143045,1,0,0:0:0:0:
320,192,143149,128,0,143356:0:0:0:85:kick444.wav
448,192,143149,128,0,143459:0:0:0:0:
192,192,143252,1,0,0:0:0:0:
64,192,143356,1,0,0:0:0:100:hihat.wav
192,192,143459,1,0,0:0:0:45:b03.wav
64,192,143563,1,0,0:0:0:85:kick444.wav
320,192,143563,1,0,0:0:0:70:snare444.wav
320,192,143666,1,0,0:0:0:0:
192,192,143770,1,0,0:0:0:100:hihat.wav
448,192,143873,128,0,143977:0:0:0:0:
64,192,143977,128,0,144080:0:0:0:85:kick444.wav
192,192,143977,128,0,144080:0:0:0:0:
320,192,144080,1,0,0:0:0:0:
192,192,144183,1,0,0:0:0:100:hihat.wav
320,192,144287,128,0,144390:0:0:0:45:b03.wav
448,192,144287,128,0,144390:0:0:0:0:
64,192,144390,1,0,0:0:0:85:kick444.wav
192,192,144390,1,0,0:0:0:70:snare444.wav
320,192,144494,1,0,0:0:0:0:
192,192,144597,128,0,144701:0:0:0:100:hihat.wav
448,192,144597,128,0,144804:0:0:0:0:
64,192,144701,1,0,0:0:0:0:
64,192,144804,128,0,145425:0:0:0:85:kick444.wav
192,192,144804,128,0,145114:0:0:0:0:
320,192,144908,1,0,0:0:0:0:
448,192,145011,1,0,0:0:0:100:hihat.wav
448,192,145114,1,0,0:0:0:45:b03.wav
192,192,145218,1,0,0:0:0:85:kick444.wav
320,192,145218,1,0,0:0:0:70:snare444.wav
448,192,145321,1,0,0:0:0:0:
192,192,145425,1,0,0:0:0:100:hihat.wav
192,192,145528,1,0,0:0:0:0:
64,192,145632,128,0,145735:0:0:0:85:kick444.wav
320,192,145632,128,0,145735:0:0:0:0:
448,192,145735,1,0,0:0:0:0:
64,192,145839,1,0,0:0:0:100:hihat.wav
192,192,145942,128,0,146045:0:0:0:45:b03.wav
448,192,145942,128,0,146045:0:0:0:0:
64,192,146045,1,0,0:0:0:85:kick444.wav
320,192,146045,1,0,0:0:0:70:snare444.wav
192,192,146149,1,0,0:0:0:0:
320,192,146252,128,0,146356:0:0:0:100:hihat.wav
448,192,146252,128,0,146459:0:0:0:0:
64,192,146356,1,0,0:0:0:0:
64,192,146459,128,0,146770:0:0:0:85:kick444.wav
192,192,146459,128,0,146666:0:0:0:0:
320,192,146563,1,0,0:0:0:0:
448,192,146666,1,0,0:0:0:100:hihat.wav
320,192,146770,1,0,0:0:0:45:b03.wav
192,192,146873,1,0,0:0:0:85:kick444.wav
448,192,146873,1,0,0:0:0:70:snare444.wav
192,192,146977,1,0,0:0:0:0:
320,192,147080,1,0,0:0:0:100:hihat.wav
64,192,147183,128,0,147287:0:0:0:0:
320,192,147287,128,0,147390:0:0:0:85:kick444.wav
448,192,147287,128,0,147390:0:0:0:0:
192,192,147390,1,0,0:0:0:0:
320,192,147494,1,0,0:0:0:100:hihat.wav
64,192,147597,128,0,147701:0:0:0:45:b03.wav
192,192,147597,128,0,147701:0:0:0:0:
320,192,147701,1,0,0:0:0:85:kick444.wav
448,192,147701,1,0,0:0:0:70:snare444.wav
192,192,147804,1,0,0:0:0:0:
64,192,147908,128,0,148114:0:0:0:100:hihat.wav
320,192,147908,128,0,148011:0:0:0:0:
448,192,148011,1,0,0:0:0:0:
320,192,148114,128,0,148425:0:0:0:85:kick444.wav
448,192,148114,128,0,148735:0:0:0:0:
192,192,148218,1,0,0:0:0:0:
64,192,148321,1,0,0:0:0:100:hihat.wav
64,192,148425,1,0,0:0:0:45:b03.wav
192,192,148528,1,0,0:0:0:85:kick444.wav
320,192,148528,1,0,0:0:0:70:snare444.wav
64,192,148632,1,0,0:0:0:0:
320,192,148735,1,0,0:0:0:100:hihat.wav
320,192,148839,1,0,0:0:0:0:
192,192,148942,128,0,149045:0:0:0:85:kick444.wav
448,192,148942,128,0,149045:0:0:0:0:
64,192,149045,1,0,0:0:0:0:
448,192,149149,1,0,0:0:0:100:hihat.wav
64,192,149252,128,0,149356:0:0:0:45:b03.wav
320,192,149252,128,0,149356:0:0:0:0:
192,192,149356,1,0,0:0:0:85:kick444.wav
448,192,149356,1,0,0:0:0:70:snare444.wav
320,192,149459,1,0,0:0:0:0:
64,192,149563,128,0,149770:0:0:0:100:hihat.wav
192,192,149563,128,0,149666:0:0:0:0:
448,192,149666,1,0,0:0:0:0:
320,192,149770,128,0,149977:0:0:0:85:kick444.wav
448,192,149770,128,0,150080:0:0:0:0:
192,192,149873,1,0,0:0:0:0:
64,192,149977,1,0,0:0:0:100:hihat.wav
192,192,150080,1,0,0:0:0:45:b03.wav
64,192,150183,1,0,0:0:0:85:kick444.wav
320,192,150183,1,0,0:0:0:70:snare444.wav
320,192,150287,1,0,0:0:0:0:
192,192,150390,1,0,0:0:0:100:hihat.wav
448,192,150494,128,0,150597:0:0:0:0:
64,192,150597,128,0,150701:0:0:0:85:kick444.wav
192,192,150597,128,0,150701:0:0:0:55:crash_bandicoot-short.wav
320,192,150597,1,0,0:0:0:0:
448,192,150701,1,0,0:0:0:0:
192,192,150804,1,0,0:0:0:100:hihat.wav
64,192,150908,1,0,0:0:0:85:kick444.wav
320,192,150908,128,0,151011:0:0:0:85:snareB-predrop.wav
448,192,150908,128,0,151011:0:0:0:55:crash_bandicoot-short.wav
192,192,151218,128,0,151321:0:0:0:85:kick444.wav
448,192,151218,128,0,151425:0:0:0:100:hihat.wav
64,192,151321,1,0,0:0:0:0:
64,192,151425,128,0,152045:0:0:0:85:kick444.wav
192,192,151425,128,0,151735:0:0:0:55:crash_bandicoot-short.wav
320,192,151425,1,0,0:0:0:0:
448,192,151528,1,0,0:0:0:0:
320,192,151632,1,0,0:0:0:100:hihat.wav
448,192,151735,1,0,0:0:0:85:snareB-predrop.wav
192,192,151839,1,0,0:0:0:85:kick444.wav
320,192,151839,1,0,0:0:0:0:
320,192,151942,1,0,0:0:0:0:
192,192,152045,1,0,0:0:0:85:kick444.wav
448,192,152045,1,0,0:0:0:100:hihat.wav
192,192,152149,1,0,0:0:0:0:
64,192,152252,1,0,0:0:0:85:kick444.wav
320,192,152252,1,0,0:0:0:55:crash_bandicoot.wav
448,192,152252,1,0,0:0:0:0:
320,192,152356,1,0,0:0:0:0:
64,192,152459,128,0,152666:0:0:0:100:hihat.wav
448,192,152459,1,0,0:0:0:75:tom03-high_pitched.wav
192,192,152563,1,0,0:0:0:75:tom01-high_pitched.wav
320,192,152666,1,0,0:0:0:50:snare444.wav
448,192,152666,1,0,0:0:0:75:tom02-high_pitched.wav
192,192,152770,1,0,0:0:0:0:
448,192,152873,128,0,153080:0:0:0:100:hihat.wav
64,192,152977,1,0,0:0:0:75:tom03-high_pitched.wav
192,192,152977,1,0,0:0:0:0:
320,192,153080,1,0,0:0:0:0:
192,192,153183,1,0,0:0:0:75:tom03-high_pitched.wav
448,192,153183,1,0,0:0:0:0:
64,192,153287,128,0,153494:0:0:0:100:hihat.wav
448,192,153390,1,0,0:0:0:75:tom02-high_pitched.wav
192,192,153494,1,0,0:0:0:50:snare444.wav
320,192,153494,1,0,0:0:0:75:tom03-high_pitched.wav
64,192,153597,1,0,0:0:0:75:tom01-high_pitched.wav
320,192,153701,1,0,0:0:0:100:hihat.wav
448,192,153701,128,0,153908:0:0:0:0:
192,192,153804,1,0,0:0:0:0:
64,192,153908,128,0,154114:0:0:0:55:crash_bandicoot.wav
192,192,153908,1,0,0:0:0:0:
320,192,154114,128,0,154218:0:0:0:100:hihat.wav
192,192,154218,128,0,154321:0:0:0:0:
448,192,154218,128,0,154321:0:0:0:0:
64,192,154425,128,0,154528:0:0:0:0:
192,192,154528,128,0,154632:0:0:0:100:hihat.wav
320,192,154632,128,0,154735:0:0:0:0:
448,192,154632,128,0,154735:0:0:0:0:
192,192,154942,128,0,155149:0:0:0:100:hihat.wav
320,192,155045,128,0,155149:0:0:0:0:
448,192,155149,128,0,155356:0:0:0:50:snare444.wav
64,192,155252,128,0,155459:0:0:0:0:
192,192,155356,1,0,0:0:0:100:hihat.wav
320,192,155563,1,0,0:0:0:0:
320,192,155666,1,0,0:0:0:0:
320,192,155770,1,0,0:0:0:100:hihat.wav
64,192,155873,128,0,156080:0:0:0:0:
448,192,155873,128,0,155977:0:0:0:0:
192,192,156080,128,0,156183:0:0:0:0:
320,192,156183,128,0,156287:0:0:0:100:hihat.wav
64,192,156287,128,0,156390:0:0:0:0:
448,192,156287,128,0,156390:0:0:0:0:
192,192,156390,1,0,0:0:0:0:
192,192,156494,1,0,0:0:0:0:
320,192,156597,128,0,156804:0:0:0:100:hihat.wav
448,192,156701,128,0,156804:0:0:0:0:
64,192,156804,128,0,157011:0:0:0:50:snare444.wav
192,192,156908,128,0,157114:0:0:0:0:
320,192,157011,1,0,0:0:0:100:hihat.wav
448,192,157218,128,0,157425:0:0:0:0:
192,192,157425,128,0,157528:0:0:0:100:hihat.wav
64,192,157528,128,0,157632:0:0:0:0:
320,192,157528,128,0,157632:0:0:0:0:
448,192,157735,128,0,157839:0:0:0:0:
320,192,157839,128,0,157942:0:0:0:100:hihat.wav
64,192,157942,128,0,158045:0:0:0:0:
192,192,157942,128,0,158045:0:0:0:0:
320,192,158252,128,0,158459:0:0:0:100:hihat.wav
192,192,158356,128,0,158459:0:0:0:0:
64,192,158459,128,0,158666:0:0:0:50:snare444.wav
448,192,158563,128,0,158770:0:0:0:0:
320,192,158666,1,0,0:0:0:100:hihat.wav
192,192,158873,1,0,0:0:0:0:
192,192,158977,1,0,0:0:0:0:
192,192,159080,1,0,0:0:0:100:hihat.wav
64,192,159183,128,0,159287:0:0:0:0:
448,192,159183,128,0,159390:0:0:0:0:
320,192,159390,128,0,159494:0:0:0:0:
192,192,159494,128,0,159597:0:0:0:100:hihat.wav
64,192,159597,128,0,159701:0:0:0:0:
448,192,159597,128,0,159701:0:0:0:0:
192,192,159908,128,0,160114:0:0:0:100:hihat.wav
64,192,160011,128,0,160114:0:0:0:90:tom01-high_pitched.wav
448,192,160218,128,0,160425:0:0:0:0:
320,192,160321,128,0,160425:0:0:0:100:hihat.wav
192,192,160425,1,0,0:0:0:0:
64,192,160528,128,0,160735:0:0:0:40:kick444.wav
192,192,160528,1,0,0:0:0:0:
320,192,160735,128,0,160839:0:0:0:100:hihat.wav
192,192,160839,128,0,160942:0:0:0:45:b03.wav
448,192,160839,128,0,160942:0:0:0:0:
64,192,160942,1,0,0:0:0:45:kick444.wav
320,192,160942,1,0,0:0:0:70:snare444.wav
192,192,161045,128,0,161149:0:0:0:0:
64,192,161149,128,0,161252:0:0:0:100:hihat.wav
320,192,161252,128,0,161356:0:0:0:0:
448,192,161252,128,0,161356:0:0:0:0:
64,192,161356,1,0,0:0:0:50:kick444.wav
192,192,161356,1,0,0:0:0:0:
448,192,161459,1,0,0:0:0:0:
192,192,161563,128,0,161666:0:0:0:100:hihat.wav
320,192,161666,128,0,161770:0:0:0:45:b03.wav
192,192,161770,1,0,0:0:0:55:kick444.wav
448,192,161770,128,0,161977:0:0:0:70:snare444.wav
64,192,161873,128,0,162080:0:0:0:0:
192,192,162080,1,0,0:0:0:0:
320,192,162183,1,0,0:0:0:60:kick444.wav
448,192,162183,1,0,0:0:0:0:
320,192,162287,1,0,0:0:0:0:
320,192,162390,1,0,0:0:0:100:hihat.wav
64,192,162494,128,0,162701:0:0:0:45:b03.wav
192,192,162494,128,0,162597:0:0:0:0:
320,192,162597,1,0,0:0:0:65:kick444.wav
448,192,162597,1,0,0:0:0:70:snare444.wav
192,192,162701,128,0,162804:0:0:0:0:
320,192,162804,128,0,162908:0:0:0:100:hihat.wav
64,192,162908,128,0,163011:0:0:0:0:
448,192,162908,128,0,163011:0:0:0:0:
192,192,163011,1,0,0:0:0:70:kick444.wav
320,192,163011,1,0,0:0:0:0:
192,192,163114,1,0,0:0:0:0:
320,192,163218,128,0,163321:0:0:0:100:hihat.wav
448,192,163321,128,0,163425:0:0:0:45:b03.wav
64,192,163425,128,0,163632:0:0:0:75:kick444.wav
320,192,163425,1,0,0:0:0:70:snare444.wav
192,192,163528,128,0,163735:0:0:0:0:
320,192,163632,1,0,0:0:0:100:hihat.wav
448,192,163735,1,0,0:0:0:0:
320,192,163839,1,0,0:0:0:80:kick444.wav
448,192,163839,128,0,164045:0:0:0:0:
192,192,164045,128,0,164149:0:0:0:100:hihat.wav
64,192,164149,128,0,164252:0:0:0:45:b03.wav
320,192,164149,128,0,164252:0:0:0:0:
192,192,164252,1,0,0:0:0:80:kick444.wav
448,192,164252,1,0,0:0:0:70:snare444.wav
320,192,164356,128,0,164459:0:0:0:0:
448,192,164459,128,0,164563:0:0:0:100:hihat.wav
64,192,164563,128,0,164666:0:0:0:0:
192,192,164563,128,0,164666:0:0:0:0:
320,192,164666,1,0,0:0:0:85:kick444.wav
448,192,164666,1,0,0:0:0:0:
64,192,164770,1,0,0:0:0:0:
192,192,164873,128,0,164977:0:0:0:100:hihat.wav
320,192,164977,128,0,165080:0:0:0:45:b03.wav
64,192,165080,128,0,165287:0:0:0:85:kick444.wav
192,192,165080,1,0,0:0:0:70:snare444.wav
448,192,165080,1,0,0:0:0:90:b03.wav
320,192,165183,128,0,165390:0:0:0:0:
448,192,165287,1,0,0:0:0:100:hihat.wav
192,192,165390,1,0,0:0:0:0:
64,192,165494,1,0,0:0:0:85:kick444.wav
320,192,165494,1,0,0:0:0:0:
320,192,165597,1,0,0:0:0:0:
192,192,165701,1,0,0:0:0:100:hihat.wav
192,192,165804,1,0,0:0:0:0:
320,192,165908,1,0,0:0:0:70:snare444.wav
320,192,166011,1,0,0:0:0:0:
320,192,166114,1,0,0:0:0:100:hihat.wav
320,192,166218,1,0,0:0:0:0:
320,192,166321,1,0,0:0:0:0:
320,192,166425,1,0,0:0:0:0:
320,192,166528,128,0,166735:0:0:0:100:hihat.wav
448,192,166632,128,0,166735:0:0:0:90:tom01-high_pitched.wav
192,192,166735,128,0,166942:0:0:0:70:snare444.wav
64,192,166839,128,0,166942:0:0:0:0:
320,192,166942,128,0,167149:0:0:0:100:hihat.wav
448,192,166942,128,0,167045:0:0:0:90:tom02-high_pitched.wav
64,192,167149,128,0,167356:0:0:0:85:kick444.wav
192,192,167149,128,0,167356:0:0:0:55:crash_bandicoot.wav
448,192,167149,1,0,0:0:0:0:
448,192,167356,128,0,167459:0:0:0:100:hihat.wav
192,192,167459,128,0,167563:0:0:0:45:b03.wav
320,192,167459,128,0,167563:0:0:0:0:
64,192,167563,1,0,0:0:0:85:kick444.wav
448,192,167563,1,0,0:0:0:70:snare444.wav
192,192,167666,128,0,167770:0:0:0:0:
448,192,167770,128,0,167873:0:0:0:100:hihat.wav
64,192,167873,128,0,167977:0:0:0:0:
320,192,167873,128,0,167977:0:0:0:0:
192,192,167977,1,0,0:0:0:85:kick444.wav
448,192,167977,1,0,0:0:0:0:
320,192,168080,1,0,0:0:0:0:
64,192,168183,128,0,168287:0:0:0:100:hihat.wav
320,192,168287,128,0,168390:0:0:0:45:b03.wav
64,192,168390,128,0,168597:0:0:0:85:kick444.wav
192,192,168390,1,0,0:0:0:70:snare444.wav
448,192,168494,128,0,168701:0:0:0:0:
320,192,168597,1,0,0:0:0:100:hihat.wav
192,192,168701,1,0,0:0:0:0:
320,192,168804,1,0,0:0:0:85:kick444.wav
448,192,168804,1,0,0:0:0:0:
320,192,168908,1,0,0:0:0:0:
320,192,169011,1,0,0:0:0:100:hihat.wav
64,192,169114,128,0,169321:0:0:0:45:b03.wav
192,192,169114,128,0,169218:0:0:0:0:
320,192,169218,1,0,0:0:0:85:kick444.wav
448,192,169218,1,0,0:0:0:70:snare444.wav
192,192,169321,128,0,169425:0:0:0:0:
448,192,169425,128,0,169528:0:0:0:100:hihat.wav
192,192,169528,128,0,169632:0:0:0:0:
320,192,169528,128,0,169632:0:0:0:0:
64,192,169632,1,0,0:0:0:85:kick444.wav
448,192,169632,1,0,0:0:0:0:
192,192,169735,1,0,0:0:0:0:
448,192,169839,128,0,169942:0:0:0:100:hihat.wav
192,192,169942,128,0,170045:0:0:0:45:b03.wav
64,192,170045,128,0,170252:0:0:0:85:kick444.wav
320,192,170045,1,0,0:0:0:70:snare444.wav
448,192,170149,128,0,170356:0:0:0:0:
192,192,170252,1,0,0:0:0:100:hihat.wav
320,192,170356,1,0,0:0:0:0:
192,192,170459,1,0,0:0:0:85:kick444.wav
320,192,170459,128,0,170666:0:0:0:0:
448,192,170459,128,0,170666:0:0:0:0:
64,192,170666,128,0,170770:0:0:0:100:hihat.wav
192,192,170770,128,0,170873:0:0:0:45:b03.wav
320,192,170770,128,0,170873:0:0:0:0:
64,192,170873,1,0,0:0:0:85:kick444.wav
448,192,170873,1,0,0:0:0:70:snare444.wav
320,192,170977,128,0,171080:0:0:0:0:
64,192,171080,128,0,171183:0:0:0:100:hihat.wav
192,192,171183,128,0,171287:0:0:0:0:
448,192,171183,128,0,171287:0:0:0:0:
64,192,171287,1,0,0:0:0:85:kick444.wav
320,192,171287,1,0,0:0:0:0:
192,192,171390,1,0,0:0:0:0:
448,192,171494,128,0,171597:0:0:0:100:hihat.wav
192,192,171597,128,0,171701:0:0:0:45:b03.wav
320,192,171701,1,0,0:0:0:85:kick444.wav
448,192,171701,128,0,171908:0:0:0:70:snare444.wav
64,192,171804,128,0,172011:0:0:0:0:
192,192,171908,1,0,0:0:0:100:hihat.wav
320,192,172011,1,0,0:0:0:0:
64,192,172114,1,0,0:0:0:85:kick444.wav
192,192,172114,1,0,0:0:0:0:
192,192,172218,1,0,0:0:0:0:
192,192,172321,1,0,0:0:0:100:hihat.wav
320,192,172425,128,0,172528:0:0:0:45:b03.wav
448,192,172425,128,0,172632:0:0:0:0:
64,192,172528,1,0,0:0:0:85:kick444.wav
192,192,172528,1,0,0:0:0:70:snare444.wav
320,192,172632,128,0,172735:0:0:0:0:
64,192,172735,128,0,172839:0:0:0:100:hihat.wav
192,192,172839,128,0,172942:0:0:0:0:
448,192,172839,128,0,172942:0:0:0:0:
64,192,172942,1,0,0:0:0:85:kick444.wav
320,192,172942,1,0,0:0:0:0:
192,192,173045,1,0,0:0:0:0:
320,192,173149,1,0,0:0:0:100:hihat.wav
192,192,173252,128,0,173356:0:0:0:45:b03.wav
448,192,173252,1,0,0:0:0:90:tom01-high_pitched.wav
64,192,173356,1,0,0:0:0:85:kick444.wav
448,192,173356,1,0,0:0:0:70:snare444.wav
192,192,173459,1,0,0:0:0:0:
64,192,173563,1,0,0:0:0:100:hihat.wav
320,192,173563,128,0,173666:0:0:0:90:tom02-high_pitched.wav
448,192,173666,1,0,0:0:0:0:
64,192,173770,128,0,173977:0:0:0:85:kick444.wav
192,192,173770,128,0,173977:0:0:0:0:
320,192,173770,1,0,0:0:0:0:
320,192,173977,128,0,174080:0:0:0:100:hihat.wav
192,192,174080,128,0,174183:0:0:0:45:b03.wav
448,192,174080,128,0,174183:0:0:0:0:
64,192,174183,1,0,0:0:0:85:kick444.wav
320,192,174183,1,0,0:0:0:70:snare444.wav
192,192,174287,128,0,174390:0:0:0:0:
64,192,174390,128,0,174494:0:0:0:100:hihat.wav
320,192,174494,128,0,174597:0:0:0:0:
448,192,174494,128,0,174597:0:0:0:0:
64,192,174597,1,0,0:0:0:85:kick444.wav
192,192,174597,1,0,0:0:0:0:
448,192,174701,1,0,0:0:0:0:
320,192,174804,128,0,174908:0:0:0:100:hihat.wav
192,192,174908,128,0,175011:0:0:0:45:b03.wav
64,192,175011,1,0,0:0:0:85:kick444.wav
448,192,175011,128,0,175218:0:0:0:70:snare444.wav
320,192,175114,128,0,175321:0:0:0:0:
192,192,175218,1,0,0:0:0:100:hihat.wav
64,192,175321,1,0,0:0:0:0:
192,192,175425,1,0,0:0:0:85:kick444.wav
448,192,175425,1,0,0:0:0:0:
192,192,175528,1,0,0:0:0:0:
192,192,175632,1,0,0:0:0:100:hihat.wav
64,192,175735,128,0,175942:0:0:0:45:b03.wav
320,192,175735,128,0,175839:0:0:0:0:
192,192,175839,1,0,0:0:0:85:kick444.wav
448,192,175839,1,0,0:0:0:70:snare444.wav
320,192,175942,128,0,176045:0:0:0:0:
192,192,176045,128,0,176149:0:0:0:100:hihat.wav
64,192,176149,128,0,176252:0:0:0:0:
448,192,176149,128,0,176252:0:0:0:0:
192,192,176252,1,0,0:0:0:85:kick444.wav
320,192,176252,1,0,0:0:0:0:
448,192,176356,1,0,0:0:0:0:
192,192,176459,128,0,176563:0:0:0:100:hihat.wav
320,192,176563,128,0,176666:0:0:0:45:b03.wav
64,192,176666,128,0,176873:0:0:0:85:kick444.wav
448,192,176666,1,0,0:0:0:70:snare444.wav
192,192,176770,128,0,176977:0:0:0:0:
320,192,176873,1,0,0:0:0:100:hihat.wav
64,192,176977,1,0,0:0:0:0:
448,192,176977,1,0,0:0:0:0:
192,192,177080,1,0,0:0:0:85:kick444.wav
320,192,177080,128,0,177287:0:0:0:55:crash_bandicoot-short.wav
448,192,177080,128,0,177287:0:0:0:0:
192,192,177287,128,0,177390:0:0:0:100:hihat.wav
64,192,177390,128,0,177494:0:0:0:85:kick444.wav
448,192,177390,128,0,177494:0:0:0:85:snareB-predrop.wav
320,192,177494,1,0,0:0:0:0:
192,192,177597,128,0,177701:0:0:0:0:
64,192,177701,1,0,0:0:0:85:kick444.wav
448,192,177701,128,0,177804:0:0:0:100:hihat.wav
320,192,177804,128,0,177908:0:0:0:0:
64,192,177908,128,0,178114:0:0:0:85:kick444.wav
192,192,177908,128,0,178011:0:0:0:55:crash_bandicoot-short.wav
448,192,177908,1,0,0:0:0:0:
320,192,178114,128,0,178218:0:0:0:100:hihat.wav
192,192,178218,1,0,0:0:0:85:kick444.wav
448,192,178218,128,0,178321:0:0:0:85:snareB-predrop.wav
64,192,178321,128,0,178528:0:0:0:0:
320,192,178425,128,0,178528:0:0:0:0:
192,192,178528,1,0,0:0:0:85:kick444.wav
448,192,178528,1,0,0:0:0:100:hihat.wav
448,192,178632,1,0,0:0:0:0:
320,192,178632,1,0,0:0:0:85:kick444.wav
64,192,178735,1,0,0:0:0:85:kick444.wav
192,192,178735,1,0,0:0:0:55:crash_bandicoot.wav
320,192,178735,1,0,0:0:0:0:
192,192,178839,1,0,0:0:0:0:
192,192,178942,1,0,0:0:0:100:hihat.wav
64,192,179045,128,0,179149:0:0:0:75:tom01-high_pitched.wav
448,192,179045,128,0,179252:0:0:0:0:
192,192,179149,1,0,0:0:0:70:snare444.wav
320,192,179149,1,0,0:0:0:75:tom02-high_pitched.wav
192,192,179252,128,0,179356:0:0:0:0:
320,192,179356,128,0,179459:0:0:0:100:hihat.wav
64,192,179459,128,0,179563:0:0:0:75:tom03-high_pitched.wav
448,192,179459,128,0,179563:0:0:0:0:
192,192,179563,1,0,0:0:0:0:
320,192,179666,1,0,0:0:0:75:tom03-high_pitched.wav
192,192,179770,128,0,179977:0:0:0:100:hihat.wav
64,192,179873,128,0,179977:0:0:0:75:tom02-high_pitched.wav
320,192,179977,1,0,0:0:0:70:snare444.wav
448,192,179977,1,0,0:0:0:75:tom03-high_pitched.wav
448,192,180080,128,0,180287:0:0:0:75:tom01-high_pitched.wav
64,192,180183,1,0,0:0:0:80:piano_F#6H_Gb6H.wav
320,192,180183,128,0,180287:0:0:0:100:hihat.wav
192,192,180287,1,0,0:0:0:80:piano_G#6H_Ab6H.wav
320,192,180390,1,0,0:0:0:80:piano_A#6H_Bb6H.wav
448,192,180390,1,0,0:0:0:55:crash_bandicoot.wav
64,192,180597,128,0,180804:0:0:0:80:piano_C#7H_Db7H.wav
448,192,180597,1,0,0:0:0:0:
320,192,180804,1,0,0:0:0:80:piano_F#6H_Gb6H.wav
448,192,180804,128,0,181011:0:0:0:0:
192,192,181011,1,0,0:0:0:80:piano_F6H.wav
64,192,181218,1,0,0:0:0:80:piano_D#6H_Eb6H.wav
64,192,181425,128,0,181632:0:0:0:0:
448,192,181632,128,0,181839:0:0:0:0:
64,192,182252,128,0,182459:0:0:0:0:
448,192,182459,128,0,182666:0:0:0:0:
64,192,183080,128,0,183287:0:0:0:0:
448,192,183287,128,0,183494:0:0:0:0:
64,192,183494,1,0,0:0:0:80:piano_D#6H_Eb6H.wav
192,192,183597,1,0,0:0:0:80:piano_F#6H_Gb6H.wav
320,192,183701,1,0,0:0:0:80:piano_G#6H_Ab6H.wav
64,192,183908,128,0,184114:0:0:0:80:piano_A#6H_Bb6H.wav
448,192,183908,1,0,0:0:0:0:
192,192,184114,1,0,0:0:0:80:piano_F#6H_Gb6H.wav
448,192,184114,128,0,184321:0:0:0:0:
64,192,184321,1,0,0:0:0:80:piano_F6H.wav
192,192,184528,1,0,0:0:0:80:piano_G#6H_Ab6H.wav
64,192,184735,128,0,184942:0:0:0:0:
448,192,184942,128,0,185149:0:0:0:0:
320,192,185149,1,0,0:0:0:80:piano_A#6H_Bb6H.wav
192,192,185356,1,0,0:0:0:80:piano_F#6H_Gb6H.wav
64,192,185563,128,0,185770:0:0:0:80:piano_F6H.wav
320,192,185563,1,0,0:0:0:0:
192,192,185770,1,0,0:0:0:80:piano_D#6H_Eb6H.wav
448,192,185770,128,0,185977:0:0:0:0:
64,192,186390,1,0,0:0:0:80:piano_C#6H_Db6H.wav
192,192,186390,128,0,186597:0:0:0:0:
448,192,186494,1,0,0:0:0:90:tom01-high_pitched.wav
320,192,186597,128,0,186804:0:0:0:0:
192,192,186701,1,0,0:0:0:0:
64,192,186804,1,0,0:0:0:80:piano_A#5H_Bb5H.wav
192,192,186908,1,0,0:0:0:70:piano_C#6H_Db6H.wav
448,192,186908,1,0,0:0:0:0:
64,192,187011,128,0,187425:0:0:0:80:piano_D#6H_Eb6H.wav
320,192,187011,1,0,0:0:0:0:
192,192,187218,128,0,187425:0:0:0:0:
320,192,187425,128,0,187632:0:0:0:0:
448,192,187425,128,0,187632:0:0:0:0:
192,192,187528,1,0,0:0:0:0:
448,192,187735,1,0,0:0:0:0:
64,192,187839,1,0,0:0:0:80:piano_A#5H_Bb5H.wav
320,192,187839,1,0,0:0:0:0:
448,192,187942,1,0,0:0:0:0:
192,192,188045,128,0,188252:0:0:0:0:
64,192,188149,1,0,0:0:0:80:piano_C#6H_Db6H.wav
448,192,188149,1,0,0:0:0:0:
320,192,188252,128,0,188459:0:0:0:0:
192,192,188459,1,0,0:0:0:80:piano_D#6H_Eb6H.wav
448,192,188459,1,0,0:0:0:0:
192,192,188563,1,0,0:0:0:0:
320,192,188666,128,0,189080:0:0:0:80:piano_F6H.wav
448,192,188666,1,0,0:0:0:0:
192,192,188873,128,0,189080:0:0:0:0:
64,192,189080,128,0,189287:0:0:0:0:
448,192,189080,128,0,189287:0:0:0:0:
320,192,189183,1,0,0:0:0:0:
192,192,189390,1,0,0:0:0:0:
320,192,189494,1,0,0:0:0:80:piano_A#5H_Bb5H.wav
448,192,189494,1,0,0:0:0:0:
192,192,189597,1,0,0:0:0:0:
64,192,189701,128,0,189908:0:0:0:0:
192,192,189804,1,0,0:0:0:80:piano_C#6H_Db6H.wav
320,192,189804,1,0,0:0:0:0:
448,192,189908,128,0,190114:0:0:0:0:
64,192,190114,1,0,0:0:0:80:piano_F6H.wav
320,192,190114,1,0,0:0:0:0:
320,192,190218,1,0,0:0:0:0:
192,192,190321,128,0,190632:0:0:0:80:piano_F#6H_Gb6H.wav
448,192,190321,1,0,0:0:0:0:
320,192,190632,1,0,0:0:0:80:piano_G#6H_Ab6H.wav
448,192,190632,1,0,0:0:0:0:
64,192,190735,1,0,0:0:0:0:
320,192,190839,1,0,0:0:0:0:
192,192,190942,1,0,0:0:0:80:piano_F#6H_Gb6H.wav
448,192,190942,1,0,0:0:0:0:
320,192,191045,1,0,0:0:0:0:
64,192,191149,1,0,0:0:0:80:piano_F6H.wav
320,192,191149,1,0,0:0:0:0:
192,192,191252,1,0,0:0:0:0:
448,192,191356,128,0,191563:0:0:0:0:
192,192,191563,1,0,0:0:0:0:
320,192,191666,1,0,0:0:0:0:
64,192,191770,1,0,0:0:0:80:piano_F6H.wav
192,192,191873,1,0,0:0:0:80:piano_F#6H_Gb6H.wav
64,192,191977,1,0,0:0:0:80:piano_G#6H_Ab6H.wav
320,192,191977,128,0,192287:0:0:0:0:
192,192,192287,1,0,0:0:0:80:piano_C#7H_Db7H.wav
448,192,192287,1,0,0:0:0:0:
320,192,192390,1,0,0:0:0:0:
192,192,192494,1,0,0:0:0:0:
64,192,192597,1,0,0:0:0:80:piano_A#6H_Bb6H.wav
320,192,192597,1,0,0:0:0:0:
192,192,192701,1,0,0:0:0:0:
448,192,192804,1,0,0:0:0:80:piano_F#6H_Gb6H.wav
192,192,193011,1,0,0:0:0:80:piano_F6H.wav
192,192,193114,1,0,0:0:0:90:tom01-high_pitched.wav
64,192,193218,1,0,0:0:0:80:piano_D#6H_Eb6H.wav
448,192,193218,1,0,0:0:0:0:
320,192,193321,1,0,0:0:0:0:
320,192,193425,1,0,0:0:0:80:piano_F#6H_Gb6H.wav
192,192,193528,1,0,0:0:0:80:piano_G#6H_Ab6H.wav
64,192,193632,1,0,0:0:0:80:piano_A#6H_Bb6H.wav
320,192,193632,1,0,0:0:0:55:crash_bandicoot.wav
448,192,193632,1,0,0:0:0:0:
448,192,193839,1,0,0:0:0:80:piano_C#7H_Db7H.wav
64,192,194045,1,0,0:0:0:80:piano_F#6H_Gb6H.wav
320,192,194045,1,0,0:0:0:50:snare444.wav
448,192,194149,1,0,0:0:0:0:
192,192,194252,1,0,0:0:0:80:piano_F6H.wav
320,192,194356,1,0,0:0:0:0:
64,192,194459,1,0,0:0:0:80:piano_D#6H_Eb6H.wav
192,192,194666,1,0,0:0:0:70:hihat.wav
320,192,194770,1,0,0:0:0:0:
64,192,194873,1,0,0:0:0:50:snare444.wav
448,192,194873,1,0,0:0:0:0:
192,192,194977,1,0,0:0:0:0:
192,192,195080,1,0,0:0:0:70:hihat.wav
320,192,195287,1,0,0:0:0:0:
320,192,195494,1,0,0:0:0:70:hihat.wav
192,192,195701,1,0,0:0:0:50:snare444.wav
320,192,195701,1,0,0:0:0:0:
448,192,195804,1,0,0:0:0:0:
192,192,195908,1,0,0:0:0:70:hihat.wav
64,192,196011,1,0,0:0:0:0:
320,192,196114,1,0,0:0:0:0:
64,192,196321,1,0,0:0:0:70:hihat.wav
192,192,196425,1,0,0:0:0:0:
320,192,196528,1,0,0:0:0:50:snare444.wav
448,192,196528,1,0,0:0:0:0:
64,192,196632,1,0,0:0:0:0:
64,192,196735,1,0,0:0:0:80:piano_D#6H_Eb6H.wav
192,192,196839,1,0,0:0:0:80:piano_F#6H_Gb6H.wav
320,192,196942,1,0,0:0:0:80:piano_G#6H_Ab6H.wav
448,192,197149,1,0,0:0:0:80:piano_A#6H_Bb6H.wav
64,192,197252,1,0,0:0:0:0:
192,192,197356,1,0,0:0:0:80:piano_F#6H_Gb6H.wav
448,192,197356,1,0,0:0:0:50:snare444.wav
320,192,197459,1,0,0:0:0:0:
64,192,197563,1,0,0:0:0:80:piano_F6H.wav
192,192,197666,1,0,0:0:0:0:
320,192,197770,1,0,0:0:0:80:piano_G#6H_Ab6H.wav
192,192,197977,1,0,0:0:0:70:hihat.wav
448,192,198080,1,0,0:0:0:0:
64,192,198183,1,0,0:0:0:50:snare444.wav
320,192,198183,1,0,0:0:0:0:
192,192,198287,1,0,0:0:0:0:
448,192,198390,1,0,0:0:0:80:piano_A#6H_Bb6H.wav
64,192,198494,1,0,0:0:0:0:
320,192,198597,1,0,0:0:0:80:piano_F#6H_Gb6H.wav
320,192,198804,1,0,0:0:0:80:piano_F6H.wav
192,192,198908,1,0,0:0:0:0:
192,192,199011,1,0,0:0:0:80:piano_D#6H_Eb6H.wav
448,192,199011,1,0,0:0:0:50:snare444.wav
320,192,199114,1,0,0:0:0:0:
192,192,199218,1,0,0:0:0:70:hihat.wav
64,192,199321,1,0,0:0:0:0:
192,192,199425,1,0,0:0:0:0:
448,192,199528,1,0,0:0:0:0:
64,192,199632,1,0,0:0:0:80:piano_C#6H_Db6H.wav
320,192,199735,1,0,0:0:0:90:tom01-high_pitched.wav
192,192,199839,1,0,0:0:0:50:snare444.wav
448,192,199839,1,0,0:0:0:0:
320,192,199942,1,0,0:0:0:0:
64,192,200045,1,0,0:0:0:80:piano_A#5H_Bb5H.wav
192,192,200149,1,0,0:0:0:70:piano_C#6H_Db6H.wav
64,192,200252,1,0,0:0:0:80:piano_D#6H_Eb6H.wav
320,192,200252,1,0,0:0:0:10:snare-riser.wav
448,192,200356,1,0,0:0:0:10:snare-riser.wav
192,192,200459,1,0,0:0:0:10:snare-riser.wav
320,192,200563,1,0,0:0:0:10:snare-riser.wav
64,192,200666,1,0,0:0:0:20:snare-riser.wav
320,192,200770,1,0,0:0:0:20:snare-riser.wav
192,192,200873,1,0,0:0:0:20:snare-riser.wav
448,192,200977,1,0,0:0:0:20:snare-riser.wav
64,192,201080,1,0,0:0:0:80:piano_A#5H_Bb5H.wav
192,192,201080,1,0,0:0:0:25:snare-riser.wav
320,192,201183,1,0,0:0:0:25:snare-riser.wav
192,192,201287,1,0,0:0:0:25:snare-riser.wav
64,192,201390,1,0,0:0:0:80:piano_C#6H_Db6H.wav
320,192,201390,1,0,0:0:0:25:snare-riser.wav
448,192,201494,1,0,0:0:0:35:snare-riser.wav
64,192,201597,1,0,0:0:0:35:snare-riser.wav
192,192,201701,1,0,0:0:0:80:piano_D#6H_Eb6H.wav
320,192,201701,1,0,0:0:0:35:snare-riser.wav
64,192,201804,1,0,0:0:0:35:snare-riser.wav
192,192,201908,1,0,0:0:0:80:piano_F6H.wav
448,192,201908,1,0,0:0:0:40:snare-riser.wav
320,192,202011,1,0,0:0:0:40:snare-riser.wav
192,192,202114,1,0,0:0:0:40:snare-riser.wav
448,192,202218,1,0,0:0:0:40:snare-riser.wav
64,192,202321,1,0,0:0:0:50:snare-riser.wav
320,192,202425,1,0,0:0:0:50:snare-riser.wav
192,192,202528,1,0,0:0:0:50:snare-riser.wav
448,192,202632,1,0,0:0:0:50:snare-riser.wav
64,192,202735,1,0,0:0:0:80:piano_A#5H_Bb5H.wav
192,192,202735,1,0,0:0:0:55:snare-riser.wav
320,192,202839,1,0,0:0:0:55:snare-riser.wav
448,192,202942,1,0,0:0:0:55:snare-riser.wav
64,192,203045,1,0,0:0:0:80:piano_C#6H_Db6H.wav
320,192,203045,1,0,0:0:0:55:snare-riser.wav
192,192,203149,1,0,0:0:0:60:snare-riser.wav
448,192,203252,1,0,0:0:0:60:snare-riser.wav
192,192,203356,1,0,0:0:0:80:piano_F6H.wav
320,192,203356,1,0,0:0:0:60:snare-riser.wav
64,192,203459,1,0,0:0:0:60:snare-riser.wav
192,192,203563,1,0,0:0:0:80:piano_F#6H_Gb6H.wav
448,192,203563,1,0,0:0:0:70:snare-riser.wav
320,192,203666,1,0,0:0:0:70:snare-riser.wav
64,192,203770,1,0,0:0:0:60:snare-riser.wav
320,192,203873,1,0,0:0:0:80:piano_G#6H_Ab6H.wav
448,192,203873,1,0,0:0:0:60:snare-riser.wav
64,192,203977,1,0,0:0:0:75:snare-riser.wav
192,192,203977,1,0,0:0:0:50:snare444.wav
320,192,204080,1,0,0:0:0:75:snare-riser.wav
192,192,204183,1,0,0:0:0:80:piano_F#6H_Gb6H.wav
448,192,204183,1,0,0:0:0:75:snare-riser.wav
64,192,204287,1,0,0:0:0:75:snare-riser.wav
320,192,204390,1,0,0:0:0:80:piano_F6H.wav
448,192,204390,1,0,0:0:0:80:snare-riser.wav
192,192,204494,1,0,0:0:0:80:snare-riser.wav
64,192,204597,1,0,0:0:0:80:snare-riser.wav
448,192,204597,1,0,0:0:0:70:hihat.wav
192,192,204701,1,0,0:0:0:80:snare-riser.wav
320,192,204804,1,0,0:0:0:90:snare-riser.wav
448,192,204804,1,0,0:0:0:50:snare444.wav
64,192,204908,1,0,0:0:0:90:snare-riser.wav
192,192,204908,1,0,0:0:0:0:
320,192,205011,1,0,0:0:0:80:piano_F6H.wav
448,192,205011,1,0,0:0:0:90:snare-riser.wav
64,192,205114,1,0,0:0:0:80:piano_F#6H_Gb6H.wav
192,192,205114,1,0,0:0:0:90:snare-riser.wav
320,192,205166,1,0,0:0:0:90:snare-riser.wav
448,192,205166,1,0,0:0:0:0:
64,192,205218,1,0,0:0:0:80:piano_G#6H_Ab6H.wav
192,192,205218,1,0,0:0:0:0:
320,192,205528,1,0,0:0:0:80:piano_C#7H_Db7H.wav
448,192,205528,1,0,0:0:0:0:
192,192,205839,1,0,0:0:0:80:piano_A#6H_Bb6H.wav
448,192,205839,1,0,0:0:0:0:
192,192,206045,1,0,0:0:0:80:piano_F#6H_Gb6H.wav
320,192,206045,1,0,0:0:0:0:
64,192,206252,1,0,0:0:0:80:piano_F6H.wav
320,192,206252,1,0,0:0:0:0:
64,192,206459,1,0,0:0:0:80:piano_D#6H_Eb6H.wav
192,192,206459,1,0,0:0:0:50:snare444.wav
64,192,206873,1,0,0:0:0:85:kick444.wav
320,192,206873,1,0,0:0:0:55:crash_bandicoot.wav
448,192,206873,1,0,0:0:0:0:
192,192,206977,1,0,0:0:0:0:
64,192,207080,1,0,0:0:0:100:hihat.wav
448,192,207080,1,0,0:0:0:0:
320,192,207183,1,0,0:0:0:45:b03.wav
64,192,207287,1,0,0:0:0:85:kick444.wav
192,192,207287,1,0,0:0:0:70:snare444.wav
320,192,207287,1,0,0:0:0:0:
64,192,207390,1,0,0:0:0:0:
448,192,207390,1,0,0:0:0:0:
192,192,207494,1,0,0:0:0:100:hihat.wav
320,192,207597,1,0,0:0:0:0:
64,192,207701,1,0,0:0:0:85:kick444.wav
192,192,207701,1,0,0:0:0:0:
448,192,207804,1,0,0:0:0:0:
320,192,207908,1,0,0:0:0:100:hihat.wav
448,192,207908,1,0,0:0:0:0:
64,192,208011,1,0,0:0:0:45:b03.wav
192,192,208011,1,0,0:0:0:0:
64,192,208114,1,0,0:0:0:85:kick444.wav
320,192,208114,1,0,0:0:0:70:snare444.wav
448,192,208114,1,0,0:0:0:90:b03.wav
320,192,208218,1,0,0:0:0:0:
64,192,208321,1,0,0:0:0:100:hihat.wav
448,192,208321,1,0,0:0:0:0:
192,192,208425,1,0,0:0:0:0:
64,192,208528,1,0,0:0:0:85:kick444.wav
320,192,208528,1,0,0:0:0:0:
448,192,208528,1,0,0:0:0:0:
320,192,208632,1,0,0:0:0:0:
64,192,208735,1,0,0:0:0:100:hihat.wav
192,192,208735,1,0,0:0:0:0:
448,192,208839,1,0,0:0:0:45:b03.wav
64,192,208942,1,0,0:0:0:85:kick444.wav
192,192,208942,1,0,0:0:0:70:snare444.wav
320,192,208942,1,0,0:0:0:0:
320,192,209045,1,0,0:0:0:0:
448,192,209045,1,0,0:0:0:0:
64,192,209149,1,0,0:0:0:100:hihat.wav
64,192,209252,1,0,0:0:0:0:
192,192,209356,1,0,0:0:0:85:kick444.wav
448,192,209356,1,0,0:0:0:0:
320,192,209459,1,0,0:0:0:0:
64,192,209563,1,0,0:0:0:100:hihat.wav
192,192,209563,1,0,0:0:0:0:
320,192,209666,1,0,0:0:0:45:b03.wav
448,192,209666,1,0,0:0:0:0:
64,192,209770,1,0,0:0:0:85:kick444.wav
192,192,209770,1,0,0:0:0:70:snare444.wav
448,192,209770,1,0,0:0:0:90:b03.wav
192,192,209873,1,0,0:0:0:0:
64,192,209977,1,0,0:0:0:100:hihat.wav
320,192,209977,1,0,0:0:0:0:
448,192,210080,1,0,0:0:0:0:
64,192,210183,1,0,0:0:0:85:kick444.wav
192,192,210183,1,0,0:0:0:0:
448,192,210183,1,0,0:0:0:0:
320,192,210287,1,0,0:0:0:0:
192,192,210390,1,0,0:0:0:100:hihat.wav
448,192,210390,1,0,0:0:0:0:
320,192,210494,1,0,0:0:0:45:b03.wav
64,192,210597,1,0,0:0:0:85:kick444.wav
192,192,210597,1,0,0:0:0:70:snare444.wav
448,192,210597,1,0,0:0:0:0:
320,192,210701,1,0,0:0:0:0:
448,192,210701,1,0,0:0:0:0:
64,192,210804,1,0,0:0:0:100:hihat.wav
64,192,210908,1,0,0:0:0:0:
192,192,211011,1,0,0:0:0:85:kick444.wav
448,192,211011,1,0,0:0:0:0:
320,192,211114,1,0,0:0:0:0:
320,192,211218,1,0,0:0:0:100:hihat.wav
448,192,211218,1,0,0:0:0:0:
64,192,211321,1,0,0:0:0:45:b03.wav
192,192,211321,1,0,0:0:0:0:
64,192,211425,1,0,0:0:0:85:kick444.wav
320,192,211425,1,0,0:0:0:70:snare444.wav
448,192,211425,1,0,0:0:0:90:b03.wav
448,192,211528,1,0,0:0:0:0:
64,192,211632,1,0,0:0:0:100:hihat.wav
320,192,211632,1,0,0:0:0:0:
192,192,211735,1,0,0:0:0:0:
64,192,211839,1,0,0:0:0:85:kick444.wav
320,192,211839,1,0,0:0:0:0:
448,192,211839,1,0,0:0:0:0:
320,192,211942,1,0,0:0:0:0:
192,192,212045,1,0,0:0:0:100:hihat.wav
64,192,212045,1,0,0:0:0:0:
192,192,212149,1,0,0:0:0:45:b03.wav
64,192,212252,1,0,0:0:0:85:kick444.wav
320,192,212252,1,0,0:0:0:70:snare444.wav
448,192,212252,1,0,0:0:0:0:
320,192,212356,1,0,0:0:0:0:
448,192,212356,1,0,0:0:0:0:
64,192,212459,1,0,0:0:0:100:hihat.wav
64,192,212563,1,0,0:0:0:0:
192,192,212666,1,0,0:0:0:85:kick444.wav
320,192,212666,1,0,0:0:0:0:
448,192,212770,1,0,0:0:0:0:
64,192,212873,1,0,0:0:0:100:hihat.wav
320,192,212977,1,0,0:0:0:45:b03.wav
448,192,212977,1,0,0:0:0:90:tom01-high_pitched.wav
64,192,213080,1,0,0:0:0:85:kick444.wav
320,192,213080,1,0,0:0:0:70:snare444.wav
448,192,213080,1,0,0:0:0:90:b03.wav
64,192,213183,1,0,0:0:0:0:
192,192,213183,1,0,0:0:0:0:
320,192,213287,1,0,0:0:0:100:hihat.wav
448,192,213287,1,0,0:0:0:90:tom02-high_pitched.wav
64,192,213390,1,0,0:0:0:0:
64,192,213494,1,0,0:0:0:85:kick444.wav
320,192,213494,1,0,0:0:0:0:
448,192,213494,1,0,0:0:0:0:
192,192,213597,1,0,0:0:0:0:
320,192,213701,1,0,0:0:0:100:hihat.wav
448,192,213701,1,0,0:0:0:0:
64,192,213804,1,0,0:0:0:45:b03.wav
64,192,213908,1,0,0:0:0:85:kick444.wav
192,192,213908,1,0,0:0:0:70:snare444.wav
320,192,213908,1,0,0:0:0:0:
192,192,214011,1,0,0:0:0:0:
320,192,214011,1,0,0:0:0:0:
448,192,214114,1,0,0:0:0:100:hihat.wav
64,192,214218,1,0,0:0:0:0:
192,192,214321,1,0,0:0:0:85:kick444.wav
448,192,214321,1,0,0:0:0:0:
320,192,214425,1,0,0:0:0:0:
320,192,214528,1,0,0:0:0:100:hihat.wav
448,192,214528,1,0,0:0:0:0:
64,192,214632,1,0,0:0:0:45:b03.wav
192,192,214632,1,0,0:0:0:0:
64,192,214735,1,0,0:0:0:85:kick444.wav
192,192,214735,1,0,0:0:0:70:snare444.wav
448,192,214735,1,0,0:0:0:90:b03.wav
320,192,214839,1,0,0:0:0:0:
320,192,214942,1,0,0:0:0:100:hihat.wav
448,192,214942,1,0,0:0:0:0:
64,192,215045,1,0,0:0:0:0:
192,192,215149,1,0,0:0:0:85:kick444.wav
320,192,215149,1,0,0:0:0:0:
448,192,215149,1,0,0:0:0:0:
64,192,215252,1,0,0:0:0:0:
320,192,215356,1,0,0:0:0:100:hihat.wav
448,192,215356,1,0,0:0:0:0:
192,192,215459,1,0,0:0:0:45:b03.wav
64,192,215563,1,0,0:0:0:85:kick444.wav
320,192,215563,1,0,0:0:0:70:snare444.wav
448,192,215563,1,0,0:0:0:0:
64,192,215666,1,0,0:0:0:0:
448,192,215666,1,0,0:0:0:0:
320,192,215770,1,0,0:0:0:100:hihat.wav
64,192,215873,1,0,0:0:0:0:
192,192,215977,1,0,0:0:0:85:kick444.wav
320,192,215977,1,0,0:0:0:0:
448,192,216080,1,0,0:0:0:0:
192,192,216183,1,0,0:0:0:100:hihat.wav
320,192,216183,1,0,0:0:0:0:
64,192,216287,1,0,0:0:0:45:b03.wav
448,192,216287,1,0,0:0:0:0:
64,192,216390,1,0,0:0:0:85:kick444.wav
192,192,216390,1,0,0:0:0:70:snare444.wav
448,192,216390,1,0,0:0:0:90:b03.wav
320,192,216494,1,0,0:0:0:0:
64,192,216597,1,0,0:0:0:100:hihat.wav
320,192,216597,1,0,0:0:0:0:
192,192,216701,1,0,0:0:0:0:
64,192,216804,1,0,0:0:0:85:kick444.wav
320,192,216804,1,0,0:0:0:0:
448,192,216804,1,0,0:0:0:0:
192,192,216908,1,0,0:0:0:0:
320,192,217011,1,0,0:0:0:100:hihat.wav
448,192,217011,1,0,0:0:0:0:
64,192,217114,1,0,0:0:0:45:b03.wav
192,192,217218,1,0,0:0:0:85:kick444.wav
320,192,217218,1,0,0:0:0:70:snare444.wav
448,192,217218,1,0,0:0:0:0:
64,192,217321,1,0,0:0:0:0:
448,192,217321,1,0,0:0:0:0:
320,192,217425,1,0,0:0:0:100:hihat.wav
64,192,217528,1,0,0:0:0:0:
192,192,217632,1,0,0:0:0:85:kick444.wav
320,192,217632,1,0,0:0:0:0:
320,192,217735,1,0,0:0:0:0:
64,192,217839,1,0,0:0:0:100:hihat.wav
192,192,217839,1,0,0:0:0:0:
320,192,217942,1,0,0:0:0:45:b03.wav
448,192,217942,1,0,0:0:0:0:
64,192,218045,1,0,0:0:0:85:kick444.wav
192,192,218045,1,0,0:0:0:70:snare444.wav
448,192,218045,1,0,0:0:0:90:b03.wav
192,192,218149,1,0,0:0:0:0:
64,192,218252,1,0,0:0:0:100:hihat.wav
448,192,218252,1,0,0:0:0:0:
320,192,218356,1,0,0:0:0:0:
64,192,218459,1,0,0:0:0:85:kick444.wav
192,192,218459,1,0,0:0:0:0:
448,192,218459,1,0,0:0:0:0:
64,192,218563,1,0,0:0:0:0:
320,192,218666,1,0,0:0:0:100:hihat.wav
448,192,218666,1,0,0:0:0:0:
192,192,218770,1,0,0:0:0:45:b03.wav
64,192,218873,1,0,0:0:0:85:kick444.wav
320,192,218873,1,0,0:0:0:70:snare444.wav
448,192,218873,1,0,0:0:0:0:
64,192,218977,1,0,0:0:0:0:
192,192,218977,1,0,0:0:0:0:
320,192,219080,1,0,0:0:0:100:hihat.wav
320,192,219183,1,0,0:0:0:0:
64,192,219287,1,0,0:0:0:85:kick444.wav
192,192,219287,1,0,0:0:0:0:
192,192,219390,1,0,0:0:0:0:
320,192,219494,1,0,0:0:0:100:hihat.wav
192,192,219597,1,0,0:0:0:45:b03.wav
448,192,219597,1,0,0:0:0:90:tom01-high_pitched.wav
64,192,219701,1,0,0:0:0:85:kick444.wav
320,192,219701,1,0,0:0:0:70:snare444.wav
448,192,219701,1,0,0:0:0:90:b03.wav
320,192,219804,1,0,0:0:0:0:
64,192,219908,1,0,0:0:0:100:hihat.wav
192,192,219908,1,0,0:0:0:90:tom02-high_pitched.wav
448,192,219908,1,0,0:0:0:0:
192,192,220011,1,0,0:0:0:0:
64,192,220114,1,0,0:0:0:85:kick444.wav
192,192,220114,1,0,0:0:0:55:crash_bandicoot.wav
448,192,220114,1,0,0:0:0:0:
320,192,220218,1,0,0:0:0:0:
64,192,220321,1,0,0:0:0:100:hihat.wav
448,192,220321,1,0,0:0:0:0:
192,192,220425,1,0,0:0:0:45:b03.wav
192,192,220528,1,0,0:0:0:85:kick444.wav
320,192,220528,1,0,0:0:0:70:snare444.wav
448,192,220528,1,0,0:0:0:0:
64,192,220632,1,0,0:0:0:0:
448,192,220632,1,0,0:0:0:0:
320,192,220735,1,0,0:0:0:100:hihat.wav
192,192,220839,1,0,0:0:0:0:
320,192,220942,1,0,0:0:0:85:kick444.wav
448,192,220942,1,0,0:0:0:0:
64,192,221045,1,0,0:0:0:0:
64,192,221149,1,0,0:0:0:100:hihat.wav
192,192,221149,1,0,0:0:0:0:
320,192,221252,1,0,0:0:0:45:b03.wav
448,192,221252,1,0,0:0:0:0:
64,192,221356,1,0,0:0:0:85:kick444.wav
192,192,221356,1,0,0:0:0:70:snare444.wav
448,192,221356,1,0,0:0:0:90:b03.wav
192,192,221459,1,0,0:0:0:0:
64,192,221563,1,0,0:0:0:100:hihat.wav
448,192,221563,1,0,0:0:0:0:
320,192,221666,1,0,0:0:0:0:
64,192,221770,1,0,0:0:0:85:kick444.wav
192,192,221770,1,0,0:0:0:0:
448,192,221770,1,0,0:0:0:0:
192,192,221873,1,0,0:0:0:0:
320,192,221977,1,0,0:0:0:100:hihat.wav
448,192,221977,1,0,0:0:0:0:
64,192,222080,1,0,0:0:0:45:b03.wav
192,192,222183,1,0,0:0:0:85:kick444.wav
320,192,222183,1,0,0:0:0:70:snare444.wav
448,192,222183,1,0,0:0:0:0:
64,192,222287,1,0,0:0:0:0:
192,192,222287,1,0,0:0:0:0:
448,192,222390,1,0,0:0:0:100:hihat.wav
448,192,222494,1,0,0:0:0:0:
64,192,222597,1,0,0:0:0:85:kick444.wav
320,192,222597,1,0,0:0:0:0:
192,192,222701,1,0,0:0:0:0:
320,192,222804,1,0,0:0:0:100:hihat.wav
448,192,222804,1,0,0:0:0:0:
64,192,222908,1,0,0:0:0:45:b03.wav
192,192,222908,1,0,0:0:0:0:
64,192,223011,1,0,0:0:0:85:kick444.wav
320,192,223011,1,0,0:0:0:70:snare444.wav
448,192,223011,1,0,0:0:0:90:b03.wav
320,192,223114,1,0,0:0:0:0:
192,192,223218,1,0,0:0:0:100:hihat.wav
448,192,223218,1,0,0:0:0:0:
64,192,223321,1,0,0:0:0:0:
64,192,223425,1,0,0:0:0:85:kick444.wav
320,192,223425,1,0,0:0:0:0:
448,192,223425,1,0,0:0:0:0:
192,192,223528,1,0,0:0:0:0:
64,192,223632,1,0,0:0:0:100:hihat.wav
320,192,223632,1,0,0:0:0:0:
192,192,223735,1,0,0:0:0:45:b03.wav
64,192,223839,1,0,0:0:0:85:kick444.wav
320,192,223839,1,0,0:0:0:70:snare444.wav
448,192,223839,1,0,0:0:0:0:
64,192,223942,1,0,0:0:0:0:
192,192,223942,1,0,0:0:0:0:
448,192,224045,1,0,0:0:0:100:hihat.wav
448,192,224149,1,0,0:0:0:0:
64,192,224252,1,0,0:0:0:85:kick444.wav
320,192,224252,1,0,0:0:0:0:
192,192,224356,1,0,0:0:0:0:
64,192,224459,1,0,0:0:0:100:hihat.wav
192,192,224459,1,0,0:0:0:0:
320,192,224563,1,0,0:0:0:45:b03.wav
448,192,224563,1,0,0:0:0:0:
64,192,224666,1,0,0:0:0:85:kick444.wav
192,192,224666,1,0,0:0:0:70:snare444.wav
448,192,224666,1,0,0:0:0:90:b03.wav
64,192,224770,1,0,0:0:0:0:
192,192,224873,1,0,0:0:0:100:hihat.wav
448,192,224873,1,0,0:0:0:0:
320,192,224977,1,0,0:0:0:0:
64,192,225080,1,0,0:0:0:85:kick444.wav
192,192,225080,1,0,0:0:0:0:
448,192,225080,1,0,0:0:0:0:
192,192,225183,1,0,0:0:0:0:
320,192,225287,1,0,0:0:0:100:hihat.wav
448,192,225287,1,0,0:0:0:0:
320,192,225390,1,0,0:0:0:45:b03.wav
64,192,225494,1,0,0:0:0:85:kick444.wav
192,192,225494,1,0,0:0:0:70:snare444.wav
448,192,225494,1,0,0:0:0:0:
64,192,225597,1,0,0:0:0:0:
192,192,225597,1,0,0:0:0:0:
448,192,225701,1,0,0:0:0:100:hihat.wav
448,192,225804,1,0,0:0:0:0:
192,192,225908,1,0,0:0:0:85:kick444.wav
320,192,225908,1,0,0:0:0:0:
64,192,226011,1,0,0:0:0:0:
448,192,226114,1,0,0:0:0:100:hihat.wav
64,192,226218,1,0,0:0:0:45:b03.wav
192,192,226218,1,0,0:0:0:90:tom01-high_pitched.wav
64,192,226321,1,0,0:0:0:85:kick444.wav
192,192,226321,1,0,0:0:0:70:snare444.wav
448,192,226321,1,0,0:0:0:90:b03.wav
320,192,226425,1,0,0:0:0:0:
448,192,226425,1,0,0:0:0:0:
64,192,226528,1,0,0:0:0:100:hihat.wav
192,192,226528,1,0,0:0:0:90:tom02-high_pitched.wav
448,192,226632,1,0,0:0:0:0:
64,192,226735,1,0,0:0:0:85:kick444.wav
192,192,226735,1,0,0:0:0:0:
448,192,226735,1,0,0:0:0:0:
320,192,226839,1,0,0:0:0:0:
192,192,226942,1,0,0:0:0:100:hihat.wav
64,192,226942,1,0,0:0:0:0:
448,192,227045,1,0,0:0:0:45:b03.wav
192,192,227149,1,0,0:0:0:85:kick444.wav
320,192,227149,1,0,0:0:0:70:snare444.wav
448,192,227149,1,0,0:0:0:0:
192,192,227252,1,0,0:0:0:0:
320,192,227252,1,0,0:0:0:0:
64,192,227356,1,0,0:0:0:100:hihat.wav
448,192,227459,1,0,0:0:0:0:
64,192,227563,1,0,0:0:0:85:kick444.wav
320,192,227563,1,0,0:0:0:0:
192,192,227666,1,0,0:0:0:0:
64,192,227770,1,0,0:0:0:100:hihat.wav
192,192,227770,1,0,0:0:0:0:
320,192,227873,1,0,0:0:0:45:b03.wav
448,192,227873,1,0,0:0:0:0:
64,192,227977,1,0,0:0:0:85:kick444.wav
320,192,227977,1,0,0:0:0:70:snare444.wav
448,192,227977,1,0,0:0:0:90:b03.wav
192,192,228080,1,0,0:0:0:0:
64,192,228183,1,0,0:0:0:100:hihat.wav
192,192,228183,1,0,0:0:0:0:
448,192,228287,1,0,0:0:0:0:
64,192,228390,1,0,0:0:0:85:kick444.wav
192,192,228390,1,0,0:0:0:0:
320,192,228390,1,0,0:0:0:0:
448,192,228494,1,0,0:0:0:0:
192,192,228597,1,0,0:0:0:100:hihat.wav
64,192,228597,1,0,0:0:0:0:
320,192,228701,1,0,0:0:0:45:b03.wav
64,192,228804,1,0,0:0:0:85:kick444.wav
192,192,228804,1,0,0:0:0:70:snare444.wav
448,192,228804,1,0,0:0:0:0:
64,192,228908,1,0,0:0:0:0:
448,192,228908,1,0,0:0:0:0:
192,192,229011,1,0,0:0:0:100:hihat.wav
448,192,229114,1,0,0:0:0:0:
192,192,229218,1,0,0:0:0:85:kick444.wav
320,192,229218,1,0,0:0:0:0:
64,192,229321,1,0,0:0:0:0:
192,192,229425,1,0,0:0:0:100:hihat.wav
320,192,229425,1,0,0:0:0:0:
64,192,229528,1,0,0:0:0:45:b03.wav
448,192,229528,1,0,0:0:0:0:
64,192,229632,1,0,0:0:0:85:kick444.wav
320,192,229632,1,0,0:0:0:70:snare444.wav
448,192,229632,1,0,0:0:0:90:b03.wav
192,192,229735,1,0,0:0:0:0:
192,192,229839,1,0,0:0:0:100:hihat.wav
448,192,229839,1,0,0:0:0:0:
320,192,229942,1,0,0:0:0:0:
64,192,230045,1,0,0:0:0:85:kick444.wav
192,192,230045,1,0,0:0:0:0:
448,192,230045,1,0,0:0:0:0:
320,192,230149,1,0,0:0:0:0:
64,192,230252,1,0,0:0:0:100:hihat.wav
192,192,230252,1,0,0:0:0:0:
448,192,230356,1,0,0:0:0:45:b03.wav
64,192,230459,1,0,0:0:0:85:kick444.wav
192,192,230459,1,0,0:0:0:70:snare444.wav
320,192,230459,1,0,0:0:0:0:
64,192,230563,1,0,0:0:0:0:
448,192,230563,1,0,0:0:0:0:
192,192,230666,1,0,0:0:0:100:hihat.wav
448,192,230770,1,0,0:0:0:0:
192,192,230873,1,0,0:0:0:85:kick444.wav
320,192,230873,1,0,0:0:0:0:
192,192,230977,1,0,0:0:0:0:
320,192,231080,1,0,0:0:0:100:hihat.wav
448,192,231080,1,0,0:0:0:0:
64,192,231183,1,0,0:0:0:45:b03.wav
192,192,231183,1,0,0:0:0:0:
64,192,231287,1,0,0:0:0:85:kick444.wav
320,192,231287,1,0,0:0:0:70:snare444.wav
448,192,231287,1,0,0:0:0:90:b03.wav
320,192,231390,1,0,0:0:0:0:
64,192,231494,1,0,0:0:0:100:hihat.wav
448,192,231494,1,0,0:0:0:0:
192,192,231597,1,0,0:0:0:0:
64,192,231701,1,0,0:0:0:85:kick444.wav
192,192,231701,1,0,0:0:0:0:
448,192,231701,1,0,0:0:0:0:
320,192,231804,1,0,0:0:0:0:
64,192,231908,1,0,0:0:0:0:
320,192,232011,1,0,0:0:0:0:
192,192,232114,1,0,0:0:0:0:
320,192,232218,1,0,0:0:0:0:
64,192,232321,1,0,0:0:0:0:
320,192,232425,1,0,0:0:0:0:
192,192,232528,1,0,0:0:0:0:
64,192,232632,1,0,0:0:0:0:
64,192,232735,1,0,0:0:0:0:
448,192,232735,1,0,0:0:0:0:
320,192,232839,1,0,0:0:0:90:tom01-high_pitched.wav
448,192,232839,1,0,0:0:0:0:
192,192,232942,1,0,0:0:0:0:
192,192,233045,1,0,0:0:0:0:
64,192,233149,1,0,0:0:0:80:piano_F#6H_Gb6H.wav
320,192,233149,1,0,0:0:0:90:tom02-high_pitched.wav
192,192,233252,1,0,0:0:0:80:piano_G#6H_Ab6H.wav
64,192,233356,128,0,233563:0:0:0:80:piano_A#6H_Bb6H.wav
320,192,233356,128,0,233563:0:0:0:85:kick444.wav
448,192,233356,1,0,0:0:0:55:crash_bandicoot.wav
192,192,233563,1,0,0:0:0:80:piano_C#7H_Db7H.wav
448,192,233563,1,0,0:0:0:100:hihat.wav
64,192,233666,1,0,0:0:0:45:b03.wav
192,192,233770,1,0,0:0:0:80:piano_F#6H_Gb6H.wav
320,192,233770,1,0,0:0:0:85:kick444.wav
448,192,233770,1,0,0:0:0:70:snare444.wav
64,192,233873,1,0,0:0:0:0:
448,192,233873,1,0,0:0:0:0:
320,192,233977,1,0,0:0:0:80:piano_F6H.wav
320,192,234080,1,0,0:0:0:0:
64,192,234183,1,0,0:0:0:80:piano_D#6H_Eb6H.wav
192,192,234183,1,0,0:0:0:85:kick444.wav
448,192,234287,1,0,0:0:0:0:
320,192,234390,1,0,0:0:0:100:hihat.wav
448,192,234390,1,0,0:0:0:0:
64,192,234494,1,0,0:0:0:45:b03.wav
192,192,234494,1,0,0:0:0:0:
64,192,234597,1,0,0:0:0:85:kick444.wav
192,192,234597,1,0,0:0:0:70:snare444.wav
448,192,234597,1,0,0:0:0:90:b03.wav
320,192,234701,1,0,0:0:0:0:
64,192,234804,1,0,0:0:0:100:hihat.wav
448,192,234804,1,0,0:0:0:0:
320,192,234908,1,0,0:0:0:0:
64,192,235011,1,0,0:0:0:85:kick444.wav
192,192,235011,128,0,235218:0:0:0:0:
448,192,235011,128,0,235218:0:0:0:0:
64,192,235218,1,0,0:0:0:100:hihat.wav
320,192,235218,1,0,0:0:0:0:
192,192,235321,1,0,0:0:0:45:b03.wav
64,192,235425,1,0,0:0:0:85:kick444.wav
320,192,235425,1,0,0:0:0:70:snare444.wav
448,192,235425,1,0,0:0:0:0:
320,192,235528,1,0,0:0:0:0:
448,192,235528,1,0,0:0:0:0:
192,192,235632,1,0,0:0:0:100:hihat.wav
64,192,235735,1,0,0:0:0:0:
192,192,235735,1,0,0:0:0:0:
320,192,235839,1,0,0:0:0:85:kick444.wav
448,192,235839,1,0,0:0:0:0:
64,192,235942,1,0,0:0:0:0:
64,192,236045,1,0,0:0:0:100:hihat.wav
448,192,236045,1,0,0:0:0:0:
192,192,236149,1,0,0:0:0:45:b03.wav
320,192,236149,1,0,0:0:0:0:
64,192,236252,1,0,0:0:0:85:kick444.wav
192,192,236252,1,0,0:0:0:70:snare444.wav
448,192,236252,1,0,0:0:0:90:b03.wav
320,192,236356,1,0,0:0:0:0:
64,192,236459,1,0,0:0:0:80:piano_D#6H_Eb6H.wav
192,192,236459,1,0,0:0:0:100:hihat.wav
320,192,236563,1,0,0:0:0:80:piano_F#6H_Gb6H.wav
448,192,236563,1,0,0:0:0:0:
64,192,236666,128,0,236873:0:0:0:80:piano_G#6H_Ab6H.wav
192,192,236666,1,0,0:0:0:85:kick444.wav
448,192,236666,128,0,236873:0:0:0:0:
320,192,236873,1,0,0:0:0:80:piano_A#6H_Bb6H.wav
192,192,236977,1,0,0:0:0:45:b03.wav
64,192,237080,1,0,0:0:0:80:piano_F#6H_Gb6H.wav
320,192,237080,1,0,0:0:0:85:kick444.wav
448,192,237080,1,0,0:0:0:70:snare444.wav
192,192,237183,1,0,0:0:0:0:
448,192,237183,1,0,0:0:0:0:
64,192,237287,1,0,0:0:0:80:piano_F6H.wav
320,192,237390,1,0,0:0:0:0:
64,192,237494,1,0,0:0:0:80:piano_G#6H_Ab6H.wav
192,192,237494,1,0,0:0:0:85:kick444.wav
320,192,237597,1,0,0:0:0:0:
320,192,237701,1,0,0:0:0:100:hihat.wav
448,192,237701,1,0,0:0:0:0:
64,192,237804,1,0,0:0:0:45:b03.wav
192,192,237804,1,0,0:0:0:0:
64,192,237908,1,0,0:0:0:85:kick444.wav
192,192,237908,1,0,0:0:0:70:snare444.wav
448,192,237908,1,0,0:0:0:90:b03.wav
320,192,238011,1,0,0:0:0:0:
64,192,238114,1,0,0:0:0:80:piano_A#6H_Bb6H.wav
448,192,238114,1,0,0:0:0:100:hihat.wav
192,192,238218,1,0,0:0:0:0:
64,192,238321,128,0,238528:0:0:0:80:piano_F#6H_Gb6H.wav
320,192,238321,1,0,0:0:0:85:kick444.wav
448,192,238321,128,0,238528:0:0:0:0:
192,192,238528,1,0,0:0:0:80:piano_F6H.wav
320,192,238632,1,0,0:0:0:45:b03.wav
64,192,238735,1,0,0:0:0:80:piano_D#6H_Eb6H.wav
192,192,238735,1,0,0:0:0:85:kick444.wav
448,192,238735,1,0,0:0:0:70:snare444.wav
64,192,238839,1,0,0:0:0:0:
320,192,238839,1,0,0:0:0:0:
448,192,238942,1,0,0:0:0:100:hihat.wav
192,192,239045,1,0,0:0:0:0:
64,192,239149,1,0,0:0:0:85:kick444.wav
192,192,239149,1,0,0:0:0:0:
320,192,239252,1,0,0:0:0:0:
64,192,239356,1,0,0:0:0:80:piano_C#6H_Db6H.wav
320,192,239356,1,0,0:0:0:100:hihat.wav
192,192,239459,1,0,0:0:0:45:b03.wav
448,192,239459,1,0,0:0:0:90:tom01-high_pitched.wav
64,192,239563,1,0,0:0:0:85:kick444.wav
192,192,239563,128,0,239770:0:0:0:70:snare444.wav
448,192,239563,128,0,239770:0:0:0:90:b03.wav
64,192,239770,1,0,0:0:0:80:piano_A#5H_Bb5H.wav
320,192,239770,1,0,0:0:0:100:hihat.wav
192,192,239873,1,0,0:0:0:70:piano_C#6H_Db6H.wav
448,192,239873,1,0,0:0:0:0:
64,192,239977,1,0,0:0:0:80:piano_D#6H_Eb6H.wav
320,192,239977,128,0,240183:0:0:0:85:kick444.wav
448,192,239977,128,0,240183:0:0:0:0:
64,192,240183,1,0,0:0:0:100:hihat.wav
64,192,240287,1,0,0:0:0:45:b03.wav
192,192,240390,1,0,0:0:0:85:kick444.wav
448,192,240390,1,0,0:0:0:70:snare444.wav
64,192,240494,1,0,0:0:0:0:
320,192,240494,1,0,0:0:0:0:
320,192,240597,1,0,0:0:0:100:hihat.wav
192,192,240701,1,0,0:0:0:0:
64,192,240804,1,0,0:0:0:80:piano_A#5H_Bb5H.wav
320,192,240804,1,0,0:0:0:85:kick444.wav
448,192,240908,1,0,0:0:0:0:
192,192,241011,1,0,0:0:0:100:hihat.wav
448,192,241011,1,0,0:0:0:0:
64,192,241114,1,0,0:0:0:80:piano_C#6H_Db6H.wav
320,192,241114,1,0,0:0:0:45:b03.wav
64,192,241218,1,0,0:0:0:85:kick444.wav
192,192,241218,1,0,0:0:0:70:snare444.wav
448,192,241218,1,0,0:0:0:90:b03.wav
320,192,241321,1,0,0:0:0:0:
192,192,241425,1,0,0:0:0:80:piano_D#6H_Eb6H.wav
448,192,241425,1,0,0:0:0:100:hihat.wav
64,192,241528,1,0,0:0:0:0:
192,192,241632,128,0,241839:0:0:0:80:piano_F6H.wav
320,192,241632,1,0,0:0:0:85:kick444.wav
448,192,241632,128,0,241839:0:0:0:0:
64,192,241839,1,0,0:0:0:100:hihat.wav
64,192,241942,1,0,0:0:0:45:b03.wav
192,192,242045,1,0,0:0:0:85:kick444.wav
320,192,242045,1,0,0:0:0:70:snare444.wav
64,192,242149,1,0,0:0:0:0:
448,192,242149,1,0,0:0:0:0:
448,192,242252,1,0,0:0:0:100:hihat.wav
320,192,242356,1,0,0:0:0:0:
64,192,242459,1,0,0:0:0:80:piano_A#5H_Bb5H.wav
448,192,242459,1,0,0:0:0:85:kick444.wav
192,192,242563,1,0,0:0:0:0:
192,192,242666,1,0,0:0:0:100:hihat.wav
320,192,242666,1,0,0:0:0:0:
64,192,242770,1,0,0:0:0:80:piano_C#6H_Db6H.wav
448,192,242770,1,0,0:0:0:45:b03.wav
64,192,242873,1,0,0:0:0:85:kick444.wav
192,192,242873,1,0,0:0:0:70:snare444.wav
320,192,242873,1,0,0:0:0:90:b03.wav
448,192,242977,1,0,0:0:0:0:
64,192,243080,1,0,0:0:0:80:piano_F6H.wav
320,192,243080,1,0,0:0:0:100:hihat.wav
192,192,243183,1,0,0:0:0:0:
64,192,243287,128,0,243494:0:0:0:80:piano_F#6H_Gb6H.wav
320,192,243287,1,0,0:0:0:85:kick444.wav
448,192,243287,128,0,243494:0:0:0:0:
192,192,243494,1,0,0:0:0:100:hihat.wav
320,192,243597,1,0,0:0:0:80:piano_G#6H_Ab6H.wav
64,192,243701,1,0,0:0:0:85:kick444.wav
192,192,243701,1,0,0:0:0:70:snare444.wav
320,192,243804,1,0,0:0:0:0:
448,192,243804,1,0,0:0:0:0:
448,192,243908,1,0,0:0:0:80:piano_F#6H_Gb6H.wav
64,192,244011,1,0,0:0:0:0:
64,192,244114,1,0,0:0:0:80:piano_F6H.wav
320,192,244114,1,0,0:0:0:85:kick444.wav
192,192,244218,1,0,0:0:0:0:
192,192,244321,1,0,0:0:0:100:hihat.wav
448,192,244321,1,0,0:0:0:0:
64,192,244425,1,0,0:0:0:45:b03.wav
320,192,244425,1,0,0:0:0:0:
64,192,244528,1,0,0:0:0:85:kick444.wav
192,192,244528,1,0,0:0:0:70:snare444.wav
448,192,244528,1,0,0:0:0:90:b03.wav
320,192,244632,1,0,0:0:0:0:
64,192,244735,1,0,0:0:0:80:piano_F6H.wav
320,192,244735,1,0,0:0:0:100:hihat.wav
192,192,244839,1,0,0:0:0:80:piano_F#6H_Gb6H.wav
448,192,244839,1,0,0:0:0:0:
64,192,244942,128,0,245149:0:0:0:80:piano_G#6H_Ab6H.wav
320,192,244942,1,0,0:0:0:85:kick444.wav
448,192,244942,128,0,245149:0:0:0:0:
192,192,245149,1,0,0:0:0:100:hihat.wav
448,192,245252,1,0,0:0:0:80:piano_C#7H_Db7H.wav
64,192,245356,1,0,0:0:0:70:snare444.wav
192,192,245356,1,0,0:0:0:0:
448,192,245459,1,0,0:0:0:0:
320,192,245563,1,0,0:0:0:80:piano_A#6H_Bb6H.wav
64,192,245666,1,0,0:0:0:0:
192,192,245770,1,0,0:0:0:80:piano_F#6H_Gb6H.wav
448,192,245873,1,0,0:0:0:0:
64,192,245977,1,0,0:0:0:80:piano_F6H.wav
192,192,246080,1,0,0:0:0:45:b03.wav
448,192,246080,1,0,0:0:0:90:tom01-high_pitched.wav
64,192,246183,1,0,0:0:0:80:piano_D#6H_Eb6H.wav
192,192,246183,1,0,0:0:0:70:snare444.wav
448,192,246183,1,0,0:0:0:90:b03.wav
320,192,246287,1,0,0:0:0:0:
64,192,246390,1,0,0:0:0:80:piano_F#6H_Gb6H.wav
192,192,246390,1,0,0:0:0:100:hihat.wav
320,192,246494,1,0,0:0:0:80:piano_G#6H_Ab6H.wav
448,192,246494,1,0,0:0:0:0:
64,192,246597,1,0,0:0:0:80:piano_A#6H_Bb6H.wav
192,192,246597,128,0,246804:0:0:0:85:kick444.wav
448,192,246597,128,0,246804:0:0:0:55:crash_bandicoot.wav
64,192,246804,1,0,0:0:0:80:piano_C#7H_Db7H.wav
320,192,246804,1,0,0:0:0:100:hihat.wav
448,192,246908,1,0,0:0:0:45:b03.wav
64,192,247011,1,0,0:0:0:80:piano_F#6H_Gb6H.wav
192,192,247011,1,0,0:0:0:85:kick444.wav
320,192,247011,1,0,0:0:0:70:snare444.wav
64,192,247114,1,0,0:0:0:0:
448,192,247114,1,0,0:0:0:0:
192,192,247218,1,0,0:0:0:80:piano_F6H.wav
192,192,247321,1,0,0:0:0:0:
320,192,247425,1,0,0:0:0:80:piano_D#6H_Eb6H.wav
448,192,247425,1,0,0:0:0:85:kick444.wav
64,192,247528,1,0,0:0:0:0:
64,192,247632,1,0,0:0:0:100:hihat.wav
192,192,247632,1,0,0:0:0:0:
320,192,247735,1,0,0:0:0:45:b03.wav
448,192,247735,1,0,0:0:0:0:
64,192,247839,1,0,0:0:0:85:kick444.wav
320,192,247839,1,0,0:0:0:70:snare444.wav
448,192,247839,1,0,0:0:0:90:b03.wav
192,192,247942,1,0,0:0:0:0:
64,192,248045,1,0,0:0:0:100:hihat.wav
448,192,248045,1,0,0:0:0:0:
192,192,248149,1,0,0:0:0:0:
64,192,248252,128,0,248459:0:0:0:85:kick444.wav
320,192,248252,128,0,248459:0:0:0:0:
448,192,248252,1,0,0:0:0:0:
192,192,248459,1,0,0:0:0:100:hihat.wav
448,192,248459,1,0,0:0:0:0:
320,192,248563,1,0,0:0:0:45:b03.wav
64,192,248666,1,0,0:0:0:85:kick444.wav
192,192,248666,1,0,0:0:0:70:snare444.wav
448,192,248666,1,0,0:0:0:0:
64,192,248770,1,0,0:0:0:0:
192,192,248770,1,0,0:0:0:0:
320,192,248873,1,0,0:0:0:100:hihat.wav
320,192,248977,1,0,0:0:0:0:
448,192,248977,1,0,0:0:0:0:
64,192,249080,1,0,0:0:0:85:kick444.wav
192,192,249080,1,0,0:0:0:0:
448,192,249183,1,0,0:0:0:0:
64,192,249287,1,0,0:0:0:100:hihat.wav
448,192,249287,1,0,0:0:0:0:
192,192,249390,1,0,0:0:0:45:b03.wav
320,192,249390,1,0,0:0:0:0:
64,192,249494,1,0,0:0:0:85:kick444.wav
320,192,249494,1,0,0:0:0:70:snare444.wav
448,192,249494,1,0,0:0:0:90:b03.wav
192,192,249597,1,0,0:0:0:0:
320,192,249701,1,0,0:0:0:80:piano_D#6H_Eb6H.wav
448,192,249701,1,0,0:0:0:100:hihat.wav
64,192,249804,1,0,0:0:0:80:piano_F#6H_Gb6H.wav
192,192,249804,1,0,0:0:0:0:
64,192,249908,128,0,250114:0:0:0:80:piano_G#6H_Ab6H.wav
320,192,249908,1,0,0:0:0:85:kick444.wav
448,192,249908,128,0,250114:0:0:0:0:
192,192,250114,1,0,0:0:0:80:piano_A#6H_Bb6H.wav
320,192,250218,1,0,0:0:0:45:b03.wav
64,192,250321,1,0,0:0:0:80:piano_F#6H_Gb6H.wav
192,192,250321,1,0,0:0:0:85:kick444.wav
448,192,250321,1,0,0:0:0:70:snare444.wav
64,192,250425,1,0,0:0:0:0:
320,192,250425,1,0,0:0:0:0:
448,192,250528,1,0,0:0:0:80:piano_F6H.wav
192,192,250632,1,0,0:0:0:0:
320,192,250735,1,0,0:0:0:80:piano_G#6H_Ab6H.wav
448,192,250735,1,0,0:0:0:85:kick444.wav
192,192,250839,1,0,0:0:0:0:
64,192,250942,1,0,0:0:0:100:hihat.wav
192,192,250942,1,0,0:0:0:0:
320,192,251045,1,0,0:0:0:45:b03.wav
448,192,251045,1,0,0:0:0:0:
64,192,251149,1,0,0:0:0:85:kick444.wav
320,192,251149,1,0,0:0:0:70:snare444.wav
448,192,251149,1,0,0:0:0:90:b03.wav
192,192,251252,1,0,0:0:0:0:
64,192,251356,1,0,0:0:0:80:piano_A#6H_Bb6H.wav
448,192,251356,1,0,0:0:0:100:hihat.wav
320,192,251459,1,0,0:0:0:0:
64,192,251563,128,0,251770:0:0:0:80:piano_F#6H_Gb6H.wav
192,192,251563,1,0,0:0:0:85:kick444.wav
448,192,251563,128,0,251770:0:0:0:0:
320,192,251770,1,0,0:0:0:80:piano_F6H.wav
192,192,251873,1,0,0:0:0:45:b03.wav
64,192,251977,1,0,0:0:0:80:piano_D#6H_Eb6H.wav
320,192,251977,1,0,0:0:0:85:kick444.wav
448,192,251977,1,0,0:0:0:70:snare444.wav
192,192,252080,1,0,0:0:0:0:
448,192,252080,1,0,0:0:0:0:
64,192,252183,1,0,0:0:0:100:hihat.wav
320,192,252287,1,0,0:0:0:0:
320,192,252390,1,0,0:0:0:85:kick444.wav
448,192,252390,1,0,0:0:0:0:
192,192,252494,1,0,0:0:0:0:
192,192,252597,1,0,0:0:0:80:piano_C#6H_Db6H.wav
448,192,252597,1,0,0:0:0:100:hihat.wav
64,192,252701,1,0,0:0:0:45:b03.wav
320,192,252701,1,0,0:0:0:90:tom01-high_pitched.wav
64,192,252804,128,0,253011:0:0:0:85:kick444.wav
320,192,252804,128,0,253011:0:0:0:70:snare444.wav
448,192,252804,1,0,0:0:0:90:b03.wav
192,192,253011,1,0,0:0:0:80:piano_A#5H_Bb5H.wav
448,192,253011,1,0,0:0:0:100:hihat.wav
64,192,253114,1,0,0:0:0:70:piano_C#6H_Db6H.wav
320,192,253114,1,0,0:0:0:0:
64,192,253218,128,0,253425:0:0:0:80:piano_D#6H_Eb6H.wav
192,192,253218,128,0,253425:0:0:0:85:kick444.wav
448,192,253218,1,0,0:0:0:0:
448,192,253425,1,0,0:0:0:100:hihat.wav
448,192,253528,1,0,0:0:0:45:b03.wav
64,192,253632,1,0,0:0:0:85:kick444.wav
320,192,253632,1,0,0:0:0:70:snare444.wav
192,192,253735,1,0,0:0:0:0:
448,192,253735,1,0,0:0:0:0:
192,192,253839,1,0,0:0:0:100:hihat.wav
320,192,253942,1,0,0:0:0:0:
192,192,254045,1,0,0:0:0:80:piano_A#5H_Bb5H.wav
448,192,254045,1,0,0:0:0:85:kick444.wav
64,192,254149,1,0,0:0:0:0:
64,192,254252,1,0,0:0:0:100:hihat.wav
320,192,254252,1,0,0:0:0:0:
192,192,254356,1,0,0:0:0:80:piano_C#6H_Db6H.wav
448,192,254356,1,0,0:0:0:45:b03.wav
64,192,254459,1,0,0:0:0:85:kick444.wav
320,192,254459,1,0,0:0:0:70:snare444.wav
448,192,254459,1,0,0:0:0:90:b03.wav
192,192,254563,1,0,0:0:0:0:
64,192,254666,1,0,0:0:0:80:piano_D#6H_Eb6H.wav
320,192,254666,1,0,0:0:0:100:hihat.wav
448,192,254770,1,0,0:0:0:0:
64,192,254873,128,0,255080:0:0:0:80:piano_F6H.wav
192,192,254873,1,0,0:0:0:85:kick444.wav
320,192,254873,128,0,255080:0:0:0:0:
448,192,255080,1,0,0:0:0:100:hihat.wav
448,192,255183,1,0,0:0:0:45:b03.wav
192,192,255287,1,0,0:0:0:85:kick444.wav
320,192,255287,1,0,0:0:0:70:snare444.wav
64,192,255390,1,0,0:0:0:0:
448,192,255390,1,0,0:0:0:0:
64,192,255494,1,0,0:0:0:100:hihat.wav
192,192,255597,1,0,0:0:0:0:
64,192,255701,1,0,0:0:0:80:piano_A#5H_Bb5H.wav
448,192,255701,1,0,0:0:0:85:kick444.wav
320,192,255804,1,0,0:0:0:0:
192,192,255908,1,0,0:0:0:100:hihat.wav
320,192,255908,1,0,0:0:0:0:
64,192,256011,1,0,0:0:0:80:piano_C#6H_Db6H.wav
448,192,256011,1,0,0:0:0:45:b03.wav
192,192,256114,1,0,0:0:0:85:kick444.wav
320,192,256114,1,0,0:0:0:70:snare444.wav
448,192,256114,1,0,0:0:0:90:b03.wav
64,192,256218,1,0,0:0:0:0:
192,192,256321,1,0,0:0:0:80:piano_F6H.wav
448,192,256321,1,0,0:0:0:100:hihat.wav
320,192,256425,1,0,0:0:0:0:
64,192,256528,128,0,256735:0:0:0:80:piano_F#6H_Gb6H.wav
192,192,256528,1,0,0:0:0:85:kick444.wav
448,192,256528,128,0,256735:0:0:0:55:crash_bandicoot-short.wav
192,192,256735,1,0,0:0:0:100:hihat.wav
320,192,256839,1,0,0:0:0:80:piano_G#6H_Ab6H.wav
448,192,256839,1,0,0:0:0:45:b03.wav
64,192,256942,1,0,0:0:0:85:kick444.wav
192,192,256942,1,0,0:0:0:70:snare444.wav
320,192,257045,1,0,0:0:0:0:
192,192,257149,1,0,0:0:0:80:piano_F#6H_Gb6H.wav
448,192,257149,1,0,0:0:0:100:hihat.wav
192,192,257252,1,0,0:0:0:0:
64,192,257356,1,0,0:0:0:80:piano_F6H.wav
320,192,257356,1,0,0:0:0:85:kick444.wav
448,192,257356,1,0,0:0:0:55:crash_bandicoot-short.wav
320,192,257459,1,0,0:0:0:0:
192,192,257563,1,0,0:0:0:100:hihat.wav
448,192,257563,1,0,0:0:0:0:
64,192,257666,1,0,0:0:0:45:b03.wav
64,192,257770,1,0,0:0:0:85:kick444.wav
192,192,257770,1,0,0:0:0:70:snare444.wav
448,192,257770,1,0,0:0:0:90:b03.wav
320,192,257873,1,0,0:0:0:0:
64,192,257977,1,0,0:0:0:80:piano_F6H.wav
320,192,257977,1,0,0:0:0:100:hihat.wav
192,192,258080,1,0,0:0:0:80:piano_F#6H_Gb6H.wav
448,192,258080,1,0,0:0:0:0:
320,192,258183,1,0,0:0:0:85:kick444.wav
64,192,258183,128,0,258390:0:0:0:80:piano_G#6H_Ab6H.wav
448,192,258183,128,0,258390:0:0:0:55:crash_bandicoot-short.wav
192,192,258390,1,0,0:0:0:100:hihat.wav
448,192,258494,1,0,0:0:0:80:piano_C#7H_Db7H.wav
320,192,258494,1,0,0:0:0:0:
64,192,258597,1,0,0:0:0:85:kick444.wav
192,192,258597,1,0,0:0:0:70:snare444.wav
320,192,258597,1,0,0:0:0:55:crash_bandicoot-short.wav
448,192,258701,1,0,0:0:0:0:
320,192,258804,1,0,0:0:0:80:piano_A#6H_Bb6H.wav
64,192,258804,1,0,0:0:0:0:
64,192,258908,1,0,0:0:0:0:
192,192,259011,1,0,0:0:0:80:piano_F#6H_Gb6H.wav
320,192,259011,1,0,0:0:0:0:
448,192,259114,1,0,0:0:0:0:
64,192,259218,1,0,0:0:0:80:piano_F6H.wav
192,192,259218,1,0,0:0:0:100:hihat.wav
320,192,259321,1,0,0:0:0:90:tom01-high_pitched.wav
448,192,259321,1,0,0:0:0:45:b03.wav
64,192,259425,1,0,0:0:0:80:piano_D#6H_Eb6H.wav
192,192,259425,1,0,0:0:0:70:snare444.wav
320,192,259425,1,0,0:0:0:90:b03.wav
448,192,259528,1,0,0:0:0:0:
64,192,259632,1,0,0:0:0:90:tom02-high_pitched.wav
192,192,259632,1,0,0:0:0:100:hihat.wav
320,192,259735,1,0,0:0:0:0:
320,192,259839,1,0,0:0:0:55:crash_bandicoot.wav
448,192,259839,1,0,0:0:0:0:
64,192,259942,1,0,0:0:0:0:
192,192,260045,1,0,0:0:0:0:
64,192,260149,1,0,0:0:0:0:
192,192,260252,1,0,0:0:0:0:
448,192,260356,1,0,0:0:0:0:
64,192,260459,1,0,0:0:0:0:
448,192,260563,1,0,0:0:0:0:
320,192,260666,1,0,0:0:0:0:
64,192,260770,1,0,0:0:0:0:
320,192,260873,1,0,0:0:0:0:
192,192,260977,1,0,0:0:0:0:
64,192,261080,1,0,0:0:0:0:
192,192,261183,1,0,0:0:0:0:
320,192,261287,1,0,0:0:0:0:
192,192,261390,1,0,0:0:0:0:
64,192,261494,1,0,0:0:0:0:
192,192,261597,1,0,0:0:0:0:
320,192,261701,1,0,0:0:0:0:
448,192,261804,1,0,0:0:0:0:
192,192,261908,1,0,0:0:0:0:
448,192,262011,1,0,0:0:0:0:
320,192,262114,1,0,0:0:0:0:
64,192,262218,1,0,0:0:0:0:
192,192,262321,1,0,0:0:0:0:
448,192,262425,1,0,0:0:0:0:
320,192,262528,1,0,0:0:0:0:
192,192,262632,1,0,0:0:0:0:
448,192,262735,1,0,0:0:0:0:
320,192,262839,1,0,0:0:0:0:
192,192,262942,1,0,0:0:0:0:
448,192,263045,1,0,0:0:0:0:
64,192,263356,1,0,0:0:0:0:
192,192,263459,1,0,0:0:0:0:
320,192,263563,1,0,0:0:0:0:
448,192,263666,1,0,0:0:0:0:
192,192,263873,1,0,0:0:0:0:
320,192,263977,1,0,0:0:0:0:
64,192,264183,1,0,0:0:0:0:
320,192,264287,1,0,0:0:0:0:
448,192,264597,1,0,0:0:0:0:
192,192,265011,1,0,0:0:0:0:
320,192,265321,1,0,0:0:0:0:
192,192,265632,1,0,0:0:0:0:
320,192,265942,1,0,0:0:0:0:
