osu file format v14

[General]
AudioFilename: The Cyber Grind.mp3
AudioLeadIn: 0
PreviewTime: 10175
Countdown: 0
SampleSet: Soft
StackLeniency: 0.7
Mode: 3
LetterboxInBreaks: 0
SpecialStyle: 0
WidescreenStoryboard: 0

[Editor]
DistanceSpacing: 0.8
BeatDivisor: 4
GridSize: 32
TimelineZoom: 1

[Metadata]
Title:The Cyber Grind
TitleUnicode:The Cyber Grind
Artist:meganeko
ArtistUnicode:meganeko
Creator:AutotelicBrown
Version:Hard
Source:ULTRAKILL
Tags:Original Soundtrack OST Act I INFINITE HYPERDEATH New Blood Interactive Heaven Pierce Her Hakita Patala Drum and Bass DnB D&B 90s Djent Glitch Hardcore House Industrial Metal Electronic Video Game VGM Instrumental
BeatmapID:3912019
BeatmapSetID:1895713

[Difficulty]
HPDrainRate:8
CircleSize:4
OverallDifficulty:8
ApproachRate:5
SliderMultiplier:1.4
SliderTickRate:1

[Events]
//Background and Video events
0,0,"bg.png",0,0
//Break Periods
//Storyboard Layer 0 (Background)
//Storyboard Layer 1 (Fail)
//Storyboard Layer 2 (Pass)
//Storyboard Layer 3 (Foreground)
//Storyboard Layer 4 (Overlay)
//Storyboard Sound Samples

[TimingPoints]
70,315.789473684211,4,2,1,25,1,0
10175,-100,4,2,1,40,0,0
60701,-100,4,2,1,40,0,1
80912,-100,4,2,1,40,0,0
121333,-100,4,2,1,40,0,1
139017,-100,4,2,1,40,0,0
222385,-100,4,2,1,40,0,1
239754,-100,4,2,1,40,0,0
267859,-100,4,2,1,25,0,0
272912,-100,4,2,1,15,0,0

[HitObjects]
448,192,70,5,0,0:0:0:0:
192,192,227,1,0,0:0:0:0:
64,192,385,1,0,0:0:0:0:
320,192,543,1,0,0:0:0:0:
192,192,701,1,0,0:0:0:0:
448,192,859,1,0,0:0:0:0:
64,192,1017,1,0,0:0:0:0:
320,192,1175,1,0,0:0:0:0:
192,192,1333,1,0,0:0:0:0:
64,192,1491,1,0,0:0:0:0:
448,192,1648,1,0,0:0:0:0:
64,192,1806,1,0,0:0:0:0:
320,192,1964,1,0,0:0:0:0:
64,192,2122,1,0,0:0:0:0:
192,192,2280,1,0,0:0:0:0:
448,192,2438,1,0,0:0:0:0:
320,192,2596,1,0,0:0:0:0:
192,192,2754,1,0,0:0:0:0:
64,192,2912,1,0,0:0:0:0:
448,192,3070,1,0,0:0:0:0:
192,192,3227,1,0,0:0:0:0:
320,192,3385,1,0,0:0:0:0:
64,192,3543,1,0,0:0:0:0:
448,192,3701,1,0,0:0:0:0:
192,192,3859,1,0,0:0:0:0:
64,192,4017,1,0,0:0:0:0:
320,192,4175,1,0,0:0:0:0:
64,192,4333,1,0,0:0:0:0:
448,192,4491,1,0,0:0:0:0:
64,192,4648,1,0,0:0:0:0:
192,192,4806,1,0,0:0:0:0:
320,192,4964,1,0,0:0:0:0:
448,192,5122,1,0,0:0:0:0:
192,192,5280,1,0,0:0:0:0:
64,192,5438,1,0,0:0:0:0:
320,192,5596,1,0,0:0:0:0:
192,192,5754,1,0,0:0:0:0:
448,192,5912,1,0,0:0:0:0:
64,192,6070,1,0,0:0:0:0:
320,192,6227,1,0,0:0:0:0:
192,192,6385,1,0,0:0:0:0:
64,192,6543,1,0,0:0:0:0:
448,192,6701,1,0,0:0:0:0:
64,192,6859,1,0,0:0:0:0:
320,192,7017,1,0,0:0:0:0:
64,192,7175,1,0,0:0:0:0:
192,192,7333,1,0,0:0:0:0:
448,192,7491,1,0,0:0:0:0:
320,192,7648,1,0,0:0:0:0:
192,192,7806,1,0,0:0:0:0:
64,192,7964,1,0,0:0:0:0:
448,192,8122,1,0,0:0:0:0:
192,192,8280,1,0,0:0:0:0:
320,192,8438,1,0,0:0:0:0:
64,192,8596,1,0,0:0:0:0:
448,192,8754,1,0,0:0:0:0:
192,192,8912,1,0,0:0:0:0:
64,192,9070,1,0,0:0:0:0:
320,192,9227,1,0,0:0:0:0:
64,192,9385,1,0,0:0:0:0:
448,192,9543,1,0,0:0:0:0:
64,192,9701,1,0,0:0:0:0:
192,192,9859,1,0,0:0:0:0:
448,192,10017,1,0,0:0:0:0:
320,192,10175,1,0,0:0:0:0:
64,192,10175,1,0,0:0:0:0:
448,192,10254,1,0,0:0:0:0:
192,192,10333,1,0,0:0:0:0:
320,192,10412,1,0,0:0:0:0:
64,192,10491,1,0,0:0:0:0:
448,192,10570,1,0,0:0:0:0:
320,192,10648,1,0,0:0:0:0:
64,192,10806,1,0,0:0:0:0:
192,192,10885,1,0,0:0:0:0:
448,192,10964,1,0,0:0:0:0:
64,192,11122,1,0,0:0:0:0:
320,192,11201,1,0,0:0:0:0:
192,192,11280,1,0,0:0:0:0:
320,192,11438,1,0,0:0:0:0:
448,192,11517,1,0,0:0:0:0:
64,192,11596,1,0,0:0:0:0:
192,192,11754,1,0,0:0:0:0:
320,192,11912,1,0,0:0:0:0:
64,192,11991,1,0,0:0:0:0:
320,192,12070,1,0,0:0:0:0:
192,192,12148,1,0,0:0:0:0:
448,192,12227,1,0,0:0:0:0:
64,192,12385,1,0,0:0:0:0:
192,192,12464,1,0,0:0:0:0:
448,192,12543,128,0,12701:0:0:0:0:
64,192,12701,1,0,0:0:0:0:
320,192,12780,1,0,0:0:0:0:
192,192,12859,128,0,13017:0:0:0:0:
320,192,13017,1,0,0:0:0:0:
448,192,13175,1,0,0:0:0:0:
192,192,13333,1,0,0:0:0:0:
448,192,13491,1,0,0:0:0:0:
320,192,13570,1,0,0:0:0:0:
64,192,13648,1,0,0:0:0:0:
192,192,13806,1,0,0:0:0:0:
448,192,13964,1,0,0:0:0:0:
320,192,14043,1,0,0:0:0:0:
64,192,14122,1,0,0:0:0:0:
192,192,14280,1,0,0:0:0:0:
320,192,14438,1,0,0:0:0:0:
192,192,14517,1,0,0:0:0:0:
448,192,14596,1,0,0:0:0:0:
320,192,14675,1,0,0:0:0:0:
64,192,14754,1,0,0:0:0:0:
448,192,14912,1,0,0:0:0:0:
320,192,14991,1,0,0:0:0:0:
192,192,15070,1,0,0:0:0:0:
64,192,15148,1,0,0:0:0:0:
448,192,15227,1,0,0:0:0:0:
192,192,15385,1,0,0:0:0:0:
320,192,15464,1,0,0:0:0:0:
64,192,15543,1,0,0:0:0:0:
448,192,15622,1,0,0:0:0:0:
192,192,15701,1,0,0:0:0:0:
448,192,16017,128,0,16175:0:0:0:0:
64,192,16175,1,0,0:0:0:0:
320,192,16254,1,0,0:0:0:0:
192,192,16333,1,0,0:0:0:0:
320,192,16491,1,0,0:0:0:0:
448,192,16570,1,0,0:0:0:0:
64,192,16648,1,0,0:0:0:0:
192,192,16806,1,0,0:0:0:0:
448,192,16964,1,0,0:0:0:0:
320,192,17043,1,0,0:0:0:0:
64,192,17122,1,0,0:0:0:0:
192,192,17201,1,0,0:0:0:0:
448,192,17280,1,0,0:0:0:0:
320,192,17438,1,0,0:0:0:0:
64,192,17754,1,0,0:0:0:0:
192,192,19017,1,0,0:0:0:0:
320,192,19175,1,0,0:0:0:0:
64,192,19254,1,0,0:0:0:0:
448,192,19333,1,0,0:0:0:0:
64,192,19412,1,0,0:0:0:0:
320,192,19491,1,0,0:0:0:0:
192,192,19648,1,0,0:0:0:0:
448,192,19727,1,0,0:0:0:0:
64,192,19806,1,0,0:0:0:0:
448,192,19885,1,0,0:0:0:0:
320,192,19964,1,0,0:0:0:0:
192,192,19964,1,0,0:0:0:0:
448,192,20280,1,0,0:0:0:0:
64,192,20280,1,0,0:0:0:0:
320,192,20359,1,0,0:0:0:0:
192,192,20438,1,0,0:0:0:0:
448,192,20517,1,0,0:0:0:0:
320,192,20596,1,0,0:0:0:0:
64,192,20675,1,0,0:0:0:0:
448,192,20754,1,0,0:0:0:0:
192,192,20833,1,0,0:0:0:0:
64,192,20912,1,0,0:0:0:0:
320,192,20991,1,0,0:0:0:0:
192,192,21070,1,0,0:0:0:0:
64,192,21148,1,0,0:0:0:0:
448,192,21227,1,0,0:0:0:0:
320,192,21306,1,0,0:0:0:0:
64,192,21385,1,0,0:0:0:0:
192,192,21464,1,0,0:0:0:0:
448,192,21543,1,0,0:0:0:0:
64,192,21622,1,0,0:0:0:0:
320,192,21701,1,0,0:0:0:0:
192,192,21780,1,0,0:0:0:0:
64,192,21859,1,0,0:0:0:0:
448,192,21938,1,0,0:0:0:0:
192,192,22017,1,0,0:0:0:0:
320,192,22096,1,0,0:0:0:0:
448,192,22175,1,0,0:0:0:0:
64,192,22254,1,0,0:0:0:0:
320,192,22333,1,0,0:0:0:0:
448,192,22412,1,0,0:0:0:0:
192,192,22491,1,0,0:0:0:0:
64,192,22570,1,0,0:0:0:0:
448,192,22648,1,0,0:0:0:0:
320,192,22727,1,0,0:0:0:0:
192,192,22806,1,0,0:0:0:0:
448,192,22885,1,0,0:0:0:0:
64,192,22964,1,0,0:0:0:0:
320,192,23043,1,0,0:0:0:0:
448,192,23122,1,0,0:0:0:0:
192,192,23201,1,0,0:0:0:0:
320,192,23280,1,0,0:0:0:0:
64,192,23359,1,0,0:0:0:0:
192,192,23438,1,0,0:0:0:0:
448,192,23517,1,0,0:0:0:0:
64,192,23596,1,0,0:0:0:0:
192,192,23675,1,0,0:0:0:0:
320,192,23754,1,0,0:0:0:0:
448,192,23833,1,0,0:0:0:0:
192,192,23912,1,0,0:0:0:0:
64,192,23991,1,0,0:0:0:0:
320,192,24070,1,0,0:0:0:0:
192,192,24148,1,0,0:0:0:0:
448,192,24227,1,0,0:0:0:0:
64,192,24306,1,0,0:0:0:0:
192,192,24385,1,0,0:0:0:0:
320,192,24464,1,0,0:0:0:0:
64,192,24543,1,0,0:0:0:0:
448,192,24622,1,0,0:0:0:0:
320,192,24701,1,0,0:0:0:0:
192,192,24780,1,0,0:0:0:0:
448,192,24859,1,0,0:0:0:0:
320,192,24938,1,0,0:0:0:0:
64,192,25017,1,0,0:0:0:0:
192,192,25096,1,0,0:0:0:0:
320,192,25175,1,0,0:0:0:0:
448,192,25254,1,0,0:0:0:0:
192,192,25333,1,0,0:0:0:0:
320,192,25412,1,0,0:0:0:0:
64,192,25491,1,0,0:0:0:0:
448,192,25570,1,0,0:0:0:0:
320,192,25648,1,0,0:0:0:0:
192,192,25727,1,0,0:0:0:0:
448,192,25806,1,0,0:0:0:0:
64,192,25885,1,0,0:0:0:0:
192,192,25964,1,0,0:0:0:0:
320,192,26043,1,0,0:0:0:0:
64,192,26122,1,0,0:0:0:0:
192,192,26201,1,0,0:0:0:0:
448,192,26280,1,0,0:0:0:0:
320,192,26359,1,0,0:0:0:0:
192,192,26438,1,0,0:0:0:0:
64,192,26517,1,0,0:0:0:0:
448,192,26596,1,0,0:0:0:0:
192,192,26675,1,0,0:0:0:0:
320,192,26754,1,0,0:0:0:0:
64,192,26833,1,0,0:0:0:0:
192,192,26912,1,0,0:0:0:0:
448,192,26991,1,0,0:0:0:0:
64,192,27070,1,0,0:0:0:0:
320,192,27148,1,0,0:0:0:0:
448,192,27227,1,0,0:0:0:0:
192,192,27306,1,0,0:0:0:0:
320,192,27385,1,0,0:0:0:0:
448,192,27464,1,0,0:0:0:0:
64,192,27543,1,0,0:0:0:0:
192,192,27622,1,0,0:0:0:0:
448,192,27701,1,0,0:0:0:0:
320,192,27780,1,0,0:0:0:0:
64,192,27859,1,0,0:0:0:0:
448,192,27938,1,0,0:0:0:0:
192,192,28017,1,0,0:0:0:0:
320,192,28096,1,0,0:0:0:0:
448,192,28175,1,0,0:0:0:0:
64,192,28254,1,0,0:0:0:0:
320,192,28333,1,0,0:0:0:0:
192,192,28412,1,0,0:0:0:0:
64,192,28491,1,0,0:0:0:0:
448,192,28570,1,0,0:0:0:0:
192,192,28648,1,0,0:0:0:0:
320,192,28727,1,0,0:0:0:0:
64,192,28806,1,0,0:0:0:0:
448,192,28964,1,0,0:0:0:0:
192,192,29043,1,0,0:0:0:0:
448,192,29122,1,0,0:0:0:0:
320,192,29122,1,0,0:0:0:0:
448,192,29359,1,0,0:0:0:0:
320,192,29359,1,0,0:0:0:0:
64,192,29438,1,0,0:0:0:0:
448,192,29596,1,0,0:0:0:0:
320,192,29596,1,0,0:0:0:0:
192,192,29754,1,0,0:0:0:0:
64,192,29754,1,0,0:0:0:0:
192,192,29991,1,0,0:0:0:0:
64,192,29991,1,0,0:0:0:0:
448,192,30070,1,0,0:0:0:0:
192,192,30227,1,0,0:0:0:0:
64,192,30227,1,0,0:0:0:0:
448,192,30385,1,0,0:0:0:0:
320,192,30385,1,0,0:0:0:0:
192,192,30464,1,0,0:0:0:0:
320,192,30543,1,0,0:0:0:0:
64,192,30622,1,0,0:0:0:0:
192,192,30701,1,0,0:0:0:0:
448,192,30780,1,0,0:0:0:0:
64,192,30859,1,0,0:0:0:0:
320,192,30938,1,0,0:0:0:0:
448,192,31017,1,0,0:0:0:0:
192,192,31096,1,0,0:0:0:0:
320,192,31175,1,0,0:0:0:0:
448,192,31254,1,0,0:0:0:0:
64,192,31333,1,0,0:0:0:0:
192,192,31412,1,0,0:0:0:0:
448,192,31491,1,0,0:0:0:0:
320,192,31570,1,0,0:0:0:0:
64,192,31648,1,0,0:0:0:0:
448,192,31727,1,0,0:0:0:0:
192,192,31806,1,0,0:0:0:0:
320,192,31885,1,0,0:0:0:0:
448,192,31964,1,0,0:0:0:0:
64,192,32043,1,0,0:0:0:0:
320,192,32122,1,0,0:0:0:0:
192,192,32201,1,0,0:0:0:0:
64,192,32280,1,0,0:0:0:0:
448,192,32359,1,0,0:0:0:0:
192,192,32438,1,0,0:0:0:0:
64,192,32517,1,0,0:0:0:0:
320,192,32596,1,0,0:0:0:0:
448,192,32675,1,0,0:0:0:0:
64,192,32754,1,0,0:0:0:0:
192,192,32833,1,0,0:0:0:0:
320,192,32912,1,0,0:0:0:0:
64,192,32991,1,0,0:0:0:0:
448,192,33070,1,0,0:0:0:0:
192,192,33148,1,0,0:0:0:0:
64,192,33227,1,0,0:0:0:0:
320,192,33306,1,0,0:0:0:0:
192,192,33385,1,0,0:0:0:0:
448,192,33464,1,0,0:0:0:0:
320,192,33543,1,0,0:0:0:0:
64,192,33622,1,0,0:0:0:0:
448,192,33701,1,0,0:0:0:0:
320,192,33780,1,0,0:0:0:0:
192,192,33859,1,0,0:0:0:0:
64,192,33938,1,0,0:0:0:0:
320,192,34017,1,0,0:0:0:0:
448,192,34096,1,0,0:0:0:0:
192,192,34175,1,0,0:0:0:0:
320,192,34254,1,0,0:0:0:0:
64,192,34333,1,0,0:0:0:0:
448,192,34412,1,0,0:0:0:0:
320,192,34491,1,0,0:0:0:0:
192,192,34570,1,0,0:0:0:0:
448,192,34648,1,0,0:0:0:0:
64,192,34727,1,0,0:0:0:0:
192,192,34806,1,0,0:0:0:0:
320,192,34885,1,0,0:0:0:0:
64,192,34964,1,0,0:0:0:0:
448,192,35043,1,0,0:0:0:0:
320,192,35122,1,0,0:0:0:0:
192,192,35280,1,0,0:0:0:0:
448,192,35359,1,0,0:0:0:0:
64,192,35438,1,0,0:0:0:0:
448,192,35596,1,0,0:0:0:0:
192,192,35675,1,0,0:0:0:0:
320,192,35754,1,0,0:0:0:0:
64,192,35912,1,0,0:0:0:0:
448,192,35991,1,0,0:0:0:0:
192,192,36070,1,0,0:0:0:0:
320,192,36148,1,0,0:0:0:0:
64,192,36227,1,0,0:0:0:0:
192,192,36385,1,0,0:0:0:0:
320,192,36543,1,0,0:0:0:0:
448,192,36622,1,0,0:0:0:0:
64,192,36701,1,0,0:0:0:0:
448,192,36859,1,0,0:0:0:0:
320,192,36938,1,0,0:0:0:0:
64,192,37017,1,0,0:0:0:0:
192,192,37096,1,0,0:0:0:0:
448,192,37175,1,0,0:0:0:0:
64,192,37254,1,0,0:0:0:0:
320,192,37412,1,0,0:0:0:0:
192,192,37491,1,0,0:0:0:0:
64,192,37648,128,0,37964:0:0:0:0:
448,192,37964,1,0,0:0:0:0:
320,192,38043,1,0,0:0:0:0:
192,192,38122,1,0,0:0:0:0:
64,192,38201,1,0,0:0:0:0:
448,192,38280,1,0,0:0:0:0:
192,192,38359,1,0,0:0:0:0:
448,192,38438,1,0,0:0:0:0:
192,192,38517,1,0,0:0:0:0:
64,192,38596,1,0,0:0:0:0:
448,192,38675,1,0,0:0:0:0:
320,192,38754,1,0,0:0:0:0:
64,192,38833,1,0,0:0:0:0:
320,192,38912,1,0,0:0:0:0:
64,192,38991,1,0,0:0:0:0:
448,192,39070,1,0,0:0:0:0:
192,192,39148,1,0,0:0:0:0:
320,192,39227,1,0,0:0:0:0:
64,192,39306,1,0,0:0:0:0:
448,192,39385,1,0,0:0:0:0:
320,192,39464,1,0,0:0:0:0:
192,192,39543,128,0,39701:0:0:0:0:
320,192,39701,1,0,0:0:0:0:
448,192,39780,1,0,0:0:0:0:
64,192,39859,1,0,0:0:0:0:
320,192,40017,1,0,0:0:0:0:
192,192,40175,1,0,0:0:0:0:
448,192,40333,1,0,0:0:0:0:
320,192,40412,1,0,0:0:0:0:
192,192,40491,1,0,0:0:0:0:
64,192,40491,1,0,0:0:0:0:
192,192,40727,1,0,0:0:0:0:
192,192,40964,1,0,0:0:0:0:
192,192,41201,1,0,0:0:0:0:
192,192,41438,1,0,0:0:0:0:
448,192,41596,1,0,0:0:0:0:
64,192,41675,1,0,0:0:0:0:
320,192,41754,1,0,0:0:0:0:
192,192,41754,1,0,0:0:0:0:
320,192,41991,1,0,0:0:0:0:
320,192,42227,1,0,0:0:0:0:
320,192,42464,1,0,0:0:0:0:
320,192,42701,1,0,0:0:0:0:
192,192,42780,1,0,0:0:0:0:
448,192,42859,1,0,0:0:0:0:
320,192,42938,1,0,0:0:0:0:
192,192,43017,1,0,0:0:0:0:
64,192,43017,1,0,0:0:0:0:
64,192,43254,1,0,0:0:0:0:
64,192,43491,1,0,0:0:0:0:
64,192,43727,1,0,0:0:0:0:
320,192,43964,1,0,0:0:0:0:
192,192,44122,1,0,0:0:0:0:
448,192,44280,1,0,0:0:0:0:
64,192,44280,1,0,0:0:0:0:
448,192,44517,1,0,0:0:0:0:
448,192,44754,1,0,0:0:0:0:
448,192,44991,1,0,0:0:0:0:
448,192,45227,1,0,0:0:0:0:
64,192,45306,1,0,0:0:0:0:
320,192,45385,1,0,0:0:0:0:
448,192,45464,1,0,0:0:0:0:
192,192,45543,1,0,0:0:0:0:
64,192,45543,1,0,0:0:0:0:
192,192,45780,1,0,0:0:0:0:
192,192,46017,1,0,0:0:0:0:
192,192,46254,1,0,0:0:0:0:
320,192,46491,1,0,0:0:0:0:
64,192,46648,1,0,0:0:0:0:
448,192,46806,1,0,0:0:0:0:
448,192,47043,1,0,0:0:0:0:
448,192,47280,1,0,0:0:0:0:
448,192,47517,1,0,0:0:0:0:
448,192,47754,1,0,0:0:0:0:
192,192,47912,1,0,0:0:0:0:
320,192,47991,1,0,0:0:0:0:
448,192,48070,1,0,0:0:0:0:
64,192,48070,1,0,0:0:0:0:
64,192,48306,1,0,0:0:0:0:
64,192,48543,1,0,0:0:0:0:
64,192,48780,1,0,0:0:0:0:
64,192,49017,1,0,0:0:0:0:
448,192,49175,1,0,0:0:0:0:
192,192,49254,1,0,0:0:0:0:
448,192,49333,1,0,0:0:0:0:
320,192,49333,1,0,0:0:0:0:
64,192,49491,1,0,0:0:0:0:
320,192,49570,1,0,0:0:0:0:
192,192,49648,1,0,0:0:0:0:
448,192,49806,1,0,0:0:0:0:
64,192,49885,1,0,0:0:0:0:
320,192,49964,1,0,0:0:0:0:
192,192,50043,1,0,0:0:0:0:
448,192,50122,1,0,0:0:0:0:
320,192,50201,1,0,0:0:0:0:
64,192,50280,1,0,0:0:0:0:
192,192,50359,1,0,0:0:0:0:
320,192,50438,1,0,0:0:0:0:
448,192,50517,1,0,0:0:0:0:
192,192,50596,1,0,0:0:0:0:
64,192,50596,1,0,0:0:0:0:
192,192,50833,1,0,0:0:0:0:
448,192,50912,1,0,0:0:0:0:
192,192,51070,1,0,0:0:0:0:
320,192,51227,1,0,0:0:0:0:
192,192,51306,1,0,0:0:0:0:
448,192,51543,1,0,0:0:0:0:
192,192,51543,1,0,0:0:0:0:
320,192,51701,1,0,0:0:0:0:
448,192,51780,1,0,0:0:0:0:
320,192,51859,1,0,0:0:0:0:
64,192,51859,1,0,0:0:0:0:
64,192,52096,1,0,0:0:0:0:
448,192,52175,1,0,0:0:0:0:
64,192,52333,1,0,0:0:0:0:
320,192,52491,1,0,0:0:0:0:
64,192,52570,1,0,0:0:0:0:
448,192,52648,1,0,0:0:0:0:
320,192,52806,1,0,0:0:0:0:
192,192,52806,1,0,0:0:0:0:
64,192,52885,1,0,0:0:0:0:
320,192,52964,1,0,0:0:0:0:
192,192,53043,1,0,0:0:0:0:
448,192,53122,1,0,0:0:0:0:
64,192,53122,1,0,0:0:0:0:
448,192,53359,1,0,0:0:0:0:
192,192,53438,1,0,0:0:0:0:
448,192,53596,1,0,0:0:0:0:
64,192,53754,1,0,0:0:0:0:
448,192,53833,1,0,0:0:0:0:
448,192,54070,1,0,0:0:0:0:
192,192,54070,1,0,0:0:0:0:
64,192,54227,1,0,0:0:0:0:
192,192,54306,1,0,0:0:0:0:
320,192,54385,1,0,0:0:0:0:
64,192,54385,1,0,0:0:0:0:
320,192,54622,1,0,0:0:0:0:
192,192,54701,1,0,0:0:0:0:
320,192,54859,1,0,0:0:0:0:
64,192,55017,1,0,0:0:0:0:
320,192,55096,1,0,0:0:0:0:
192,192,55175,1,0,0:0:0:0:
448,192,55333,1,0,0:0:0:0:
64,192,55333,1,0,0:0:0:0:
320,192,55412,1,0,0:0:0:0:
64,192,55491,1,0,0:0:0:0:
448,192,55570,1,0,0:0:0:0:
320,192,55648,1,0,0:0:0:0:
192,192,55648,1,0,0:0:0:0:
64,192,55885,1,0,0:0:0:0:
320,192,55964,1,0,0:0:0:0:
192,192,56122,1,0,0:0:0:0:
320,192,56280,1,0,0:0:0:0:
64,192,56359,1,0,0:0:0:0:
448,192,56596,1,0,0:0:0:0:
320,192,56596,1,0,0:0:0:0:
64,192,56754,1,0,0:0:0:0:
448,192,56912,1,0,0:0:0:0:
192,192,56912,1,0,0:0:0:0:
320,192,57148,1,0,0:0:0:0:
192,192,57227,1,0,0:0:0:0:
448,192,57385,1,0,0:0:0:0:
192,192,57543,1,0,0:0:0:0:
320,192,57622,1,0,0:0:0:0:
192,192,57859,1,0,0:0:0:0:
64,192,57859,1,0,0:0:0:0:
320,192,58017,1,0,0:0:0:0:
64,192,58175,1,0,0:0:0:0:
192,192,58254,1,0,0:0:0:0:
448,192,58333,1,0,0:0:0:0:
320,192,58412,1,0,0:0:0:0:
64,192,58491,1,0,0:0:0:0:
192,192,58570,1,0,0:0:0:0:
448,192,58648,1,0,0:0:0:0:
320,192,58727,1,0,0:0:0:0:
64,192,58806,1,0,0:0:0:0:
192,192,58885,1,0,0:0:0:0:
320,192,58964,1,0,0:0:0:0:
448,192,59043,1,0,0:0:0:0:
64,192,59122,1,0,0:0:0:0:
320,192,59201,1,0,0:0:0:0:
192,192,59280,1,0,0:0:0:0:
448,192,59359,1,0,0:0:0:0:
64,192,59438,1,0,0:0:0:0:
320,192,59517,1,0,0:0:0:0:
64,192,59596,1,0,0:0:0:0:
192,192,59675,1,0,0:0:0:0:
448,192,59754,1,0,0:0:0:0:
64,192,59833,1,0,0:0:0:0:
448,192,59912,1,0,0:0:0:0:
320,192,59991,1,0,0:0:0:0:
192,192,60070,1,0,0:0:0:0:
64,192,60070,1,0,0:0:0:0:
320,192,60385,1,0,0:0:0:0:
448,192,60701,1,0,0:0:0:0:
192,192,60701,1,0,0:0:0:0:
64,192,60701,1,0,0:0:0:0:
448,192,60938,1,0,0:0:0:0:
320,192,61017,1,0,0:0:0:0:
192,192,61175,1,0,0:0:0:0:
64,192,61175,1,0,0:0:0:0:
448,192,61333,1,0,0:0:0:0:
192,192,61333,1,0,0:0:0:0:
64,192,61333,1,0,0:0:0:0:
448,192,61570,1,0,0:0:0:0:
320,192,61648,1,0,0:0:0:0:
192,192,61806,1,0,0:0:0:0:
64,192,61806,1,0,0:0:0:0:
448,192,61964,1,0,0:0:0:0:
192,192,61964,1,0,0:0:0:0:
64,192,61964,1,0,0:0:0:0:
448,192,62201,1,0,0:0:0:0:
320,192,62280,1,0,0:0:0:0:
64,192,62280,128,0,62438:0:0:0:0:
192,192,62438,1,0,0:0:0:0:
448,192,62517,1,0,0:0:0:0:
320,192,62596,1,0,0:0:0:0:
64,192,62675,1,0,0:0:0:0:
448,192,62754,128,0,62912:0:0:0:0:
192,192,62754,1,0,0:0:0:0:
320,192,62912,1,0,0:0:0:0:
64,192,62991,1,0,0:0:0:0:
448,192,63070,1,0,0:0:0:0:
192,192,63148,1,0,0:0:0:0:
448,192,63227,1,0,0:0:0:0:
320,192,63227,1,0,0:0:0:0:
64,192,63227,1,0,0:0:0:0:
64,192,63464,1,0,0:0:0:0:
448,192,63543,1,0,0:0:0:0:
320,192,63543,1,0,0:0:0:0:
192,192,63701,1,0,0:0:0:0:
64,192,63701,1,0,0:0:0:0:
448,192,63859,1,0,0:0:0:0:
320,192,63859,1,0,0:0:0:0:
64,192,63859,1,0,0:0:0:0:
448,192,64096,1,0,0:0:0:0:
192,192,64175,1,0,0:0:0:0:
64,192,64175,1,0,0:0:0:0:
448,192,64333,1,0,0:0:0:0:
320,192,64333,1,0,0:0:0:0:
448,192,64491,1,0,0:0:0:0:
64,192,64491,1,0,0:0:0:0:
192,192,64727,1,0,0:0:0:0:
448,192,64806,1,0,0:0:0:0:
320,192,64806,1,0,0:0:0:0:
64,192,64964,1,0,0:0:0:0:
320,192,65122,1,0,0:0:0:0:
448,192,65359,1,0,0:0:0:0:
192,192,65438,1,0,0:0:0:0:
64,192,65438,1,0,0:0:0:0:
320,192,65596,1,0,0:0:0:0:
448,192,65754,1,0,0:0:0:0:
192,192,65754,1,0,0:0:0:0:
64,192,65754,1,0,0:0:0:0:
448,192,65991,1,0,0:0:0:0:
320,192,66070,1,0,0:0:0:0:
192,192,66227,1,0,0:0:0:0:
64,192,66227,1,0,0:0:0:0:
448,192,66385,1,0,0:0:0:0:
192,192,66385,1,0,0:0:0:0:
64,192,66385,1,0,0:0:0:0:
448,192,66622,1,0,0:0:0:0:
320,192,66701,1,0,0:0:0:0:
192,192,66859,1,0,0:0:0:0:
64,192,66859,1,0,0:0:0:0:
448,192,67017,1,0,0:0:0:0:
192,192,67017,1,0,0:0:0:0:
64,192,67017,1,0,0:0:0:0:
448,192,67254,1,0,0:0:0:0:
320,192,67333,1,0,0:0:0:0:
64,192,67333,128,0,67491:0:0:0:0:
192,192,67491,1,0,0:0:0:0:
448,192,67570,1,0,0:0:0:0:
320,192,67648,1,0,0:0:0:0:
64,192,67727,1,0,0:0:0:0:
448,192,67806,128,0,67964:0:0:0:0:
192,192,67806,1,0,0:0:0:0:
320,192,67964,1,0,0:0:0:0:
64,192,68043,1,0,0:0:0:0:
320,192,68122,1,0,0:0:0:0:
192,192,68201,1,0,0:0:0:0:
448,192,68280,1,0,0:0:0:0:
64,192,68280,1,0,0:0:0:0:
320,192,68359,1,0,0:0:0:0:
192,192,68438,1,0,0:0:0:0:
448,192,68517,1,0,0:0:0:0:
64,192,68596,1,0,0:0:0:0:
320,192,68675,1,0,0:0:0:0:
192,192,68754,1,0,0:0:0:0:
64,192,68833,1,0,0:0:0:0:
448,192,68912,1,0,0:0:0:0:
320,192,68991,1,0,0:0:0:0:
64,192,69070,1,0,0:0:0:0:
448,192,69148,1,0,0:0:0:0:
192,192,69227,1,0,0:0:0:0:
320,192,69306,1,0,0:0:0:0:
64,192,69385,1,0,0:0:0:0:
192,192,69464,1,0,0:0:0:0:
448,192,69543,1,0,0:0:0:0:
320,192,69543,1,0,0:0:0:0:
448,192,69780,1,0,0:0:0:0:
320,192,69780,1,0,0:0:0:0:
64,192,69859,1,0,0:0:0:0:
448,192,70017,1,0,0:0:0:0:
320,192,70017,1,0,0:0:0:0:
192,192,70175,1,0,0:0:0:0:
64,192,70175,1,0,0:0:0:0:
192,192,70412,1,0,0:0:0:0:
64,192,70412,1,0,0:0:0:0:
448,192,70491,1,0,0:0:0:0:
192,192,70648,1,0,0:0:0:0:
64,192,70648,1,0,0:0:0:0:
448,192,70806,1,0,0:0:0:0:
320,192,70806,1,0,0:0:0:0:
64,192,70806,1,0,0:0:0:0:
64,192,71043,1,0,0:0:0:0:
192,192,71122,1,0,0:0:0:0:
448,192,71280,1,0,0:0:0:0:
320,192,71280,1,0,0:0:0:0:
448,192,71438,1,0,0:0:0:0:
320,192,71438,1,0,0:0:0:0:
64,192,71438,1,0,0:0:0:0:
64,192,71675,1,0,0:0:0:0:
192,192,71754,1,0,0:0:0:0:
448,192,71912,1,0,0:0:0:0:
320,192,71912,1,0,0:0:0:0:
448,192,72070,1,0,0:0:0:0:
320,192,72070,1,0,0:0:0:0:
64,192,72070,1,0,0:0:0:0:
64,192,72306,1,0,0:0:0:0:
320,192,72385,1,0,0:0:0:0:
192,192,72385,1,0,0:0:0:0:
448,192,72464,1,0,0:0:0:0:
320,192,72543,1,0,0:0:0:0:
64,192,72622,1,0,0:0:0:0:
192,192,72701,1,0,0:0:0:0:
448,192,72780,1,0,0:0:0:0:
320,192,72859,1,0,0:0:0:0:
64,192,72859,128,0,73017:0:0:0:0:
192,192,73017,1,0,0:0:0:0:
448,192,73096,1,0,0:0:0:0:
64,192,73175,1,0,0:0:0:0:
320,192,73254,1,0,0:0:0:0:
448,192,73333,1,0,0:0:0:0:
192,192,73333,1,0,0:0:0:0:
64,192,73333,1,0,0:0:0:0:
448,192,73570,1,0,0:0:0:0:
192,192,73648,1,0,0:0:0:0:
64,192,73648,1,0,0:0:0:0:
448,192,73806,1,0,0:0:0:0:
320,192,73806,1,0,0:0:0:0:
448,192,73964,1,0,0:0:0:0:
192,192,73964,1,0,0:0:0:0:
64,192,73964,1,0,0:0:0:0:
64,192,74201,1,0,0:0:0:0:
448,192,74280,1,0,0:0:0:0:
320,192,74280,1,0,0:0:0:0:
192,192,74438,1,0,0:0:0:0:
64,192,74438,1,0,0:0:0:0:
448,192,74596,1,0,0:0:0:0:
64,192,74596,1,0,0:0:0:0:
320,192,74833,1,0,0:0:0:0:
192,192,74912,1,0,0:0:0:0:
64,192,74912,1,0,0:0:0:0:
448,192,75070,1,0,0:0:0:0:
192,192,75227,1,0,0:0:0:0:
64,192,75464,1,0,0:0:0:0:
448,192,75543,1,0,0:0:0:0:
320,192,75543,1,0,0:0:0:0:
192,192,75701,1,0,0:0:0:0:
448,192,75859,1,0,0:0:0:0:
320,192,75859,1,0,0:0:0:0:
64,192,75859,1,0,0:0:0:0:
64,192,76096,1,0,0:0:0:0:
192,192,76175,1,0,0:0:0:0:
448,192,76333,1,0,0:0:0:0:
320,192,76333,1,0,0:0:0:0:
448,192,76491,1,0,0:0:0:0:
320,192,76491,1,0,0:0:0:0:
64,192,76491,1,0,0:0:0:0:
64,192,76727,1,0,0:0:0:0:
192,192,76806,1,0,0:0:0:0:
448,192,76964,1,0,0:0:0:0:
320,192,76964,1,0,0:0:0:0:
448,192,77122,1,0,0:0:0:0:
320,192,77122,1,0,0:0:0:0:
64,192,77122,1,0,0:0:0:0:
64,192,77359,1,0,0:0:0:0:
448,192,77438,128,0,77596:0:0:0:0:
192,192,77438,1,0,0:0:0:0:
320,192,77596,1,0,0:0:0:0:
64,192,77675,1,0,0:0:0:0:
192,192,77754,1,0,0:0:0:0:
448,192,77833,1,0,0:0:0:0:
320,192,77912,1,0,0:0:0:0:
64,192,77912,128,0,78070:0:0:0:0:
192,192,78070,1,0,0:0:0:0:
448,192,78148,1,0,0:0:0:0:
320,192,78227,1,0,0:0:0:0:
192,192,78306,1,0,0:0:0:0:
448,192,78385,1,0,0:0:0:0:
64,192,78385,1,0,0:0:0:0:
320,192,78464,1,0,0:0:0:0:
192,192,78543,1,0,0:0:0:0:
448,192,78622,1,0,0:0:0:0:
64,192,78701,1,0,0:0:0:0:
320,192,78780,1,0,0:0:0:0:
192,192,78859,1,0,0:0:0:0:
64,192,78938,1,0,0:0:0:0:
448,192,79017,1,0,0:0:0:0:
320,192,79096,1,0,0:0:0:0:
64,192,79175,1,0,0:0:0:0:
448,192,79254,1,0,0:0:0:0:
192,192,79333,1,0,0:0:0:0:
320,192,79412,1,0,0:0:0:0:
64,192,79491,1,0,0:0:0:0:
192,192,79570,1,0,0:0:0:0:
448,192,79648,1,0,0:0:0:0:
320,192,79648,1,0,0:0:0:0:
448,192,79885,1,0,0:0:0:0:
320,192,79885,1,0,0:0:0:0:
64,192,79964,1,0,0:0:0:0:
448,192,80122,1,0,0:0:0:0:
320,192,80122,1,0,0:0:0:0:
192,192,80280,1,0,0:0:0:0:
64,192,80280,1,0,0:0:0:0:
192,192,80517,1,0,0:0:0:0:
64,192,80517,1,0,0:0:0:0:
448,192,80596,1,0,0:0:0:0:
192,192,80754,1,0,0:0:0:0:
64,192,80754,1,0,0:0:0:0:
448,192,80912,1,0,0:0:0:0:
64,192,80912,1,0,0:0:0:0:
192,192,81070,1,0,0:0:0:0:
448,192,81148,1,0,0:0:0:0:
64,192,81227,1,0,0:0:0:0:
320,192,81385,1,0,0:0:0:0:
64,192,81464,1,0,0:0:0:0:
192,192,81543,1,0,0:0:0:0:
448,192,81701,1,0,0:0:0:0:
320,192,81780,1,0,0:0:0:0:
64,192,81859,1,0,0:0:0:0:
192,192,82017,1,0,0:0:0:0:
448,192,82096,1,0,0:0:0:0:
320,192,82175,1,0,0:0:0:0:
64,192,82333,1,0,0:0:0:0:
192,192,82412,1,0,0:0:0:0:
448,192,82491,1,0,0:0:0:0:
64,192,82648,1,0,0:0:0:0:
448,192,82727,1,0,0:0:0:0:
320,192,82806,1,0,0:0:0:0:
64,192,82964,1,0,0:0:0:0:
448,192,83043,1,0,0:0:0:0:
192,192,83122,1,0,0:0:0:0:
448,192,83280,1,0,0:0:0:0:
64,192,83359,1,0,0:0:0:0:
320,192,83438,1,0,0:0:0:0:
192,192,83596,1,0,0:0:0:0:
448,192,83675,1,0,0:0:0:0:
64,192,83754,1,0,0:0:0:0:
320,192,83912,1,0,0:0:0:0:
64,192,83991,1,0,0:0:0:0:
192,192,84070,1,0,0:0:0:0:
448,192,84227,1,0,0:0:0:0:
320,192,84306,1,0,0:0:0:0:
64,192,84385,1,0,0:0:0:0:
448,192,84543,1,0,0:0:0:0:
192,192,84622,1,0,0:0:0:0:
320,192,84701,1,0,0:0:0:0:
64,192,84859,1,0,0:0:0:0:
192,192,84938,1,0,0:0:0:0:
448,192,85017,1,0,0:0:0:0:
64,192,85175,1,0,0:0:0:0:
320,192,85254,1,0,0:0:0:0:
192,192,85333,1,0,0:0:0:0:
64,192,85491,1,0,0:0:0:0:
448,192,85570,1,0,0:0:0:0:
320,192,85648,1,0,0:0:0:0:
192,192,85806,1,0,0:0:0:0:
64,192,85885,1,0,0:0:0:0:
448,192,85964,1,0,0:0:0:0:
320,192,85964,1,0,0:0:0:0:
192,192,86122,1,0,0:0:0:0:
448,192,86201,1,0,0:0:0:0:
64,192,86280,1,0,0:0:0:0:
320,192,86438,1,0,0:0:0:0:
64,192,86517,1,0,0:0:0:0:
192,192,86596,1,0,0:0:0:0:
448,192,86754,1,0,0:0:0:0:
320,192,86833,1,0,0:0:0:0:
64,192,86912,1,0,0:0:0:0:
192,192,87070,1,0,0:0:0:0:
448,192,87148,1,0,0:0:0:0:
320,192,87227,1,0,0:0:0:0:
64,192,87385,1,0,0:0:0:0:
192,192,87464,1,0,0:0:0:0:
448,192,87543,1,0,0:0:0:0:
64,192,87701,1,0,0:0:0:0:
448,192,87780,1,0,0:0:0:0:
320,192,87859,1,0,0:0:0:0:
64,192,88017,1,0,0:0:0:0:
448,192,88096,1,0,0:0:0:0:
192,192,88175,1,0,0:0:0:0:
448,192,88333,1,0,0:0:0:0:
64,192,88412,1,0,0:0:0:0:
320,192,88491,1,0,0:0:0:0:
192,192,88648,1,0,0:0:0:0:
448,192,88727,1,0,0:0:0:0:
64,192,88806,1,0,0:0:0:0:
320,192,88964,1,0,0:0:0:0:
64,192,89043,1,0,0:0:0:0:
192,192,89122,1,0,0:0:0:0:
448,192,89280,1,0,0:0:0:0:
320,192,89359,1,0,0:0:0:0:
64,192,89438,1,0,0:0:0:0:
448,192,89596,1,0,0:0:0:0:
192,192,89675,1,0,0:0:0:0:
320,192,89754,1,0,0:0:0:0:
64,192,89912,1,0,0:0:0:0:
192,192,89991,1,0,0:0:0:0:
448,192,90070,1,0,0:0:0:0:
64,192,90227,1,0,0:0:0:0:
320,192,90306,1,0,0:0:0:0:
192,192,90385,1,0,0:0:0:0:
64,192,90543,1,0,0:0:0:0:
448,192,90622,1,0,0:0:0:0:
320,192,90701,1,0,0:0:0:0:
192,192,90859,1,0,0:0:0:0:
448,192,90938,1,0,0:0:0:0:
320,192,91017,1,0,0:0:0:0:
64,192,91017,1,0,0:0:0:0:
448,192,91175,1,0,0:0:0:0:
192,192,91333,1,0,0:0:0:0:
64,192,91333,1,0,0:0:0:0:
320,192,91491,1,0,0:0:0:0:
192,192,91648,1,0,0:0:0:0:
64,192,91648,1,0,0:0:0:0:
448,192,91806,1,0,0:0:0:0:
192,192,91964,1,0,0:0:0:0:
64,192,91964,1,0,0:0:0:0:
320,192,92122,1,0,0:0:0:0:
448,192,92280,1,0,0:0:0:0:
64,192,92280,1,0,0:0:0:0:
192,192,92438,1,0,0:0:0:0:
448,192,92596,1,0,0:0:0:0:
64,192,92596,1,0,0:0:0:0:
320,192,92754,1,0,0:0:0:0:
448,192,92912,1,0,0:0:0:0:
64,192,92912,1,0,0:0:0:0:
192,192,93070,1,0,0:0:0:0:
448,192,93227,1,0,0:0:0:0:
64,192,93227,1,0,0:0:0:0:
320,192,93385,1,0,0:0:0:0:
448,192,93543,1,0,0:0:0:0:
192,192,93543,1,0,0:0:0:0:
64,192,93701,1,0,0:0:0:0:
192,192,93859,1,0,0:0:0:0:
320,192,93859,1,0,0:0:0:0:
448,192,94017,1,0,0:0:0:0:
192,192,94175,1,0,0:0:0:0:
320,192,94175,1,0,0:0:0:0:
64,192,94333,1,0,0:0:0:0:
192,192,94491,1,0,0:0:0:0:
320,192,94491,1,0,0:0:0:0:
448,192,94648,1,0,0:0:0:0:
64,192,94806,1,0,0:0:0:0:
192,192,94806,1,0,0:0:0:0:
320,192,94964,1,0,0:0:0:0:
64,192,95122,1,0,0:0:0:0:
192,192,95122,1,0,0:0:0:0:
448,192,95280,1,0,0:0:0:0:
64,192,95438,1,0,0:0:0:0:
192,192,95438,1,0,0:0:0:0:
320,192,95596,1,0,0:0:0:0:
64,192,95754,1,0,0:0:0:0:
192,192,95754,1,0,0:0:0:0:
448,192,95912,1,0,0:0:0:0:
320,192,96070,1,0,0:0:0:0:
64,192,96070,1,0,0:0:0:0:
192,192,96227,1,0,0:0:0:0:
320,192,96385,1,0,0:0:0:0:
448,192,96385,1,0,0:0:0:0:
64,192,96543,1,0,0:0:0:0:
320,192,96701,1,0,0:0:0:0:
448,192,96701,1,0,0:0:0:0:
64,192,96859,1,0,0:0:0:0:
192,192,96859,1,0,0:0:0:0:
320,192,97017,1,0,0:0:0:0:
448,192,97017,1,0,0:0:0:0:
64,192,97175,1,0,0:0:0:0:
192,192,97175,1,0,0:0:0:0:
320,192,97333,1,0,0:0:0:0:
448,192,97333,1,0,0:0:0:0:
192,192,97491,1,0,0:0:0:0:
64,192,97648,1,0,0:0:0:0:
448,192,97648,1,0,0:0:0:0:
320,192,97806,1,0,0:0:0:0:
448,192,97964,1,0,0:0:0:0:
64,192,97964,1,0,0:0:0:0:
320,192,98122,1,0,0:0:0:0:
192,192,98122,1,0,0:0:0:0:
320,192,98280,1,0,0:0:0:0:
64,192,98280,1,0,0:0:0:0:
448,192,98596,1,0,0:0:0:0:
192,192,98596,1,0,0:0:0:0:
64,192,98912,1,0,0:0:0:0:
320,192,99070,1,0,0:0:0:0:
448,192,99148,1,0,0:0:0:0:
192,192,99227,1,0,0:0:0:0:
448,192,99385,128,0,99543:0:0:0:0:
64,192,99543,1,0,0:0:0:0:
192,192,99701,1,0,0:0:0:0:
448,192,99859,1,0,0:0:0:0:
64,192,99859,1,0,0:0:0:0:
320,192,99964,1,0,0:0:0:0:
192,192,100070,1,0,0:0:0:0:
448,192,100175,1,0,0:0:0:0:
320,192,100280,1,0,0:0:0:0:
64,192,100385,1,0,0:0:0:0:
448,192,100491,1,0,0:0:0:0:
192,192,100596,1,0,0:0:0:0:
64,192,100701,1,0,0:0:0:0:
448,192,100806,1,0,0:0:0:0:
320,192,100806,1,0,0:0:0:0:
448,192,101122,1,0,0:0:0:0:
192,192,101122,1,0,0:0:0:0:
64,192,101122,1,0,0:0:0:0:
320,192,101438,1,0,0:0:0:0:
192,192,101438,1,0,0:0:0:0:
448,192,101596,1,0,0:0:0:0:
192,192,101596,1,0,0:0:0:0:
448,192,101912,1,0,0:0:0:0:
320,192,101912,1,0,0:0:0:0:
448,192,102070,1,0,0:0:0:0:
64,192,102070,1,0,0:0:0:0:
320,192,102227,1,0,0:0:0:0:
192,192,102227,1,0,0:0:0:0:
192,192,102543,1,0,0:0:0:0:
64,192,102543,1,0,0:0:0:0:
320,192,102701,1,0,0:0:0:0:
64,192,102701,1,0,0:0:0:0:
448,192,103017,1,0,0:0:0:0:
192,192,103017,1,0,0:0:0:0:
320,192,103333,1,0,0:0:0:0:
192,192,103333,1,0,0:0:0:0:
320,192,103491,1,0,0:0:0:0:
64,192,103491,1,0,0:0:0:0:
192,192,103806,1,0,0:0:0:0:
64,192,103806,1,0,0:0:0:0:
448,192,103964,1,0,0:0:0:0:
320,192,103964,1,0,0:0:0:0:
448,192,104122,1,0,0:0:0:0:
192,192,104122,1,0,0:0:0:0:
320,192,104438,1,0,0:0:0:0:
64,192,104438,1,0,0:0:0:0:
448,192,104596,1,0,0:0:0:0:
64,192,104596,1,0,0:0:0:0:
320,192,104754,1,0,0:0:0:0:
192,192,104754,1,0,0:0:0:0:
448,192,105070,1,0,0:0:0:0:
192,192,105070,1,0,0:0:0:0:
448,192,105227,1,0,0:0:0:0:
320,192,105227,1,0,0:0:0:0:
192,192,105385,1,0,0:0:0:0:
64,192,105385,1,0,0:0:0:0:
448,192,105543,1,0,0:0:0:0:
64,192,105543,1,0,0:0:0:0:
320,192,105701,1,0,0:0:0:0:
192,192,105701,1,0,0:0:0:0:
448,192,105859,1,0,0:0:0:0:
320,192,105859,1,0,0:0:0:0:
192,192,106017,1,0,0:0:0:0:
64,192,106017,1,0,0:0:0:0:
320,192,106175,1,0,0:0:0:0:
64,192,106175,1,0,0:0:0:0:
320,192,106491,1,0,0:0:0:0:
192,192,106491,1,0,0:0:0:0:
448,192,106648,1,0,0:0:0:0:
192,192,106648,1,0,0:0:0:0:
448,192,106964,1,0,0:0:0:0:
320,192,106964,1,0,0:0:0:0:
448,192,107122,1,0,0:0:0:0:
64,192,107122,1,0,0:0:0:0:
320,192,107280,1,0,0:0:0:0:
192,192,107280,1,0,0:0:0:0:
192,192,107596,1,0,0:0:0:0:
64,192,107596,1,0,0:0:0:0:
448,192,107754,1,0,0:0:0:0:
64,192,107754,1,0,0:0:0:0:
320,192,107912,1,0,0:0:0:0:
448,192,108070,1,0,0:0:0:0:
192,192,108070,1,0,0:0:0:0:
320,192,108385,1,0,0:0:0:0:
192,192,108385,1,0,0:0:0:0:
320,192,108543,1,0,0:0:0:0:
64,192,108543,1,0,0:0:0:0:
192,192,108859,1,0,0:0:0:0:
64,192,108859,1,0,0:0:0:0:
448,192,109017,1,0,0:0:0:0:
320,192,109017,1,0,0:0:0:0:
448,192,109175,1,0,0:0:0:0:
64,192,109175,1,0,0:0:0:0:
448,192,109491,1,0,0:0:0:0:
192,192,109491,1,0,0:0:0:0:
320,192,109648,1,0,0:0:0:0:
192,192,109648,1,0,0:0:0:0:
448,192,109806,1,0,0:0:0:0:
64,192,109806,1,0,0:0:0:0:
192,192,109885,1,0,0:0:0:0:
448,192,109964,1,0,0:0:0:0:
320,192,109964,1,0,0:0:0:0:
192,192,110122,1,0,0:0:0:0:
64,192,110122,1,0,0:0:0:0:
448,192,110280,1,0,0:0:0:0:
320,192,110280,1,0,0:0:0:0:
192,192,110438,1,0,0:0:0:0:
64,192,110438,1,0,0:0:0:0:
448,192,110596,1,0,0:0:0:0:
320,192,110596,1,0,0:0:0:0:
192,192,110754,1,0,0:0:0:0:
64,192,110754,1,0,0:0:0:0:
448,192,110912,1,0,0:0:0:0:
448,192,111070,1,0,0:0:0:0:
320,192,111227,1,0,0:0:0:0:
192,192,111227,1,0,0:0:0:0:
64,192,111227,1,0,0:0:0:0:
448,192,111385,1,0,0:0:0:0:
320,192,111543,1,0,0:0:0:0:
192,192,111543,1,0,0:0:0:0:
448,192,111701,1,0,0:0:0:0:
192,192,111701,1,0,0:0:0:0:
64,192,111859,1,0,0:0:0:0:
448,192,112017,1,0,0:0:0:0:
320,192,112017,1,0,0:0:0:0:
448,192,112175,1,0,0:0:0:0:
64,192,112175,1,0,0:0:0:0:
320,192,112333,1,0,0:0:0:0:
192,192,112333,1,0,0:0:0:0:
448,192,112491,1,0,0:0:0:0:
192,192,112648,1,0,0:0:0:0:
64,192,112648,1,0,0:0:0:0:
320,192,112806,1,0,0:0:0:0:
64,192,112806,1,0,0:0:0:0:
448,192,112964,1,0,0:0:0:0:
320,192,113122,1,0,0:0:0:0:
192,192,113122,1,0,0:0:0:0:
64,192,113280,1,0,0:0:0:0:
448,192,113438,1,0,0:0:0:0:
192,192,113438,1,0,0:0:0:0:
448,192,113596,1,0,0:0:0:0:
64,192,113596,1,0,0:0:0:0:
320,192,113754,1,0,0:0:0:0:
192,192,113912,1,0,0:0:0:0:
64,192,113912,1,0,0:0:0:0:
448,192,114070,1,0,0:0:0:0:
320,192,114070,1,0,0:0:0:0:
448,192,114227,1,0,0:0:0:0:
192,192,114227,1,0,0:0:0:0:
64,192,114385,1,0,0:0:0:0:
320,192,114543,1,0,0:0:0:0:
192,192,114543,1,0,0:0:0:0:
448,192,114701,1,0,0:0:0:0:
192,192,114701,1,0,0:0:0:0:
320,192,114859,1,0,0:0:0:0:
64,192,114859,1,0,0:0:0:0:
192,192,115017,1,0,0:0:0:0:
448,192,115175,1,0,0:0:0:0:
64,192,115175,1,0,0:0:0:0:
448,192,115333,1,0,0:0:0:0:
320,192,115333,1,0,0:0:0:0:
192,192,115491,1,0,0:0:0:0:
64,192,115491,1,0,0:0:0:0:
448,192,115648,1,0,0:0:0:0:
64,192,115648,1,0,0:0:0:0:
320,192,115806,1,0,0:0:0:0:
192,192,115806,1,0,0:0:0:0:
448,192,115964,1,0,0:0:0:0:
320,192,115964,1,0,0:0:0:0:
192,192,116122,1,0,0:0:0:0:
64,192,116122,1,0,0:0:0:0:
320,192,116280,1,0,0:0:0:0:
64,192,116280,1,0,0:0:0:0:
448,192,116438,1,0,0:0:0:0:
320,192,116596,1,0,0:0:0:0:
192,192,116596,1,0,0:0:0:0:
448,192,116754,1,0,0:0:0:0:
192,192,116754,1,0,0:0:0:0:
64,192,116912,1,0,0:0:0:0:
448,192,117070,1,0,0:0:0:0:
320,192,117070,1,0,0:0:0:0:
448,192,117227,1,0,0:0:0:0:
64,192,117227,1,0,0:0:0:0:
320,192,117385,1,0,0:0:0:0:
192,192,117385,1,0,0:0:0:0:
448,192,117543,1,0,0:0:0:0:
192,192,117701,1,0,0:0:0:0:
64,192,117701,1,0,0:0:0:0:
320,192,117859,1,0,0:0:0:0:
64,192,117859,1,0,0:0:0:0:
448,192,118017,1,0,0:0:0:0:
320,192,118175,1,0,0:0:0:0:
192,192,118175,1,0,0:0:0:0:
64,192,118333,1,0,0:0:0:0:
448,192,118491,1,0,0:0:0:0:
192,192,118491,1,0,0:0:0:0:
448,192,118648,1,0,0:0:0:0:
64,192,118648,1,0,0:0:0:0:
320,192,118806,1,0,0:0:0:0:
192,192,118964,1,0,0:0:0:0:
64,192,118964,1,0,0:0:0:0:
448,192,119122,1,0,0:0:0:0:
320,192,119122,1,0,0:0:0:0:
448,192,119280,1,0,0:0:0:0:
64,192,119280,1,0,0:0:0:0:
320,192,119438,1,0,0:0:0:0:
192,192,119438,1,0,0:0:0:0:
448,192,119596,1,0,0:0:0:0:
192,192,119596,1,0,0:0:0:0:
320,192,119754,1,0,0:0:0:0:
64,192,119754,1,0,0:0:0:0:
192,192,119912,1,0,0:0:0:0:
64,192,119912,1,0,0:0:0:0:
448,192,120070,1,0,0:0:0:0:
192,192,120148,1,0,0:0:0:0:
320,192,120227,1,0,0:0:0:0:
448,192,120385,1,0,0:0:0:0:
64,192,120543,1,0,0:0:0:0:
320,192,120622,1,0,0:0:0:0:
192,192,120701,1,0,0:0:0:0:
448,192,120780,1,0,0:0:0:0:
320,192,120859,1,0,0:0:0:0:
64,192,121017,1,0,0:0:0:0:
448,192,121096,1,0,0:0:0:0:
192,192,121175,1,0,0:0:0:0:
320,192,121254,1,0,0:0:0:0:
192,192,121333,1,0,0:0:0:0:
64,192,121333,1,0,0:0:0:0:
448,192,121412,1,0,0:0:0:0:
64,192,121491,1,0,0:0:0:0:
320,192,121570,1,0,0:0:0:0:
192,192,121648,1,0,0:0:0:0:
448,192,121727,1,0,0:0:0:0:
64,192,121806,1,0,0:0:0:0:
320,192,121885,1,0,0:0:0:0:
192,192,121964,1,0,0:0:0:0:
64,192,122043,1,0,0:0:0:0:
448,192,122122,1,0,0:0:0:0:
192,192,122201,1,0,0:0:0:0:
448,192,122280,1,0,0:0:0:0:
64,192,122359,1,0,0:0:0:0:
320,192,122438,1,0,0:0:0:0:
192,192,122517,1,0,0:0:0:0:
448,192,122596,1,0,0:0:0:0:
320,192,122675,1,0,0:0:0:0:
64,192,122754,1,0,0:0:0:0:
448,192,122833,1,0,0:0:0:0:
64,192,122912,1,0,0:0:0:0:
320,192,122991,1,0,0:0:0:0:
192,192,123070,1,0,0:0:0:0:
64,192,123148,1,0,0:0:0:0:
448,192,123227,1,0,0:0:0:0:
192,192,123306,1,0,0:0:0:0:
448,192,123385,1,0,0:0:0:0:
64,192,123464,1,0,0:0:0:0:
320,192,123543,1,0,0:0:0:0:
192,192,123622,1,0,0:0:0:0:
448,192,123701,1,0,0:0:0:0:
320,192,123780,1,0,0:0:0:0:
64,192,123859,1,0,0:0:0:0:
448,192,123938,1,0,0:0:0:0:
64,192,124017,1,0,0:0:0:0:
320,192,124096,1,0,0:0:0:0:
192,192,124175,1,0,0:0:0:0:
448,192,124254,1,0,0:0:0:0:
64,192,124333,1,0,0:0:0:0:
320,192,124412,1,0,0:0:0:0:
192,192,124491,1,0,0:0:0:0:
64,192,124570,1,0,0:0:0:0:
448,192,124648,1,0,0:0:0:0:
192,192,124727,1,0,0:0:0:0:
448,192,124806,1,0,0:0:0:0:
64,192,124885,1,0,0:0:0:0:
320,192,124964,1,0,0:0:0:0:
192,192,125043,1,0,0:0:0:0:
448,192,125122,1,0,0:0:0:0:
320,192,125201,1,0,0:0:0:0:
64,192,125280,1,0,0:0:0:0:
448,192,125359,1,0,0:0:0:0:
64,192,125438,1,0,0:0:0:0:
320,192,125517,1,0,0:0:0:0:
192,192,125596,1,0,0:0:0:0:
64,192,125675,1,0,0:0:0:0:
448,192,125754,1,0,0:0:0:0:
192,192,125833,1,0,0:0:0:0:
448,192,125912,1,0,0:0:0:0:
64,192,125991,1,0,0:0:0:0:
448,192,126070,1,0,0:0:0:0:
320,192,126070,1,0,0:0:0:0:
192,192,126385,1,0,0:0:0:0:
320,192,126464,1,0,0:0:0:0:
192,192,126543,1,0,0:0:0:0:
448,192,126622,1,0,0:0:0:0:
64,192,126701,1,0,0:0:0:0:
320,192,126780,1,0,0:0:0:0:
192,192,126859,1,0,0:0:0:0:
448,192,126938,1,0,0:0:0:0:
64,192,127017,1,0,0:0:0:0:
192,192,127096,1,0,0:0:0:0:
320,192,127175,1,0,0:0:0:0:
64,192,127254,1,0,0:0:0:0:
320,192,127333,1,0,0:0:0:0:
192,192,127412,1,0,0:0:0:0:
448,192,127491,1,0,0:0:0:0:
64,192,127570,1,0,0:0:0:0:
320,192,127648,1,0,0:0:0:0:
448,192,127727,1,0,0:0:0:0:
192,192,127806,1,0,0:0:0:0:
320,192,127885,1,0,0:0:0:0:
192,192,127964,1,0,0:0:0:0:
448,192,128043,1,0,0:0:0:0:
64,192,128122,1,0,0:0:0:0:
192,192,128201,1,0,0:0:0:0:
320,192,128280,1,0,0:0:0:0:
64,192,128359,1,0,0:0:0:0:
320,192,128438,1,0,0:0:0:0:
192,192,128517,1,0,0:0:0:0:
448,192,128596,1,0,0:0:0:0:
64,192,128675,1,0,0:0:0:0:
320,192,128754,1,0,0:0:0:0:
448,192,128833,1,0,0:0:0:0:
192,192,128912,1,0,0:0:0:0:
320,192,128991,1,0,0:0:0:0:
192,192,129070,1,0,0:0:0:0:
448,192,129148,1,0,0:0:0:0:
64,192,129227,1,0,0:0:0:0:
320,192,129306,1,0,0:0:0:0:
192,192,129385,1,0,0:0:0:0:
448,192,129464,1,0,0:0:0:0:
64,192,129543,1,0,0:0:0:0:
192,192,129622,1,0,0:0:0:0:
320,192,129701,1,0,0:0:0:0:
64,192,129780,1,0,0:0:0:0:
320,192,129859,1,0,0:0:0:0:
192,192,129938,1,0,0:0:0:0:
448,192,130017,1,0,0:0:0:0:
64,192,130096,1,0,0:0:0:0:
320,192,130175,1,0,0:0:0:0:
448,192,130254,1,0,0:0:0:0:
192,192,130333,1,0,0:0:0:0:
320,192,130412,1,0,0:0:0:0:
192,192,130491,1,0,0:0:0:0:
448,192,130570,1,0,0:0:0:0:
64,192,130648,1,0,0:0:0:0:
192,192,130727,1,0,0:0:0:0:
320,192,130806,1,0,0:0:0:0:
64,192,130885,1,0,0:0:0:0:
320,192,130964,1,0,0:0:0:0:
192,192,131043,1,0,0:0:0:0:
448,192,131122,1,0,0:0:0:0:
320,192,131122,1,0,0:0:0:0:
64,192,131438,1,0,0:0:0:0:
320,192,131517,1,0,0:0:0:0:
64,192,131596,1,0,0:0:0:0:
448,192,131675,1,0,0:0:0:0:
320,192,131754,1,0,0:0:0:0:
192,192,131754,1,0,0:0:0:0:
448,192,131833,1,0,0:0:0:0:
64,192,131912,1,0,0:0:0:0:
320,192,131991,1,0,0:0:0:0:
192,192,132070,1,0,0:0:0:0:
64,192,132148,1,0,0:0:0:0:
448,192,132227,1,0,0:0:0:0:
192,192,132306,1,0,0:0:0:0:
448,192,132385,1,0,0:0:0:0:
64,192,132464,1,0,0:0:0:0:
320,192,132543,1,0,0:0:0:0:
192,192,132622,1,0,0:0:0:0:
448,192,132701,1,0,0:0:0:0:
320,192,132780,1,0,0:0:0:0:
64,192,132859,1,0,0:0:0:0:
448,192,132938,1,0,0:0:0:0:
64,192,133017,1,0,0:0:0:0:
320,192,133096,1,0,0:0:0:0:
192,192,133175,1,0,0:0:0:0:
64,192,133254,1,0,0:0:0:0:
448,192,133333,1,0,0:0:0:0:
192,192,133412,1,0,0:0:0:0:
448,192,133491,1,0,0:0:0:0:
64,192,133570,1,0,0:0:0:0:
320,192,133648,1,0,0:0:0:0:
192,192,133648,1,0,0:0:0:0:
64,192,133727,1,0,0:0:0:0:
448,192,133806,1,0,0:0:0:0:
192,192,133885,1,0,0:0:0:0:
64,192,133964,1,0,0:0:0:0:
320,192,134043,1,0,0:0:0:0:
64,192,134122,1,0,0:0:0:0:
448,192,134201,1,0,0:0:0:0:
320,192,134280,1,0,0:0:0:0:
192,192,134280,1,0,0:0:0:0:
448,192,134359,1,0,0:0:0:0:
64,192,134438,1,0,0:0:0:0:
320,192,134517,1,0,0:0:0:0:
192,192,134596,1,0,0:0:0:0:
64,192,134675,1,0,0:0:0:0:
448,192,134754,1,0,0:0:0:0:
192,192,134833,1,0,0:0:0:0:
448,192,134912,1,0,0:0:0:0:
64,192,134991,1,0,0:0:0:0:
320,192,135070,1,0,0:0:0:0:
192,192,135148,1,0,0:0:0:0:
448,192,135227,1,0,0:0:0:0:
320,192,135306,1,0,0:0:0:0:
64,192,135385,1,0,0:0:0:0:
448,192,135464,1,0,0:0:0:0:
64,192,135543,1,0,0:0:0:0:
320,192,135622,1,0,0:0:0:0:
192,192,135701,1,0,0:0:0:0:
64,192,135780,1,0,0:0:0:0:
448,192,135859,1,0,0:0:0:0:
192,192,135938,1,0,0:0:0:0:
448,192,136017,1,0,0:0:0:0:
64,192,136096,1,0,0:0:0:0:
448,192,136175,1,0,0:0:0:0:
320,192,136175,1,0,0:0:0:0:
192,192,136491,1,0,0:0:0:0:
320,192,136570,1,0,0:0:0:0:
192,192,136648,1,0,0:0:0:0:
448,192,136727,1,0,0:0:0:0:
64,192,136806,1,0,0:0:0:0:
320,192,136885,1,0,0:0:0:0:
192,192,136964,1,0,0:0:0:0:
448,192,137043,1,0,0:0:0:0:
64,192,137122,1,0,0:0:0:0:
192,192,137201,1,0,0:0:0:0:
320,192,137280,1,0,0:0:0:0:
64,192,137359,1,0,0:0:0:0:
320,192,137438,1,0,0:0:0:0:
192,192,137517,1,0,0:0:0:0:
448,192,137596,1,0,0:0:0:0:
64,192,137675,1,0,0:0:0:0:
320,192,137754,1,0,0:0:0:0:
448,192,137833,1,0,0:0:0:0:
192,192,137912,1,0,0:0:0:0:
320,192,137991,1,0,0:0:0:0:
192,192,138070,1,0,0:0:0:0:
448,192,138148,1,0,0:0:0:0:
64,192,138227,1,0,0:0:0:0:
192,192,138306,1,0,0:0:0:0:
320,192,138385,1,0,0:0:0:0:
64,192,138464,1,0,0:0:0:0:
320,192,138543,1,0,0:0:0:0:
192,192,138622,1,0,0:0:0:0:
448,192,138701,1,0,0:0:0:0:
64,192,138701,1,0,0:0:0:0:
192,192,139017,1,0,0:0:0:0:
64,192,139096,1,0,0:0:0:0:
320,192,139175,1,0,0:0:0:0:
448,192,139254,1,0,0:0:0:0:
64,192,139333,1,0,0:0:0:0:
192,192,139412,1,0,0:0:0:0:
448,192,139491,1,0,0:0:0:0:
320,192,139570,1,0,0:0:0:0:
192,192,139648,1,0,0:0:0:0:
64,192,139727,1,0,0:0:0:0:
320,192,139806,1,0,0:0:0:0:
448,192,139885,1,0,0:0:0:0:
192,192,139964,1,0,0:0:0:0:
320,192,140043,1,0,0:0:0:0:
64,192,140122,1,0,0:0:0:0:
192,192,140201,1,0,0:0:0:0:
448,192,140280,1,0,0:0:0:0:
320,192,140359,1,0,0:0:0:0:
64,192,140438,1,0,0:0:0:0:
192,192,140517,1,0,0:0:0:0:
320,192,140596,1,0,0:0:0:0:
448,192,140675,1,0,0:0:0:0:
192,192,140754,1,0,0:0:0:0:
64,192,140833,1,0,0:0:0:0:
448,192,140912,1,0,0:0:0:0:
320,192,140991,1,0,0:0:0:0:
64,192,141070,1,0,0:0:0:0:
192,192,141148,1,0,0:0:0:0:
448,192,141227,1,0,0:0:0:0:
320,192,141227,1,0,0:0:0:0:
64,192,141543,1,0,0:0:0:0:
192,192,141622,1,0,0:0:0:0:
448,192,141701,1,0,0:0:0:0:
64,192,141780,1,0,0:0:0:0:
320,192,141859,1,0,0:0:0:0:
448,192,141938,1,0,0:0:0:0:
64,192,142017,1,0,0:0:0:0:
192,192,142096,1,0,0:0:0:0:
448,192,142175,1,0,0:0:0:0:
64,192,142254,1,0,0:0:0:0:
320,192,142333,1,0,0:0:0:0:
448,192,142412,1,0,0:0:0:0:
192,192,142491,1,0,0:0:0:0:
64,192,142648,1,0,0:0:0:0:
192,192,142727,1,0,0:0:0:0:
448,192,142806,1,0,0:0:0:0:
320,192,142885,1,0,0:0:0:0:
64,192,142964,1,0,0:0:0:0:
448,192,143043,1,0,0:0:0:0:
192,192,143122,1,0,0:0:0:0:
64,192,143201,1,0,0:0:0:0:
448,192,143280,1,0,0:0:0:0:
320,192,143359,1,0,0:0:0:0:
64,192,143438,1,0,0:0:0:0:
448,192,143517,1,0,0:0:0:0:
192,192,143596,1,0,0:0:0:0:
64,192,143675,1,0,0:0:0:0:
320,192,143754,1,0,0:0:0:0:
448,192,143912,1,0,0:0:0:0:
320,192,143991,1,0,0:0:0:0:
192,192,144070,1,0,0:0:0:0:
64,192,144070,1,0,0:0:0:0:
448,192,144148,1,0,0:0:0:0:
320,192,144227,1,0,0:0:0:0:
64,192,144306,1,0,0:0:0:0:
192,192,144385,1,0,0:0:0:0:
448,192,144464,1,0,0:0:0:0:
64,192,144543,1,0,0:0:0:0:
320,192,144622,1,0,0:0:0:0:
448,192,144701,1,0,0:0:0:0:
64,192,144780,1,0,0:0:0:0:
192,192,144859,1,0,0:0:0:0:
448,192,144938,1,0,0:0:0:0:
64,192,145017,1,0,0:0:0:0:
320,192,145175,1,0,0:0:0:0:
192,192,145254,1,0,0:0:0:0:
448,192,145333,1,0,0:0:0:0:
64,192,145412,1,0,0:0:0:0:
192,192,145491,1,0,0:0:0:0:
448,192,145570,1,0,0:0:0:0:
320,192,145648,1,0,0:0:0:0:
64,192,145727,1,0,0:0:0:0:
448,192,145806,1,0,0:0:0:0:
192,192,145885,1,0,0:0:0:0:
64,192,145964,1,0,0:0:0:0:
448,192,146043,1,0,0:0:0:0:
320,192,146122,1,0,0:0:0:0:
64,192,146201,1,0,0:0:0:0:
448,192,146280,1,0,0:0:0:0:
192,192,146438,1,0,0:0:0:0:
320,192,146517,1,0,0:0:0:0:
64,192,146596,1,0,0:0:0:0:
448,192,146675,1,0,0:0:0:0:
320,192,146754,1,0,0:0:0:0:
192,192,146833,1,0,0:0:0:0:
448,192,146912,1,0,0:0:0:0:
64,192,146991,1,0,0:0:0:0:
192,192,147070,1,0,0:0:0:0:
320,192,147148,1,0,0:0:0:0:
64,192,147227,1,0,0:0:0:0:
448,192,147306,1,0,0:0:0:0:
192,192,147385,1,0,0:0:0:0:
320,192,147464,1,0,0:0:0:0:
448,192,147543,1,0,0:0:0:0:
64,192,147622,1,0,0:0:0:0:
192,192,147701,1,0,0:0:0:0:
448,192,147780,1,0,0:0:0:0:
320,192,147859,1,0,0:0:0:0:
192,192,147938,1,0,0:0:0:0:
64,192,148017,1,0,0:0:0:0:
448,192,148096,1,0,0:0:0:0:
192,192,148175,1,0,0:0:0:0:
320,192,148254,1,0,0:0:0:0:
448,192,148333,1,0,0:0:0:0:
64,192,148412,1,0,0:0:0:0:
320,192,148491,1,0,0:0:0:0:
192,192,148570,1,0,0:0:0:0:
448,192,148648,1,0,0:0:0:0:
64,192,148727,1,0,0:0:0:0:
192,192,148806,1,0,0:0:0:0:
320,192,148885,1,0,0:0:0:0:
448,192,148964,1,0,0:0:0:0:
192,192,149043,1,0,0:0:0:0:
64,192,149122,1,0,0:0:0:0:
448,192,149201,1,0,0:0:0:0:
320,192,149280,1,0,0:0:0:0:
64,192,149359,1,0,0:0:0:0:
192,192,149438,1,0,0:0:0:0:
448,192,149517,1,0,0:0:0:0:
64,192,149596,1,0,0:0:0:0:
320,192,149675,1,0,0:0:0:0:
192,192,149754,1,0,0:0:0:0:
64,192,149833,1,0,0:0:0:0:
448,192,149912,1,0,0:0:0:0:
320,192,149991,1,0,0:0:0:0:
192,192,150070,1,0,0:0:0:0:
448,192,150148,1,0,0:0:0:0:
64,192,150227,1,0,0:0:0:0:
320,192,150306,1,0,0:0:0:0:
192,192,150385,1,0,0:0:0:0:
64,192,150464,1,0,0:0:0:0:
320,192,150543,1,0,0:0:0:0:
448,192,150622,1,0,0:0:0:0:
64,192,150701,1,0,0:0:0:0:
192,192,150780,1,0,0:0:0:0:
448,192,150859,1,0,0:0:0:0:
320,192,150938,1,0,0:0:0:0:
192,192,151017,1,0,0:0:0:0:
64,192,151096,1,0,0:0:0:0:
320,192,151175,1,0,0:0:0:0:
448,192,151254,1,0,0:0:0:0:
64,192,151333,1,0,0:0:0:0:
192,192,151412,1,0,0:0:0:0:
448,192,151491,1,0,0:0:0:0:
320,192,151570,1,0,0:0:0:0:
192,192,151648,1,0,0:0:0:0:
64,192,151648,1,0,0:0:0:0:
320,192,151806,1,0,0:0:0:0:
448,192,151885,1,0,0:0:0:0:
192,192,151964,1,0,0:0:0:0:
448,192,152043,1,0,0:0:0:0:
320,192,152122,1,0,0:0:0:0:
64,192,152280,1,0,0:0:0:0:
448,192,152359,1,0,0:0:0:0:
192,192,152438,1,0,0:0:0:0:
320,192,152517,1,0,0:0:0:0:
64,192,152596,1,0,0:0:0:0:
448,192,152675,1,0,0:0:0:0:
320,192,152754,1,0,0:0:0:0:
192,192,152833,1,0,0:0:0:0:
320,192,152912,1,0,0:0:0:0:
64,192,153070,1,0,0:0:0:0:
448,192,153148,1,0,0:0:0:0:
320,192,153227,1,0,0:0:0:0:
192,192,153306,1,0,0:0:0:0:
448,192,153385,1,0,0:0:0:0:
192,192,153464,1,0,0:0:0:0:
320,192,153543,1,0,0:0:0:0:
448,192,153701,1,0,0:0:0:0:
64,192,153859,1,0,0:0:0:0:
192,192,153938,1,0,0:0:0:0:
448,192,154017,1,0,0:0:0:0:
320,192,154096,1,0,0:0:0:0:
192,192,154175,1,0,0:0:0:0:
64,192,154175,1,0,0:0:0:0:
448,192,154333,1,0,0:0:0:0:
64,192,154491,1,0,0:0:0:0:
320,192,154648,1,0,0:0:0:0:
192,192,154806,1,0,0:0:0:0:
448,192,154885,1,0,0:0:0:0:
64,192,154964,1,0,0:0:0:0:
320,192,155043,1,0,0:0:0:0:
192,192,155122,1,0,0:0:0:0:
448,192,155201,1,0,0:0:0:0:
320,192,155280,1,0,0:0:0:0:
64,192,155359,1,0,0:0:0:0:
320,192,155438,1,0,0:0:0:0:
192,192,155596,1,0,0:0:0:0:
448,192,155754,1,0,0:0:0:0:
320,192,155912,1,0,0:0:0:0:
448,192,155991,1,0,0:0:0:0:
192,192,156070,1,0,0:0:0:0:
448,192,156227,1,0,0:0:0:0:
64,192,156385,1,0,0:0:0:0:
320,192,156543,1,0,0:0:0:0:
64,192,156622,1,0,0:0:0:0:
448,192,156701,1,0,0:0:0:0:
192,192,156701,1,0,0:0:0:0:
320,192,156938,1,0,0:0:0:0:
192,192,157017,1,0,0:0:0:0:
448,192,157175,1,0,0:0:0:0:
192,192,157333,1,0,0:0:0:0:
320,192,157412,1,0,0:0:0:0:
448,192,157648,1,0,0:0:0:0:
192,192,157648,1,0,0:0:0:0:
64,192,157806,1,0,0:0:0:0:
320,192,157964,1,0,0:0:0:0:
192,192,157964,1,0,0:0:0:0:
64,192,158201,1,0,0:0:0:0:
320,192,158280,1,0,0:0:0:0:
192,192,158438,1,0,0:0:0:0:
320,192,158596,1,0,0:0:0:0:
64,192,158675,1,0,0:0:0:0:
320,192,158912,1,0,0:0:0:0:
192,192,158912,1,0,0:0:0:0:
64,192,159070,1,0,0:0:0:0:
448,192,159227,1,0,0:0:0:0:
320,192,159306,1,0,0:0:0:0:
64,192,159385,1,0,0:0:0:0:
192,192,159464,1,0,0:0:0:0:
448,192,159543,1,0,0:0:0:0:
320,192,159622,1,0,0:0:0:0:
64,192,159701,1,0,0:0:0:0:
192,192,159780,1,0,0:0:0:0:
320,192,159859,1,0,0:0:0:0:
64,192,159938,1,0,0:0:0:0:
448,192,160017,1,0,0:0:0:0:
192,192,160096,1,0,0:0:0:0:
320,192,160175,1,0,0:0:0:0:
64,192,160254,1,0,0:0:0:0:
448,192,160333,1,0,0:0:0:0:
192,192,160412,1,0,0:0:0:0:
64,192,160491,1,0,0:0:0:0:
320,192,160570,1,0,0:0:0:0:
64,192,160648,1,0,0:0:0:0:
192,192,160727,1,0,0:0:0:0:
448,192,160806,1,0,0:0:0:0:
64,192,160885,1,0,0:0:0:0:
448,192,160964,1,0,0:0:0:0:
192,192,161043,1,0,0:0:0:0:
320,192,161122,1,0,0:0:0:0:
64,192,161201,1,0,0:0:0:0:
320,192,161280,1,0,0:0:0:0:
448,192,161359,1,0,0:0:0:0:
192,192,161438,1,0,0:0:0:0:
320,192,161596,1,0,0:0:0:0:
448,192,161754,1,0,0:0:0:0:
64,192,161754,1,0,0:0:0:0:
320,192,161833,1,0,0:0:0:0:
192,192,161912,1,0,0:0:0:0:
448,192,161991,1,0,0:0:0:0:
320,192,162070,1,0,0:0:0:0:
64,192,162148,1,0,0:0:0:0:
192,192,162227,1,0,0:0:0:0:
448,192,162306,1,0,0:0:0:0:
64,192,162385,1,0,0:0:0:0:
320,192,162464,1,0,0:0:0:0:
192,192,162543,1,0,0:0:0:0:
64,192,162622,1,0,0:0:0:0:
448,192,162701,1,0,0:0:0:0:
320,192,162780,1,0,0:0:0:0:
64,192,162859,1,0,0:0:0:0:
192,192,162938,1,0,0:0:0:0:
448,192,163017,1,0,0:0:0:0:
64,192,163096,1,0,0:0:0:0:
320,192,163175,1,0,0:0:0:0:
192,192,163254,1,0,0:0:0:0:
64,192,163333,1,0,0:0:0:0:
448,192,163412,1,0,0:0:0:0:
320,192,163491,1,0,0:0:0:0:
192,192,163570,1,0,0:0:0:0:
448,192,163648,1,0,0:0:0:0:
64,192,163727,1,0,0:0:0:0:
320,192,163806,1,0,0:0:0:0:
448,192,163885,1,0,0:0:0:0:
192,192,163964,1,0,0:0:0:0:
64,192,164043,1,0,0:0:0:0:
448,192,164122,1,0,0:0:0:0:
320,192,164201,1,0,0:0:0:0:
192,192,164280,1,0,0:0:0:0:
64,192,164280,1,0,0:0:0:0:
448,192,164359,1,0,0:0:0:0:
64,192,164438,1,0,0:0:0:0:
320,192,164517,1,0,0:0:0:0:
448,192,164596,1,0,0:0:0:0:
192,192,164675,1,0,0:0:0:0:
64,192,164754,1,0,0:0:0:0:
320,192,164833,1,0,0:0:0:0:
192,192,164912,1,0,0:0:0:0:
448,192,164991,1,0,0:0:0:0:
64,192,165070,1,0,0:0:0:0:
192,192,165148,1,0,0:0:0:0:
320,192,165227,1,0,0:0:0:0:
448,192,165306,1,0,0:0:0:0:
192,192,165385,1,0,0:0:0:0:
64,192,165464,1,0,0:0:0:0:
448,192,165543,1,0,0:0:0:0:
320,192,165543,1,0,0:0:0:0:
192,192,165780,1,0,0:0:0:0:
448,192,165859,1,0,0:0:0:0:
64,192,165859,1,0,0:0:0:0:
320,192,166017,1,0,0:0:0:0:
192,192,166175,1,0,0:0:0:0:
64,192,166175,1,0,0:0:0:0:
448,192,166412,1,0,0:0:0:0:
320,192,166491,1,0,0:0:0:0:
192,192,166491,1,0,0:0:0:0:
64,192,166648,1,0,0:0:0:0:
448,192,166806,1,0,0:0:0:0:
192,192,166885,1,0,0:0:0:0:
320,192,166964,1,0,0:0:0:0:
64,192,167043,1,0,0:0:0:0:
192,192,167122,1,0,0:0:0:0:
448,192,167201,1,0,0:0:0:0:
320,192,167280,1,0,0:0:0:0:
64,192,167359,1,0,0:0:0:0:
448,192,167438,1,0,0:0:0:0:
192,192,167517,1,0,0:0:0:0:
320,192,167596,1,0,0:0:0:0:
448,192,167675,1,0,0:0:0:0:
64,192,167754,1,0,0:0:0:0:
192,192,167833,1,0,0:0:0:0:
448,192,167912,1,0,0:0:0:0:
320,192,167991,1,0,0:0:0:0:
64,192,168070,1,0,0:0:0:0:
448,192,168148,1,0,0:0:0:0:
192,192,168227,1,0,0:0:0:0:
320,192,168306,1,0,0:0:0:0:
448,192,168385,1,0,0:0:0:0:
64,192,168464,1,0,0:0:0:0:
192,192,168543,1,0,0:0:0:0:
320,192,168622,1,0,0:0:0:0:
64,192,168701,1,0,0:0:0:0:
448,192,168780,1,0,0:0:0:0:
192,192,168859,1,0,0:0:0:0:
64,192,168938,1,0,0:0:0:0:
320,192,169017,1,0,0:0:0:0:
448,192,169096,1,0,0:0:0:0:
64,192,169175,1,0,0:0:0:0:
192,192,169254,1,0,0:0:0:0:
320,192,169333,1,0,0:0:0:0:
64,192,169412,1,0,0:0:0:0:
448,192,169491,1,0,0:0:0:0:
192,192,169570,1,0,0:0:0:0:
64,192,169648,1,0,0:0:0:0:
320,192,169727,1,0,0:0:0:0:
448,192,169806,1,0,0:0:0:0:
192,192,169885,1,0,0:0:0:0:
320,192,169964,1,0,0:0:0:0:
64,192,170043,1,0,0:0:0:0:
448,192,170122,1,0,0:0:0:0:
320,192,170201,1,0,0:0:0:0:
192,192,170280,1,0,0:0:0:0:
64,192,170359,1,0,0:0:0:0:
320,192,170438,1,0,0:0:0:0:
448,192,170517,1,0,0:0:0:0:
192,192,170596,1,0,0:0:0:0:
320,192,170675,1,0,0:0:0:0:
64,192,170754,1,0,0:0:0:0:
448,192,170833,1,0,0:0:0:0:
192,192,170912,1,0,0:0:0:0:
320,192,170991,1,0,0:0:0:0:
64,192,171070,1,0,0:0:0:0:
448,192,171148,1,0,0:0:0:0:
320,192,171227,1,0,0:0:0:0:
192,192,171306,1,0,0:0:0:0:
448,192,171385,1,0,0:0:0:0:
64,192,171464,1,0,0:0:0:0:
320,192,171543,1,0,0:0:0:0:
192,192,171622,1,0,0:0:0:0:
448,192,171701,1,0,0:0:0:0:
320,192,171780,1,0,0:0:0:0:
64,192,171859,1,0,0:0:0:0:
192,192,171938,1,0,0:0:0:0:
448,192,172017,1,0,0:0:0:0:
64,192,172096,1,0,0:0:0:0:
320,192,172175,1,0,0:0:0:0:
192,192,172254,1,0,0:0:0:0:
64,192,172333,1,0,0:0:0:0:
448,192,172412,1,0,0:0:0:0:
192,192,172491,1,0,0:0:0:0:
320,192,172570,1,0,0:0:0:0:
448,192,172648,1,0,0:0:0:0:
64,192,172727,1,0,0:0:0:0:
448,192,172806,1,0,0:0:0:0:
320,192,172885,1,0,0:0:0:0:
64,192,172964,1,0,0:0:0:0:
192,192,173043,1,0,0:0:0:0:
320,192,173122,1,0,0:0:0:0:
448,192,173201,1,0,0:0:0:0:
64,192,173280,1,0,0:0:0:0:
320,192,173359,1,0,0:0:0:0:
192,192,173438,1,0,0:0:0:0:
448,192,173517,1,0,0:0:0:0:
320,192,173596,1,0,0:0:0:0:
64,192,173675,1,0,0:0:0:0:
448,192,173754,1,0,0:0:0:0:
192,192,173833,1,0,0:0:0:0:
64,192,173912,1,0,0:0:0:0:
320,192,173991,1,0,0:0:0:0:
64,192,174070,1,0,0:0:0:0:
192,192,174148,1,0,0:0:0:0:
320,192,174227,1,0,0:0:0:0:
448,192,174306,1,0,0:0:0:0:
192,192,174385,1,0,0:0:0:0:
64,192,174385,1,0,0:0:0:0:
448,192,174464,1,0,0:0:0:0:
320,192,174543,1,0,0:0:0:0:
192,192,174622,1,0,0:0:0:0:
448,192,174701,1,0,0:0:0:0:
64,192,174780,1,0,0:0:0:0:
192,192,174859,1,0,0:0:0:0:
320,192,174938,1,0,0:0:0:0:
64,192,175017,1,0,0:0:0:0:
448,192,175096,1,0,0:0:0:0:
320,192,175175,1,0,0:0:0:0:
192,192,175254,1,0,0:0:0:0:
320,192,175333,1,0,0:0:0:0:
448,192,175412,1,0,0:0:0:0:
192,192,175491,1,0,0:0:0:0:
64,192,175570,1,0,0:0:0:0:
448,192,175648,1,0,0:0:0:0:
320,192,175648,1,0,0:0:0:0:
192,192,175885,1,0,0:0:0:0:
448,192,175964,1,0,0:0:0:0:
64,192,175964,1,0,0:0:0:0:
320,192,176122,1,0,0:0:0:0:
192,192,176280,1,0,0:0:0:0:
64,192,176280,1,0,0:0:0:0:
448,192,176517,1,0,0:0:0:0:
320,192,176596,1,0,0:0:0:0:
192,192,176596,1,0,0:0:0:0:
64,192,176754,1,0,0:0:0:0:
448,192,176912,1,0,0:0:0:0:
320,192,176991,1,0,0:0:0:0:
64,192,177070,1,0,0:0:0:0:
448,192,177148,1,0,0:0:0:0:
192,192,177227,1,0,0:0:0:0:
320,192,177306,1,0,0:0:0:0:
448,192,177385,1,0,0:0:0:0:
64,192,177464,1,0,0:0:0:0:
320,192,177543,1,0,0:0:0:0:
192,192,177622,1,0,0:0:0:0:
64,192,177701,1,0,0:0:0:0:
448,192,177780,1,0,0:0:0:0:
64,192,177859,1,0,0:0:0:0:
192,192,177938,1,0,0:0:0:0:
448,192,178017,1,0,0:0:0:0:
320,192,178096,1,0,0:0:0:0:
192,192,178175,1,0,0:0:0:0:
64,192,178254,1,0,0:0:0:0:
448,192,178333,1,0,0:0:0:0:
192,192,178412,1,0,0:0:0:0:
320,192,178491,1,0,0:0:0:0:
64,192,178570,1,0,0:0:0:0:
192,192,178648,1,0,0:0:0:0:
448,192,178727,1,0,0:0:0:0:
64,192,178806,1,0,0:0:0:0:
320,192,178885,1,0,0:0:0:0:
448,192,178964,1,0,0:0:0:0:
192,192,179043,1,0,0:0:0:0:
448,192,179122,1,0,0:0:0:0:
320,192,179201,1,0,0:0:0:0:
192,192,179280,1,0,0:0:0:0:
64,192,179359,1,0,0:0:0:0:
320,192,179438,1,0,0:0:0:0:
448,192,179517,1,0,0:0:0:0:
192,192,179596,1,0,0:0:0:0:
320,192,179675,1,0,0:0:0:0:
64,192,179754,1,0,0:0:0:0:
448,192,179833,1,0,0:0:0:0:
320,192,179912,1,0,0:0:0:0:
192,192,179991,1,0,0:0:0:0:
448,192,180070,1,0,0:0:0:0:
64,192,180148,1,0,0:0:0:0:
192,192,180227,1,0,0:0:0:0:
320,192,180306,1,0,0:0:0:0:
192,192,180385,1,0,0:0:0:0:
64,192,180464,1,0,0:0:0:0:
320,192,180543,1,0,0:0:0:0:
448,192,180622,1,0,0:0:0:0:
64,192,180701,1,0,0:0:0:0:
320,192,180780,1,0,0:0:0:0:
64,192,180859,1,0,0:0:0:0:
448,192,180938,1,0,0:0:0:0:
192,192,181017,1,0,0:0:0:0:
320,192,181175,1,0,0:0:0:0:
192,192,181254,1,0,0:0:0:0:
448,192,181333,1,0,0:0:0:0:
64,192,181412,1,0,0:0:0:0:
448,192,181491,1,0,0:0:0:0:
64,192,181570,1,0,0:0:0:0:
192,192,181648,1,0,0:0:0:0:
320,192,181806,1,0,0:0:0:0:
448,192,181964,1,0,0:0:0:0:
64,192,181964,1,0,0:0:0:0:
320,192,182043,1,0,0:0:0:0:
192,192,182122,1,0,0:0:0:0:
448,192,182201,1,0,0:0:0:0:
320,192,182280,1,0,0:0:0:0:
64,192,182359,1,0,0:0:0:0:
192,192,182438,1,0,0:0:0:0:
320,192,182517,1,0,0:0:0:0:
64,192,182596,1,0,0:0:0:0:
448,192,182675,1,0,0:0:0:0:
192,192,182754,1,0,0:0:0:0:
64,192,182833,1,0,0:0:0:0:
320,192,182912,1,0,0:0:0:0:
448,192,182991,1,0,0:0:0:0:
64,192,183070,1,0,0:0:0:0:
192,192,183148,1,0,0:0:0:0:
448,192,183227,1,0,0:0:0:0:
64,192,183306,1,0,0:0:0:0:
320,192,183385,1,0,0:0:0:0:
192,192,183464,1,0,0:0:0:0:
64,192,183543,1,0,0:0:0:0:
448,192,183622,1,0,0:0:0:0:
320,192,183701,1,0,0:0:0:0:
64,192,183780,1,0,0:0:0:0:
448,192,183859,1,0,0:0:0:0:
192,192,183938,1,0,0:0:0:0:
320,192,184017,1,0,0:0:0:0:
448,192,184096,1,0,0:0:0:0:
64,192,184175,1,0,0:0:0:0:
192,192,184254,1,0,0:0:0:0:
448,192,184333,1,0,0:0:0:0:
320,192,184412,1,0,0:0:0:0:
192,192,184491,1,0,0:0:0:0:
64,192,184491,1,0,0:0:0:0:
448,192,184570,1,0,0:0:0:0:
64,192,184648,1,0,0:0:0:0:
320,192,184727,1,0,0:0:0:0:
448,192,184806,1,0,0:0:0:0:
192,192,184885,1,0,0:0:0:0:
64,192,184964,1,0,0:0:0:0:
448,192,185043,1,0,0:0:0:0:
192,192,185122,1,0,0:0:0:0:
320,192,185201,1,0,0:0:0:0:
64,192,185280,1,0,0:0:0:0:
192,192,185359,1,0,0:0:0:0:
448,192,185438,1,0,0:0:0:0:
320,192,185517,1,0,0:0:0:0:
192,192,185596,1,0,0:0:0:0:
64,192,185675,1,0,0:0:0:0:
448,192,185754,1,0,0:0:0:0:
320,192,185754,1,0,0:0:0:0:
192,192,185991,1,0,0:0:0:0:
448,192,186070,1,0,0:0:0:0:
64,192,186070,1,0,0:0:0:0:
320,192,186227,1,0,0:0:0:0:
192,192,186385,1,0,0:0:0:0:
64,192,186385,1,0,0:0:0:0:
448,192,186622,1,0,0:0:0:0:
320,192,186701,1,0,0:0:0:0:
192,192,186701,1,0,0:0:0:0:
64,192,186859,1,0,0:0:0:0:
448,192,187017,1,0,0:0:0:0:
192,192,187096,1,0,0:0:0:0:
320,192,187175,1,0,0:0:0:0:
64,192,187254,1,0,0:0:0:0:
192,192,187333,1,0,0:0:0:0:
448,192,187412,1,0,0:0:0:0:
320,192,187491,1,0,0:0:0:0:
192,192,187570,1,0,0:0:0:0:
448,192,187648,1,0,0:0:0:0:
64,192,187727,1,0,0:0:0:0:
320,192,187806,1,0,0:0:0:0:
448,192,187885,1,0,0:0:0:0:
192,192,187964,1,0,0:0:0:0:
64,192,188043,1,0,0:0:0:0:
448,192,188122,1,0,0:0:0:0:
320,192,188201,1,0,0:0:0:0:
64,192,188280,1,0,0:0:0:0:
448,192,188359,1,0,0:0:0:0:
192,192,188438,1,0,0:0:0:0:
320,192,188517,1,0,0:0:0:0:
448,192,188596,1,0,0:0:0:0:
64,192,188675,1,0,0:0:0:0:
192,192,188754,1,0,0:0:0:0:
448,192,188833,1,0,0:0:0:0:
64,192,188912,1,0,0:0:0:0:
320,192,188991,1,0,0:0:0:0:
192,192,189070,1,0,0:0:0:0:
64,192,189148,1,0,0:0:0:0:
448,192,189227,1,0,0:0:0:0:
320,192,189306,1,0,0:0:0:0:
64,192,189385,1,0,0:0:0:0:
192,192,189464,1,0,0:0:0:0:
320,192,189543,1,0,0:0:0:0:
64,192,189622,1,0,0:0:0:0:
448,192,189701,1,0,0:0:0:0:
192,192,189780,1,0,0:0:0:0:
64,192,189859,1,0,0:0:0:0:
320,192,189938,1,0,0:0:0:0:
448,192,190017,1,0,0:0:0:0:
64,192,190096,1,0,0:0:0:0:
320,192,190175,1,0,0:0:0:0:
192,192,190254,1,0,0:0:0:0:
448,192,190333,1,0,0:0:0:0:
320,192,190412,1,0,0:0:0:0:
64,192,190491,1,0,0:0:0:0:
192,192,190570,1,0,0:0:0:0:
320,192,190648,1,0,0:0:0:0:
448,192,190727,1,0,0:0:0:0:
192,192,190806,1,0,0:0:0:0:
320,192,190885,1,0,0:0:0:0:
64,192,190964,1,0,0:0:0:0:
448,192,191043,1,0,0:0:0:0:
192,192,191122,1,0,0:0:0:0:
320,192,191201,1,0,0:0:0:0:
64,192,191280,1,0,0:0:0:0:
448,192,191359,1,0,0:0:0:0:
320,192,191438,1,0,0:0:0:0:
192,192,191517,1,0,0:0:0:0:
448,192,191596,1,0,0:0:0:0:
64,192,191675,1,0,0:0:0:0:
320,192,191754,1,0,0:0:0:0:
192,192,191833,1,0,0:0:0:0:
448,192,191912,1,0,0:0:0:0:
192,192,191991,1,0,0:0:0:0:
448,192,192070,1,0,0:0:0:0:
64,192,192070,1,0,0:0:0:0:
320,192,192227,1,0,0:0:0:0:
64,192,192306,1,0,0:0:0:0:
192,192,192385,1,0,0:0:0:0:
448,192,192543,1,0,0:0:0:0:
192,192,192622,1,0,0:0:0:0:
320,192,192701,1,0,0:0:0:0:
448,192,192780,1,0,0:0:0:0:
64,192,192859,1,0,0:0:0:0:
320,192,192938,1,0,0:0:0:0:
192,192,193017,1,0,0:0:0:0:
448,192,193175,1,0,0:0:0:0:
320,192,193254,1,0,0:0:0:0:
64,192,193333,1,0,0:0:0:0:
192,192,193491,1,0,0:0:0:0:
448,192,193570,1,0,0:0:0:0:
320,192,193648,1,0,0:0:0:0:
64,192,193806,1,0,0:0:0:0:
320,192,193885,1,0,0:0:0:0:
192,192,193964,1,0,0:0:0:0:
64,192,194043,1,0,0:0:0:0:
448,192,194122,1,0,0:0:0:0:
192,192,194201,1,0,0:0:0:0:
320,192,194280,1,0,0:0:0:0:
64,192,194438,1,0,0:0:0:0:
192,192,194517,1,0,0:0:0:0:
448,192,194596,1,0,0:0:0:0:
320,192,194596,1,0,0:0:0:0:
192,192,194754,1,0,0:0:0:0:
448,192,194833,1,0,0:0:0:0:
320,192,194912,1,0,0:0:0:0:
64,192,195070,1,0,0:0:0:0:
448,192,195148,1,0,0:0:0:0:
192,192,195227,1,0,0:0:0:0:
64,192,195306,1,0,0:0:0:0:
320,192,195385,1,0,0:0:0:0:
192,192,195464,1,0,0:0:0:0:
320,192,195543,1,0,0:0:0:0:
64,192,195622,1,0,0:0:0:0:
448,192,195701,1,0,0:0:0:0:
192,192,195780,1,0,0:0:0:0:
64,192,195859,1,0,0:0:0:0:
448,192,196017,1,0,0:0:0:0:
192,192,196096,1,0,0:0:0:0:
320,192,196175,1,0,0:0:0:0:
64,192,196333,1,0,0:0:0:0:
448,192,196412,1,0,0:0:0:0:
192,192,196491,1,0,0:0:0:0:
64,192,196570,1,0,0:0:0:0:
320,192,196648,1,0,0:0:0:0:
448,192,196727,1,0,0:0:0:0:
192,192,196806,1,0,0:0:0:0:
320,192,196885,1,0,0:0:0:0:
64,192,196964,1,0,0:0:0:0:
448,192,197043,1,0,0:0:0:0:
192,192,197122,1,0,0:0:0:0:
320,192,197201,1,0,0:0:0:0:
448,192,197280,1,0,0:0:0:0:
64,192,197359,1,0,0:0:0:0:
320,192,197438,1,0,0:0:0:0:
448,192,197517,1,0,0:0:0:0:
192,192,197596,1,0,0:0:0:0:
320,192,197675,1,0,0:0:0:0:
64,192,197754,1,0,0:0:0:0:
192,192,197833,1,0,0:0:0:0:
448,192,197912,1,0,0:0:0:0:
64,192,197991,1,0,0:0:0:0:
320,192,198070,1,0,0:0:0:0:
192,192,198148,1,0,0:0:0:0:
64,192,198227,1,0,0:0:0:0:
448,192,198306,1,0,0:0:0:0:
320,192,198385,1,0,0:0:0:0:
64,192,198464,1,0,0:0:0:0:
192,192,198543,1,0,0:0:0:0:
448,192,198622,1,0,0:0:0:0:
64,192,198701,1,0,0:0:0:0:
320,192,198780,1,0,0:0:0:0:
448,192,198859,1,0,0:0:0:0:
192,192,198938,1,0,0:0:0:0:
448,192,199017,1,0,0:0:0:0:
64,192,199096,1,0,0:0:0:0:
192,192,199175,1,0,0:0:0:0:
320,192,199254,1,0,0:0:0:0:
192,192,199333,1,0,0:0:0:0:
448,192,199412,1,0,0:0:0:0:
320,192,199491,1,0,0:0:0:0:
64,192,199570,1,0,0:0:0:0:
320,192,199648,1,0,0:0:0:0:
192,192,199648,1,0,0:0:0:0:
64,192,199806,1,0,0:0:0:0:
64,192,199964,1,0,0:0:0:0:
448,192,200122,1,0,0:0:0:0:
320,192,200122,1,0,0:0:0:0:
192,192,200280,1,0,0:0:0:0:
64,192,200359,1,0,0:0:0:0:
448,192,200438,1,0,0:0:0:0:
320,192,200438,1,0,0:0:0:0:
192,192,200596,1,0,0:0:0:0:
64,192,200754,1,0,0:0:0:0:
192,192,200833,1,0,0:0:0:0:
448,192,200912,1,0,0:0:0:0:
64,192,200912,1,0,0:0:0:0:
320,192,201017,1,0,0:0:0:0:
192,192,201122,1,0,0:0:0:0:
448,192,201227,1,0,0:0:0:0:
320,192,201333,1,0,0:0:0:0:
64,192,201438,1,0,0:0:0:0:
448,192,201543,1,0,0:0:0:0:
192,192,201648,1,0,0:0:0:0:
64,192,201754,1,0,0:0:0:0:
448,192,201859,1,0,0:0:0:0:
320,192,201859,1,0,0:0:0:0:
448,192,202175,1,0,0:0:0:0:
192,192,202175,1,0,0:0:0:0:
64,192,202175,1,0,0:0:0:0:
320,192,202491,1,0,0:0:0:0:
192,192,202491,1,0,0:0:0:0:
448,192,202648,1,0,0:0:0:0:
192,192,202648,1,0,0:0:0:0:
448,192,202964,1,0,0:0:0:0:
320,192,202964,1,0,0:0:0:0:
448,192,203122,1,0,0:0:0:0:
64,192,203122,1,0,0:0:0:0:
320,192,203280,1,0,0:0:0:0:
192,192,203280,1,0,0:0:0:0:
192,192,203596,1,0,0:0:0:0:
64,192,203596,1,0,0:0:0:0:
320,192,203754,1,0,0:0:0:0:
64,192,203754,1,0,0:0:0:0:
448,192,204070,1,0,0:0:0:0:
192,192,204070,1,0,0:0:0:0:
320,192,204385,1,0,0:0:0:0:
192,192,204385,1,0,0:0:0:0:
320,192,204543,1,0,0:0:0:0:
64,192,204543,1,0,0:0:0:0:
192,192,204859,1,0,0:0:0:0:
64,192,204859,1,0,0:0:0:0:
448,192,205017,1,0,0:0:0:0:
320,192,205017,1,0,0:0:0:0:
448,192,205175,1,0,0:0:0:0:
192,192,205175,1,0,0:0:0:0:
320,192,205491,1,0,0:0:0:0:
64,192,205491,1,0,0:0:0:0:
448,192,205648,1,0,0:0:0:0:
64,192,205648,1,0,0:0:0:0:
320,192,205806,1,0,0:0:0:0:
192,192,205806,1,0,0:0:0:0:
448,192,206122,1,0,0:0:0:0:
192,192,206122,1,0,0:0:0:0:
448,192,206280,1,0,0:0:0:0:
320,192,206280,1,0,0:0:0:0:
192,192,206438,1,0,0:0:0:0:
64,192,206438,1,0,0:0:0:0:
448,192,206596,1,0,0:0:0:0:
64,192,206596,1,0,0:0:0:0:
320,192,206754,1,0,0:0:0:0:
192,192,206754,1,0,0:0:0:0:
448,192,206912,1,0,0:0:0:0:
320,192,206912,1,0,0:0:0:0:
192,192,207070,1,0,0:0:0:0:
64,192,207070,1,0,0:0:0:0:
320,192,207227,1,0,0:0:0:0:
64,192,207227,1,0,0:0:0:0:
320,192,207543,1,0,0:0:0:0:
192,192,207543,1,0,0:0:0:0:
448,192,207701,1,0,0:0:0:0:
192,192,207701,1,0,0:0:0:0:
448,192,208017,1,0,0:0:0:0:
320,192,208017,1,0,0:0:0:0:
448,192,208175,1,0,0:0:0:0:
64,192,208175,1,0,0:0:0:0:
320,192,208333,1,0,0:0:0:0:
192,192,208333,1,0,0:0:0:0:
192,192,208648,1,0,0:0:0:0:
64,192,208648,1,0,0:0:0:0:
448,192,208806,1,0,0:0:0:0:
64,192,208806,1,0,0:0:0:0:
320,192,208964,1,0,0:0:0:0:
448,192,209122,1,0,0:0:0:0:
192,192,209122,1,0,0:0:0:0:
320,192,209438,1,0,0:0:0:0:
192,192,209438,1,0,0:0:0:0:
320,192,209596,1,0,0:0:0:0:
64,192,209596,1,0,0:0:0:0:
192,192,209912,1,0,0:0:0:0:
64,192,209912,1,0,0:0:0:0:
448,192,210070,1,0,0:0:0:0:
320,192,210070,1,0,0:0:0:0:
448,192,210227,1,0,0:0:0:0:
64,192,210227,1,0,0:0:0:0:
448,192,210543,1,0,0:0:0:0:
192,192,210543,1,0,0:0:0:0:
320,192,210701,1,0,0:0:0:0:
192,192,210701,1,0,0:0:0:0:
448,192,210859,1,0,0:0:0:0:
64,192,210859,1,0,0:0:0:0:
192,192,210938,1,0,0:0:0:0:
448,192,211017,1,0,0:0:0:0:
320,192,211017,1,0,0:0:0:0:
192,192,211175,1,0,0:0:0:0:
64,192,211175,1,0,0:0:0:0:
448,192,211333,1,0,0:0:0:0:
320,192,211333,1,0,0:0:0:0:
192,192,211491,1,0,0:0:0:0:
64,192,211491,1,0,0:0:0:0:
448,192,211648,1,0,0:0:0:0:
320,192,211648,1,0,0:0:0:0:
192,192,211806,1,0,0:0:0:0:
64,192,211806,1,0,0:0:0:0:
448,192,211964,1,0,0:0:0:0:
448,192,212122,1,0,0:0:0:0:
320,192,212280,1,0,0:0:0:0:
192,192,212280,1,0,0:0:0:0:
64,192,212280,1,0,0:0:0:0:
448,192,212438,1,0,0:0:0:0:
320,192,212596,1,0,0:0:0:0:
192,192,212596,1,0,0:0:0:0:
448,192,212754,1,0,0:0:0:0:
192,192,212754,1,0,0:0:0:0:
64,192,212912,1,0,0:0:0:0:
448,192,213070,1,0,0:0:0:0:
320,192,213070,1,0,0:0:0:0:
448,192,213227,1,0,0:0:0:0:
64,192,213227,1,0,0:0:0:0:
320,192,213385,1,0,0:0:0:0:
192,192,213385,1,0,0:0:0:0:
448,192,213543,1,0,0:0:0:0:
192,192,213701,1,0,0:0:0:0:
64,192,213701,1,0,0:0:0:0:
320,192,213859,1,0,0:0:0:0:
64,192,213859,1,0,0:0:0:0:
448,192,214017,1,0,0:0:0:0:
320,192,214175,1,0,0:0:0:0:
192,192,214175,1,0,0:0:0:0:
64,192,214333,1,0,0:0:0:0:
448,192,214491,1,0,0:0:0:0:
192,192,214491,1,0,0:0:0:0:
448,192,214648,1,0,0:0:0:0:
64,192,214648,1,0,0:0:0:0:
320,192,214806,1,0,0:0:0:0:
192,192,214964,1,0,0:0:0:0:
64,192,214964,1,0,0:0:0:0:
448,192,215122,1,0,0:0:0:0:
320,192,215122,1,0,0:0:0:0:
448,192,215280,1,0,0:0:0:0:
192,192,215280,1,0,0:0:0:0:
64,192,215438,1,0,0:0:0:0:
320,192,215596,1,0,0:0:0:0:
192,192,215596,1,0,0:0:0:0:
448,192,215754,1,0,0:0:0:0:
192,192,215754,1,0,0:0:0:0:
320,192,215912,1,0,0:0:0:0:
64,192,215912,1,0,0:0:0:0:
192,192,216070,1,0,0:0:0:0:
448,192,216227,1,0,0:0:0:0:
64,192,216227,1,0,0:0:0:0:
448,192,216385,1,0,0:0:0:0:
320,192,216385,1,0,0:0:0:0:
192,192,216543,1,0,0:0:0:0:
64,192,216543,1,0,0:0:0:0:
448,192,216701,1,0,0:0:0:0:
64,192,216701,1,0,0:0:0:0:
320,192,216859,1,0,0:0:0:0:
192,192,216859,1,0,0:0:0:0:
448,192,217017,1,0,0:0:0:0:
320,192,217017,1,0,0:0:0:0:
192,192,217175,1,0,0:0:0:0:
64,192,217175,1,0,0:0:0:0:
320,192,217333,1,0,0:0:0:0:
64,192,217333,1,0,0:0:0:0:
448,192,217491,1,0,0:0:0:0:
320,192,217648,1,0,0:0:0:0:
192,192,217648,1,0,0:0:0:0:
448,192,217806,1,0,0:0:0:0:
192,192,217806,1,0,0:0:0:0:
64,192,217964,1,0,0:0:0:0:
448,192,218122,1,0,0:0:0:0:
320,192,218122,1,0,0:0:0:0:
448,192,218280,1,0,0:0:0:0:
64,192,218280,1,0,0:0:0:0:
320,192,218438,1,0,0:0:0:0:
192,192,218438,1,0,0:0:0:0:
448,192,218596,1,0,0:0:0:0:
192,192,218754,1,0,0:0:0:0:
64,192,218754,1,0,0:0:0:0:
320,192,218912,1,0,0:0:0:0:
64,192,218912,1,0,0:0:0:0:
448,192,219070,1,0,0:0:0:0:
320,192,219227,1,0,0:0:0:0:
192,192,219227,1,0,0:0:0:0:
64,192,219385,1,0,0:0:0:0:
448,192,219543,1,0,0:0:0:0:
192,192,219543,1,0,0:0:0:0:
320,192,219622,1,0,0:0:0:0:
64,192,219701,1,0,0:0:0:0:
448,192,219780,1,0,0:0:0:0:
192,192,219859,1,0,0:0:0:0:
320,192,219938,1,0,0:0:0:0:
64,192,220017,1,0,0:0:0:0:
448,192,220096,1,0,0:0:0:0:
320,192,220175,1,0,0:0:0:0:
192,192,220254,1,0,0:0:0:0:
64,192,220333,1,0,0:0:0:0:
448,192,220412,1,0,0:0:0:0:
320,192,220491,1,0,0:0:0:0:
192,192,220570,1,0,0:0:0:0:
448,192,220648,1,0,0:0:0:0:
64,192,220727,1,0,0:0:0:0:
448,192,220806,1,0,0:0:0:0:
64,192,220885,1,0,0:0:0:0:
192,192,220964,1,0,0:0:0:0:
64,192,221122,1,0,0:0:0:0:
320,192,221201,1,0,0:0:0:0:
192,192,221359,1,0,0:0:0:0:
448,192,221438,1,0,0:0:0:0:
64,192,221517,1,0,0:0:0:0:
320,192,221596,1,0,0:0:0:0:
448,192,221754,1,0,0:0:0:0:
192,192,221833,1,0,0:0:0:0:
320,192,221991,1,0,0:0:0:0:
64,192,222070,1,0,0:0:0:0:
448,192,222148,1,0,0:0:0:0:
192,192,222227,1,0,0:0:0:0:
320,192,222306,1,0,0:0:0:0:
192,192,222385,1,0,0:0:0:0:
64,192,222385,1,0,0:0:0:0:
448,192,222464,1,0,0:0:0:0:
64,192,222543,1,0,0:0:0:0:
320,192,222622,1,0,0:0:0:0:
448,192,222701,1,0,0:0:0:0:
192,192,222780,1,0,0:0:0:0:
448,192,222859,1,0,0:0:0:0:
64,192,222938,1,0,0:0:0:0:
192,192,223017,1,0,0:0:0:0:
320,192,223096,1,0,0:0:0:0:
192,192,223175,1,0,0:0:0:0:
448,192,223254,1,0,0:0:0:0:
320,192,223333,1,0,0:0:0:0:
64,192,223412,1,0,0:0:0:0:
320,192,223491,1,0,0:0:0:0:
192,192,223570,1,0,0:0:0:0:
448,192,223648,1,0,0:0:0:0:
320,192,223727,1,0,0:0:0:0:
64,192,223806,1,0,0:0:0:0:
448,192,223885,1,0,0:0:0:0:
64,192,223964,1,0,0:0:0:0:
320,192,224043,1,0,0:0:0:0:
192,192,224122,1,0,0:0:0:0:
64,192,224201,1,0,0:0:0:0:
448,192,224280,1,0,0:0:0:0:
192,192,224359,1,0,0:0:0:0:
448,192,224438,1,0,0:0:0:0:
64,192,224517,1,0,0:0:0:0:
320,192,224596,1,0,0:0:0:0:
192,192,224675,1,0,0:0:0:0:
448,192,224754,1,0,0:0:0:0:
320,192,224833,1,0,0:0:0:0:
64,192,224912,1,0,0:0:0:0:
448,192,224991,1,0,0:0:0:0:
64,192,225070,1,0,0:0:0:0:
320,192,225148,1,0,0:0:0:0:
448,192,225227,1,0,0:0:0:0:
192,192,225306,1,0,0:0:0:0:
448,192,225385,1,0,0:0:0:0:
64,192,225464,1,0,0:0:0:0:
192,192,225543,1,0,0:0:0:0:
320,192,225622,1,0,0:0:0:0:
192,192,225701,1,0,0:0:0:0:
448,192,225780,1,0,0:0:0:0:
320,192,225859,1,0,0:0:0:0:
64,192,225938,1,0,0:0:0:0:
320,192,226017,1,0,0:0:0:0:
192,192,226096,1,0,0:0:0:0:
448,192,226175,1,0,0:0:0:0:
320,192,226254,1,0,0:0:0:0:
64,192,226333,1,0,0:0:0:0:
448,192,226412,1,0,0:0:0:0:
64,192,226491,1,0,0:0:0:0:
320,192,226570,1,0,0:0:0:0:
192,192,226648,1,0,0:0:0:0:
64,192,226727,1,0,0:0:0:0:
448,192,226806,1,0,0:0:0:0:
192,192,226885,1,0,0:0:0:0:
448,192,226964,1,0,0:0:0:0:
64,192,227043,1,0,0:0:0:0:
448,192,227122,1,0,0:0:0:0:
320,192,227122,1,0,0:0:0:0:
192,192,227438,1,0,0:0:0:0:
320,192,227517,1,0,0:0:0:0:
192,192,227596,1,0,0:0:0:0:
448,192,227675,1,0,0:0:0:0:
64,192,227754,1,0,0:0:0:0:
320,192,227833,1,0,0:0:0:0:
192,192,227912,1,0,0:0:0:0:
448,192,227991,1,0,0:0:0:0:
64,192,228070,1,0,0:0:0:0:
192,192,228148,1,0,0:0:0:0:
320,192,228227,1,0,0:0:0:0:
64,192,228306,1,0,0:0:0:0:
320,192,228385,1,0,0:0:0:0:
192,192,228464,1,0,0:0:0:0:
448,192,228543,1,0,0:0:0:0:
64,192,228622,1,0,0:0:0:0:
320,192,228701,1,0,0:0:0:0:
448,192,228780,1,0,0:0:0:0:
192,192,228859,1,0,0:0:0:0:
320,192,228938,1,0,0:0:0:0:
192,192,229017,1,0,0:0:0:0:
448,192,229096,1,0,0:0:0:0:
64,192,229175,1,0,0:0:0:0:
192,192,229254,1,0,0:0:0:0:
320,192,229333,1,0,0:0:0:0:
64,192,229412,1,0,0:0:0:0:
320,192,229491,1,0,0:0:0:0:
192,192,229570,1,0,0:0:0:0:
448,192,229648,1,0,0:0:0:0:
64,192,229727,1,0,0:0:0:0:
320,192,229806,1,0,0:0:0:0:
448,192,229885,1,0,0:0:0:0:
192,192,229964,1,0,0:0:0:0:
320,192,230043,1,0,0:0:0:0:
192,192,230122,1,0,0:0:0:0:
448,192,230201,1,0,0:0:0:0:
64,192,230280,1,0,0:0:0:0:
320,192,230359,1,0,0:0:0:0:
192,192,230438,1,0,0:0:0:0:
448,192,230517,1,0,0:0:0:0:
64,192,230596,1,0,0:0:0:0:
192,192,230675,1,0,0:0:0:0:
320,192,230754,1,0,0:0:0:0:
64,192,230833,1,0,0:0:0:0:
320,192,230912,1,0,0:0:0:0:
192,192,230991,1,0,0:0:0:0:
448,192,231070,1,0,0:0:0:0:
64,192,231148,1,0,0:0:0:0:
320,192,231227,1,0,0:0:0:0:
448,192,231306,1,0,0:0:0:0:
192,192,231385,1,0,0:0:0:0:
320,192,231464,1,0,0:0:0:0:
192,192,231543,1,0,0:0:0:0:
448,192,231622,1,0,0:0:0:0:
64,192,231701,1,0,0:0:0:0:
192,192,231780,1,0,0:0:0:0:
320,192,231859,1,0,0:0:0:0:
64,192,231938,1,0,0:0:0:0:
320,192,232017,1,0,0:0:0:0:
192,192,232096,1,0,0:0:0:0:
448,192,232175,1,0,0:0:0:0:
320,192,232175,1,0,0:0:0:0:
64,192,232491,1,0,0:0:0:0:
320,192,232570,1,0,0:0:0:0:
64,192,232648,1,0,0:0:0:0:
448,192,232727,1,0,0:0:0:0:
320,192,232806,1,0,0:0:0:0:
192,192,232806,1,0,0:0:0:0:
448,192,232885,1,0,0:0:0:0:
64,192,232964,1,0,0:0:0:0:
192,192,233043,1,0,0:0:0:0:
448,192,233122,1,0,0:0:0:0:
64,192,233201,1,0,0:0:0:0:
448,192,233280,1,0,0:0:0:0:
192,192,233359,1,0,0:0:0:0:
320,192,233438,1,0,0:0:0:0:
64,192,233517,1,0,0:0:0:0:
320,192,233596,1,0,0:0:0:0:
192,192,233675,1,0,0:0:0:0:
448,192,233754,1,0,0:0:0:0:
320,192,233833,1,0,0:0:0:0:
64,192,233912,1,0,0:0:0:0:
448,192,233991,1,0,0:0:0:0:
64,192,234070,1,0,0:0:0:0:
320,192,234148,1,0,0:0:0:0:
192,192,234227,1,0,0:0:0:0:
64,192,234306,1,0,0:0:0:0:
448,192,234385,1,0,0:0:0:0:
192,192,234464,1,0,0:0:0:0:
448,192,234543,1,0,0:0:0:0:
64,192,234622,1,0,0:0:0:0:
320,192,234701,1,0,0:0:0:0:
192,192,234701,1,0,0:0:0:0:
64,192,234780,1,0,0:0:0:0:
448,192,234859,1,0,0:0:0:0:
192,192,234938,1,0,0:0:0:0:
64,192,235017,1,0,0:0:0:0:
448,192,235096,1,0,0:0:0:0:
64,192,235175,1,0,0:0:0:0:
320,192,235254,1,0,0:0:0:0:
448,192,235333,1,0,0:0:0:0:
192,192,235412,1,0,0:0:0:0:
448,192,235491,1,0,0:0:0:0:
64,192,235570,1,0,0:0:0:0:
192,192,235648,1,0,0:0:0:0:
320,192,235727,1,0,0:0:0:0:
192,192,235806,1,0,0:0:0:0:
448,192,235885,1,0,0:0:0:0:
320,192,235964,1,0,0:0:0:0:
64,192,236043,1,0,0:0:0:0:
320,192,236122,1,0,0:0:0:0:
192,192,236201,1,0,0:0:0:0:
448,192,236280,1,0,0:0:0:0:
320,192,236359,1,0,0:0:0:0:
64,192,236438,1,0,0:0:0:0:
448,192,236517,1,0,0:0:0:0:
64,192,236596,1,0,0:0:0:0:
320,192,236675,1,0,0:0:0:0:
192,192,236754,1,0,0:0:0:0:
64,192,236833,1,0,0:0:0:0:
448,192,236912,1,0,0:0:0:0:
192,192,236991,1,0,0:0:0:0:
448,192,237070,1,0,0:0:0:0:
64,192,237148,1,0,0:0:0:0:
448,192,237227,1,0,0:0:0:0:
320,192,237227,1,0,0:0:0:0:
192,192,237543,1,0,0:0:0:0:
320,192,237622,1,0,0:0:0:0:
192,192,237701,1,0,0:0:0:0:
448,192,237780,1,0,0:0:0:0:
64,192,237859,1,0,0:0:0:0:
320,192,237938,1,0,0:0:0:0:
192,192,238017,1,0,0:0:0:0:
448,192,238096,1,0,0:0:0:0:
64,192,238175,1,0,0:0:0:0:
192,192,238254,1,0,0:0:0:0:
320,192,238333,1,0,0:0:0:0:
64,192,238412,1,0,0:0:0:0:
320,192,238491,1,0,0:0:0:0:
192,192,238570,1,0,0:0:0:0:
448,192,238648,1,0,0:0:0:0:
64,192,238727,1,0,0:0:0:0:
320,192,238806,1,0,0:0:0:0:
448,192,238885,1,0,0:0:0:0:
192,192,238964,1,0,0:0:0:0:
320,192,239043,1,0,0:0:0:0:
192,192,239122,1,0,0:0:0:0:
448,192,239201,1,0,0:0:0:0:
64,192,239280,1,0,0:0:0:0:
192,192,239359,1,0,0:0:0:0:
320,192,239438,1,0,0:0:0:0:
64,192,239517,1,0,0:0:0:0:
320,192,239596,1,0,0:0:0:0:
192,192,239675,1,0,0:0:0:0:
448,192,239754,128,0,240070:0:0:0:0:
64,192,239754,1,0,0:0:0:0:
192,192,240070,1,0,0:0:0:0:
64,192,240070,1,0,0:0:0:0:
448,192,240227,1,0,0:0:0:0:
320,192,240227,1,0,0:0:0:0:
448,192,240385,1,0,0:0:0:0:
64,192,240385,1,0,0:0:0:0:
320,192,240543,1,0,0:0:0:0:
192,192,240543,1,0,0:0:0:0:
448,192,240701,1,0,0:0:0:0:
64,192,240701,1,0,0:0:0:0:
320,192,240859,1,0,0:0:0:0:
64,192,240859,1,0,0:0:0:0:
448,192,241017,1,0,0:0:0:0:
192,192,241017,1,0,0:0:0:0:
320,192,241175,1,0,0:0:0:0:
64,192,241175,1,0,0:0:0:0:
320,192,241333,1,0,0:0:0:0:
192,192,241333,1,0,0:0:0:0:
448,192,241491,1,0,0:0:0:0:
64,192,241491,1,0,0:0:0:0:
320,192,241648,1,0,0:0:0:0:
192,192,241648,1,0,0:0:0:0:
192,192,241806,1,0,0:0:0:0:
64,192,241806,1,0,0:0:0:0:
448,192,241964,1,0,0:0:0:0:
320,192,242122,1,0,0:0:0:0:
64,192,242201,1,0,0:0:0:0:
448,192,242280,1,0,0:0:0:0:
320,192,242438,1,0,0:0:0:0:
64,192,242517,1,0,0:0:0:0:
448,192,242596,1,0,0:0:0:0:
192,192,242596,1,0,0:0:0:0:
64,192,242754,1,0,0:0:0:0:
320,192,242912,1,0,0:0:0:0:
192,192,243070,1,0,0:0:0:0:
448,192,243148,1,0,0:0:0:0:
192,192,243227,1,0,0:0:0:0:
320,192,243306,1,0,0:0:0:0:
64,192,243385,1,0,0:0:0:0:
192,192,243543,1,0,0:0:0:0:
448,192,243622,1,0,0:0:0:0:
320,192,243701,1,0,0:0:0:0:
64,192,243780,1,0,0:0:0:0:
448,192,243859,1,0,0:0:0:0:
192,192,243859,1,0,0:0:0:0:
64,192,244017,1,0,0:0:0:0:
192,192,244175,1,0,0:0:0:0:
448,192,244333,1,0,0:0:0:0:
320,192,244412,1,0,0:0:0:0:
192,192,244491,1,0,0:0:0:0:
64,192,244491,1,0,0:0:0:0:
448,192,244570,1,0,0:0:0:0:
192,192,244648,1,0,0:0:0:0:
64,192,244648,1,0,0:0:0:0:
448,192,244806,1,0,0:0:0:0:
320,192,244806,1,0,0:0:0:0:
192,192,244885,1,0,0:0:0:0:
320,192,244964,1,0,0:0:0:0:
64,192,245043,1,0,0:0:0:0:
448,192,245122,1,0,0:0:0:0:
192,192,245122,1,0,0:0:0:0:
320,192,245280,1,0,0:0:0:0:
64,192,245359,1,0,0:0:0:0:
192,192,245438,1,0,0:0:0:0:
64,192,245596,1,0,0:0:0:0:
448,192,245675,1,0,0:0:0:0:
192,192,245754,1,0,0:0:0:0:
448,192,245833,1,0,0:0:0:0:
320,192,245912,1,0,0:0:0:0:
64,192,246070,128,0,246385:0:0:0:0:
448,192,246385,1,0,0:0:0:0:
320,192,246385,1,0,0:0:0:0:
192,192,246543,1,0,0:0:0:0:
64,192,246543,1,0,0:0:0:0:
448,192,246701,1,0,0:0:0:0:
320,192,246701,1,0,0:0:0:0:
192,192,246859,1,0,0:0:0:0:
64,192,246859,1,0,0:0:0:0:
448,192,247017,1,0,0:0:0:0:
320,192,247175,1,0,0:0:0:0:
64,192,247333,1,0,0:0:0:0:
192,192,247491,1,0,0:0:0:0:
448,192,247648,1,0,0:0:0:0:
320,192,247648,1,0,0:0:0:0:
64,192,247648,1,0,0:0:0:0:
448,192,247806,1,0,0:0:0:0:
192,192,247806,1,0,0:0:0:0:
320,192,247964,1,0,0:0:0:0:
64,192,247964,1,0,0:0:0:0:
448,192,248122,1,0,0:0:0:0:
192,192,248122,1,0,0:0:0:0:
448,192,248280,1,0,0:0:0:0:
64,192,248280,1,0,0:0:0:0:
320,192,248438,1,0,0:0:0:0:
192,192,248438,1,0,0:0:0:0:
448,192,248596,1,0,0:0:0:0:
64,192,248596,1,0,0:0:0:0:
320,192,248754,1,0,0:0:0:0:
192,192,248754,1,0,0:0:0:0:
448,192,249070,1,0,0:0:0:0:
64,192,249070,1,0,0:0:0:0:
320,192,249227,1,0,0:0:0:0:
192,192,249227,1,0,0:0:0:0:
448,192,249385,1,0,0:0:0:0:
64,192,249385,1,0,0:0:0:0:
448,192,249543,1,0,0:0:0:0:
320,192,249543,1,0,0:0:0:0:
192,192,249701,1,0,0:0:0:0:
64,192,249701,1,0,0:0:0:0:
448,192,249859,1,0,0:0:0:0:
320,192,249859,1,0,0:0:0:0:
192,192,250017,1,0,0:0:0:0:
64,192,250017,1,0,0:0:0:0:
320,192,250333,1,0,0:0:0:0:
64,192,250333,1,0,0:0:0:0:
448,192,250491,1,0,0:0:0:0:
192,192,250491,1,0,0:0:0:0:
320,192,250648,1,0,0:0:0:0:
64,192,250648,1,0,0:0:0:0:
448,192,250806,1,0,0:0:0:0:
64,192,250806,1,0,0:0:0:0:
320,192,250964,1,0,0:0:0:0:
192,192,250964,1,0,0:0:0:0:
448,192,251122,1,0,0:0:0:0:
64,192,251122,1,0,0:0:0:0:
320,192,251280,1,0,0:0:0:0:
192,192,251280,1,0,0:0:0:0:
448,192,251438,1,0,0:0:0:0:
192,192,251438,1,0,0:0:0:0:
320,192,251596,1,0,0:0:0:0:
64,192,251596,1,0,0:0:0:0:
448,192,251754,1,0,0:0:0:0:
192,192,251754,1,0,0:0:0:0:
320,192,251912,1,0,0:0:0:0:
64,192,251912,1,0,0:0:0:0:
448,192,252070,1,0,0:0:0:0:
192,192,252227,1,0,0:0:0:0:
64,192,252227,1,0,0:0:0:0:
448,192,252385,1,0,0:0:0:0:
320,192,252385,1,0,0:0:0:0:
192,192,252543,1,0,0:0:0:0:
64,192,252543,1,0,0:0:0:0:
448,192,252859,1,0,0:0:0:0:
192,192,252859,1,0,0:0:0:0:
320,192,253017,1,0,0:0:0:0:
64,192,253017,1,0,0:0:0:0:
448,192,253175,1,0,0:0:0:0:
192,192,253175,1,0,0:0:0:0:
448,192,253333,1,0,0:0:0:0:
64,192,253333,1,0,0:0:0:0:
320,192,253491,1,0,0:0:0:0:
192,192,253491,1,0,0:0:0:0:
448,192,253648,1,0,0:0:0:0:
64,192,253648,1,0,0:0:0:0:
320,192,253806,1,0,0:0:0:0:
192,192,253806,1,0,0:0:0:0:
448,192,254122,1,0,0:0:0:0:
64,192,254122,1,0,0:0:0:0:
320,192,254280,1,0,0:0:0:0:
192,192,254280,1,0,0:0:0:0:
448,192,254438,1,0,0:0:0:0:
64,192,254438,1,0,0:0:0:0:
448,192,254596,1,0,0:0:0:0:
320,192,254596,1,0,0:0:0:0:
192,192,254754,1,0,0:0:0:0:
64,192,254754,1,0,0:0:0:0:
448,192,254912,1,0,0:0:0:0:
320,192,254912,1,0,0:0:0:0:
192,192,255070,1,0,0:0:0:0:
64,192,255070,1,0,0:0:0:0:
320,192,255385,1,0,0:0:0:0:
64,192,255385,1,0,0:0:0:0:
448,192,255543,1,0,0:0:0:0:
64,192,255543,1,0,0:0:0:0:
320,192,255701,1,0,0:0:0:0:
64,192,255780,1,0,0:0:0:0:
320,192,255859,1,0,0:0:0:0:
192,192,255859,1,0,0:0:0:0:
448,192,256017,1,0,0:0:0:0:
192,192,256017,1,0,0:0:0:0:
448,192,256175,1,0,0:0:0:0:
64,192,256175,1,0,0:0:0:0:
320,192,256333,1,0,0:0:0:0:
192,192,256333,1,0,0:0:0:0:
320,192,256648,1,0,0:0:0:0:
64,192,256648,1,0,0:0:0:0:
192,192,256964,1,0,0:0:0:0:
64,192,256964,1,0,0:0:0:0:
448,192,257122,1,0,0:0:0:0:
192,192,257280,128,0,257754:0:0:0:0:
448,192,257754,1,0,0:0:0:0:
320,192,257754,1,0,0:0:0:0:
64,192,257754,1,0,0:0:0:0:
448,192,257912,1,0,0:0:0:0:
192,192,257912,1,0,0:0:0:0:
320,192,258070,1,0,0:0:0:0:
64,192,258070,1,0,0:0:0:0:
448,192,258227,1,0,0:0:0:0:
192,192,258227,1,0,0:0:0:0:
448,192,258385,1,0,0:0:0:0:
64,192,258385,1,0,0:0:0:0:
320,192,258543,1,0,0:0:0:0:
192,192,258543,1,0,0:0:0:0:
448,192,258701,1,0,0:0:0:0:
64,192,258701,1,0,0:0:0:0:
320,192,258859,1,0,0:0:0:0:
192,192,258859,1,0,0:0:0:0:
64,192,259017,1,0,0:0:0:0:
448,192,259175,1,0,0:0:0:0:
192,192,259175,1,0,0:0:0:0:
320,192,259333,1,0,0:0:0:0:
64,192,259333,1,0,0:0:0:0:
448,192,259491,1,0,0:0:0:0:
192,192,259491,1,0,0:0:0:0:
448,192,259648,1,0,0:0:0:0:
320,192,259648,1,0,0:0:0:0:
192,192,259806,1,0,0:0:0:0:
64,192,259806,1,0,0:0:0:0:
448,192,259964,1,0,0:0:0:0:
320,192,259964,1,0,0:0:0:0:
192,192,260122,1,0,0:0:0:0:
64,192,260122,1,0,0:0:0:0:
448,192,260280,1,0,0:0:0:0:
320,192,260438,1,0,0:0:0:0:
64,192,260438,1,0,0:0:0:0:
448,192,260596,1,0,0:0:0:0:
192,192,260596,1,0,0:0:0:0:
320,192,260754,1,0,0:0:0:0:
64,192,260754,1,0,0:0:0:0:
448,192,260912,1,0,0:0:0:0:
64,192,260912,1,0,0:0:0:0:
320,192,261070,1,0,0:0:0:0:
192,192,261070,1,0,0:0:0:0:
448,192,261227,1,0,0:0:0:0:
64,192,261227,1,0,0:0:0:0:
320,192,261385,1,0,0:0:0:0:
192,192,261385,1,0,0:0:0:0:
448,192,261543,1,0,0:0:0:0:
192,192,261543,1,0,0:0:0:0:
320,192,261701,1,0,0:0:0:0:
64,192,261701,1,0,0:0:0:0:
448,192,261859,1,0,0:0:0:0:
192,192,261859,1,0,0:0:0:0:
320,192,262017,1,0,0:0:0:0:
64,192,262017,1,0,0:0:0:0:
448,192,262175,1,0,0:0:0:0:
192,192,262333,1,0,0:0:0:0:
64,192,262333,1,0,0:0:0:0:
448,192,262491,1,0,0:0:0:0:
320,192,262491,1,0,0:0:0:0:
192,192,262648,1,0,0:0:0:0:
64,192,262648,1,0,0:0:0:0:
320,192,262806,1,0,0:0:0:0:
448,192,262964,1,0,0:0:0:0:
192,192,262964,1,0,0:0:0:0:
320,192,263122,1,0,0:0:0:0:
64,192,263122,1,0,0:0:0:0:
448,192,263280,1,0,0:0:0:0:
192,192,263280,1,0,0:0:0:0:
448,192,263438,1,0,0:0:0:0:
64,192,263438,1,0,0:0:0:0:
320,192,263596,1,0,0:0:0:0:
192,192,263596,1,0,0:0:0:0:
448,192,263754,1,0,0:0:0:0:
64,192,263754,1,0,0:0:0:0:
320,192,263912,1,0,0:0:0:0:
192,192,263912,1,0,0:0:0:0:
64,192,264070,1,0,0:0:0:0:
448,192,264227,1,0,0:0:0:0:
192,192,264227,1,0,0:0:0:0:
320,192,264385,1,0,0:0:0:0:
64,192,264385,1,0,0:0:0:0:
448,192,264543,1,0,0:0:0:0:
192,192,264543,1,0,0:0:0:0:
448,192,264701,1,0,0:0:0:0:
320,192,264701,1,0,0:0:0:0:
192,192,264859,1,0,0:0:0:0:
64,192,264859,1,0,0:0:0:0:
448,192,265017,1,0,0:0:0:0:
64,192,265017,1,0,0:0:0:0:
320,192,265175,1,0,0:0:0:0:
192,192,265175,1,0,0:0:0:0:
448,192,265491,1,0,0:0:0:0:
64,192,265491,1,0,0:0:0:0:
320,192,265648,1,0,0:0:0:0:
64,192,265648,1,0,0:0:0:0:
192,192,265806,1,0,0:0:0:0:
448,192,265964,1,0,0:0:0:0:
64,192,265964,1,0,0:0:0:0:
448,192,266122,1,0,0:0:0:0:
192,192,266122,1,0,0:0:0:0:
320,192,266280,1,0,0:0:0:0:
192,192,266438,1,0,0:0:0:0:
64,192,266438,1,0,0:0:0:0:
64,192,266596,1,0,0:0:0:0:
448,192,266754,1,0,0:0:0:0:
320,192,266754,1,0,0:0:0:0:
192,192,266833,1,0,0:0:0:0:
448,192,266912,1,0,0:0:0:0:
192,192,267070,1,0,0:0:0:0:
64,192,267070,1,0,0:0:0:0:
448,192,267148,1,0,0:0:0:0:
192,192,267227,1,0,0:0:0:0:
320,192,267306,1,0,0:0:0:0:
64,192,267385,1,0,0:0:0:0:
448,192,267543,1,0,0:0:0:0:
192,192,267701,1,0,0:0:0:0:
320,192,267780,1,0,0:0:0:0:
448,192,267859,1,0,0:0:0:0:
64,192,267859,1,0,0:0:0:0:
192,192,268017,1,0,0:0:0:0:
64,192,268175,1,0,0:0:0:0:
320,192,268333,1,0,0:0:0:0:
192,192,268491,1,0,0:0:0:0:
448,192,268648,1,0,0:0:0:0:
64,192,268806,1,0,0:0:0:0:
320,192,268964,1,0,0:0:0:0:
192,192,269122,1,0,0:0:0:0:
64,192,269280,1,0,0:0:0:0:
448,192,269438,1,0,0:0:0:0:
64,192,269596,1,0,0:0:0:0:
320,192,269754,1,0,0:0:0:0:
64,192,269912,1,0,0:0:0:0:
192,192,270070,1,0,0:0:0:0:
448,192,270227,1,0,0:0:0:0:
320,192,270385,1,0,0:0:0:0:
192,192,270543,1,0,0:0:0:0:
64,192,270701,1,0,0:0:0:0:
448,192,270859,1,0,0:0:0:0:
192,192,271017,1,0,0:0:0:0:
320,192,271175,1,0,0:0:0:0:
64,192,271333,1,0,0:0:0:0:
448,192,271491,1,0,0:0:0:0:
192,192,271648,1,0,0:0:0:0:
64,192,271806,1,0,0:0:0:0:
320,192,271964,1,0,0:0:0:0:
64,192,272122,1,0,0:0:0:0:
448,192,272280,1,0,0:0:0:0:
64,192,272438,1,0,0:0:0:0:
192,192,272596,1,0,0:0:0:0:
320,192,272754,1,0,0:0:0:0:
448,192,272912,1,0,0:0:0:0:
320,192,273385,1,0,0:0:0:0:
64,192,273701,1,0,0:0:0:0:
192,192,274017,1,0,0:0:0:0:
448,192,274491,1,0,0:0:0:0:
320,192,274806,1,0,0:0:0:0:
64,192,275122,1,0,0:0:0:0:
448,192,275438,1,0,0:0:0:0:
320,192,275912,1,0,0:0:0:0:
64,192,276227,1,0,0:0:0:0:
192,192,276543,1,0,0:0:0:0:
64,192,277017,1,0,0:0:0:0:
320,192,277333,1,0,0:0:0:0:
192,192,277648,1,0,0:0:0:0:
448,192,277964,1,0,0:0:0:0:
