osu file format v14

[General]
AudioFilename: The Cyber Grind.mp3
AudioLeadIn: 0
PreviewTime: 10175
Countdown: 0
SampleSet: Soft
StackLeniency: 0.7
Mode: 3
LetterboxInBreaks: 0
SpecialStyle: 0
WidescreenStoryboard: 0

[Editor]
DistanceSpacing: 0.8
BeatDivisor: 2
GridSize: 32
TimelineZoom: 1

[Metadata]
Title:The Cyber Grind
TitleUnicode:The Cyber Grind
Artist:meganeko
ArtistUnicode:meganeko
Creator:AutotelicBrown
Version:Easy
Source:ULTRAKILL
Tags:Original Soundtrack OST Act I INFINITE HYPERDEATH New Blood Interactive Heaven Pierce Her Hakita Patala Drum and Bass DnB D&B 90s Djent Glitch Hardcore House Industrial Metal Electronic Video Game VGM Instrumental
BeatmapID:3911004
BeatmapSetID:1895713

[Difficulty]
HPDrainRate:7
CircleSize:4
OverallDifficulty:7
ApproachRate:5
SliderMultiplier:1.4
SliderTickRate:1

[Events]
//Background and Video events
0,0,"bg.png",0,0
//Break Periods
//Storyboard Layer 0 (Background)
//Storyboard Layer 1 (Fail)
//Storyboard Layer 2 (Pass)
//Storyboard Layer 3 (Foreground)
//Storyboard Layer 4 (Overlay)
//Storyboard Sound Samples

[TimingPoints]
70,315.789473684211,4,2,1,25,1,0
10175,-100,4,2,1,40,0,0
60701,-100,4,2,1,40,0,1
80912,-100,4,2,1,40,0,0
121333,-100,4,2,1,40,0,1
139017,-100,4,2,1,40,0,0
222385,-100,4,2,1,40,0,1
239754,-100,4,2,1,40,0,0
267859,-100,4,2,1,25,0,0
272912,-100,4,2,1,15,0,0

[HitObjects]
448,192,70,5,0,0:0:0:0:
320,192,543,1,0,0:0:0:0:
64,192,859,1,0,0:0:0:0:
192,192,1175,1,0,0:0:0:0:
448,192,1648,1,0,0:0:0:0:
320,192,1964,1,0,0:0:0:0:
64,192,2280,1,0,0:0:0:0:
448,192,2596,1,0,0:0:0:0:
320,192,3070,1,0,0:0:0:0:
64,192,3385,1,0,0:0:0:0:
192,192,3701,1,0,0:0:0:0:
64,192,4175,1,0,0:0:0:0:
320,192,4491,1,0,0:0:0:0:
192,192,4806,1,0,0:0:0:0:
448,192,5122,1,0,0:0:0:0:
320,192,5596,1,0,0:0:0:0:
64,192,5912,1,0,0:0:0:0:
192,192,6227,1,0,0:0:0:0:
448,192,6701,1,0,0:0:0:0:
320,192,7017,1,0,0:0:0:0:
64,192,7333,1,0,0:0:0:0:
448,192,7648,1,0,0:0:0:0:
320,192,8122,1,0,0:0:0:0:
64,192,8438,1,0,0:0:0:0:
192,192,8754,1,0,0:0:0:0:
64,192,9227,1,0,0:0:0:0:
320,192,9543,1,0,0:0:0:0:
192,192,9859,1,0,0:0:0:0:
448,192,10175,1,0,0:0:0:0:
64,192,10175,1,0,0:0:0:0:
320,192,10648,1,0,0:0:0:0:
64,192,10964,1,0,0:0:0:0:
192,192,11280,1,0,0:0:0:0:
448,192,11596,1,0,0:0:0:0:
320,192,11754,1,0,0:0:0:0:
64,192,12227,1,0,0:0:0:0:
192,192,12385,1,0,0:0:0:0:
448,192,12701,1,0,0:0:0:0:
64,192,13017,1,0,0:0:0:0:
448,192,13175,1,0,0:0:0:0:
192,192,13333,1,0,0:0:0:0:
64,192,13648,1,0,0:0:0:0:
320,192,13806,1,0,0:0:0:0:
448,192,14122,1,0,0:0:0:0:
192,192,14280,1,0,0:0:0:0:
320,192,14517,1,0,0:0:0:0:
64,192,14754,1,0,0:0:0:0:
448,192,14912,128,0,15227:0:0:0:0:
192,192,15227,1,0,0:0:0:0:
320,192,15701,1,0,0:0:0:0:
64,192,16017,128,0,16333:0:0:0:0:
448,192,16333,1,0,0:0:0:0:
64,192,16648,1,0,0:0:0:0:
320,192,16806,1,0,0:0:0:0:
448,192,17280,1,0,0:0:0:0:
192,192,17438,1,0,0:0:0:0:
64,192,17754,1,0,0:0:0:0:
320,192,19017,1,0,0:0:0:0:
192,192,19491,1,0,0:0:0:0:
448,192,19964,1,0,0:0:0:0:
320,192,19964,1,0,0:0:0:0:
192,192,20280,1,0,0:0:0:0:
64,192,20280,1,0,0:0:0:0:
320,192,20596,1,0,0:0:0:0:
64,192,21070,1,0,0:0:0:0:
448,192,21227,1,0,0:0:0:0:
192,192,21543,1,0,0:0:0:0:
320,192,21859,1,0,0:0:0:0:
192,192,22333,1,0,0:0:0:0:
448,192,22491,1,0,0:0:0:0:
320,192,22806,1,0,0:0:0:0:
64,192,23122,1,0,0:0:0:0:
320,192,23596,1,0,0:0:0:0:
192,192,23754,1,0,0:0:0:0:
448,192,24070,1,0,0:0:0:0:
64,192,24385,1,0,0:0:0:0:
448,192,24859,1,0,0:0:0:0:
192,192,25017,1,0,0:0:0:0:
64,192,25333,1,0,0:0:0:0:
320,192,25648,1,0,0:0:0:0:
64,192,26122,1,0,0:0:0:0:
448,192,26280,1,0,0:0:0:0:
192,192,26596,1,0,0:0:0:0:
320,192,26912,1,0,0:0:0:0:
192,192,27385,1,0,0:0:0:0:
448,192,27543,1,0,0:0:0:0:
320,192,27859,1,0,0:0:0:0:
64,192,28175,1,0,0:0:0:0:
320,192,28648,1,0,0:0:0:0:
192,192,28806,1,0,0:0:0:0:
448,192,29122,1,0,0:0:0:0:
192,192,29359,1,0,0:0:0:0:
448,192,29596,1,0,0:0:0:0:
64,192,29754,1,0,0:0:0:0:
320,192,29991,1,0,0:0:0:0:
64,192,30227,1,0,0:0:0:0:
448,192,30385,1,0,0:0:0:0:
192,192,30385,1,0,0:0:0:0:
64,192,30701,1,0,0:0:0:0:
448,192,31175,1,0,0:0:0:0:
192,192,31333,1,0,0:0:0:0:
320,192,31648,1,0,0:0:0:0:
64,192,31964,1,0,0:0:0:0:
320,192,32438,1,0,0:0:0:0:
192,192,32596,1,0,0:0:0:0:
64,192,32912,1,0,0:0:0:0:
448,192,33227,1,0,0:0:0:0:
64,192,33701,1,0,0:0:0:0:
320,192,33859,1,0,0:0:0:0:
192,192,34175,1,0,0:0:0:0:
448,192,34491,1,0,0:0:0:0:
192,192,34964,1,0,0:0:0:0:
320,192,35122,1,0,0:0:0:0:
448,192,35438,1,0,0:0:0:0:
64,192,35754,1,0,0:0:0:0:
448,192,36227,1,0,0:0:0:0:
192,192,36385,1,0,0:0:0:0:
320,192,36701,1,0,0:0:0:0:
192,192,37017,1,0,0:0:0:0:
448,192,37175,1,0,0:0:0:0:
64,192,37412,1,0,0:0:0:0:
320,192,37648,128,0,37964:0:0:0:0:
192,192,37964,1,0,0:0:0:0:
448,192,38280,1,0,0:0:0:0:
64,192,38438,1,0,0:0:0:0:
320,192,38754,1,0,0:0:0:0:
192,192,38912,1,0,0:0:0:0:
448,192,39070,1,0,0:0:0:0:
320,192,39227,1,0,0:0:0:0:
64,192,39543,1,0,0:0:0:0:
448,192,39701,1,0,0:0:0:0:
320,192,40491,1,0,0:0:0:0:
192,192,40491,1,0,0:0:0:0:
64,192,41754,1,0,0:0:0:0:
448,192,43017,1,0,0:0:0:0:
192,192,44280,1,0,0:0:0:0:
320,192,45543,1,0,0:0:0:0:
64,192,46806,1,0,0:0:0:0:
192,192,48070,1,0,0:0:0:0:
448,192,49333,1,0,0:0:0:0:
320,192,49648,1,0,0:0:0:0:
192,192,49964,1,0,0:0:0:0:
448,192,50280,1,0,0:0:0:0:
64,192,50438,1,0,0:0:0:0:
448,192,50596,1,0,0:0:0:0:
320,192,50596,1,0,0:0:0:0:
192,192,50912,1,0,0:0:0:0:
448,192,51227,1,0,0:0:0:0:
64,192,51543,1,0,0:0:0:0:
448,192,51701,1,0,0:0:0:0:
320,192,51859,1,0,0:0:0:0:
192,192,52175,1,0,0:0:0:0:
320,192,52491,1,0,0:0:0:0:
64,192,52806,1,0,0:0:0:0:
320,192,52964,1,0,0:0:0:0:
192,192,53122,1,0,0:0:0:0:
448,192,53438,1,0,0:0:0:0:
192,192,53754,1,0,0:0:0:0:
320,192,54070,1,0,0:0:0:0:
192,192,54227,1,0,0:0:0:0:
64,192,54385,1,0,0:0:0:0:
448,192,54701,1,0,0:0:0:0:
64,192,55017,1,0,0:0:0:0:
320,192,55333,1,0,0:0:0:0:
64,192,55491,1,0,0:0:0:0:
448,192,55648,1,0,0:0:0:0:
192,192,55964,1,0,0:0:0:0:
448,192,56280,1,0,0:0:0:0:
192,192,56596,1,0,0:0:0:0:
320,192,56912,1,0,0:0:0:0:
64,192,57227,1,0,0:0:0:0:
320,192,57543,1,0,0:0:0:0:
64,192,57859,1,0,0:0:0:0:
448,192,58175,128,0,58806:0:0:0:0:
320,192,58806,128,0,59438:0:0:0:0:
192,192,59438,128,0,60070:0:0:0:0:
448,192,60070,1,0,0:0:0:0:
64,192,60070,1,0,0:0:0:0:
320,192,60385,1,0,0:0:0:0:
192,192,60701,1,0,0:0:0:0:
64,192,60701,1,0,0:0:0:0:
448,192,61175,1,0,0:0:0:0:
320,192,61175,1,0,0:0:0:0:
192,192,61333,1,0,0:0:0:0:
64,192,61333,1,0,0:0:0:0:
448,192,61806,1,0,0:0:0:0:
320,192,61806,1,0,0:0:0:0:
192,192,61964,1,0,0:0:0:0:
64,192,61964,1,0,0:0:0:0:
320,192,62280,1,0,0:0:0:0:
64,192,62438,1,0,0:0:0:0:
448,192,62754,1,0,0:0:0:0:
192,192,62912,1,0,0:0:0:0:
448,192,63227,1,0,0:0:0:0:
320,192,63227,1,0,0:0:0:0:
192,192,63543,1,0,0:0:0:0:
64,192,63543,1,0,0:0:0:0:
320,192,63701,1,0,0:0:0:0:
192,192,63859,1,0,0:0:0:0:
64,192,63859,1,0,0:0:0:0:
448,192,64175,1,0,0:0:0:0:
320,192,64175,1,0,0:0:0:0:
192,192,64333,1,0,0:0:0:0:
448,192,64491,1,0,0:0:0:0:
64,192,64806,1,0,0:0:0:0:
192,192,65280,1,0,0:0:0:0:
320,192,65438,1,0,0:0:0:0:
192,192,65754,1,0,0:0:0:0:
64,192,65754,1,0,0:0:0:0:
448,192,66227,1,0,0:0:0:0:
320,192,66227,1,0,0:0:0:0:
192,192,66385,1,0,0:0:0:0:
64,192,66385,1,0,0:0:0:0:
448,192,66859,1,0,0:0:0:0:
320,192,66859,1,0,0:0:0:0:
192,192,67017,1,0,0:0:0:0:
64,192,67017,1,0,0:0:0:0:
448,192,67333,1,0,0:0:0:0:
192,192,67491,1,0,0:0:0:0:
320,192,67806,1,0,0:0:0:0:
64,192,67964,1,0,0:0:0:0:
448,192,68280,1,0,0:0:0:0:
192,192,68280,1,0,0:0:0:0:
64,192,68596,1,0,0:0:0:0:
448,192,68833,1,0,0:0:0:0:
192,192,69070,1,0,0:0:0:0:
320,192,69227,1,0,0:0:0:0:
448,192,69543,1,0,0:0:0:0:
192,192,69780,1,0,0:0:0:0:
448,192,70017,1,0,0:0:0:0:
64,192,70175,1,0,0:0:0:0:
320,192,70412,1,0,0:0:0:0:
64,192,70648,1,0,0:0:0:0:
448,192,70806,1,0,0:0:0:0:
320,192,70806,1,0,0:0:0:0:
192,192,71280,1,0,0:0:0:0:
64,192,71280,1,0,0:0:0:0:
448,192,71438,1,0,0:0:0:0:
320,192,71438,1,0,0:0:0:0:
192,192,71912,1,0,0:0:0:0:
64,192,71912,1,0,0:0:0:0:
448,192,72070,1,0,0:0:0:0:
320,192,72070,1,0,0:0:0:0:
192,192,72385,1,0,0:0:0:0:
448,192,72543,1,0,0:0:0:0:
64,192,72859,1,0,0:0:0:0:
320,192,73017,1,0,0:0:0:0:
192,192,73333,1,0,0:0:0:0:
64,192,73333,1,0,0:0:0:0:
448,192,73648,1,0,0:0:0:0:
320,192,73648,1,0,0:0:0:0:
192,192,73806,1,0,0:0:0:0:
448,192,73964,1,0,0:0:0:0:
320,192,73964,1,0,0:0:0:0:
192,192,74280,1,0,0:0:0:0:
64,192,74280,1,0,0:0:0:0:
320,192,74438,1,0,0:0:0:0:
64,192,74596,1,0,0:0:0:0:
448,192,74912,1,0,0:0:0:0:
320,192,75385,1,0,0:0:0:0:
192,192,75543,1,0,0:0:0:0:
448,192,75859,1,0,0:0:0:0:
320,192,75859,1,0,0:0:0:0:
192,192,76333,1,0,0:0:0:0:
64,192,76333,1,0,0:0:0:0:
448,192,76491,1,0,0:0:0:0:
320,192,76491,1,0,0:0:0:0:
192,192,76964,1,0,0:0:0:0:
64,192,76964,1,0,0:0:0:0:
448,192,77122,1,0,0:0:0:0:
320,192,77122,1,0,0:0:0:0:
64,192,77438,1,0,0:0:0:0:
320,192,77596,1,0,0:0:0:0:
192,192,77912,1,0,0:0:0:0:
448,192,78070,1,0,0:0:0:0:
320,192,78385,1,0,0:0:0:0:
192,192,78385,1,0,0:0:0:0:
64,192,78701,1,0,0:0:0:0:
448,192,78938,1,0,0:0:0:0:
192,192,79175,1,0,0:0:0:0:
320,192,79333,1,0,0:0:0:0:
448,192,79648,1,0,0:0:0:0:
192,192,79885,1,0,0:0:0:0:
448,192,80122,1,0,0:0:0:0:
64,192,80280,1,0,0:0:0:0:
320,192,80517,1,0,0:0:0:0:
64,192,80754,1,0,0:0:0:0:
448,192,80912,1,0,0:0:0:0:
192,192,80912,1,0,0:0:0:0:
320,192,81227,1,0,0:0:0:0:
64,192,81701,1,0,0:0:0:0:
320,192,81859,1,0,0:0:0:0:
64,192,82333,1,0,0:0:0:0:
320,192,82491,1,0,0:0:0:0:
64,192,82964,1,0,0:0:0:0:
320,192,83122,1,0,0:0:0:0:
448,192,83438,1,0,0:0:0:0:
192,192,83754,1,0,0:0:0:0:
448,192,84227,1,0,0:0:0:0:
192,192,84385,1,0,0:0:0:0:
448,192,84859,1,0,0:0:0:0:
192,192,85017,1,0,0:0:0:0:
448,192,85491,1,0,0:0:0:0:
192,192,85648,1,0,0:0:0:0:
320,192,85806,1,0,0:0:0:0:
64,192,85964,1,0,0:0:0:0:
448,192,86280,1,0,0:0:0:0:
64,192,86754,1,0,0:0:0:0:
448,192,86912,1,0,0:0:0:0:
64,192,87385,1,0,0:0:0:0:
448,192,87543,1,0,0:0:0:0:
64,192,88017,1,0,0:0:0:0:
448,192,88175,1,0,0:0:0:0:
320,192,88491,1,0,0:0:0:0:
192,192,88806,1,0,0:0:0:0:
320,192,89280,1,0,0:0:0:0:
192,192,89438,1,0,0:0:0:0:
320,192,89912,1,0,0:0:0:0:
192,192,90070,1,0,0:0:0:0:
320,192,90543,1,0,0:0:0:0:
192,192,90701,1,0,0:0:0:0:
448,192,90859,1,0,0:0:0:0:
320,192,91017,1,0,0:0:0:0:
64,192,91017,1,0,0:0:0:0:
448,192,91333,1,0,0:0:0:0:
64,192,91648,1,0,0:0:0:0:
448,192,91964,1,0,0:0:0:0:
64,192,92280,1,0,0:0:0:0:
448,192,92596,1,0,0:0:0:0:
64,192,92912,1,0,0:0:0:0:
448,192,93227,1,0,0:0:0:0:
320,192,93543,1,0,0:0:0:0:
64,192,93543,1,0,0:0:0:0:
192,192,93859,1,0,0:0:0:0:
320,192,94175,1,0,0:0:0:0:
192,192,94491,1,0,0:0:0:0:
320,192,94806,1,0,0:0:0:0:
192,192,95122,1,0,0:0:0:0:
320,192,95438,1,0,0:0:0:0:
192,192,95754,1,0,0:0:0:0:
448,192,96070,1,0,0:0:0:0:
64,192,96070,1,0,0:0:0:0:
320,192,96385,1,0,0:0:0:0:
192,192,96701,1,0,0:0:0:0:
448,192,96859,1,0,0:0:0:0:
64,192,97017,1,0,0:0:0:0:
320,192,97175,1,0,0:0:0:0:
192,192,97333,1,0,0:0:0:0:
448,192,97648,1,0,0:0:0:0:
64,192,97964,1,0,0:0:0:0:
320,192,98122,1,0,0:0:0:0:
192,192,98280,1,0,0:0:0:0:
64,192,98280,1,0,0:0:0:0:
448,192,98596,1,0,0:0:0:0:
320,192,98596,1,0,0:0:0:0:
64,192,98912,1,0,0:0:0:0:
448,192,99227,1,0,0:0:0:0:
192,192,99385,1,0,0:0:0:0:
448,192,99859,1,0,0:0:0:0:
320,192,100175,1,0,0:0:0:0:
64,192,100491,1,0,0:0:0:0:
448,192,100806,1,0,0:0:0:0:
320,192,101122,1,0,0:0:0:0:
64,192,101122,1,0,0:0:0:0:
192,192,101438,1,0,0:0:0:0:
448,192,101596,1,0,0:0:0:0:
64,192,101912,1,0,0:0:0:0:
320,192,102070,1,0,0:0:0:0:
192,192,102227,1,0,0:0:0:0:
448,192,102543,1,0,0:0:0:0:
64,192,102701,1,0,0:0:0:0:
192,192,103017,1,0,0:0:0:0:
320,192,103333,1,0,0:0:0:0:
64,192,103491,1,0,0:0:0:0:
192,192,103806,1,0,0:0:0:0:
448,192,103964,1,0,0:0:0:0:
320,192,104122,1,0,0:0:0:0:
64,192,104438,1,0,0:0:0:0:
448,192,104596,1,0,0:0:0:0:
192,192,104754,1,0,0:0:0:0:
448,192,105070,1,0,0:0:0:0:
320,192,105227,1,0,0:0:0:0:
192,192,105543,1,0,0:0:0:0:
448,192,105701,1,0,0:0:0:0:
64,192,105859,1,0,0:0:0:0:
320,192,106175,1,0,0:0:0:0:
192,192,106491,1,0,0:0:0:0:
448,192,106648,1,0,0:0:0:0:
64,192,106964,1,0,0:0:0:0:
320,192,107122,1,0,0:0:0:0:
192,192,107280,1,0,0:0:0:0:
448,192,107596,1,0,0:0:0:0:
64,192,107754,1,0,0:0:0:0:
192,192,108070,1,0,0:0:0:0:
320,192,108385,1,0,0:0:0:0:
64,192,108543,1,0,0:0:0:0:
192,192,108859,1,0,0:0:0:0:
448,192,109017,1,0,0:0:0:0:
64,192,109175,1,0,0:0:0:0:
320,192,109491,1,0,0:0:0:0:
192,192,109648,1,0,0:0:0:0:
448,192,109806,1,0,0:0:0:0:
192,192,109964,1,0,0:0:0:0:
64,192,109964,1,0,0:0:0:0:
448,192,110280,1,0,0:0:0:0:
64,192,110596,1,0,0:0:0:0:
320,192,110912,1,0,0:0:0:0:
192,192,111070,1,0,0:0:0:0:
448,192,111227,1,0,0:0:0:0:
64,192,111227,1,0,0:0:0:0:
192,192,111543,1,0,0:0:0:0:
448,192,111701,1,0,0:0:0:0:
64,192,112017,1,0,0:0:0:0:
320,192,112175,1,0,0:0:0:0:
192,192,112333,1,0,0:0:0:0:
448,192,112648,1,0,0:0:0:0:
64,192,112806,1,0,0:0:0:0:
192,192,113122,1,0,0:0:0:0:
320,192,113438,1,0,0:0:0:0:
64,192,113596,1,0,0:0:0:0:
192,192,113912,1,0,0:0:0:0:
448,192,114070,1,0,0:0:0:0:
320,192,114227,1,0,0:0:0:0:
64,192,114543,1,0,0:0:0:0:
448,192,114701,1,0,0:0:0:0:
192,192,114859,1,0,0:0:0:0:
448,192,115175,1,0,0:0:0:0:
320,192,115333,1,0,0:0:0:0:
192,192,115648,1,0,0:0:0:0:
448,192,115806,1,0,0:0:0:0:
64,192,115964,1,0,0:0:0:0:
320,192,116280,1,0,0:0:0:0:
192,192,116596,1,0,0:0:0:0:
448,192,116754,1,0,0:0:0:0:
64,192,117070,1,0,0:0:0:0:
320,192,117227,1,0,0:0:0:0:
192,192,117385,1,0,0:0:0:0:
448,192,117701,1,0,0:0:0:0:
64,192,117859,1,0,0:0:0:0:
320,192,118017,1,0,0:0:0:0:
192,192,118175,1,0,0:0:0:0:
320,192,118491,1,0,0:0:0:0:
64,192,118648,1,0,0:0:0:0:
192,192,118964,1,0,0:0:0:0:
448,192,119122,1,0,0:0:0:0:
64,192,119280,1,0,0:0:0:0:
320,192,119596,1,0,0:0:0:0:
192,192,119754,1,0,0:0:0:0:
448,192,119912,1,0,0:0:0:0:
64,192,120070,1,0,0:0:0:0:
320,192,120385,1,0,0:0:0:0:
192,192,120701,1,0,0:0:0:0:
448,192,121017,1,0,0:0:0:0:
64,192,121333,1,0,0:0:0:0:
320,192,121491,1,0,0:0:0:0:
64,192,121648,1,0,0:0:0:0:
448,192,122122,1,0,0:0:0:0:
192,192,122280,1,0,0:0:0:0:
448,192,122438,1,0,0:0:0:0:
64,192,122754,1,0,0:0:0:0:
320,192,122912,1,0,0:0:0:0:
448,192,123227,1,0,0:0:0:0:
192,192,123385,1,0,0:0:0:0:
448,192,123543,1,0,0:0:0:0:
64,192,123859,1,0,0:0:0:0:
320,192,124017,1,0,0:0:0:0:
64,192,124175,1,0,0:0:0:0:
448,192,124648,1,0,0:0:0:0:
192,192,124806,1,0,0:0:0:0:
448,192,124964,1,0,0:0:0:0:
64,192,125280,1,0,0:0:0:0:
320,192,125438,1,0,0:0:0:0:
448,192,125754,1,0,0:0:0:0:
192,192,125912,1,0,0:0:0:0:
320,192,126070,1,0,0:0:0:0:
64,192,126385,1,0,0:0:0:0:
448,192,126543,1,0,0:0:0:0:
64,192,126701,1,0,0:0:0:0:
320,192,127175,1,0,0:0:0:0:
192,192,127333,1,0,0:0:0:0:
320,192,127491,1,0,0:0:0:0:
64,192,127806,1,0,0:0:0:0:
448,192,127964,1,0,0:0:0:0:
320,192,128280,1,0,0:0:0:0:
192,192,128438,1,0,0:0:0:0:
320,192,128596,1,0,0:0:0:0:
64,192,128912,1,0,0:0:0:0:
448,192,129070,1,0,0:0:0:0:
64,192,129227,1,0,0:0:0:0:
320,192,129701,1,0,0:0:0:0:
192,192,129859,1,0,0:0:0:0:
320,192,130017,1,0,0:0:0:0:
64,192,130333,1,0,0:0:0:0:
448,192,130491,1,0,0:0:0:0:
320,192,130806,1,0,0:0:0:0:
192,192,130964,1,0,0:0:0:0:
448,192,131122,1,0,0:0:0:0:
64,192,131438,1,0,0:0:0:0:
320,192,131596,1,0,0:0:0:0:
192,192,131754,1,0,0:0:0:0:
64,192,131754,1,0,0:0:0:0:
448,192,132227,1,0,0:0:0:0:
192,192,132385,1,0,0:0:0:0:
448,192,132543,1,0,0:0:0:0:
64,192,132859,1,0,0:0:0:0:
320,192,133017,1,0,0:0:0:0:
448,192,133333,1,0,0:0:0:0:
192,192,133491,1,0,0:0:0:0:
448,192,133648,1,0,0:0:0:0:
320,192,133648,1,0,0:0:0:0:
64,192,133964,1,0,0:0:0:0:
320,192,134122,1,0,0:0:0:0:
192,192,134280,1,0,0:0:0:0:
64,192,134280,1,0,0:0:0:0:
448,192,134754,1,0,0:0:0:0:
192,192,134912,1,0,0:0:0:0:
448,192,135070,1,0,0:0:0:0:
64,192,135385,1,0,0:0:0:0:
320,192,135543,1,0,0:0:0:0:
448,192,135859,1,0,0:0:0:0:
192,192,136017,1,0,0:0:0:0:
320,192,136175,1,0,0:0:0:0:
64,192,136491,1,0,0:0:0:0:
448,192,136648,1,0,0:0:0:0:
64,192,136806,1,0,0:0:0:0:
320,192,137280,1,0,0:0:0:0:
192,192,137438,1,0,0:0:0:0:
320,192,137596,1,0,0:0:0:0:
64,192,137912,1,0,0:0:0:0:
448,192,138070,1,0,0:0:0:0:
320,192,138385,1,0,0:0:0:0:
192,192,138543,1,0,0:0:0:0:
448,192,138701,1,0,0:0:0:0:
64,192,139017,128,0,141227:0:0:0:0:
448,192,141227,1,0,0:0:0:0:
320,192,141543,1,0,0:0:0:0:
192,192,141543,1,0,0:0:0:0:
64,192,141859,1,0,0:0:0:0:
448,192,142175,1,0,0:0:0:0:
320,192,142491,1,0,0:0:0:0:
64,192,142806,1,0,0:0:0:0:
192,192,143122,1,0,0:0:0:0:
320,192,143438,1,0,0:0:0:0:
448,192,143754,1,0,0:0:0:0:
64,192,143912,1,0,0:0:0:0:
192,192,144070,1,0,0:0:0:0:
320,192,144385,1,0,0:0:0:0:
64,192,144701,1,0,0:0:0:0:
448,192,145017,1,0,0:0:0:0:
64,192,145333,1,0,0:0:0:0:
320,192,145648,1,0,0:0:0:0:
192,192,145964,1,0,0:0:0:0:
448,192,146280,1,0,0:0:0:0:
320,192,146596,1,0,0:0:0:0:
64,192,146912,1,0,0:0:0:0:
448,192,147227,1,0,0:0:0:0:
192,192,147543,1,0,0:0:0:0:
448,192,147859,1,0,0:0:0:0:
64,192,148175,1,0,0:0:0:0:
320,192,148491,1,0,0:0:0:0:
192,192,148806,1,0,0:0:0:0:
64,192,149122,1,0,0:0:0:0:
448,192,149438,1,0,0:0:0:0:
192,192,149754,1,0,0:0:0:0:
320,192,150070,1,0,0:0:0:0:
192,192,150385,1,0,0:0:0:0:
448,192,150701,1,0,0:0:0:0:
64,192,151017,1,0,0:0:0:0:
320,192,151333,1,0,0:0:0:0:
192,192,151648,1,0,0:0:0:0:
64,192,151648,1,0,0:0:0:0:
320,192,152122,1,0,0:0:0:0:
192,192,152754,1,0,0:0:0:0:
448,192,152912,1,0,0:0:0:0:
320,192,153385,1,0,0:0:0:0:
448,192,153701,1,0,0:0:0:0:
64,192,154017,1,0,0:0:0:0:
320,192,154175,1,0,0:0:0:0:
192,192,154175,1,0,0:0:0:0:
64,192,154648,1,0,0:0:0:0:
320,192,155280,1,0,0:0:0:0:
192,192,155438,1,0,0:0:0:0:
64,192,155912,1,0,0:0:0:0:
192,192,156227,1,0,0:0:0:0:
448,192,156543,1,0,0:0:0:0:
320,192,156701,1,0,0:0:0:0:
64,192,157017,1,0,0:0:0:0:
320,192,157333,1,0,0:0:0:0:
64,192,157648,1,0,0:0:0:0:
448,192,157964,1,0,0:0:0:0:
192,192,158280,1,0,0:0:0:0:
448,192,158596,1,0,0:0:0:0:
192,192,158912,1,0,0:0:0:0:
64,192,159227,128,0,160491:0:0:0:0:
448,192,160491,128,0,161438:0:0:0:0:
192,192,161438,1,0,0:0:0:0:
320,192,161754,1,0,0:0:0:0:
64,192,161754,1,0,0:0:0:0:
448,192,162070,1,0,0:0:0:0:
64,192,162543,1,0,0:0:0:0:
320,192,162701,1,0,0:0:0:0:
448,192,163017,1,0,0:0:0:0:
192,192,163333,1,0,0:0:0:0:
448,192,163806,1,0,0:0:0:0:
64,192,163964,1,0,0:0:0:0:
320,192,164122,1,0,0:0:0:0:
192,192,164280,1,0,0:0:0:0:
320,192,164596,1,0,0:0:0:0:
192,192,165070,1,0,0:0:0:0:
448,192,165227,1,0,0:0:0:0:
64,192,165543,1,0,0:0:0:0:
192,192,165859,1,0,0:0:0:0:
448,192,166017,1,0,0:0:0:0:
320,192,166175,1,0,0:0:0:0:
64,192,166491,1,0,0:0:0:0:
192,192,166648,1,0,0:0:0:0:
448,192,166806,1,0,0:0:0:0:
64,192,167122,1,0,0:0:0:0:
448,192,167596,1,0,0:0:0:0:
192,192,167754,1,0,0:0:0:0:
64,192,168070,1,0,0:0:0:0:
320,192,168385,1,0,0:0:0:0:
64,192,168859,1,0,0:0:0:0:
448,192,169017,1,0,0:0:0:0:
320,192,169333,1,0,0:0:0:0:
192,192,169648,1,0,0:0:0:0:
320,192,170122,1,0,0:0:0:0:
64,192,170280,1,0,0:0:0:0:
192,192,170596,1,0,0:0:0:0:
448,192,170912,1,0,0:0:0:0:
320,192,171070,1,0,0:0:0:0:
64,192,171227,1,0,0:0:0:0:
192,192,171543,1,0,0:0:0:0:
448,192,171701,1,0,0:0:0:0:
320,192,171859,1,0,0:0:0:0:
64,192,171859,1,0,0:0:0:0:
448,192,172175,1,0,0:0:0:0:
192,192,172648,1,0,0:0:0:0:
320,192,172806,1,0,0:0:0:0:
448,192,173122,1,0,0:0:0:0:
192,192,173438,1,0,0:0:0:0:
320,192,173912,1,0,0:0:0:0:
64,192,174070,1,0,0:0:0:0:
448,192,174227,1,0,0:0:0:0:
192,192,174385,1,0,0:0:0:0:
320,192,174701,1,0,0:0:0:0:
64,192,175175,1,0,0:0:0:0:
448,192,175333,1,0,0:0:0:0:
192,192,175648,1,0,0:0:0:0:
64,192,175964,1,0,0:0:0:0:
448,192,176122,1,0,0:0:0:0:
320,192,176280,1,0,0:0:0:0:
64,192,176596,1,0,0:0:0:0:
192,192,176754,1,0,0:0:0:0:
448,192,176912,1,0,0:0:0:0:
64,192,177227,1,0,0:0:0:0:
320,192,177701,1,0,0:0:0:0:
192,192,177859,1,0,0:0:0:0:
64,192,178175,1,0,0:0:0:0:
320,192,178491,1,0,0:0:0:0:
192,192,178964,1,0,0:0:0:0:
448,192,179122,1,0,0:0:0:0:
320,192,179438,1,0,0:0:0:0:
192,192,179754,1,0,0:0:0:0:
448,192,180227,1,0,0:0:0:0:
64,192,180385,1,0,0:0:0:0:
192,192,180701,1,0,0:0:0:0:
448,192,181017,1,0,0:0:0:0:
320,192,181648,1,0,0:0:0:0:
192,192,181964,1,0,0:0:0:0:
64,192,181964,1,0,0:0:0:0:
448,192,182280,1,0,0:0:0:0:
64,192,182754,1,0,0:0:0:0:
320,192,182912,1,0,0:0:0:0:
448,192,183227,1,0,0:0:0:0:
192,192,183543,1,0,0:0:0:0:
448,192,184017,1,0,0:0:0:0:
64,192,184175,1,0,0:0:0:0:
320,192,184333,1,0,0:0:0:0:
192,192,184491,1,0,0:0:0:0:
320,192,184806,1,0,0:0:0:0:
192,192,185280,1,0,0:0:0:0:
448,192,185438,1,0,0:0:0:0:
64,192,185754,1,0,0:0:0:0:
192,192,186070,1,0,0:0:0:0:
448,192,186227,1,0,0:0:0:0:
320,192,186385,1,0,0:0:0:0:
64,192,186701,1,0,0:0:0:0:
192,192,186859,1,0,0:0:0:0:
448,192,187017,1,0,0:0:0:0:
64,192,187333,1,0,0:0:0:0:
448,192,187806,1,0,0:0:0:0:
192,192,187964,1,0,0:0:0:0:
64,192,188280,1,0,0:0:0:0:
320,192,188596,1,0,0:0:0:0:
64,192,189070,1,0,0:0:0:0:
448,192,189227,1,0,0:0:0:0:
320,192,189543,1,0,0:0:0:0:
192,192,189859,1,0,0:0:0:0:
320,192,190333,1,0,0:0:0:0:
64,192,190491,1,0,0:0:0:0:
192,192,190806,1,0,0:0:0:0:
448,192,191122,1,0,0:0:0:0:
64,192,191596,1,0,0:0:0:0:
192,192,191754,1,0,0:0:0:0:
448,192,191912,1,0,0:0:0:0:
64,192,192070,1,0,0:0:0:0:
320,192,192070,1,0,0:0:0:0:
448,192,192385,1,0,0:0:0:0:
64,192,192859,1,0,0:0:0:0:
448,192,193017,1,0,0:0:0:0:
192,192,193333,1,0,0:0:0:0:
320,192,193648,1,0,0:0:0:0:
192,192,194122,1,0,0:0:0:0:
320,192,194280,1,0,0:0:0:0:
64,192,194596,1,0,0:0:0:0:
448,192,194596,1,0,0:0:0:0:
320,192,194912,1,0,0:0:0:0:
320,192,195385,1,0,0:0:0:0:
192,192,195543,1,0,0:0:0:0:
448,192,195859,1,0,0:0:0:0:
192,192,196175,1,0,0:0:0:0:
320,192,196648,1,0,0:0:0:0:
64,192,196964,1,0,0:0:0:0:
192,192,197122,1,0,0:0:0:0:
448,192,197359,1,0,0:0:0:0:
320,192,197596,1,0,0:0:0:0:
64,192,197912,1,0,0:0:0:0:
448,192,198070,1,0,0:0:0:0:
192,192,198385,1,0,0:0:0:0:
320,192,198622,1,0,0:0:0:0:
64,192,198859,128,0,199648:0:0:0:0:
320,192,199648,1,0,0:0:0:0:
192,192,199806,1,0,0:0:0:0:
64,192,200122,1,0,0:0:0:0:
320,192,200438,1,0,0:0:0:0:
192,192,200596,1,0,0:0:0:0:
448,192,200912,1,0,0:0:0:0:
320,192,201227,1,0,0:0:0:0:
64,192,201543,1,0,0:0:0:0:
448,192,201859,1,0,0:0:0:0:
64,192,202175,1,0,0:0:0:0:
320,192,202175,1,0,0:0:0:0:
192,192,202491,1,0,0:0:0:0:
448,192,202648,1,0,0:0:0:0:
64,192,202964,1,0,0:0:0:0:
320,192,203122,1,0,0:0:0:0:
192,192,203280,1,0,0:0:0:0:
448,192,203596,1,0,0:0:0:0:
64,192,203754,1,0,0:0:0:0:
192,192,204070,1,0,0:0:0:0:
320,192,204385,1,0,0:0:0:0:
64,192,204543,1,0,0:0:0:0:
192,192,204859,1,0,0:0:0:0:
448,192,205017,1,0,0:0:0:0:
320,192,205175,1,0,0:0:0:0:
64,192,205491,1,0,0:0:0:0:
448,192,205648,1,0,0:0:0:0:
192,192,205806,1,0,0:0:0:0:
448,192,206122,1,0,0:0:0:0:
320,192,206280,1,0,0:0:0:0:
192,192,206596,1,0,0:0:0:0:
448,192,206754,1,0,0:0:0:0:
64,192,206912,1,0,0:0:0:0:
320,192,207227,1,0,0:0:0:0:
192,192,207543,1,0,0:0:0:0:
448,192,207701,1,0,0:0:0:0:
64,192,208017,1,0,0:0:0:0:
320,192,208175,1,0,0:0:0:0:
192,192,208333,1,0,0:0:0:0:
448,192,208648,1,0,0:0:0:0:
64,192,208806,1,0,0:0:0:0:
192,192,209122,1,0,0:0:0:0:
320,192,209438,1,0,0:0:0:0:
64,192,209596,1,0,0:0:0:0:
192,192,209912,1,0,0:0:0:0:
448,192,210070,1,0,0:0:0:0:
64,192,210227,1,0,0:0:0:0:
320,192,210543,1,0,0:0:0:0:
192,192,210701,1,0,0:0:0:0:
448,192,210859,1,0,0:0:0:0:
64,192,211017,1,0,0:0:0:0:
192,192,211017,1,0,0:0:0:0:
448,192,211333,1,0,0:0:0:0:
64,192,211648,1,0,0:0:0:0:
320,192,211964,1,0,0:0:0:0:
192,192,212122,1,0,0:0:0:0:
64,192,212280,1,0,0:0:0:0:
448,192,212280,1,0,0:0:0:0:
192,192,212596,1,0,0:0:0:0:
448,192,212754,1,0,0:0:0:0:
64,192,213070,1,0,0:0:0:0:
320,192,213227,1,0,0:0:0:0:
192,192,213385,1,0,0:0:0:0:
448,192,213701,1,0,0:0:0:0:
64,192,213859,1,0,0:0:0:0:
192,192,214175,1,0,0:0:0:0:
320,192,214491,1,0,0:0:0:0:
64,192,214648,1,0,0:0:0:0:
192,192,214964,1,0,0:0:0:0:
448,192,215122,1,0,0:0:0:0:
320,192,215280,1,0,0:0:0:0:
64,192,215596,1,0,0:0:0:0:
448,192,215754,1,0,0:0:0:0:
192,192,215912,1,0,0:0:0:0:
448,192,216227,1,0,0:0:0:0:
320,192,216385,1,0,0:0:0:0:
192,192,216701,1,0,0:0:0:0:
448,192,216859,1,0,0:0:0:0:
64,192,217017,1,0,0:0:0:0:
320,192,217333,1,0,0:0:0:0:
192,192,217648,1,0,0:0:0:0:
448,192,217806,1,0,0:0:0:0:
64,192,218122,1,0,0:0:0:0:
320,192,218280,1,0,0:0:0:0:
192,192,218438,1,0,0:0:0:0:
448,192,218754,1,0,0:0:0:0:
64,192,218912,1,0,0:0:0:0:
320,192,219070,1,0,0:0:0:0:
192,192,219227,1,0,0:0:0:0:
448,192,219543,1,0,0:0:0:0:
64,192,219701,1,0,0:0:0:0:
320,192,220017,1,0,0:0:0:0:
192,192,220333,1,0,0:0:0:0:
448,192,220648,1,0,0:0:0:0:
64,192,220806,1,0,0:0:0:0:
192,192,220964,1,0,0:0:0:0:
448,192,221201,1,0,0:0:0:0:
64,192,221438,1,0,0:0:0:0:
320,192,221596,1,0,0:0:0:0:
192,192,221833,1,0,0:0:0:0:
448,192,222070,1,0,0:0:0:0:
64,192,222385,1,0,0:0:0:0:
320,192,222543,1,0,0:0:0:0:
64,192,222701,1,0,0:0:0:0:
448,192,223017,1,0,0:0:0:0:
192,192,223175,1,0,0:0:0:0:
448,192,223333,1,0,0:0:0:0:
192,192,223491,1,0,0:0:0:0:
64,192,223806,1,0,0:0:0:0:
320,192,223964,1,0,0:0:0:0:
448,192,224280,1,0,0:0:0:0:
192,192,224438,1,0,0:0:0:0:
448,192,224596,1,0,0:0:0:0:
64,192,224912,1,0,0:0:0:0:
320,192,225070,1,0,0:0:0:0:
64,192,225227,1,0,0:0:0:0:
448,192,225543,1,0,0:0:0:0:
192,192,225701,1,0,0:0:0:0:
448,192,225859,1,0,0:0:0:0:
192,192,226017,1,0,0:0:0:0:
64,192,226333,1,0,0:0:0:0:
320,192,226491,1,0,0:0:0:0:
448,192,226806,1,0,0:0:0:0:
192,192,226964,1,0,0:0:0:0:
320,192,227122,1,0,0:0:0:0:
64,192,227438,1,0,0:0:0:0:
448,192,227596,1,0,0:0:0:0:
64,192,227754,1,0,0:0:0:0:
320,192,228227,1,0,0:0:0:0:
192,192,228385,1,0,0:0:0:0:
320,192,228543,1,0,0:0:0:0:
64,192,228859,1,0,0:0:0:0:
448,192,229017,1,0,0:0:0:0:
320,192,229333,1,0,0:0:0:0:
192,192,229491,1,0,0:0:0:0:
320,192,229648,1,0,0:0:0:0:
64,192,229964,1,0,0:0:0:0:
448,192,230122,1,0,0:0:0:0:
64,192,230280,1,0,0:0:0:0:
320,192,230754,1,0,0:0:0:0:
192,192,230912,1,0,0:0:0:0:
320,192,231070,1,0,0:0:0:0:
64,192,231385,1,0,0:0:0:0:
448,192,231543,1,0,0:0:0:0:
320,192,231859,1,0,0:0:0:0:
192,192,232017,1,0,0:0:0:0:
448,192,232175,1,0,0:0:0:0:
64,192,232491,1,0,0:0:0:0:
320,192,232648,1,0,0:0:0:0:
64,192,232806,1,0,0:0:0:0:
192,192,232806,1,0,0:0:0:0:
448,192,233122,1,0,0:0:0:0:
192,192,233280,1,0,0:0:0:0:
448,192,233438,1,0,0:0:0:0:
192,192,233596,1,0,0:0:0:0:
64,192,233912,1,0,0:0:0:0:
320,192,234070,1,0,0:0:0:0:
448,192,234385,1,0,0:0:0:0:
192,192,234543,1,0,0:0:0:0:
320,192,234701,1,0,0:0:0:0:
448,192,234701,1,0,0:0:0:0:
64,192,235017,1,0,0:0:0:0:
320,192,235175,1,0,0:0:0:0:
64,192,235333,1,0,0:0:0:0:
448,192,235648,1,0,0:0:0:0:
192,192,235806,1,0,0:0:0:0:
448,192,235964,1,0,0:0:0:0:
192,192,236122,1,0,0:0:0:0:
64,192,236438,1,0,0:0:0:0:
320,192,236596,1,0,0:0:0:0:
448,192,236912,1,0,0:0:0:0:
192,192,237070,1,0,0:0:0:0:
320,192,237227,1,0,0:0:0:0:
64,192,237543,1,0,0:0:0:0:
448,192,237701,1,0,0:0:0:0:
64,192,237859,1,0,0:0:0:0:
320,192,238333,1,0,0:0:0:0:
192,192,238491,1,0,0:0:0:0:
320,192,238648,1,0,0:0:0:0:
64,192,238964,1,0,0:0:0:0:
448,192,239122,1,0,0:0:0:0:
320,192,239438,1,0,0:0:0:0:
192,192,239596,1,0,0:0:0:0:
448,192,239754,128,0,240070:0:0:0:0:
64,192,240070,1,0,0:0:0:0:
320,192,240227,1,0,0:0:0:0:
192,192,240385,1,0,0:0:0:0:
448,192,240701,1,0,0:0:0:0:
320,192,240859,1,0,0:0:0:0:
64,192,241175,1,0,0:0:0:0:
192,192,241333,1,0,0:0:0:0:
448,192,241648,1,0,0:0:0:0:
320,192,241806,1,0,0:0:0:0:
64,192,242596,1,0,0:0:0:0:
320,192,242912,1,0,0:0:0:0:
64,192,243227,1,0,0:0:0:0:
448,192,243385,1,0,0:0:0:0:
320,192,243859,1,0,0:0:0:0:
64,192,244175,1,0,0:0:0:0:
320,192,244491,1,0,0:0:0:0:
192,192,244648,1,0,0:0:0:0:
64,192,245122,1,0,0:0:0:0:
448,192,245438,1,0,0:0:0:0:
192,192,245754,1,0,0:0:0:0:
320,192,245912,1,0,0:0:0:0:
64,192,246070,128,0,246385:0:0:0:0:
448,192,246385,1,0,0:0:0:0:
192,192,247017,1,0,0:0:0:0:
320,192,247648,1,0,0:0:0:0:
448,192,247648,1,0,0:0:0:0:
64,192,247806,1,0,0:0:0:0:
192,192,247964,1,0,0:0:0:0:
448,192,248280,1,0,0:0:0:0:
320,192,248438,1,0,0:0:0:0:
64,192,248754,1,0,0:0:0:0:
320,192,249070,1,0,0:0:0:0:
192,192,249227,1,0,0:0:0:0:
448,192,249543,1,0,0:0:0:0:
192,192,249701,1,0,0:0:0:0:
64,192,249859,1,0,0:0:0:0:
448,192,250017,1,0,0:0:0:0:
320,192,250333,1,0,0:0:0:0:
64,192,250491,1,0,0:0:0:0:
192,192,250648,1,0,0:0:0:0:
448,192,250964,1,0,0:0:0:0:
320,192,251122,1,0,0:0:0:0:
192,192,251438,1,0,0:0:0:0:
64,192,251596,1,0,0:0:0:0:
320,192,251912,1,0,0:0:0:0:
448,192,252227,1,0,0:0:0:0:
192,192,252385,1,0,0:0:0:0:
320,192,252543,1,0,0:0:0:0:
64,192,252859,1,0,0:0:0:0:
192,192,253017,1,0,0:0:0:0:
448,192,253333,1,0,0:0:0:0:
320,192,253491,1,0,0:0:0:0:
64,192,253806,1,0,0:0:0:0:
320,192,254122,1,0,0:0:0:0:
192,192,254280,1,0,0:0:0:0:
448,192,254596,1,0,0:0:0:0:
192,192,254754,1,0,0:0:0:0:
64,192,254912,1,0,0:0:0:0:
320,192,255070,1,0,0:0:0:0:
64,192,255385,1,0,0:0:0:0:
192,192,255385,1,0,0:0:0:0:
320,192,255859,1,0,0:0:0:0:
448,192,255859,1,0,0:0:0:0:
64,192,256175,1,0,0:0:0:0:
192,192,256175,1,0,0:0:0:0:
448,192,256333,1,0,0:0:0:0:
320,192,256648,1,0,0:0:0:0:
64,192,256964,1,0,0:0:0:0:
448,192,257122,1,0,0:0:0:0:
192,192,257280,128,0,257754:0:0:0:0:
448,192,257754,1,0,0:0:0:0:
320,192,257754,1,0,0:0:0:0:
64,192,257912,1,0,0:0:0:0:
192,192,258070,1,0,0:0:0:0:
448,192,258385,1,0,0:0:0:0:
320,192,258543,1,0,0:0:0:0:
64,192,258859,1,0,0:0:0:0:
320,192,259175,1,0,0:0:0:0:
192,192,259333,1,0,0:0:0:0:
448,192,259648,1,0,0:0:0:0:
192,192,259806,1,0,0:0:0:0:
64,192,259964,1,0,0:0:0:0:
448,192,260122,1,0,0:0:0:0:
320,192,260438,1,0,0:0:0:0:
64,192,260596,1,0,0:0:0:0:
192,192,260754,1,0,0:0:0:0:
448,192,261070,1,0,0:0:0:0:
320,192,261227,1,0,0:0:0:0:
192,192,261543,1,0,0:0:0:0:
64,192,261701,1,0,0:0:0:0:
320,192,262017,1,0,0:0:0:0:
448,192,262333,1,0,0:0:0:0:
192,192,262491,1,0,0:0:0:0:
320,192,262648,1,0,0:0:0:0:
64,192,262964,1,0,0:0:0:0:
192,192,263122,1,0,0:0:0:0:
448,192,263438,1,0,0:0:0:0:
320,192,263596,1,0,0:0:0:0:
64,192,263912,1,0,0:0:0:0:
320,192,264227,1,0,0:0:0:0:
192,192,264385,1,0,0:0:0:0:
448,192,264701,1,0,0:0:0:0:
192,192,264859,1,0,0:0:0:0:
64,192,265017,1,0,0:0:0:0:
320,192,265175,1,0,0:0:0:0:
64,192,265491,1,0,0:0:0:0:
192,192,265491,1,0,0:0:0:0:
320,192,265964,1,0,0:0:0:0:
448,192,265964,1,0,0:0:0:0:
64,192,266438,1,0,0:0:0:0:
192,192,266438,1,0,0:0:0:0:
448,192,266754,1,0,0:0:0:0:
320,192,266754,1,0,0:0:0:0:
64,192,267070,1,0,0:0:0:0:
192,192,267070,1,0,0:0:0:0:
64,192,267859,1,0,0:0:0:0:
448,192,267859,1,0,0:0:0:0:
320,192,268333,1,0,0:0:0:0:
64,192,268648,1,0,0:0:0:0:
192,192,268964,1,0,0:0:0:0:
448,192,269438,1,0,0:0:0:0:
320,192,269754,1,0,0:0:0:0:
64,192,270070,1,0,0:0:0:0:
448,192,270385,1,0,0:0:0:0:
320,192,270859,1,0,0:0:0:0:
64,192,271175,1,0,0:0:0:0:
192,192,271491,1,0,0:0:0:0:
64,192,271964,1,0,0:0:0:0:
320,192,272280,1,0,0:0:0:0:
192,192,272596,1,0,0:0:0:0:
448,192,272912,1,0,0:0:0:0:
320,192,273385,1,0,0:0:0:0:
64,192,273701,1,0,0:0:0:0:
192,192,274017,1,0,0:0:0:0:
448,192,274491,1,0,0:0:0:0:
320,192,274806,1,0,0:0:0:0:
64,192,275122,1,0,0:0:0:0:
448,192,275438,1,0,0:0:0:0:
320,192,275912,1,0,0:0:0:0:
64,192,276227,1,0,0:0:0:0:
192,192,276543,1,0,0:0:0:0:
64,192,277017,1,0,0:0:0:0:
320,192,277333,1,0,0:0:0:0:
192,192,277648,1,0,0:0:0:0:
448,192,277964,1,0,0:0:0:0:
