osu file format v14

[General]
AudioFilename: audio.mp3
AudioLeadIn: 0
PreviewTime: 107937
Countdown: 0
SampleSet: Soft
StackLeniency: 0.7
Mode: 2
LetterboxInBreaks: 0
WidescreenStoryboard: 1

[Editor]
Bookmarks: 2006,15247,28488,41730,54971,68213,81454,94695,107937,121178,134419,147661
DistanceSpacing: 1.2
BeatDivisor: 4
GridSize: 4
TimelineZoom: 1

[Metadata]
Title:Nova
TitleUnicode:Nova
Artist:meganeko
ArtistUnicode:meganeko
Creator:JBHyperion
Version:Platter
Source:
Tags:Tom Mauritzon Technokinesis Hyperwave Records Sweden electronic dance chiptune instrumental wubstep
BeatmapID:2302406
BeatmapSetID:1102115

[Difficulty]
HPDrainRate:5
CircleSize:3.5
OverallDifficulty:8
ApproachRate:8
SliderMultiplier:1.8
SliderTickRate:1

[Events]
//Background and Video events
0,0,"bg.jpg",0,0
//Break Periods
2,28688,34359
//Storyboard Layer 0 (Background)
//Storyboard Layer 1 (Fail)
//Storyboard Layer 2 (Pass)
//Storyboard Layer 3 (Foreground)
//Storyboard Layer 4 (Overlay)
//Storyboard Sound Samples

[TimingPoints]
351,413.793103448276,4,2,1,15,1,0
557,-100,4,2,1,20,0,0
764,-100,4,2,1,25,0,0
971,-100,4,2,1,30,0,0
1178,-100,4,3,1,5,0,0
1592,-100,4,3,1,50,0,0
1799,-100,4,3,1,80,0,0
1902,-100,4,2,1,60,0,0
2006,-100,4,2,2,80,0,0
4488,-100,4,3,1,60,0,0
4695,-100,4,3,1,80,0,0
4902,-100,4,2,2,80,0,0
7695,-100,4,2,2,80,0,0
8006,-100,4,2,2,80,0,0
9178,-100,4,2,1,80,0,0
9454,-100,4,2,2,80,0,0
11109,-100,4,3,1,60,0,0
11316,-100,4,3,1,80,0,0
11523,-100,4,2,2,80,0,0
12351,-75.187969924812,4,2,2,80,0,0
12661,-100,4,2,2,80,0,0
13592,-100,4,2,2,90,0,0
15040,-100,4,2,1,80,0,0
15247,-100,4,2,2,80,0,1
15971,-100,4,2,2,80,0,1
16282,-100,4,2,2,80,0,1
18557,-100,4,2,2,80,0,1
18868,-100,4,2,2,80,0,1
25178,-100,4,2,2,80,0,1
25488,-100,4,2,2,80,0,1
26833,-100,4,2,2,90,0,1
27557,-100,4,2,2,90,0,1
27868,-100,4,3,1,80,0,1
28075,-100,4,2,2,90,0,1
28282,-100,4,2,1,80,0,1
28488,-100,4,2,77,80,0,0
35109,-100,4,2,77,10,0,0
35523,-100,4,2,77,13,0,0
35937,-100,4,2,77,16,0,0
36351,-100,4,2,77,20,0,0
36764,-100,4,2,77,23,0,0
37178,-100,4,2,77,26,0,0
37592,-100,4,2,77,30,0,0
38006,-100,4,2,77,33,0,0
38419,-100,4,2,1,50,0,0
40075,-100,4,2,1,65,0,0
40488,-100,4,2,1,70,0,0
40902,-100,4,3,1,90,0,0
41316,-75.187969924812,4,3,1,70,0,0
41523,-100,4,2,1,100,0,0
41730,-100,4,2,77,100,0,0
41782,-100,4,2,1,70,0,0
42557,-100,4,2,2,80,0,0
42764,-100,4,2,1,80,0,0
45868,-100,4,2,2,80,0,0
46075,-100,4,2,1,80,0,0
47523,-100,4,2,2,90,0,0
47730,-100,4,2,1,80,0,0
48144,-100,4,2,2,80,0,0
48351,-100,4,2,1,80,0,0
49178,-100,4,2,2,80,0,0
49385,-100,4,2,1,80,0,0
50833,-100,4,2,2,80,0,0
51040,-100,4,2,1,80,0,0
51661,-100,4,2,77,100,0,0
51713,-100,4,2,1,80,0,0
52488,-100,4,2,2,80,0,0
52695,-100,4,2,1,80,0,0
53109,-100,4,2,1,90,0,0
53523,-100,4,2,1,80,0,0
54144,-100,4,2,2,80,0,0
54351,-100,4,2,1,80,0,0
54971,-100,4,2,77,100,0,0
55023,-100,4,2,1,80,0,0
55799,-100,4,2,2,80,0,0
56006,-100,4,2,1,80,0,0
57454,-100,4,2,1,80,0,0
57764,-100,4,2,1,80,0,0
59109,-100,4,2,2,80,0,0
59316,-100,4,2,1,80,0,0
60764,-100,4,2,2,80,0,0
60971,-100,4,2,1,80,0,0
61592,-100,4,2,77,100,0,0
61644,-100,4,2,1,80,0,0
62419,-100,4,2,2,80,0,0
62626,-100,4,2,1,80,0,0
63713,-100,4,2,1,90,0,0
64075,-100,4,2,2,90,0,0
64282,-100,4,2,1,80,0,0
64902,-100,4,2,77,100,0,0
64954,-100,4,2,1,80,0,0
65730,-100,4,2,2,80,0,0
66040,-100,4,2,1,80,0,0
66351,-100,4,2,1,80,0,0
66971,-100,4,2,1,80,0,0
67385,-100,4,2,2,80,0,0
67454,-100,4,2,1,70,0,0
67592,-100,4,2,1,65,0,0
67799,-100,4,2,1,60,0,0
68006,-100,4,2,1,55,0,0
68213,-200,4,2,3,60,0,0
68523,-200,4,2,3,50,0,0
69868,-200,4,2,3,40,0,0
71523,-200,4,2,3,50,0,0
72144,-200,4,2,3,50,0,0
73592,-200,4,2,3,50,0,0
74006,-200,4,2,3,40,0,0
74833,-200,4,2,3,50,0,0
76902,-200,4,2,3,30,0,0
78144,-133.333333333333,4,2,3,40,0,0
79799,-100,4,2,1,60,0,0
80626,-100,4,3,1,60,0,0
80937,-100,4,3,1,45,0,0
81040,-100,4,3,1,60,0,0
81247,-100,4,3,1,45,0,0
81454,-100,4,2,2,70,0,0
83937,-100,4,3,1,60,0,0
84144,-100,4,3,1,80,0,0
84351,-100,4,2,2,80,0,0
86213,-100,4,2,1,80,0,0
86419,-100,4,2,2,80,0,0
90557,-100,4,3,1,60,0,0
90764,-100,4,3,1,80,0,0
90971,-100,4,2,2,80,0,0
94385,-100,4,2,1,80,0,0
94695,-100,4,2,2,70,0,0
98006,-100,4,2,2,70,0,0
98316,-100,4,2,2,70,0,0
101868,-100,4,2,1,80,0,0
102144,-100,4,2,2,70,0,0
103799,-100,4,3,1,60,0,0
104006,-100,4,3,1,80,0,0
104213,-100,4,2,2,80,0,0
106282,-100,4,2,2,80,0,0
106488,-100,4,2,2,80,0,0
107626,-100,4,2,1,80,0,0
107937,-133.333333333333,4,2,2,80,0,1
108351,-100,4,2,2,80,0,1
109282,-100,4,2,1,80,0,1
109592,-100,4,2,2,80,0,1
110419,-100,4,3,1,60,0,1
110626,-100,4,3,1,80,0,1
110833,-100,4,2,2,80,0,1
111247,-100,4,2,2,80,0,1
111557,-100,4,2,2,80,0,1
112695,-100,4,2,1,80,0,1
112902,-100,4,2,2,80,0,1
113626,-100,4,2,1,80,0,1
113730,-100,4,2,2,80,0,1
114351,-100,4,3,1,80,0,1
114557,-100,4,2,2,80,0,1
117868,-100,4,2,2,80,0,1
118178,-100,4,2,2,80,0,1
121178,-100,4,2,2,70,0,0
121385,-100,4,2,1,70,0,0
121592,-100,4,2,2,70,0,0
121799,-100,4,2,1,70,0,0
122006,-100,4,2,2,70,0,0
122213,-100,4,2,1,70,0,0
122419,-100,4,2,2,70,0,0
122626,-100,4,2,1,70,0,0
122833,-100,4,2,2,70,0,0
123040,-100,4,2,1,70,0,0
123247,-100,4,2,2,70,0,0
123454,-100,4,2,1,70,0,0
123661,-100,4,2,2,70,0,0
123868,-100,4,2,1,70,0,0
124075,-100,4,2,2,70,0,0
124282,-100,4,2,1,70,0,0
124488,-100,4,2,2,70,0,0
124695,-100,4,2,1,70,0,0
124902,-100,4,2,2,70,0,0
125109,-100,4,2,1,70,0,0
125316,-100,4,2,2,70,0,0
125523,-100,4,2,1,70,0,0
125730,-100,4,2,2,70,0,0
125937,-100,4,2,1,70,0,0
126144,-100,4,2,2,70,0,0
126351,-100,4,2,1,70,0,0
126557,-100,4,2,2,70,0,0
126764,-100,4,2,1,70,0,0
126971,-100,4,2,2,70,0,0
127592,-100,4,2,3,80,0,0
127799,-100,4,2,2,70,0,0
128419,-100,4,2,1,70,0,0
128626,-100,4,2,2,70,0,0
129247,-100,4,2,1,70,0,0
129454,-100,4,2,2,70,0,0
129661,-100,4,2,1,70,0,0
129868,-100,4,2,2,70,0,0
130902,-100,4,2,1,70,0,0
131109,-100,4,2,2,70,0,0
131626,-100,4,2,1,70,0,0
131833,-100,4,2,2,70,0,0
132557,-100,4,2,1,70,0,0
132764,-100,4,2,2,70,0,0
133385,-100,4,2,1,70,0,0
133592,-100,4,2,2,70,0,0
134057,-100,4,2,1,70,0,0
134316,-100,4,2,2,70,0,0
134626,-100,4,2,1,70,0,0
134833,-100,4,2,2,70,0,0
135040,-100,4,2,1,70,0,0
135247,-100,4,2,2,70,0,0
135454,-100,4,2,1,70,0,0
135661,-100,4,2,2,70,0,0
135868,-100,4,2,1,70,0,0
136075,-100,4,2,2,70,0,0
136282,-100,4,2,1,70,0,0
136489,-100,4,2,2,70,0,0
136695,-100,4,2,1,70,0,0
136902,-100,4,2,2,70,0,0
137006,-100,4,2,1,70,0,0
137316,-100,4,2,2,70,0,0
137523,-100,4,2,1,70,0,0
137730,-100,4,2,2,70,0,0
137937,-100,4,2,1,70,0,0
138144,-100,4,2,2,70,0,0
138351,-100,4,2,1,70,0,0
138558,-100,4,2,2,70,0,0
138661,-100,4,2,1,70,0,0
138971,-100,4,2,2,70,0,0
139178,-100,4,2,1,70,0,0
139385,-100,4,2,2,70,0,0
139592,-100,4,2,1,70,0,0
139799,-100,4,2,2,70,0,0
140006,-100,4,2,1,70,0,0
140213,-100,4,2,2,80,0,0
140626,-100,4,2,2,70,0,0
140833,-100,4,2,1,70,0,0
141040,-100,4,2,2,70,0,0
141247,-100,4,2,1,70,0,0
141454,-100,4,2,2,70,0,0
141661,-100,4,2,1,70,0,0
141868,-100,4,2,2,70,0,0
142488,-100,4,2,1,70,0,0
142695,-100,4,2,2,70,0,0
143316,-100,4,2,1,80,0,0
143523,-100,4,2,2,70,0,0
144144,-100,4,2,1,80,0,0
144557,-100,4,2,1,75,0,0
144764,-100,4,2,2,75,0,0
144971,-100,4,2,1,80,0,0
145178,-100,4,2,2,80,0,0
145385,-100,4,2,1,80,0,0
145592,-100,4,2,2,80,0,0
145799,-100,4,2,1,85,0,0
146006,-100,4,2,2,85,0,0
146213,-100,4,2,1,85,0,0
146419,-100,4,2,1,90,0,0
146833,-100,4,3,1,80,0,0
147247,-100,4,2,1,80,0,0
147661,-100,4,2,77,100,0,0
147764,-100,4,2,2,80,0,0
148488,-100,4,2,2,60,0,0
148592,-100,4,2,2,80,0,0
150144,-100,4,2,1,40,0,0

[Colours]
Combo1 : 255,175,125
Combo2 : 255,75,255
Combo3 : 175,75,255
Combo4 : 55,125,255

[HitObjects]
256,192,351,12,0,1178,0:0:0:0:
320,284,1592,6,0,L|340:240,2,45,2|2|8,0:0|0:0|0:0,0:0:0:0:
44,284,2006,6,0,P|8:248|56:192,1,135,6|2,0:0|0:0,0:0:0:0:
92,208,2419,1,8,0:0:0:0:
227,208,2730,2,0,L|91:208,1,135,2|2,0:0|0:0,0:0:0:0:
292,208,3247,1,8,0:0:0:0:
132,208,3661,6,0,L|128:108,1,90,2|2,0:0|0:0,0:0:0:0:
236,120,4075,2,0,L|240:172,1,45,8|2,0:0|0:0,0:0:0:0:
239,164,4385,1,2,0:0:0:0:
184,164,4488,2,0,L|92:164,1,90,2|8,0:0|0:0,0:0:0:0:
296,164,4902,2,0,L|300:256,1,90,2|8,0:0|0:0,0:0:0:0:
28,252,5316,6,0,B|28:184|28:184|96:184,1,135,6|2,0:0|0:0,0:0:0:0:
160,184,5730,2,0,L|164:132,1,45,8|2,0:0|0:0,0:0:0:0:
56,140,6040,2,0,L|192:140,1,135,2|2,0:0|0:0,0:0:0:0:
392,140,6557,2,0,L|396:92,1,45,8|2,0:0|0:0,0:0:0:0:
244,92,6971,6,0,B|244:160|244:160|320:160,1,135,2|2,0:0|0:0,0:0:0:0:
376,160,7385,2,0,L|380:252,1,90,8|0,0:0|0:0,0:0:0:0:
272,248,7799,2,0,L|372:248,1,90,2|2,0:0|0:0,0:0:0:0:
164,248,8213,2,0,L|160:356,1,90,8|8,0:0|0:0,0:0:0:0:
432,276,8626,6,0,B|255:340,1,180,6|8,0:0|0:0,0:0:0:0:
263,338,9178,1,2,0:0:0:0:
339,338,9316,1,2,0:0:0:0:
415,338,9454,2,0,L|507:338,1,90,2|2,0:0|0:0,0:0:0:0:
303,338,9868,1,8,0:0:0:0:
152,340,10282,6,0,L|148:232,1,90,2|2,0:0|0:0,0:0:0:0:
256,252,10695,2,0,L|304:252,1,45,8|2,0:0|0:0,0:0:0:0:
408,252,11006,1,2,0:0:0:0:
356,252,11109,2,0,L|264:252,1,90,2|8,0:0|0:0,0:0:0:0:
468,252,11523,2,0,L|472:160,1,90,2|8,0:0|0:0,0:0:0:0:
272,160,11937,6,0,B|180:160|180:160|180:116,1,135,6|2,0:0|0:0,0:0:0:0:
224,116,12351,2,0,L|284:116,1,59.8499975342561,8|2,0:0|0:0,0:0:0:0:
388,116,12661,2,0,L|248:116,1,135,2|2,0:0|0:0,0:0:0:0:
452,116,13178,2,0,L|356:116,1,90,8|2,0:0|0:0,0:0:0:0:
92,116,13592,6,0,P|64:88|92:56,1,90,2|0,0:0|0:0,0:0:0:0:
152,56,13902,1,2,0:0:0:0:
212,56,14006,2,0,L|264:56,2,45,8|2|2,0:0|0:0|0:0,0:0:0:0:
152,56,14316,2,0,L|288:56,1,135,2|2,0:0|0:0,0:0:0:0:
88,56,14833,2,0,L|8:96,1,90,8|2,0:0|0:0,0:0:0:0:
280,148,15247,6,0,L|372:148,1,90,6|0,0:0|0:0,0:0:0:0:
416,148,15557,1,2,0:0:0:0:
360,148,15661,2,0,L|312:148,2,45,8|2|0,0:0|0:0|0:0,0:0:0:0:
416,148,15971,2,0,P|460:108|416:64,1,135,2|2,0:0|0:0,0:0:0:0:
212,64,16488,1,8,0:0:0:0:
356,64,16902,6,0,L|360:168,1,90,2|2,0:0|0:0,0:0:0:0:
156,152,17316,2,0,L|152:196,1,45,8|2,0:0|0:0,0:0:0:0:
260,196,17626,1,2,0:0:0:0:
197,196,17730,2,0,L|152:196,2,45,2|8|2,0:0|0:0|0:0,0:0:0:0:
400,196,18144,2,0,L|316:244,1,90,8|8,0:0|0:0,0:0:0:0:
52,240,18557,6,0,B|52:332|52:332|100:332,1,135,6|2,0:0|0:0,0:0:0:0:
160,332,18971,2,0,L|164:280,1,45,8|2,0:0|0:0,0:0:0:0:
52,240,19282,2,0,L|180:288,1,135,2|2,0:0|0:0,0:0:0:0:
380,288,19799,2,0,L|384:244,1,45,8|2,0:0|0:0,0:0:0:0:
256,244,20213,6,0,P|208:208|256:168,1,135,2|2,0:0|0:0,0:0:0:0:
312,168,20626,2,0,L|368:168,1,45,8|2,0:0|0:0,0:0:0:0:
256,168,20937,1,2,0:0:0:0:
204,168,21040,2,0,L|116:192,1,90,2|2,0:0|0:0,0:0:0:0:
320,168,21454,2,0,L|406:144,1,90,8|8,0:0|0:0,0:0:0:0:
136,144,21868,6,0,L|256:84,1,135,6|2,0:0|0:0,0:0:0:0:
312,84,22282,2,0,L|264:84,1,45,8|2,0:0|0:0,0:0:0:0:
376,84,22592,2,0,L|232:84,1,135,2|2,0:0|0:0,0:0:0:0:
40,84,23109,1,8,0:0:0:0:
192,84,23523,6,0,L|196:192,1,90,2|2,0:0|0:0,0:0:0:0:
400,172,23937,2,0,L|404:224,1,45,8|2,0:0|0:0,0:0:0:0:
304,216,24247,1,2,0:0:0:0:
358,216,24351,2,0,L|418:216,2,45,2|8|2,0:0|0:0|0:0,0:0:0:0:
156,216,24764,2,0,L|68:192,1,90,8|8,0:0|0:0,0:0:0:0:
340,192,25178,6,0,L|457:124,1,135,6|2,0:0|0:0,0:0:0:0:
188,124,25799,2,0,L|184:272,1,135,2|2,0:0|0:0,0:0:0:0:
332,260,26419,1,8,0:0:0:0:
272,260,26523,1,2,0:0:0:0:
212,260,26626,1,8,0:0:0:0:
482,249,26833,6,0,P|490:201|454:121,1,135,6|2,0:0|0:0,0:0:0:0:
404,124,27247,1,8,0:0:0:0:
136,124,27454,2,0,P|72:80|136:40,1,180,12|8,0:0|0:0,0:0:0:0:
200,40,27971,1,8,0:0:0:0:
264,40,28075,2,0,L|356:40,1,90,8|2,0:0|0:0,0:0:0:0:
84,40,28488,5,4,0:0:0:0:
256,192,35109,12,2,38006,0:0:0:0:
372,192,38419,6,0,L|368:100,1,90,8|8,0:0|0:0,0:0:0:0:
260,104,38833,2,0,L|264:196,1,90,8|8,0:0|0:0,0:0:0:0:
156,192,39247,2,0,L|252:192,1,90,8|8,0:0|0:0,0:0:0:0:
356,192,39661,2,0,L|360:100,1,90,8|8,0:0|0:0,0:0:0:0:
232,104,40075,5,8,0:0:0:0:
189,116,40178,1,8,0:0:0:0:
156,146,40282,1,8,0:0:0:0:
140,188,40385,1,8,0:0:0:0:
145,232,40488,1,8,0:0:0:0:
169,269,40592,1,8,0:0:0:0:
208,292,40695,1,8,0:0:0:0:
412,292,40902,5,0,0:0:0:0:
418,233,41006,1,0,0:0:0:0:
388,182,41109,1,0,0:0:0:0:
334,160,41213,1,0,0:0:0:0:
408,160,41316,2,0,L|468:160,2,59.8499975342561,4|4|8,0:0|0:0|0:0,0:0:0:0:
136,160,41730,6,0,B|80:160|80:72|136:72|136:72|272:72,1,270,8|0,0:0|0:0,0:0:0:0:
68,72,42557,2,0,L|64:180,1,90,8|8,0:0|0:0,0:0:0:0:
172,160,42971,2,0,L|80:160,1,90,2|2,0:0|0:0,0:0:0:0:
284,160,43385,6,0,L|372:192,2,90,2|8|2,0:0|0:0|0:0,0:0:0:0:
172,160,44006,1,2,0:0:0:0:
368,190,44213,2,0,L|372:242,1,45,4|2,0:0|0:0,0:0:0:0:
260,236,44523,2,0,L|256:328,1,90,2|8,0:0|0:0,0:0:0:0:
320,328,44833,1,2,0:0:0:0:
212,328,45040,5,2,0:0:0:0:
320,328,45247,2,0,P|376:280|320:212,1,180,2|0,0:0|0:0,0:0:0:0:
116,212,45868,2,0,L|112:116,1,90,8|8,0:0|0:0,0:0:0:0:
220,124,46282,1,2,0:0:0:0:
328,124,46488,1,2,0:0:0:0:
220,124,46695,5,2,0:0:0:0:
336,124,46902,2,0,P|396:84|336:24,1,180,8|8,0:0|0:0,0:0:0:0:
132,24,47523,2,0,L|40:24,1,90,8|0,0:0|0:0,0:0:0:0:
140,24,47937,1,2,0:0:0:0:
408,24,48144,6,0,L|504:24,1,90,8|8,0:0|0:0,0:0:0:0:
400,24,48557,1,2,0:0:0:0:
196,24,48764,2,0,L|288:24,1,90,2|2,0:0|0:0,0:0:0:0:
484,24,49178,1,8,0:0:0:0:
385,24,49385,1,2,0:0:0:0:
286,24,49592,1,0,0:0:0:0:
396,24,49799,6,0,P|456:72|396:128,1,180,2|8,0:0|0:0,0:0:0:0:
196,128,50419,1,2,0:0:0:0:
194,172,50523,1,2,0:0:0:0:
192,217,50626,1,2,0:0:0:0:
396,216,50833,2,0,L|308:192,2,90,8|2|0,0:0|0:0|0:0,0:0:0:0:
496,216,51454,1,2,0:0:0:0:
292,216,51661,6,0,B|200:216|200:216|200:304,1,180,8|2,0:0|0:0,0:0:0:0:
248,304,52178,1,2,0:0:0:0:
296,304,52282,1,2,0:0:0:0:
96,304,52488,2,0,L|92:212,1,90,8|0,0:0|0:0,0:0:0:0:
192,212,52902,1,2,0:0:0:0:
392,212,53109,6,0,L|396:120,1,90,2|0,0:0|0:0,0:0:0:0:
288,120,53523,1,8,0:0:0:0:
395,122,53730,2,0,L|495:122,1,90,2|2,0:0|0:0,0:0:0:0:
288,120,54144,1,8,0:0:0:0:
242,155,54247,1,0,0:0:0:0:
242,213,54351,1,2,0:0:0:0:
288,248,54454,1,2,0:0:0:0:
334,283,54557,1,8,0:0:0:0:
333,341,54661,1,8,0:0:0:0:
287,376,54764,1,2,0:0:0:0:
16,376,54971,6,0,B|16:284|16:284|104:284,1,180,8|2,0:0|0:0,0:0:0:0:
204,284,55592,1,2,0:0:0:0:
404,284,55799,2,0,L|408:176,1,90,8|8,0:0|0:0,0:0:0:0:
300,196,56213,2,0,L|208:196,1,90,2|2,0:0|0:0,0:0:0:0:
320,196,56626,5,2,0:0:0:0:
220,196,56833,2,0,L|135:165,2,90,8|2|8,0:0|0:0|0:0,0:0:0:0:
424,200,57454,2,0,L|428:148,1,45,4|8,0:0|0:0,0:0:0:0:
316,152,57764,2,0,L|224:152,1,90,8|2,0:0|0:0,0:0:0:0:
172,152,58075,1,8,0:0:0:0:
172,152,58488,5,2,0:0:0:0:
280,152,58695,2,0,L|376:152,1,90,8|2,0:0|0:0,0:0:0:0:
164,152,59109,2,0,L|72:152,1,90,8|8,0:0|0:0,0:0:0:0:
176,152,59523,2,0,L|268:152,1,90,2|2,0:0|0:0,0:0:0:0:
164,152,59937,5,2,0:0:0:0:
280,152,60144,2,0,P|304:240|284:324,1,180,8|2,0:0|0:0,0:0:0:0:
84,324,60764,1,8,0:0:0:0:
8,288,60971,1,8,0:0:0:0:
12,208,61178,1,2,0:0:0:0:
96,192,61385,1,8,0:0:0:0:
368,192,61592,6,0,L|460:192,1,90,8|2,0:0|0:0,0:0:0:0:
360,192,62006,2,0,L|268:192,1,90,2|0,0:0|0:0,0:0:0:0:
472,192,62419,1,8,0:0:0:0:
472,92,62626,1,8,0:0:0:0:
372,92,62833,1,2,0:0:0:0:
272,92,63040,6,0,L|268:188,1,90,8|0,0:0|0:0,0:0:0:0:
368,184,63454,1,8,0:0:0:0:
168,184,63661,2,0,L|76:192,1,90,2|8,0:0|0:0,0:0:0:0:
278,191,64075,2,0,L|367:183,1,90,8|0,0:0|0:0,0:0:0:0:
260,192,64488,1,2,0:0:0:0:
376,184,64695,1,8,0:0:0:0:
108,184,64902,6,0,P|44:240|100:288,1,180,8|2,0:0|0:0,0:0:0:0:
154,288,65419,1,2,0:0:0:0:
208,288,65523,1,2,0:0:0:0:
408,272,65730,2,0,L|316:272,1,90,8|0,0:0|0:0,0:0:0:0:
428,272,66144,1,2,0:0:0:0:
156,272,66351,6,0,B|68:272|68:272|160:272,1,180,2|8,0:0|0:0,0:0:0:0:
272,272,66971,2,0,L|364:272,1,90,2|0,0:0|0:0,0:0:0:0:
60,232,67385,5,8,0:0:0:0:
40,209,67454,1,2,0:0:0:0:
27,182,67523,1,2,0:0:0:0:
23,152,67592,1,2,0:0:0:0:
28,123,67661,1,2,0:0:0:0:
41,96,67730,1,2,0:0:0:0:
61,73,67799,1,2,0:0:0:0:
86,58,67868,1,2,0:0:0:0:
115,50,67937,1,2,0:0:0:0:
145,51,68006,1,2,0:0:0:0:
352,52,68213,6,0,L|356:132,1,67.5,4|0,0:0|0:0,0:0:0:0:
236,120,68833,2,0,P|168:208|236:276,1,225,2|0,0:0|0:0,0:0:0:0:
352,276,70282,5,0,0:0:0:0:
208,276,70695,2,0,L|120:276,2,67.5,2|2|0,0:0|0:0|0:0,0:0:0:0:
400,272,71523,6,0,L|404:184,1,67.5,4|0,0:0|0:0,0:0:0:0:
164,192,72144,2,0,B|392:192|392:192|392:96,1,315,2|0,0:0|0:0,0:0:0:0:
256,104,74006,6,0,B|216:104|216:104|268:104,1,90,2|0,0:0|0:0,0:0:0:0:
348,104,74626,1,0,0:0:0:0:
156,104,74833,6,0,P|116:144|156:176,1,120,4|0,0:0|0:0,0:0:0:0:
208,176,75523,1,0,0:0:0:0:
260,176,75661,2,0,B|352:176|352:176|352:268,1,180,2|0,0:0|0:0,0:0:0:0:
236,264,76902,5,0,0:0:0:0:
336,264,77316,1,2,0:0:0:0:
436,264,77730,1,2,0:0:0:0:
176,264,78144,6,0,L|172:160,1,101.250003862381,4|0,0:0|0:0,0:0:0:0:
304,164,78764,2,0,L|416:164,1,101.250003862381,2|0,0:0|0:0,0:0:0:0:
264,164,79385,1,2,0:0:0:0:
348,164,79592,1,0,0:0:0:0:
148,164,79799,6,0,P|112:104|144:52,1,135,4|2,0:0|0:0,0:0:0:0:
280,52,80419,2,0,L|188:52,1,90,2|8,0:0|0:0,0:0:0:0:
142,53,80730,1,8,0:0:0:0:
232,52,80937,1,2,0:0:0:0:
284,52,81040,2,0,L|376:52,1,90,8|2,0:0|0:0,0:0:0:0:
100,52,81454,6,0,B|52:52|52:52|104:52,1,90,6|0,0:0|0:0,0:0:0:0:
156,52,81764,2,0,L|212:52,1,45,2|8,0:0|0:0,0:0:0:0:
304,52,82075,1,0,0:0:0:0:
304,52,82178,2,0,L|164:52,1,135,2|2,0:0|0:0,0:0:0:0:
372,52,82695,2,0,L|376:152,1,90,8|0,0:0|0:0,0:0:0:0:
268,144,83109,5,2,0:0:0:0:
368,144,83316,1,2,0:0:0:0:
168,144,83523,2,0,L|164:192,1,45,8|2,0:0|0:0,0:0:0:0:
264,188,83833,1,2,0:0:0:0:
209,188,83937,2,0,L|161:188,2,45,2|2|8,0:0|0:0|0:0,0:0:0:0:
408,188,84351,1,2,0:0:0:0:
363,188,84454,1,2,0:0:0:0:
318,188,84557,1,8,0:0:0:0:
48,184,84764,6,0,B|48:276|48:276|108:276,1,135,6|2,0:0|0:0,0:0:0:0:
156,276,85178,2,0,L|200:276,1,45,8|2,0:0|0:0,0:0:0:0:
92,276,85488,2,0,L|228:276,1,135,2|2,0:0|0:0,0:0:0:0:
280,276,85902,1,2,0:0:0:0:
216,276,86006,2,0,L|212:328,2,45,8|2|0,0:0|0:0|0:0,0:0:0:0:
416,276,86419,6,0,P|428:240|368:176,1,135,2|2,0:0|0:0,0:0:0:0:
316,176,86833,1,8,0:0:0:0:
268,176,86937,1,2,0:0:0:0:
220,176,87040,1,2,0:0:0:0:
408,176,87247,2,0,L|412:80,1,90,8|2,0:0|0:0,0:0:0:0:
212,88,87661,2,0,L|116:88,1,90,8|8,0:0|0:0,0:0:0:0:
400,92,88075,6,0,B|468:92|468:92|396:92,1,135,6|2,0:0|0:0,0:0:0:0:
344,92,88488,1,8,0:0:0:0:
196,92,88799,2,0,L|340:92,1,135,2|2,0:0|0:0,0:0:0:0:
132,92,89316,1,8,0:0:0:0:
296,92,89730,6,0,L|300:188,1,90,2|2,0:0|0:0,0:0:0:0:
100,180,90144,2,0,L|56:196,1,45,8|2,0:0|0:0,0:0:0:0:
156,180,90454,1,2,0:0:0:0:
100,180,90557,2,0,L|56:196,2,45,2|2|8,0:0|0:0|0:0,0:0:0:0:
296,180,90971,1,8,0:0:0:0:
340,188,91075,1,2,0:0:0:0:
384,196,91178,1,8,0:0:0:0:
112,180,91385,5,2,0:0:0:0:
67,219,91488,1,0,0:0:0:0:
111,260,91592,1,0,0:0:0:0:
168,260,91695,1,2,0:0:0:0:
212,299,91799,1,8,0:0:0:0:
168,340,91902,1,0,0:0:0:0:
112,344,92006,1,2,0:0:0:0:
212,299,92213,2,0,L|256:296,2,45,2|0|2,0:0|0:0|0:0,0:0:0:0:
16,300,92626,1,8,0:0:0:0:
14,255,92730,1,2,0:0:0:0:
12,210,92833,1,8,0:0:0:0:
284,192,93040,5,2,0:0:0:0:
336,192,93144,1,0,0:0:0:0:
388,192,93247,1,2,0:0:0:0:
336,192,93351,1,2,0:0:0:0:
388,192,93454,2,0,L|438:192,2,45,8|2|2,0:0|0:0|0:0,0:0:0:0:
184,192,93868,1,2,0:0:0:0:
132,167,93971,1,0,0:0:0:0:
129,110,94075,1,2,0:0:0:0:
177,79,94178,1,2,0:0:0:0:
240,80,94282,1,8,0:0:0:0:
285,80,94385,1,0,0:0:0:0:
292,28,94488,1,2,0:0:0:0:
20,28,94695,5,8,0:0:0:0:
20,28,95006,1,2,0:0:0:0:
84,28,95109,1,8,0:0:0:0:
135,46,95213,1,2,0:0:0:0:
156,96,95316,1,0,0:0:0:0:
132,145,95419,1,2,0:0:0:0:
79,159,95523,2,0,L|72:272,1,90,8|2,0:0|0:0,0:0:0:0:
192,252,95937,2,0,L|199:364,1,90,8|2,0:0|0:0,0:0:0:0:
400,340,96351,6,0,L|308:340,1,90,8|2,0:0|0:0,0:0:0:0:
416,340,96764,2,0,L|420:296,1,45,8|2,0:0|0:0,0:0:0:0:
310,340,97075,1,2,0:0:0:0:
256,340,97178,2,0,L|160:340,1,90,8|2,0:0|0:0,0:0:0:0:
368,296,97592,1,8,0:0:0:0:
420,296,97695,1,2,0:0:0:0:
368,296,97799,1,2,0:0:0:0:
168,296,98006,6,0,B|76:296|76:296|76:252,1,135,8|2,0:0|0:0,0:0:0:0:
128,252,98419,2,0,L|176:252,1,45,8|0,0:0|0:0,0:0:0:0:
280,252,98730,1,2,0:0:0:0:
228,252,98833,2,0,L|128:252,1,90,8|2,0:0|0:0,0:0:0:0:
336,252,99247,2,0,L|340:208,1,45,8|2,0:0|0:0,0:0:0:0:
232,192,99557,1,2,0:0:0:0:
288,192,99661,6,0,L|380:192,1,90,8|2,0:0|0:0,0:0:0:0:
324,192,99971,1,2,0:0:0:0:
388,192,100075,1,8,0:0:0:0:
392,140,100178,1,2,0:0:0:0:
352,104,100282,1,2,0:0:0:0:
296,104,100385,1,2,0:0:0:0:
404,84,100592,1,8,0:0:0:0:
344,84,100695,1,2,0:0:0:0:
144,84,100902,2,0,L|92:84,2,45,8|2|8,0:0|0:0|0:0,0:0:0:0:
416,84,101316,6,0,P|456:132|416:180,1,135,8|2,0:0|0:0,0:0:0:0:
352,180,101730,2,0,L|272:180,2,60,8|2|2,0:0|0:0|0:0,0:0:0:0:
424,180,102144,2,0,L|428:272,1,90,2|2,0:0|0:0,0:0:0:0:
224,268,102557,1,8,0:0:0:0:
314,268,102971,6,0,L|218:268,1,90,2|2,0:0|0:0,0:0:0:0:
24,268,103385,2,0,L|20:320,1,45,8|2,0:0|0:0,0:0:0:0:
128,312,103695,1,2,0:0:0:0:
184,312,103799,1,2,0:0:0:0:
128,312,103902,1,8,0:0:0:0:
76,312,104006,1,2,0:0:0:0:
276,312,104213,2,0,L|328:312,2,45,8|2|2,0:0|0:0|0:0,0:0:0:0:
76,312,104626,6,0,P|28:272|72:228,1,135,8|2,0:0|0:0,0:0:0:0:
120,228,105040,2,0,L|180:228,1,45,8|2,0:0|0:0,0:0:0:0:
272,228,105351,2,0,L|136:228,1,135,2|2,0:0|0:0,0:0:0:0:
340,228,105868,2,0,L|384:228,2,45,8|2|2,0:0|0:0|0:0,0:0:0:0:
136,140,106282,6,0,L|260:192,1,135,8|2,0:0|0:0,0:0:0:0:
196,192,106695,2,0,L|152:192,2,45,8|2|0,0:0|0:0|0:0,0:0:0:0:
260,192,107006,2,0,L|160:192,1,90,2|2,0:0|0:0,0:0:0:0:
108,192,107316,1,2,0:0:0:0:
320,192,107523,2,0,L|420:192,1,90,8|2,0:0|0:0,0:0:0:0:
136,104,107937,6,0,B|60:104|60:104|88:104,1,101.250003862381,12|2,0:0|0:0,0:0:0:0:
212,104,108351,2,0,L|304:104,1,90,8|0,0:0|0:0,0:0:0:0:
302,104,108661,1,2,0:0:0:0:
168,104,108971,1,2,0:0:0:0:
376,104,109178,1,8,0:0:0:0:
216,104,109592,6,0,L|212:8,1,90,2|2,0:0|0:0,0:0:0:0:
416,12,110006,2,0,L|420:64,1,45,8|2,0:0|0:0,0:0:0:0:
312,56,110316,1,2,0:0:0:0:
374,56,110419,2,0,L|434:56,2,45,0|2|8,0:0|0:0|0:0,0:0:0:0:
172,56,110833,2,0,L|112:56,2,45,2|2|8,0:0|0:0|0:0,0:0:0:0:
448,144,111247,6,0,B|448:192|448:192|356:192,1,135,6|2,0:0|0:0,0:0:0:0:
236,192,111661,2,0,L|184:192,1,45,8|2,0:0|0:0,0:0:0:0:
300,192,111971,2,0,L|156:192,1,135,2|2,0:0|0:0,0:0:0:0:
368,192,112488,2,0,L|372:144,1,45,8|2,0:0|0:0,0:0:0:0:
208,148,112902,6,0,L|352:148,1,135,2|2,0:0|0:0,0:0:0:0:
220,148,113316,1,8,0:0:0:0:
169,121,113419,1,2,0:0:0:0:
165,64,113523,1,0,0:0:0:0:
213,32,113626,1,2,0:0:0:0:
276,32,113730,2,0,L|368:32,1,90,2|2,0:0|0:0,0:0:0:0:
165,64,114144,2,0,L|72:64,1,90,8|8,0:0|0:0,0:0:0:0:
348,144,114557,6,0,L|220:97,2,135,6|2|2,0:0|0:0|0:0,0:0:0:0:
292,144,115282,1,2,0:0:0:0:
168,144,115385,1,8,0:0:0:0:
276,144,115592,2,0,L|280:208,1,45,2|0,0:0|0:0,0:0:0:0:
208,220,115799,2,0,L|156:220,2,45,2|2|8,0:0|0:0|0:0,0:0:0:0:
412,220,116213,6,0,L|504:220,2,90,6|2|2,0:0|0:0|0:0,0:0:0:0:
356,220,116730,1,2,0:0:0:0:
248,220,116937,1,2,0:0:0:0:
372,220,117040,2,0,L|464:220,1,90,8|2,0:0|0:0,0:0:0:0:
336,220,117454,1,2,0:0:0:0:
388,220,117557,1,2,0:0:0:0:
444,220,117661,1,8,0:0:0:0:
172,220,117868,6,0,L|36:220,1,135,6|2,0:0|0:0,0:0:0:0:
160,308,118282,2,0,L|216:308,2,45,8|2|2,0:0|0:0|0:0,0:0:0:0:
104,308,118592,2,0,P|60:272|104:220,1,135,2|2,0:0|0:0,0:0:0:0:
300,220,119109,2,0,L|344:220,2,45,8|2|0,0:0|0:0|0:0,0:0:0:0:
24,220,119523,6,0,B|24:128|24:128|72:128,1,135,6|2,0:0|0:0,0:0:0:0:
132,128,119937,2,0,L|196:128,1,45,2|2,0:0|0:0,0:0:0:0:
64,54,120144,2,0,L|180:130,1,135,6|2,0:0|0:0,0:0:0:0:
240,128,120557,2,0,L|244:76,1,45,2|2,0:0|0:0,0:0:0:0:
120,56,120764,2,0,L|48:56,2,45,8|8|2,0:0|0:0|0:0,0:0:0:0:
392,56,121178,6,0,L|484:56,1,90,6|2,0:0|0:0,0:0:0:0:
292,56,121592,2,0,L|288:156,1,90,8|2,0:0|0:0,0:0:0:0:
396,144,122006,1,2,0:0:0:0:
448,160,122109,1,0,0:0:0:0:
448,216,122213,1,2,0:0:0:0:
396,232,122316,1,2,0:0:0:0:
344,232,122419,2,0,L|252:232,1,90,8|2,0:0|0:0,0:0:0:0:
56,232,122833,6,0,L|136:192,1,90,2|2,0:0|0:0,0:0:0:0:
332,192,123247,2,0,L|256:144,1,90,8|2,0:0|0:0,0:0:0:0:
200,144,123557,1,2,0:0:0:0:
255,143,123661,2,0,L|308:144,2,45,2|0|2,0:0|0:0|0:0,0:0:0:0:
56,144,124075,1,8,0:0:0:0:
156,144,124282,2,0,L|204:144,1,45,2|2,0:0|0:0,0:0:0:0:
256,144,124488,6,0,L|368:144,1,90,2|2,0:0|0:0,0:0:0:0:
400,144,124799,1,2,0:0:0:0:
346,144,124902,2,0,L|248:144,1,90,8|2,0:0|0:0,0:0:0:0:
364,144,125316,2,0,L|368:92,2,45,2|0|2,0:0|0:0|0:0,0:0:0:0:
168,144,125730,2,0,L|76:144,1,90,8|2,0:0|0:0,0:0:0:0:
272,144,126144,6,0,L|276:52,1,90,2|2,0:0|0:0,0:0:0:0:
80,52,126557,1,8,0:0:0:0:
188,52,126764,2,0,L|240:52,1,45,2|2,0:0|0:0,0:0:0:0:
180,52,126971,2,0,L|88:52,2,90,2|2|8,0:0|0:0|0:0,0:0:0:0:
384,52,127592,6,0,P|444:88|384:148,1,180,4|2,0:0|0:0,0:0:0:0:
184,148,128213,2,0,L|180:248,1,90,8|2,0:0|0:0,0:0:0:0:
288,236,128626,2,0,L|196:236,2,90,2|2|8,0:0|0:0|0:0,0:0:0:0:
88,236,129247,6,0,P|28:284|88:340,1,180,2|2,0:0|0:0,0:0:0:0:
288,340,129868,2,0,L|380:340,1,90,8|0,0:0|0:0,0:0:0:0:
176,340,130282,2,0,L|172:248,1,90,2|2,0:0|0:0,0:0:0:0:
272,252,130695,1,8,0:0:0:0:
172,250,130902,1,2,0:0:0:0:
72,252,131109,6,0,L|68:160,1,90,2|0,0:0|0:0,0:0:0:0:
264,160,131523,1,8,0:0:0:0:
280,118,131626,1,2,0:0:0:0:
296,76,131730,1,2,0:0:0:0:
196,72,131937,2,0,L|296:72,1,90,2|2,0:0|0:0,0:0:0:0:
176,72,132351,1,8,0:0:0:0:
376,72,132557,6,0,B|376:164|376:164|292:192,1,180,2|2,0:0|0:0,0:0:0:0:
88,192,133178,2,0,L|180:192,1,90,8|2,0:0|0:0,0:0:0:0:
276,192,133592,2,0,L|272:96,1,90,2|2,0:0|0:0,0:0:0:0:
72,104,134006,2,0,L|28:104,2,45,8|2|2,0:0|0:0|0:0,0:0:0:0:
352,104,134419,6,0,L|452:104,1,90,2|2,0:0|0:0,0:0:0:0:
492,104,134730,1,2,0:0:0:0:
442,104,134833,2,0,L|344:104,1,90,8|2,0:0|0:0,0:0:0:0:
252,104,135247,1,2,0:0:0:0:
212,132,135351,1,0,0:0:0:0:
200,180,135454,1,2,0:0:0:0:
212,228,135557,1,2,0:0:0:0:
252,256,135661,1,8,0:0:0:0:
352,256,135868,2,0,L|296:256,1,45,2|2,0:0|0:0,0:0:0:0:
252,256,136075,6,0,L|156:256,1,90,2|2,0:0|0:0,0:0:0:0:
112,256,136385,1,2,0:0:0:0:
162,256,136488,2,0,L|168:200,2,45,8|0|2,0:0|0:0|0:0,0:0:0:0:
48,192,136902,1,2,0:0:0:0:
93,192,137006,1,2,0:0:0:0:
138,192,137109,1,2,0:0:0:0:
336,192,137316,1,8,0:0:0:0:
387,166,137419,1,0,0:0:0:0:
389,109,137523,1,2,0:0:0:0:
339,80,137626,1,2,0:0:0:0:
280,80,137730,6,0,L|176:80,1,90,2|2,0:0|0:0,0:0:0:0:
389,109,138144,2,0,L|295:107,1,90,8|2,0:0|0:0,0:0:0:0:
240,108,138454,1,2,0:0:0:0:
299,108,138557,2,0,L|391:107,1,90,2|2,0:0|0:0,0:0:0:0:
188,28,138971,2,0,L|232:28,1,45,8|0,0:0|0:0,0:0:0:0:
292,28,139178,2,0,L|296:84,1,45,2|2,0:0|0:0,0:0:0:0:
236,72,139385,6,0,L|140:72,1,90,2|2,0:0|0:0,0:0:0:0:
348,72,139799,1,8,0:0:0:0:
448,72,140006,2,0,L|392:72,1,45,2|2,0:0|0:0,0:0:0:0:
348,72,140213,2,0,L|256:72,2,90,2|2|8,0:0|0:0|0:0,0:0:0:0:
152,72,140833,6,0,B|64:72|64:72|64:164,1,180,2|2,0:0|0:0,0:0:0:0:
260,164,141454,2,0,L|356:164,1,90,8|2,0:0|0:0,0:0:0:0:
240,164,141868,2,0,L|153:114,2,90,2|2|8,0:0|0:0|0:0,0:0:0:0:
444,164,142488,6,0,L|256:164,1,180,2|2,0:0|0:0,0:0:0:0:
372,164,143109,1,8,0:0:0:0:
172,164,143316,2,0,P|116:236|172:272,1,180,2|2,0:0|0:0,0:0:0:0:
288,272,143937,1,8,0:0:0:0:
84,272,144144,6,0,B|84:360|84:360|176:360,1,180,4|2,0:0|0:0,0:0:0:0:
68,360,144764,1,8,0:0:0:0:
340,360,144971,2,0,B|340:268|340:268|244:268,1,180,4|2,0:0|0:0,0:0:0:0:
360,268,145592,1,8,0:0:0:0:
88,268,145799,6,0,L|84:172,1,90,4|2,0:0|0:0,0:0:0:0:
192,180,146213,1,2,0:0:0:0:
464,180,146419,2,0,L|468:84,1,90,8|0,0:0|0:0,0:0:0:0:
268,88,146833,1,8,0:0:0:0:
216,111,146937,1,8,0:0:0:0:
215,167,147040,1,2,0:0:0:0:
266,192,147144,1,2,0:0:0:0:
388,192,147247,2,2,L|440:192,2,45,2|2|8,0:0|0:0|0:0,0:0:0:0:
100,192,147661,6,0,P|68:264|76:324,1,135,8|2,0:0|0:0,0:0:0:0:
332,324,148282,2,0,L|432:324,1,90,2|8,0:0|0:0,0:0:0:0:
368,324,148592,1,2,0:0:0:0:
100,192,148902,6,0,L|240:192,1,135,2|2,0:0|0:0,0:0:0:0:
492,192,149523,1,2,0:0:0:0:
235,192,149833,2,0,L|375:192,1,135,2|2,0:0|0:0,0:0:0:0:
