osu file format v14

[General]
AudioFilename: audio.mp3
AudioLeadIn: 0
PreviewTime: 107937
Countdown: 0
SampleSet: Soft
StackLeniency: 0.7
Mode: 2
LetterboxInBreaks: 0
WidescreenStoryboard: 1

[Editor]
Bookmarks: 2006,15247,28488,41730,54971,68213,81454,94695,107937,121178,134419,147661
DistanceSpacing: 1.2
BeatDivisor: 4
GridSize: 4
TimelineZoom: 2.6

[Metadata]
Title:Nova
TitleUnicode:Nova
Artist:meganeko
ArtistUnicode:meganeko
Creator:JBHyperion
Version:Overdose
Source:
Tags:Tom Mauritzon Technokinesis Hyperwave Records Sweden electronic dance chiptune instrumental wubstep
BeatmapID:2302405
BeatmapSetID:1102115

[Difficulty]
HPDrainRate:6
CircleSize:4
OverallDifficulty:9.3
ApproachRate:9.3
SliderMultiplier:2
SliderTickRate:2

[Events]
//Background and Video events
0,0,"bg.jpg",0,0
//Break Periods
//Storyboard Layer 0 (Background)
//Storyboard Layer 1 (Fail)
//Storyboard Layer 2 (Pass)
//Storyboard Layer 3 (Foreground)
//Storyboard Layer 4 (Overlay)
//Storyboard Sound Samples

[TimingPoints]
351,413.793103448276,4,2,1,60,1,0
764,-100,4,2,1,70,0,0
1178,-100,4,3,1,70,0,0
1592,-100,4,3,1,50,0,0
1799,-100,4,3,1,80,0,0
1902,-100,4,2,1,60,0,0
2006,-100,4,2,2,80,0,0
4488,-100,4,3,1,60,0,0
4695,-100,4,3,1,80,0,0
4902,-100,4,2,2,80,0,0
7695,-80,4,2,2,80,0,0
8006,-100,4,2,2,80,0,0
9178,-100,4,2,1,80,0,0
9454,-100,4,2,2,80,0,0
11109,-100,4,3,1,60,0,0
11316,-100,4,3,1,80,0,0
11523,-100,4,2,2,80,0,0
13592,-100,4,2,2,90,0,0
15040,-100,4,2,1,80,0,0
15247,-100,4,2,2,80,0,1
15971,-75.187969924812,4,2,2,80,0,1
16282,-100,4,2,2,80,0,1
18557,-75.187969924812,4,2,2,80,0,1
18868,-100,4,2,2,80,0,1
25178,-75.187969924812,4,2,2,80,0,1
25488,-100,4,2,2,80,0,1
26833,-80,4,2,2,90,0,1
27557,-66.6666666666667,4,2,2,90,0,1
27868,-66.6666666666667,4,3,1,80,0,1
28075,-66.6666666666667,4,2,2,90,0,1
28282,-66.6666666666667,4,2,1,80,0,1
28488,-66.6666666666667,4,2,77,80,0,0
28592,-66.6666666666667,4,2,1,60,0,0
28695,-100,4,2,1,60,0,0
40075,-100,4,2,1,65,0,0
40488,-100,4,2,1,70,0,0
40902,-100,4,3,1,90,0,0
41316,-100,4,3,1,70,0,0
41730,-100,4,2,77,100,0,0
41782,-100,4,2,1,70,0,0
42557,-100,4,2,2,80,0,0
42764,-100,4,2,1,80,0,0
45868,-100,4,2,2,80,0,0
46075,-100,4,2,1,80,0,0
47523,-66.6666666666667,4,2,2,90,0,0
47730,-100,4,2,1,80,0,0
48144,-100,4,2,2,80,0,0
48351,-100,4,2,1,80,0,0
49178,-100,4,2,2,80,0,0
49385,-100,4,2,1,80,0,0
50833,-100,4,2,2,80,0,0
51040,-100,4,2,1,80,0,0
51661,-100,4,2,77,100,0,0
51713,-100,4,2,1,80,0,0
52488,-100,4,2,2,80,0,0
52695,-100,4,2,1,80,0,0
53109,-80,4,2,1,90,0,0
53523,-100,4,2,1,80,0,0
54144,-100,4,2,2,80,0,0
54351,-100,4,2,1,80,0,0
54971,-100,4,2,77,100,0,0
55023,-100,4,2,1,80,0,0
55799,-66.6666666666667,4,2,2,80,0,0
56006,-66.6666666666667,4,2,1,80,0,0
56833,-50,4,2,1,80,0,0
57040,-66.6666666666667,4,2,1,80,0,0
57454,-100,4,2,1,80,0,0
57764,-100,4,2,1,80,0,0
59109,-80,4,2,2,80,0,0
59316,-80,4,2,1,80,0,0
60764,-66.6666666666667,4,2,2,80,0,0
60971,-80,4,2,1,80,0,0
61592,-100,4,2,77,100,0,0
61644,-100,4,2,1,80,0,0
62419,-100,4,2,2,80,0,0
62626,-100,4,2,1,80,0,0
63713,-80,4,2,1,90,0,0
64075,-100,4,2,2,90,0,0
64282,-100,4,2,1,80,0,0
64902,-100,4,2,77,100,0,0
64954,-100,4,2,1,80,0,0
65730,-66.6666666666667,4,2,2,80,0,0
66040,-100,4,2,1,80,0,0
66351,-57.1428571428571,4,2,1,80,0,0
66971,-100,4,2,1,80,0,0
67385,-100,4,2,2,80,0,0
67454,-100,4,2,1,70,0,0
67592,-100,4,2,1,65,0,0
67799,-100,4,2,1,60,0,0
68006,-100,4,2,1,55,0,0
68213,-80,4,2,3,60,0,0
68523,-200,4,2,3,50,0,0
69868,-200,4,2,3,40,0,0
71523,-200,4,2,3,50,0,0
72144,-133.333333333333,4,2,3,50,0,0
73592,-200,4,2,3,50,0,0
74006,-200,4,2,3,40,0,0
74833,-200,4,2,3,50,0,0
76902,-200,4,2,3,30,0,0
78144,-133.333333333333,4,2,3,40,0,0
79799,-100,4,2,1,60,0,0
80626,-100,4,3,1,60,0,0
80937,-100,4,3,1,45,0,0
81040,-100,4,3,1,60,0,0
81247,-100,4,3,1,45,0,0
81454,-100,4,2,2,70,0,0
83937,-100,4,3,1,60,0,0
84144,-100,4,3,1,80,0,0
84351,-100,4,2,2,80,0,0
86213,-100,4,2,1,80,0,0
86419,-100,4,2,2,80,0,0
90557,-100,4,3,1,60,0,0
90764,-100,4,3,1,80,0,0
90971,-100,4,2,2,80,0,0
94385,-100,4,2,1,80,0,0
94695,-100,4,2,2,70,0,0
98006,-80,4,2,2,70,0,0
98316,-100,4,2,2,70,0,0
101730,-66.6666666666667,4,2,2,70,0,0
101868,-100,4,2,1,80,0,0
102144,-100,4,2,2,70,0,0
103799,-100,4,3,1,60,0,0
104006,-100,4,3,1,80,0,0
104213,-100,4,2,2,80,0,0
106282,-80,4,2,2,80,0,0
106488,-100,4,2,2,80,0,0
107626,-100,4,2,1,80,0,0
107937,-80,4,2,2,80,0,1
109282,-80,4,2,1,80,0,1
109592,-80,4,2,2,80,0,1
110419,-80,4,3,1,60,0,1
110626,-80,4,3,1,80,0,1
110833,-80,4,2,2,80,0,1
111247,-66.6666666666667,4,2,2,80,0,1
111557,-80,4,2,2,80,0,1
112695,-80,4,2,1,80,0,1
112902,-80,4,2,2,80,0,1
113626,-80,4,2,1,80,0,1
113730,-80,4,2,2,80,0,1
114351,-80,4,3,1,80,0,1
114557,-80,4,2,2,80,0,1
117868,-66.6666666666667,4,2,2,80,0,1
118178,-80,4,2,2,80,0,1
121178,-100,4,2,2,70,0,0
121385,-100,4,2,1,70,0,0
121592,-100,4,2,2,70,0,0
121799,-100,4,2,1,70,0,0
122006,-100,4,2,2,70,0,0
122213,-100,4,2,1,70,0,0
122419,-100,4,2,2,70,0,0
122626,-100,4,2,1,70,0,0
122833,-100,4,2,2,70,0,0
123040,-100,4,2,1,70,0,0
123247,-100,4,2,2,70,0,0
123454,-100,4,2,1,70,0,0
123661,-100,4,2,2,70,0,0
123868,-100,4,2,1,70,0,0
124075,-100,4,2,2,70,0,0
124282,-100,4,2,1,70,0,0
124488,-100,4,2,2,70,0,0
124695,-100,4,2,1,70,0,0
124902,-100,4,2,2,70,0,0
125109,-100,4,2,1,70,0,0
125316,-100,4,2,2,70,0,0
125523,-100,4,2,1,70,0,0
125730,-100,4,2,2,70,0,0
125937,-100,4,2,1,70,0,0
126144,-100,4,2,2,70,0,0
126351,-100,4,2,1,70,0,0
126557,-100,4,2,2,70,0,0
126764,-100,4,2,1,70,0,0
126971,-100,4,2,2,70,0,0
127592,-100,4,2,3,80,0,0
127799,-100,4,2,2,70,0,0
128419,-100,4,2,1,70,0,0
128626,-100,4,2,2,70,0,0
129247,-100,4,2,1,70,0,0
129454,-100,4,2,2,70,0,0
129661,-100,4,2,1,70,0,0
129868,-100,4,2,2,70,0,0
130902,-100,4,2,1,70,0,0
131109,-100,4,2,2,70,0,0
131626,-100,4,2,1,70,0,0
131833,-100,4,2,2,70,0,0
132557,-100,4,2,1,70,0,0
132764,-100,4,2,2,70,0,0
133385,-100,4,2,1,70,0,0
133592,-100,4,2,2,70,0,0
134057,-100,4,2,1,70,0,0
134316,-100,4,2,2,70,0,0
134626,-100,4,2,1,70,0,0
134833,-100,4,2,2,70,0,0
135040,-100,4,2,1,70,0,0
135247,-100,4,2,2,70,0,0
135454,-100,4,2,1,70,0,0
135661,-100,4,2,2,70,0,0
135868,-100,4,2,1,70,0,0
136075,-100,4,2,2,70,0,0
136282,-100,4,2,1,70,0,0
136489,-100,4,2,2,70,0,0
136695,-100,4,2,1,70,0,0
136902,-100,4,2,2,70,0,0
137006,-100,4,2,1,70,0,0
137316,-100,4,2,2,70,0,0
137523,-100,4,2,1,70,0,0
137730,-100,4,2,2,70,0,0
137937,-100,4,2,1,70,0,0
138144,-100,4,2,2,70,0,0
138351,-100,4,2,1,70,0,0
138558,-100,4,2,2,70,0,0
138661,-100,4,2,1,70,0,0
138971,-100,4,2,2,70,0,0
139178,-100,4,2,1,70,0,0
139385,-100,4,2,2,70,0,0
139592,-100,4,2,1,70,0,0
139799,-100,4,2,2,70,0,0
140006,-100,4,2,1,70,0,0
140213,-75.187969924812,4,2,2,80,0,0
140626,-100,4,2,2,70,0,0
140833,-100,4,2,1,70,0,0
141040,-100,4,2,2,70,0,0
141247,-100,4,2,1,70,0,0
141454,-100,4,2,2,70,0,0
141661,-100,4,2,1,70,0,0
141868,-100,4,2,2,70,0,0
142488,-100,4,2,1,70,0,0
142695,-100,4,2,2,70,0,0
143316,-100,4,2,1,80,0,0
143523,-100,4,2,2,70,0,0
144144,-90.9090909090909,4,2,1,80,0,0
144557,-100,4,2,1,75,0,0
144764,-100,4,2,2,75,0,0
144971,-90.9090909090909,4,2,1,80,0,0
145178,-100,4,2,2,80,0,0
145385,-100,4,2,1,80,0,0
145592,-100,4,2,2,80,0,0
145799,-80,4,2,1,85,0,0
146006,-80,4,2,2,85,0,0
146213,-80,4,2,1,85,0,0
146419,-30.7692307692308,4,2,1,90,0,0
146833,-100,4,3,1,80,0,0
147247,-100,4,2,1,80,0,0
147661,-57.1428571428571,4,2,77,100,0,0
147764,-57.1428571428571,4,2,2,80,0,0
148488,-57.1428571428571,4,2,2,60,0,0
148592,-57.1428571428571,4,2,2,80,0,0
150144,-57.1428571428571,4,2,1,40,0,0

[Colours]
Combo1 : 255,175,125
Combo2 : 255,75,255
Combo3 : 175,75,255
Combo4 : 55,125,255

[HitObjects]
312,192,351,6,0,L|260:192,1,50,2|0,0:0|0:0,0:0:0:0:
264,260,557,2,0,L|316:260,1,50
188,260,764,2,0,L|192:204,1,50,2|0,0:0|0:0,0:0:0:0:
312,192,971,2,0,L|260:192,1,50
92,120,1178,1,8,0:0:0:0:
152,120,1282,1,8,0:0:0:0:
92,120,1385,1,8,0:0:0:0:
152,120,1488,1,8,0:0:0:0:
324,120,1592,2,0,L|268:120,1,50,2|2,0:0|0:0,0:0:0:0:
448,120,1799,2,0,L|504:120,1,50,8|2,0:0|0:0,0:0:0:0:
244,192,2006,6,0,B|192:192|192:192|248:192,1,100,6|0,0:0|0:0,0:0:0:0:
300,192,2316,1,2,0:0:0:0:
124,192,2419,2,0,L|60:192,2,50,8|0|0,0:0|0:0|0:0,0:0:0:0:
252,192,2730,2,0,L|404:192,1,150,2|2,0:0|0:0,0:0:0:0:
112,192,3247,1,8,0:0:0:0:
292,192,3661,6,0,L|296:72,1,100,2|2,0:0|0:0,0:0:0:0:
16,96,4075,2,0,L|20:40,1,50,8|2,0:0|0:0,0:0:0:0:
140,48,4385,1,2,0:0:0:0:
268,48,4488,2,0,L|273:108,1,50,2|2,0:0|0:0,0:0:0:0:
212,96,4695,2,0,L|160:96,1,50,8|8,0:0|0:0,0:0:0:0:
340,96,4902,2,0,L|392:96,1,50,2|2,0:0|0:0,0:0:0:0:
165,145,5109,2,0,L|161:89,1,50,8|2,0:0|0:0,0:0:0:0:
448,210,5316,6,0,P|448:138|390:96,1,150,6|2,0:0|0:0,0:0:0:0:
200,96,5730,1,8,0:0:0:0:
140,96,5833,2,0,L|136:36,1,50,2|0,0:0|0:0,0:0:0:0:
264,48,6040,2,0,L|120:100,1,150,2|2,0:0|0:0,0:0:0:0:
408,156,6557,2,0,L|404:104,1,50,8|2,0:0|0:0,0:0:0:0:
254,106,6971,6,0,L|406:106,1,150,2|2,0:0|0:0,0:0:0:0:
192,108,7385,1,8,0:0:0:0:
124,108,7488,1,2,0:0:0:0:
85,138,7539,1,0,0:0:0:0:
71,185,7591,1,0,0:0:0:0:
87,231,7643,1,0,0:0:0:0:
232,232,7695,2,0,L|424:232,1,187.5,2|2,0:0|0:0,0:0:0:0:
124,108,8213,2,0,L|180:108,1,50,8|2,0:0|0:0,0:0:0:0:
354,106,8419,2,0,L|404:106,1,50,8|2,0:0|0:0,0:0:0:0:
174,108,8626,6,0,B|124:108|124:108|176:108,1,100,6|0,0:0|0:0,0:0:0:0:
236,108,8937,1,2,0:0:0:0:
424,108,9040,1,8,0:0:0:0:
352,108,9178,1,2,0:0:0:0:
432,108,9316,1,2,0:0:0:0:
208,108,9454,2,0,L|212:224,1,100,2|2,0:0|0:0,0:0:0:0:
492,208,9868,1,8,0:0:0:0:
296,212,10282,6,0,L|400:212,1,100,2|2,0:0|0:0,0:0:0:0:
116,212,10695,2,0,L|112:268,1,50,8|2,0:0|0:0,0:0:0:0:
232,260,11006,1,2,0:0:0:0:
112,260,11109,2,0,L|108:208,1,50,2|2,0:0|0:0,0:0:0:0:
176,192,11316,2,0,L|232:192,1,50,8|8,0:0|0:0,0:0:0:0:
32,192,11523,2,0,L|28:132,1,50,2|2,0:0|0:0,0:0:0:0:
220,88,11730,2,0,L|280:88,1,50,8|2,0:0|0:0,0:0:0:0:
464,88,11937,6,0,B|352:88,1,100,6|0,0:0|0:0,0:0:0:0:
292,88,12247,1,2,0:0:0:0:
480,88,12351,2,0,L|484:152,1,50,8|2,0:0|0:0,0:0:0:0:
396,156,12557,1,2,0:0:0:0:
308,156,12661,2,0,L|208:156,1,100,2|2,0:0|0:0,0:0:0:0:
332,156,12971,2,0,L|336:212,1,50,2|0,0:0|0:0,0:0:0:0:
136,204,13178,2,0,L|192:204,1,50,8|2,0:0|0:0,0:0:0:0:
304,208,13385,2,0,L|300:268,1,50,2|0,0:0|0:0,0:0:0:0:
88,260,13592,6,0,L|204:260,1,100,2|0,0:0|0:0,0:0:0:0:
260,260,13902,1,2,0:0:0:0:
68,192,14006,2,0,L|128:192,2,50,8|2|2,0:0|0:0|0:0,0:0:0:0:
268,192,14316,2,0,B|368:192,1,100,2|2,0:0|0:0,0:0:0:0:
136,192,14626,2,0,L|188:192,1,50,2|0,0:0|0:0,0:0:0:0:
382,192,14833,2,0,L|280:192,1,100,8|2,0:0|0:0,0:0:0:0:
344,192,15144,1,2,0:0:0:0:
120,104,15247,6,0,L|20:104,1,100,6|0,0:0|0:0,0:0:0:0:
80,104,15557,1,2,0:0:0:0:
272,104,15661,1,8,0:0:0:0:
216,104,15764,1,2,0:0:0:0:
160,104,15868,1,0,0:0:0:0:
322,104,15971,2,0,P|391:137|432:252,1,199.499991780854,2|2,0:0|0:0,0:0:0:0:
128,104,16488,1,8,0:0:0:0:
308,104,16902,6,0,L|312:224,1,100,2|2,0:0|0:0,0:0:0:0:
32,104,17316,2,0,L|28:160,1,50,8|2,0:0|0:0,0:0:0:0:
148,156,17626,1,2,0:0:0:0:
20,156,17730,1,2,0:0:0:0:
80,156,17833,1,8,0:0:0:0:
20,156,17937,1,2,0:0:0:0:
132,156,18040,1,0,0:0:0:0:
300,156,18144,2,0,L|356:156,1,50,8|2,0:0|0:0,0:0:0:0:
148,156,18351,2,0,L|144:220,1,50,8|2,0:0|0:0,0:0:0:0:
392,156,18557,6,0,P|460:204|392:272,1,199.499991780854,6|2,0:0|0:0,0:0:0:0:
176,252,18971,2,0,L|112:252,1,50,8|2,0:0|0:0,0:0:0:0:
313,311,19282,2,0,L|173:251,1,150,2|2,0:0|0:0,0:0:0:0:
456,192,19799,1,8,0:0:0:0:
400,192,19902,2,0,B|300:192,1,100,2|0,0:0|0:0,0:0:0:0:
432,264,20213,6,0,L|320:264,1,100,2|0,0:0|0:0,0:0:0:0:
272,264,20523,1,2,0:0:0:0:
96,264,20626,2,0,L|148:264,1,50,8|2,0:0|0:0,0:0:0:0:
216,264,20833,2,0,L|224:196,1,50,0|2,0:0|0:0,0:0:0:0:
24,192,21040,2,0,L|124:192,1,100,2|2,0:0|0:0,0:0:0:0:
400,192,21454,2,0,L|456:192,1,50,8|2,0:0|0:0,0:0:0:0:
196,116,21661,2,0,L|132:116,1,50,8|8,0:0|0:0,0:0:0:0:
408,84,21868,6,0,L|304:84,1,100,6|0,0:0|0:0,0:0:0:0:
258,84,22178,1,2,0:0:0:0:
484,84,22282,2,0,L|488:28,1,50,8|2,0:0|0:0,0:0:0:0:
416,32,22488,1,2,0:0:0:0:
184,84,22592,2,0,P|135:133|187:177,1,150,2|2,0:0|0:0,0:0:0:0:
484,192,23109,1,8,0:0:0:0:
336,192,23523,6,0,L|332:300,1,100,2|2,0:0|0:0,0:0:0:0:
52,292,23937,2,0,L|124:292,1,50,8|2,0:0|0:0,0:0:0:0:
224,292,24247,1,2,0:0:0:0:
100,292,24351,2,0,L|96:224,1,50,2|8,0:0|0:0,0:0:0:0:
216,196,24557,2,0,L|152:176,1,50,2|0,0:0|0:0,0:0:0:0:
372,132,24764,2,0,L|320:116,1,50,8|2,0:0|0:0,0:0:0:0:
92,216,24971,2,0,L|144:200,1,50,8|8,0:0|0:0,0:0:0:0:
419,248,25178,6,0,P|459:188|371:132,1,199.499991780854,6|2,0:0|0:0,0:0:0:0:
172,128,25592,2,0,L|116:128,1,50,8|2,0:0|0:0,0:0:0:0:
176,128,25799,1,0,0:0:0:0:
376,184,25902,2,0,P|396:236|372:272,1,100,2|2,0:0|0:0,0:0:0:0:
320,272,26213,2,0,L|264:272,1,50,2|0,0:0|0:0,0:0:0:0:
60,272,26419,2,0,L|112:272,1,50,8|2,0:0|0:0,0:0:0:0:
168,344,26626,2,0,L|108:344,1,50,8|8,0:0|0:0,0:0:0:0:
374,270,26833,6,0,B|376:364|376:364|280:364,1,187.5,6|2,0:0|0:0,0:0:0:0:
472,364,27247,2,0,L|408:364,1,62.5,8|2,0:0|0:0,0:0:0:0:
158,364,27454,1,12,0:0:0:0:
82,364,27557,2,0,B|6:364|6:364|86:364,1,150.000005722046,2|2,0:0|0:0,0:0:0:0:
334,364,27868,2,0,L|409:364,1,75.0000028610231,8|8,0:0|0:0,0:0:0:0:
68,304,28075,2,0,L|220:304,1,150.000005722046,8|2,0:0|0:0,0:0:0:0:
140,304,28385,1,2,0:0:0:0:
420,192,28488,6,0,L|496:192,2,75,4|0|2,0:0|0:0|0:0,0:0:0:0:
120,192,28902,2,0,L|116:140,1,50,12|0,0:0|0:0,0:0:0:0:
236,140,29213,1,0,0:0:0:0:
166,142,29316,2,0,L|110:142,2,50,8|2|2,0:0|0:0|0:0,0:0:0:0:
348,140,29730,1,8,0:0:0:0:
288,140,29833,1,2,0:0:0:0:
228,140,29937,1,2,0:0:0:0:
296,140,30040,6,0,L|188:140,1,100,4|2,0:0|0:0,0:0:0:0:
256,140,30351,1,4,0:0:0:0:
166,142,30557,1,8,0:0:0:0:
164,191,30661,1,2,0:0:0:0:
220,192,30764,1,2,0:0:0:0:
340,192,30971,1,8,0:0:0:0:
292,216,31075,1,2,0:0:0:0:
292,272,31178,1,2,0:0:0:0:
339,304,31282,1,2,0:0:0:0:
400,304,31385,2,0,L|344:304,2,50,8|2|2,0:0|0:0|0:0,0:0:0:0:
460,304,31695,1,2,0:0:0:0:
216,304,31799,6,0,L|116:304,1,100,12|0,0:0|0:0,0:0:0:0:
308,304,32213,2,0,L|312:244,1,50,8|2,0:0|0:0,0:0:0:0:
252,192,32419,2,0,L|192:192,1,50,2|0,0:0|0:0,0:0:0:0:
264,192,32626,1,8,0:0:0:0:
214,192,32729,1,2,0:0:0:0:
164,192,32832,1,2,0:0:0:0:
284,192,33040,2,0,L|288:128,1,50,8|0,0:0|0:0,0:0:0:0:
216,108,33247,2,0,L|268:108,1,50,2|2,0:0|0:0,0:0:0:0:
384,112,33454,5,8,0:0:0:0:
432,144,33557,1,2,0:0:0:0:
432,200,33661,1,2,0:0:0:0:
384,232,33764,1,0,0:0:0:0:
269,232,33868,1,8,0:0:0:0:
273,166,33971,1,2,0:0:0:0:
318,119,34074,1,2,0:0:0:0:
384,112,34178,1,2,0:0:0:0:
452,112,34282,2,0,L|456:52,2,50,8|2|2,0:0|0:0|0:0,0:0:0:0:
272,120,34695,2,0,L|264:148,6,25,4|0|0|0|0|0|0,0:0|0:0|0:0|0:0|0:0|0:0|0:0,0:0:0:0:
88,64,35109,6,0,L|84:168,1,100,8|2,0:0|0:0,0:0:0:0:
264,228,35523,2,0,L|164:228,1,100,8|2,0:0|0:0,0:0:0:0:
356,228,35937,2,0,L|360:128,1,100,8|2,0:0|0:0,0:0:0:0:
300,128,36247,1,2,0:0:0:0:
416,128,36351,2,0,L|468:128,2,50,8|2|2,0:0|0:0|0:0,0:0:0:0:
288,128,36661,6,0,L|180:128,1,100,4|2,0:0|0:0,0:0:0:0:
312,44,36971,2,0,L|256:44,1,50,4|2,0:0|0:0,0:0:0:0:
144,44,37178,2,0,L|140:104,1,50,8|2,0:0|0:0,0:0:0:0:
204,128,37385,2,0,L|260:128,1,50,2|0,0:0|0:0,0:0:0:0:
128,128,37592,1,8,0:0:0:0:
69,153,37695,1,2,0:0:0:0:
68,216,37799,1,2,0:0:0:0:
124,245,37902,1,2,0:0:0:0:
252,244,38006,2,0,L|256:300,1,50,8|2,0:0|0:0,0:0:0:0:
192,296,38213,1,2,0:0:0:0:
264,296,38316,1,4,0:0:0:0:
144,296,38419,6,0,B|92:296|92:296|148:296,1,100,8|8,0:0|0:0,0:0:0:0:
256,296,38730,2,0,L|260:236,1,50,2|8,0:0|0:0,0:0:0:0:
196,216,38937,1,2,0:0:0:0:
259,246,39040,2,0,L|212:224,1,50,8|2,0:0|0:0,0:0:0:0:
96,224,39247,2,0,L|88:120,1,100,8|8,0:0|0:0,0:0:0:0:
272,104,39661,2,0,L|276:48,1,50,8|0,0:0|0:0,0:0:0:0:
208,52,39868,2,0,L|204:112,1,50,8|8,0:0|0:0,0:0:0:0:
328,104,40075,5,8,0:0:0:0:
339,168,40178,1,8,0:0:0:0:
312,228,40281,1,8,0:0:0:0:
256,263,40385,1,8,0:0:0:0:
144,264,40488,2,0,L|140:328,1,50,8|8,0:0|0:0,0:0:0:0:
216,360,40695,2,0,L|220:296,1,50,8|8,0:0|0:0,0:0:0:0:
36,268,40902,6,0,L|28:216,1,50
96,176,41109,2,0,L|152:176,1,50
322,153,41316,2,0,L|328:104,1,50,4|4,0:0|0:0,0:0:0:0:
136,56,41523,2,0,L|80:56,1,50,4|4,0:0|0:0,0:0:0:0:
312,16,41730,5,8,0:0:0:0:
333,15,41781,1,0,0:0:0:0:
354,19,41833,1,0,0:0:0:0:
373,27,41885,1,0,0:0:0:0:
390,40,41936,1,0,0:0:0:0:
404,57,41988,1,0,0:0:0:0:
413,77,42040,1,0,0:0:0:0:
417,97,42092,1,0,0:0:0:0:
416,119,42143,1,0,0:0:0:0:
410,139,42195,1,0,0:0:0:0:
400,158,42247,1,0,0:0:0:0:
385,174,42298,1,0,0:0:0:0:
368,186,42350,1,0,0:0:0:0:
348,193,42402,1,0,0:0:0:0:
326,196,42454,1,0,0:0:0:0:
132,192,42557,6,0,L|36:192,1,75,8|0,0:0|0:0,0:0:0:0:
104,192,42764,2,0,L|188:192,1,75,8|0,0:0|0:0,0:0:0:0:
120,192,42971,2,0,L|112:132,2,50,2|2|2,0:0|0:0|0:0,0:0:0:0:
404,296,43385,6,0,L|488:296,1,75,2|0,0:0|0:0,0:0:0:0:
432,296,43592,2,0,L|348:296,1,75,8|0,0:0|0:0,0:0:0:0:
412,296,43799,2,0,L|468:296,2,50,2|2|2,0:0|0:0|0:0,0:0:0:0:
128,296,44213,2,0,L|124:240,2,50,4|2|2,0:0|0:0|0:0,0:0:0:0:
324,296,44523,2,0,L|328:196,1,100,2|8,0:0|0:0,0:0:0:0:
248,192,44833,2,0,L|244:136,1,50,2|0,0:0|0:0,0:0:0:0:
424,120,45040,6,0,L|428:64,1,50,2|0,0:0|0:0,0:0:0:0:
307,66,45247,2,0,B|295:30,4,25,2|0|0|0|2,0:0|0:0|0:0|0:0|0:0,0:0:0:0:
367,70,45557,1,2,0:0:0:0:
427,70,45661,1,0,0:0:0:0:
152,48,45868,2,0,L|60:48,1,75,8|0,0:0|0:0,0:0:0:0:
36,48,46075,2,0,L|132:48,1,75,8|0,0:0|0:0,0:0:0:0:
156,48,46282,1,2,0:0:0:0:
96,48,46385,1,2,0:0:0:0:
36,48,46488,1,2,0:0:0:0:
308,48,46695,6,0,L|388:48,1,75,2|0,0:0|0:0,0:0:0:0:
264,48,46902,2,0,P|208:112|272:192,1,200,8|8,0:0|0:0,0:0:0:0:
292,192,47368,1,2,0:0:0:0:
328,192,47419,1,2,0:0:0:0:
380,192,47471,1,2,0:0:0:0:
180,192,47523,2,0,L|8:192,1,150.000005722046,8|0,0:0|0:0,0:0:0:0:
100,192,47833,1,2,0:0:0:0:
180,192,47937,1,2,0:0:0:0:
116,192,48040,1,8,0:0:0:0:
328,192,48144,5,8,0:0:0:0:
148,192,48351,1,8,0:0:0:0:
114,207,48402,1,0,0:0:0:0:
100,241,48454,1,0,0:0:0:0:
110,276,48506,1,0,0:0:0:0:
142,295,48557,1,2,0:0:0:0:
424,324,48764,1,2,0:0:0:0:
460,324,48816,2,0,L|464:232,1,75,2|2,0:0|0:0,0:0:0:0:
172,192,49178,2,0,L|72:192,2,100,8|2|0,0:0|0:0|0:0,0:0:0:0:
372,192,49799,6,0,B|372:92|372:92|280:92,1,175,2|0,0:0|0:0,0:0:0:0:
160,148,50213,2,0,L|156:92,1,50,8|0,0:0|0:0,0:0:0:0:
384,92,50419,1,2,0:0:0:0:
428,92,50523,1,2,0:0:0:0:
372,92,50626,1,2,0:0:0:0:
90,92,50833,1,8,0:0:0:0:
202,92,51040,2,0,L|310:92,1,100,2|0,0:0|0:0,0:0:0:0:
240,92,51351,1,2,0:0:0:0:
180,92,51454,1,2,0:0:0:0:
460,92,51661,5,8,0:0:0:0:
476,116,51712,1,0,0:0:0:0:
484,144,51764,1,0,0:0:0:0:
476,172,51816,1,0,0:0:0:0:
456,192,51867,1,2,0:0:0:0:
428,204,51919,1,0,0:0:0:0:
396,204,51971,1,0,0:0:0:0:
364,204,52023,1,0,0:0:0:0:
336,204,52074,1,2,0:0:0:0:
264,204,52178,1,2,0:0:0:0:
192,204,52282,1,2,0:0:0:0:
476,172,52488,2,0,L|483:271,1,100,8|0,0:0|0:0,0:0:0:0:
200,344,52902,2,0,L|196:292,1,50,2|2,0:0|0:0,0:0:0:0:
380,296,53109,6,0,P|464:236|412:152,1,208.333333333333,2|0,0:0|0:0,0:0:0:0:
292,156,53523,2,0,L|204:156,1,75,8|0,0:0|0:0,0:0:0:0:
292,156,53730,2,0,L|344:156,2,50,2|2|2,0:0|0:0|0:0,0:0:0:0:
104,164,54144,2,0,L|52:164,1,50,8|0,0:0|0:0,0:0:0:0:
56,108,54351,2,0,L|116:108,1,50,2|2,0:0|0:0,0:0:0:0:
168,108,54557,1,8,0:0:0:0:
106,108,54661,1,8,0:0:0:0:
44,108,54764,2,0,L|40:56,1,50,2|2,0:0|0:0,0:0:0:0:
344,108,54971,5,8,0:0:0:0:
368,111,55022,1,0,0:0:0:0:
391,102,55074,1,0,0:0:0:0:
408,84,55126,1,0,0:0:0:0:
415,61,55177,1,2,0:0:0:0:
411,36,55229,1,0,0:0:0:0:
396,17,55281,1,0,0:0:0:0:
373,6,55333,1,0,0:0:0:0:
348,7,55384,1,2,0:0:0:0:
292,8,55488,1,2,0:0:0:0:
349,7,55592,1,2,0:0:0:0:
48,12,55799,2,0,L|160:12,1,112.500004291535,8|0,0:0|0:0,0:0:0:0:
216,12,56006,2,0,L|115:70,1,112.500004291535,8|0,0:0|0:0,0:0:0:0:
176,68,56213,1,2,0:0:0:0:
232,68,56316,1,2,0:0:0:0:
176,68,56419,2,0,L|60:68,1,112.500004291535,2|0,0:0|0:0,0:0:0:0:
260,68,56626,6,0,L|376:68,1,112.500004291535,2|0,0:0|0:0,0:0:0:0:
320,68,56833,2,0,B|248:68|248:68|324:68,1,133.333333333333,8|0,0:0|0:0,0:0:0:0:
372,68,57040,1,2,0:0:0:0:
312,68,57144,1,2,0:0:0:0:
372,68,57247,2,0,L|492:68,1,112.500004291535,8|0,0:0|0:0,0:0:0:0:
312,68,57454,2,0,L|260:68,1,50,4|8,0:0|0:0,0:0:0:0:
352,144,57764,1,8,0:0:0:0:
402,144,57867,1,2,0:0:0:0:
352,144,57970,1,2,0:0:0:0:
472,144,58075,6,0,L|476:248,1,100,8|2,0:0|0:0,0:0:0:0:
356,244,58488,1,2,0:0:0:0:
156,244,58695,1,8,0:0:0:0:
216,244,58799,1,2,0:0:0:0:
284,244,58902,1,2,0:0:0:0:
284,212,58953,1,0,0:0:0:0:
256,192,59005,1,0,0:0:0:0:
224,192,59057,1,0,0:0:0:0:
372,192,59109,2,0,L|468:192,1,93.75,8|0,0:0|0:0,0:0:0:0:
420,192,59316,2,0,L|320:192,1,93.75,8|0,0:0|0:0,0:0:0:0:
380,192,59523,2,0,L|448:192,2,62.5,2|2|2,0:0|0:0|0:0,0:0:0:0:
104,192,59937,6,0,L|8:192,1,93.75,2|0,0:0|0:0,0:0:0:0:
48,192,60144,2,0,L|172:192,1,125,8|2,0:0|0:0,0:0:0:0:
248,192,60454,1,2,0:0:0:0:
48,192,60557,1,2,0:0:0:0:
36,156,60609,1,2,0:0:0:0:
60,124,60661,1,2,0:0:0:0:
96,120,60713,1,2,0:0:0:0:
252,124,60764,2,0,L|408:124,1,150.000005722046,8|8,0:0|0:0,0:0:0:0:
340,124,61075,1,8,0:0:0:0:
240,124,61178,1,2,0:0:0:0:
204,124,61281,1,2,0:0:0:0:
168,124,61384,1,8,0:0:0:0:
472,24,61592,5,8,0:0:0:0:
428,24,61643,1,0,0:0:0:0:
384,24,61695,1,0,0:0:0:0:
340,24,61747,1,0,0:0:0:0:
296,24,61798,1,2,0:0:0:0:
252,24,61850,1,0,0:0:0:0:
208,24,61902,1,0,0:0:0:0:
412,104,62006,1,2,0:0:0:0:
464,104,62057,2,0,L|467:199,1,75,2|2,0:0|0:0,0:0:0:0:
208,196,62419,1,8,0:0:0:0:
320,196,62626,1,8,0:0:0:0:
432,196,62833,1,2,0:0:0:0:
220,196,63040,6,0,B|216:88,1,100,8|0,0:0|0:0,0:0:0:0:
496,96,63454,1,8,0:0:0:0:
196,96,63661,1,2,0:0:0:0:
156,96,63713,2,0,L|60:96,1,62.5,2|2,0:0|0:0,0:0:0:0:
268,192,63868,2,0,L|364:192,1,93.75,8|0,0:0|0:0,0:0:0:0:
176,292,64075,2,0,L|172:188,1,100,8|0,0:0|0:0,0:0:0:0:
296,332,64488,2,0,L|300:268,1,50,2|2,0:0|0:0,0:0:0:0:
116,192,64695,2,0,L|112:136,1,50,8|0,0:0|0:0,0:0:0:0:
336,8,64902,5,8,0:0:0:0:
377,14,64953,1,0,0:0:0:0:
414,32,65005,1,0,0:0:0:0:
444,61,65057,1,0,0:0:0:0:
464,97,65108,1,0,0:0:0:0:
473,138,65160,1,0,0:0:0:0:
469,179,65212,1,0,0:0:0:0:
264,180,65316,2,0,L|204:180,1,50,2|2,0:0|0:0,0:0:0:0:
416,184,65523,2,0,L|424:124,1,50,2|0,0:0|0:0,0:0:0:0:
148,180,65730,2,0,P|76:96|148:44,1,225.000008583069,8|0,0:0|0:0,0:0:0:0:
352,48,66144,2,0,L|404:48,1,50,2|2,0:0|0:0,0:0:0:0:
140,112,66351,6,0,L|492:112,1,350.00000333786,2|8,0:0|0:0,0:0:0:0:
200,112,66971,1,2,0:0:0:0:
198,161,67074,1,2,0:0:0:0:
196,211,67177,1,2,0:0:0:0:
468,212,67385,1,8,0:0:0:0:
497,179,67453,1,2,0:0:0:0:
504,136,67522,1,2,0:0:0:0:
486,96,67591,1,2,0:0:0:0:
449,72,67660,1,2,0:0:0:0:
405,72,67729,1,2,0:0:0:0:
369,96,67798,1,2,0:0:0:0:
351,137,67867,1,2,0:0:0:0:
359,180,67936,1,2,0:0:0:0:
388,212,68005,1,2,0:0:0:0:
460,212,68109,1,2,0:0:0:0:
272,216,68213,6,0,L|82:216,1,187.5,4|0,0:0|0:0,0:0:0:0:
388,368,68833,2,0,P|468:284|388:212,1,250,2|0,0:0|0:0,0:0:0:0:
192,104,70282,5,0,0:0:0:0:
444,104,70695,1,2,0:0:0:0:
256,104,71006,1,2,0:0:0:0:
480,104,71316,1,0,0:0:0:0:
180,104,71523,2,0,L|176:196,1,75,4|0,0:0|0:0,0:0:0:0:
492,180,72144,2,0,B|116:180|116:180|192:180|192:180|112:180,1,525.000020027161,2|0,0:0|0:0,0:0:0:0:
320,184,74006,6,0,B|324:80,1,100,2|0,0:0|0:0,0:0:0:0:
184,80,74626,1,0,0:0:0:0:
464,84,74833,2,0,P|500:144|460:184,1,133.333333333333,4|0,0:0|0:0,0:0:0:0:
336,184,75523,1,0,0:0:0:0:
208,184,75661,2,0,B|108:184|108:184|108:232|108:232|164:232,1,200,2|0,0:0|0:0,0:0:0:0:
332,232,76902,5,0,0:0:0:0:
192,232,77316,1,2,0:0:0:0:
372,232,77730,1,2,0:0:0:0:
104,232,78144,2,0,L|100:112,1,112.500004291535,4|0,0:0|0:0,0:0:0:0:
268,120,78764,2,0,L|156:120,1,112.500004291535,2|0,0:0|0:0,0:0:0:0:
292,120,79385,1,2,0:0:0:0:
140,120,79592,1,0,0:0:0:0:
420,120,79799,6,0,L|268:136,1,150,4|2,0:0|0:0,0:0:0:0:
20,136,80419,2,0,L|120:136,1,100,2|8,0:0|0:0,0:0:0:0:
172,136,80730,1,8,0:0:0:0:
72,136,80937,1,2,0:0:0:0:
132,136,81040,2,0,L|28:136,1,100,8|2,0:0|0:0,0:0:0:0:
312,136,81454,6,0,B|364:136|364:136|308:136,1,100,6|0,0:0|0:0,0:0:0:0:
256,136,81764,1,2,0:0:0:0:
432,136,81868,2,0,L|496:136,2,50,8|2|0,0:0|0:0|0:0,0:0:0:0:
304,136,82178,2,0,L|152:136,1,150,2|2,0:0|0:0,0:0:0:0:
444,136,82695,2,0,L|448:20,1,100,8|0,0:0|0:0,0:0:0:0:
248,36,83109,6,0,L|356:36,1,100,2|2,0:0|0:0,0:0:0:0:
68,84,83523,2,0,L|72:28,1,50,8|2,0:0|0:0,0:0:0:0:
192,36,83833,1,2,0:0:0:0:
64,36,83936,2,0,L|59:96,1,50,2|2,0:0|0:0,0:0:0:0:
128,84,84143,2,0,L|64:84,1,50,8|8,0:0|0:0,0:0:0:0:
264,192,84351,2,0,L|316:192,1,50,2|2,0:0|0:0,0:0:0:0:
89,241,84557,2,0,L|85:185,1,50,8|8,0:0|0:0,0:0:0:0:
312,306,84764,6,0,P|312:234|254:192,1,150,6|2,0:0|0:0,0:0:0:0:
85,191,85178,1,8,0:0:0:0:
140,194,85281,2,0,L|199:193,1,50,2|2,0:0|0:0,0:0:0:0:
24,192,85488,2,0,L|165:141,1,150,2|2,0:0|0:0,0:0:0:0:
104,140,85902,1,2,0:0:0:0:
228,140,86006,2,0,L|232:88,1,50,8|2,0:0|0:0,0:0:0:0:
160,68,86213,2,2,L|140:52,2,25
344,92,86419,6,0,L|488:92,1,125,2|0,0:0|0:0,0:0:0:0:
432,92,86730,1,2,0:0:0:0:
244,92,86833,2,0,L|240:156,1,50,8|2,0:0|0:0,0:0:0:0:
308,168,87040,2,0,L|364:168,1,50,2|2,0:0|0:0,0:0:0:0:
176,192,87247,2,0,L|60:192,1,100,8|2,0:0|0:0,0:0:0:0:
368,248,87661,2,0,L|424:248,1,50,8|2,0:0|0:0,0:0:0:0:
196,192,87867,2,0,L|246:192,1,50,8|8,0:0|0:0,0:0:0:0:
448,92,88075,6,0,B|498:92|498:92|446:92,1,100,6|0,0:0|0:0,0:0:0:0:
386,92,88385,1,2,0:0:0:0:
198,92,88488,2,0,L|140:92,1,50,8|2,0:0|0:0,0:0:0:0:
268,92,88799,2,0,L|118:92,1,150,2|2,0:0|0:0,0:0:0:0:
400,92,89316,1,8,0:0:0:0:
200,92,89730,6,0,L|304:92,1,100,2|2,0:0|0:0,0:0:0:0:
20,88,90143,2,0,L|16:144,1,50,8|2,0:0|0:0,0:0:0:0:
136,136,90454,1,2,0:0:0:0:
320,224,90557,2,0,L|268:224,1,50,2|2,0:0|0:0,0:0:0:0:
324,152,90764,2,0,L|268:152,1,50,8|2,0:0|0:0,0:0:0:0:
88,224,90971,2,0,L|84:164,1,50,8|2,0:0|0:0,0:0:0:0:
324,152,91178,2,0,L|384:152,1,50,8|8,0:0|0:0,0:0:0:0:
122,152,91385,6,0,B|70:152,2,50,2|0|0,0:0|0:0|0:0,0:0:0:0:
186,152,91695,1,2,0:0:0:0:
374,152,91799,2,0,L|442:152,1,50,8|0,0:0|0:0,0:0:0:0:
374,152,92006,2,0,L|318:152,1,50,2|2,0:0|0:0,0:0:0:0:
122,152,92213,1,2,0:0:0:0:
178,182,92316,1,0,0:0:0:0:
178,246,92419,1,2,0:0:0:0:
122,276,92523,1,2,0:0:0:0:
336,276,92626,2,0,L|340:216,1,50,8|2,0:0|0:0,0:0:0:0:
122,276,92833,2,0,L|182:276,1,50,8|8,0:0|0:0,0:0:0:0:
400,276,93040,5,2,0:0:0:0:
336,276,93144,1,0,0:0:0:0:
273,276,93247,1,2,0:0:0:0:
456,276,93351,1,2,0:0:0:0:
232,204,93454,2,0,L|168:204,1,50,8|2,0:0|0:0,0:0:0:0:
178,276,93661,2,0,L|242:276,1,50,2|2,0:0|0:0,0:0:0:0:
20,276,93868,2,0,L|72:276,1,50,2|0,0:0|0:0,0:0:0:0:
282,204,94075,2,0,L|230:204,1,50,2|2,0:0|0:0,0:0:0:0:
428,204,94282,2,0,L|480:204,2,50,8|0|2,0:0|0:0|0:0,0:0:0:0:
368,204,94592,1,2,0:0:0:0:
156,204,94695,6,0,P|116:276|148:332,1,150,8|2,0:0|0:0,0:0:0:0:
344,336,95109,2,0,L|292:336,1,50,8|2,0:0|0:0,0:0:0:0:
232,336,95316,2,0,L|284:336,1,50,0|2,0:0|0:0,0:0:0:0:
472,336,95523,2,0,L|468:224,1,100,8|2,0:0|0:0,0:0:0:0:
268,248,95937,2,0,L|264:128,1,100,8|2,0:0|0:0,0:0:0:0:
64,256,96351,6,0,L|68:152,1,100,8|2,0:0|0:0,0:0:0:0:
276,148,96764,2,0,L|280:96,1,50,8|2,0:0|0:0,0:0:0:0:
160,100,97075,1,2,0:0:0:0:
340,100,97178,2,0,L|440:100,1,100,8|2,0:0|0:0,0:0:0:0:
160,100,97592,2,0,L|168:152,1,50,8|2,0:0|0:0,0:0:0:0:
360,192,97799,2,0,L|352:244,1,50,2|2,0:0|0:0,0:0:0:0:
120,148,98006,6,0,P|56:196|120:256,1,187.5,8|2,0:0|0:0,0:0:0:0:
352,241,98419,2,0,L|412:241,1,50,8|0,0:0|0:0,0:0:0:0:
316,240,98626,2,0,L|260:240,1,50,0|2,0:0|0:0,0:0:0:0:
456,240,98833,2,0,L|460:140,1,100,8|2,0:0|0:0,0:0:0:0:
260,188,99247,2,0,L|264:128,1,50,8|2,0:0|0:0,0:0:0:0:
144,136,99557,1,2,0:0:0:0:
344,136,99661,6,0,B|240:136,1,100,8|2,0:0|0:0,0:0:0:0:
304,136,99971,1,2,0:0:0:0:
104,136,100075,2,0,L|52:136,3,50,8|2|2|2,0:0|0:0|0:0|0:0,0:0:0:0:
256,136,100592,2,0,L|200:136,1,50,8|2,0:0|0:0,0:0:0:0:
496,136,100902,2,0,L|440:136,1,50,8|2,0:0|0:0,0:0:0:0:
260,208,101109,2,0,L|204:208,1,50,8|8,0:0|0:0,0:0:0:0:
24,192,101316,6,0,B|24:268|24:268|100:268,1,150,8|2,0:0|0:0,0:0:0:0:
276,268,101730,2,0,L|388:268,2,100.000003814697,8|2|2,0:0|0:0|0:0,0:0:0:0:
132,268,102144,2,0,L|32:268,1,100,2|2,0:0|0:0,0:0:0:0:
312,268,102557,1,8,0:0:0:0:
192,268,102971,6,0,L|188:156,1,100,2|2,0:0|0:0,0:0:0:0:
464,168,103385,2,0,L|468:112,1,50,8|2,0:0|0:0,0:0:0:0:
356,168,103695,1,2,0:0:0:0:
476,168,103799,2,0,L|480:112,1,50,2|8,0:0|0:0,0:0:0:0:
360,120,104006,2,0,L|356:64,1,50,2|2,0:0|0:0,0:0:0:0:
168,72,104213,2,8,L|112:72,1,50,8|2,0:0|0:0,0:0:0:0:
304,168,104419,2,0,L|252:168,1,50,2|2,0:0|0:0,0:0:0:0:
64,168,104626,6,0,P|20:224|64:276,1,150,8|2,0:0|0:0,0:0:0:0:
272,268,105040,2,0,L|324:268,2,50,8|2|2,0:0|0:0|0:0,0:0:0:0:
152,268,105351,2,0,L|256:268,1,100,2|0,0:0|0:0,0:0:0:0:
192,268,105661,2,0,L|256:268,1,50,2|2,0:0|0:0,0:0:0:0:
424,268,105868,2,0,L|480:268,2,50,8|2|2,0:0|0:0|0:0,0:0:0:0:
124,268,106282,6,0,B|124:204|124:204|184:192,1,125,8|0,0:0|0:0,0:0:0:0:
264,192,106592,1,2,0:0:0:0:
64,192,106695,1,8,0:0:0:0:
132,192,106799,1,2,0:0:0:0:
64,192,106902,1,0,0:0:0:0:
292,56,107006,1,2,0:0:0:0:
224,56,107110,1,0,0:0:0:0:
284,56,107213,1,2,0:0:0:0:
484,56,107316,2,0,L|432:56,1,50,2|0,0:0|0:0,0:0:0:0:
140,56,107523,2,0,L|88:56,1,50,8|2,0:0|0:0,0:0:0:0:
92,116,107730,2,0,L|144:116,1,50,2|2,0:0|0:0,0:0:0:0:
344,196,107937,6,0,B|468:196|468:196|404:196,1,187.5,12|2,0:0|0:0,0:0:0:0:
200,192,108351,2,0,L|124:192,2,62.5,8|2|0,0:0|0:0|0:0,0:0:0:0:
344,196,108661,2,0,P|308:128|208:96,1,187.5,2|2,0:0|0:0,0:0:0:0:
480,120,109178,2,0,L|484:56,3,62.5,8|2|2|2,0:0|0:0|0:0|0:0,0:0:0:0:
264,120,109592,6,0,L|371:182,1,125,2|2,0:0|0:0,0:0:0:0:
72,192,110006,2,0,L|68:124,1,62.5,8|2,0:0|0:0,0:0:0:0:
188,192,110316,1,2,0:0:0:0:
48,192,110419,2,0,L|44:128,1,62.5,0|2,0:0|0:0,0:0:0:0:
181,92,110626,2,0,L|185:28,1,62.5,8|8,0:0|0:0,0:0:0:0:
432,92,110833,2,0,L|368:92,1,62.5,2|2,0:0|0:0,0:0:0:0:
168,192,111040,2,0,L|236:192,1,62.5,8|2,0:0|0:0,0:0:0:0:
12,192,111247,6,0,B|12:80|12:80|128:80,1,225.000008583069,6|2,0:0|0:0,0:0:0:0:
288,80,111661,1,8,0:0:0:0:
156,80,111764,2,0,L|152:8,1,62.5,2|2,0:0|0:0,0:0:0:0:
356,4,111971,2,0,L|184:80,1,187.5,2|2,0:0|0:0,0:0:0:0:
464,136,112488,2,0,L|468:72,1,62.5,8|2,0:0|0:0,0:0:0:0:
392,76,112695,1,2,0:0:0:0:
360,76,112747,1,2,0:0:0:0:
328,76,112799,1,2,0:0:0:0:
104,76,112902,6,0,P|40:120|108:176,1,187.5,2|2,0:0|0:0,0:0:0:0:
356,188,113316,2,0,L|360:272,1,62.5,8|2,0:0|0:0,0:0:0:0:
208,252,113626,1,2,0:0:0:0:
244,252,113678,1,2,0:0:0:0:
280,252,113730,2,0,L|416:252,1,125,2|2,0:0|0:0,0:0:0:0:
124,176,114144,2,0,L|128:248,1,62.5,8|2,0:0|0:0,0:0:0:0:
380,168,114351,2,0,L|428:168,2,41.6666666666667,8|8|8,0:0|0:0|0:0,0:0:0:0:
248,176,114557,6,0,L|124:176,1,125,6|0,0:0|0:0,0:0:0:0:
440,48,114868,2,0,L|304:48,1,125,2|2,0:0|0:0,0:0:0:0:
392,48,115178,2,0,L|312:48,1,62.5,2|2,0:0|0:0,0:0:0:0:
152,48,115385,1,8,0:0:0:0:
340,132,115592,2,0,L|404:132,1,62.5,2|0,0:0|0:0,0:0:0:0:
164,132,115799,1,2,0:0:0:0:
340,132,115902,1,2,0:0:0:0:
120,132,116006,2,0,L|96:72,1,62.5,8|0,0:0|0:0,0:0:0:0:
336,36,116213,6,0,L|464:36,1,125,6|2,0:0|0:0,0:0:0:0:
312,36,116626,1,2,0:0:0:0:
376,36,116730,2,0,L|500:36,1,125,2|2,0:0|0:0,0:0:0:0:
212,36,117040,2,0,L|208:164,1,125,8|2,0:0|0:0,0:0:0:0:
284,160,117351,1,0,0:0:0:0:
320,160,117402,1,0,0:0:0:0:
164,160,117454,1,2,0:0:0:0:
125,193,117505,1,0,0:0:0:0:
124,243,117557,1,2,0:0:0:0:
160,278,117609,1,0,0:0:0:0:
304,280,117661,1,8,0:0:0:0:
488,280,117764,1,8,0:0:0:0:
152,380,117868,6,0,P|76:328|159:278,1,225.000008583069,6|2,0:0|0:0,0:0:0:0:
360,280,118282,2,0,L|365:214,1,62.5,8|2,0:0|0:0,0:0:0:0:
289,218,118488,1,2,0:0:0:0:
484,220,118592,2,0,L|296:192,1,187.5,2|2,0:0|0:0,0:0:0:0:
80,192,119109,2,0,L|76:128,1,62.5,8|2,0:0|0:0,0:0:0:0:
272,132,119316,2,0,L|208:132,1,62.5
448,132,119523,6,0,B|364:84|364:84|448:48,1,187.5,6|2,0:0|0:0,0:0:0:0:
209,132,119937,2,0,L|284:132,1,62.5,2|2,0:0|0:0,0:0:0:0:
76,129,120144,1,6,0:0:0:0:
12,128,120247,2,0,B|148:128,1,125,2|2,0:0|0:0,0:0:0:0:
332,132,120557,2,0,L|340:60,1,62.5,2|2,0:0|0:0,0:0:0:0:
135,66,120764,2,0,L|71:66,1,62.5,8|8,0:0|0:0,0:0:0:0:
368,68,120971,2,0,L|436:68,1,62.5,2|2,0:0|0:0,0:0:0:0:
72,66,121178,6,0,P|48:116|68:156,1,100,6|2,0:0|0:0,0:0:0:0:
136,152,121488,1,0,0:0:0:0:
328,180,121592,2,0,L|331:282,1,100,8|2,0:0|0:0,0:0:0:0:
260,280,121902,1,0,0:0:0:0:
136,192,122006,1,2,0:0:0:0:
191,210,122109,1,0,0:0:0:0:
191,266,122213,1,2,0:0:0:0:
136,280,122316,1,2,0:0:0:0:
325,130,122419,2,0,L|328:180,1,50,8|0,0:0|0:0,0:0:0:0:
256,184,122626,2,0,L|316:184,1,50,2|0,0:0|0:0,0:0:0:0:
496,192,122833,6,0,L|500:128,1,50,2|0,0:0|0:0,0:0:0:0:
428,140,123040,2,0,L|484:140,1,50,2|0,0:0|0:0,0:0:0:0:
280,140,123247,2,0,L|216:140,1,50,8|0,0:0|0:0,0:0:0:0:
288,76,123454,2,0,L|344:76,1,50,2|2,0:0|0:0,0:0:0:0:
216,76,123661,2,0,L|268:76,1,50,2|0,0:0|0:0,0:0:0:0:
392,140,123868,2,0,L|332:140,1,50,2|2,0:0|0:0,0:0:0:0:
152,140,124075,2,0,L|100:140,2,50,8|0|2,0:0|0:0|0:0,0:0:0:0:
224,140,124385,1,2,0:0:0:0:
28,40,124488,6,0,L|148:40,1,100,2|2,0:0|0:0,0:0:0:0:
56,40,124799,1,2,0:0:0:0:
244,40,124902,2,0,L|348:40,1,100,8|2,0:0|0:0,0:0:0:0:
272,40,125213,1,2,0:0:0:0:
456,40,125316,2,0,L|460:104,1,50,2|0,0:0|0:0,0:0:0:0:
392,88,125523,2,0,L|332:88,1,50,2|2,0:0|0:0,0:0:0:0:
140,88,125730,2,0,L|144:32,1,50,8|0,0:0|0:0,0:0:0:0:
392,88,125937,2,0,L|340:88,1,50,2|0,0:0|0:0,0:0:0:0:
116,88,126144,6,0,B|68:88|68:88|120:88,1,100,2|2,0:0|0:0,0:0:0:0:
192,88,126454,1,2,0:0:0:0:
16,192,126557,2,0,B|20:136,1,50,8|0,0:0|0:0,0:0:0:0:
296,192,126764,1,2,0:0:0:0:
344,192,126816,1,2,0:0:0:0:
360,192,126868,1,2,0:0:0:0:
336,192,126919,1,2,0:0:0:0:
176,192,126971,2,0,B|124:192|124:192|180:192,1,100,2|2,0:0|0:0,0:0:0:0:
440,192,127385,1,8,0:0:0:0:
140,192,127592,6,0,L|244:192,1,100,4|2,0:0|0:0,0:0:0:0:
440,192,128006,1,2,0:0:0:0:
160,192,128213,2,0,L|60:192,1,100,8|2,0:0|0:0,0:0:0:0:
272,293,128626,2,0,L|160:292,1,100,2|2,0:0|0:0,0:0:0:0:
372,292,129040,1,8,0:0:0:0:
108,292,129247,6,0,L|4:292,1,100,2|2,0:0|0:0,0:0:0:0:
128,292,129661,1,2,0:0:0:0:
408,192,129868,2,0,L|308:192,1,100,8|0,0:0|0:0,0:0:0:0:
104,192,130282,2,0,L|108:88,1,100,2|2,0:0|0:0,0:0:0:0:
388,92,130695,1,8,0:0:0:0:
208,92,130902,1,2,0:0:0:0:
28,192,131109,6,0,L|24:92,1,100,2|0,0:0|0:0,0:0:0:0:
308,92,131523,1,8,0:0:0:0:
336,92,131626,1,2,0:0:0:0:
364,92,131730,1,2,0:0:0:0:
164,92,131937,1,2,0:0:0:0:
344,92,132144,1,2,0:0:0:0:
64,92,132351,1,8,0:0:0:0:
412,92,132557,6,0,B|416:208,1,100,2|2,0:0|0:0,0:0:0:0:
296,192,132971,1,2,0:0:0:0:
16,192,133178,2,0,L|120:192,1,100,8|2,0:0|0:0,0:0:0:0:
296,192,133592,2,0,L|188:192,1,100,2|2,0:0|0:0,0:0:0:0:
256,192,133902,1,0,0:0:0:0:
440,192,134006,1,8,0:0:0:0:
469,154,134057,1,2,0:0:0:0:
458,107,134109,1,2,0:0:0:0:
414,87,134161,1,2,0:0:0:0:
360,88,134213,1,2,0:0:0:0:
432,88,134316,1,2,0:0:0:0:
232,92,134419,6,0,L|132:92,1,100,2|2,0:0|0:0,0:0:0:0:
196,92,134730,1,2,0:0:0:0:
20,92,134833,2,0,L|16:192,1,100,8|2,0:0|0:0,0:0:0:0:
80,192,135144,1,2,0:0:0:0:
204,192,135247,2,0,L|144:192,1,50,2|0,0:0|0:0,0:0:0:0:
220,192,135454,2,0,L|276:192,1,50,2|2,0:0|0:0,0:0:0:0:
88,268,135661,2,0,L|140:268,1,50,8|0,0:0|0:0,0:0:0:0:
72,268,135868,2,0,L|12:268,1,50,2|2,0:0|0:0,0:0:0:0:
272,268,136075,6,0,L|328:268,2,50,2|0|2,0:0|0:0|0:0,0:0:0:0:
208,268,136385,1,2,0:0:0:0:
408,268,136488,2,0,L|412:208,1,50,8|0,0:0|0:0,0:0:0:0:
352,172,136695,2,0,L|296:172,1,50,2|2,0:0|0:0,0:0:0:0:
184,172,136902,2,0,L|128:172,1,50,2|2,0:0|0:0,0:0:0:0:
200,172,137109,2,0,L|264:172,1,50,2|2,0:0|0:0,0:0:0:0:
68,172,137316,1,8,0:0:0:0:
124,172,137419,1,0,0:0:0:0:
180,172,137523,1,2,0:0:0:0:
116,172,137626,1,2,0:0:0:0:
356,260,137730,6,0,L|456:260,1,100,2|2,0:0|0:0,0:0:0:0:
392,260,138040,1,2,0:0:0:0:
196,260,138144,2,0,L|308:260,1,100,8|2,0:0|0:0,0:0:0:0:
232,260,138454,1,2,0:0:0:0:
432,260,138557,2,0,L|436:208,1,50,2|2,0:0|0:0,0:0:0:0:
372,172,138764,2,0,L|312:172,1,50,2|2,0:0|0:0,0:0:0:0:
136,172,138971,1,8,0:0:0:0:
322,172,139178,2,0,L|266:172,1,50,2|2,0:0|0:0,0:0:0:0:
68,172,139385,6,0,B|20:172|20:172|72:172,1,100,2|2,0:0|0:0,0:0:0:0:
136,172,139695,1,2,0:0:0:0:
336,80,139799,2,0,B|388:80,1,50,8|0,0:0|0:0,0:0:0:0:
204,104,140006,1,2,0:0:0:0:
161,129,140057,1,2,0:0:0:0:
136,172,140109,1,2,0:0:0:0:
135,221,140161,1,2,0:0:0:0:
328,192,140213,2,0,L|460:192,2,132.999994520569,2|2|8,0:0|0:0|0:0,0:0:0:0:
48,192,140833,6,0,B|44:72,1,100,2|2,0:0|0:0,0:0:0:0:
164,92,141247,1,2,0:0:0:0:
444,92,141454,2,0,L|332:92,1,100,8|2,0:0|0:0,0:0:0:0:
144,192,141868,1,2,0:0:0:0:
324,192,142075,1,2,0:0:0:0:
60,192,142282,1,8,0:0:0:0:
360,192,142488,6,0,L|364:292,1,100,2|2,0:0|0:0,0:0:0:0:
152,292,142902,1,2,0:0:0:0:
432,292,143109,1,8,0:0:0:0:
92,292,143316,2,0,L|88:188,1,100,2|2,0:0|0:0,0:0:0:0:
220,192,143730,1,2,0:0:0:0:
20,192,143937,1,8,0:0:0:0:
320,192,144144,6,0,L|432:192,1,110.000003356934,4|2,0:0|0:0,0:0:0:0:
220,192,144557,1,2,0:0:0:0:
492,192,144764,1,8,0:0:0:0:
172,192,144971,2,0,L|56:192,1,110.000003356934,4|2,0:0|0:0,0:0:0:0:
284,192,145385,1,2,0:0:0:0:
16,192,145592,1,8,0:0:0:0:
348,192,145799,6,0,L|216:192,1,125,4|2,0:0|0:0,0:0:0:0:
448,192,146213,1,2,0:0:0:0:
92,192,146419,2,0,L|432:192,1,325.000009298325,8|0,0:0|0:0,0:0:0:0:
136,192,146833,1,8,0:0:0:0:
80,160,146937,1,8,0:0:0:0:
81,97,147040,1,2,0:0:0:0:
135,65,147144,1,2,0:0:0:0:
316,192,147247,2,2,L|356:192,2,33.3333333333333
81,97,147454,2,2,L|36:96,2,33.3333333333333
316,192,147661,6,0,L|52:192,1,262.500002503395,8|2,0:0|0:0,0:0:0:0:
436,192,148282,1,2,0:0:0:0:
88,192,148488,2,0,L|80:92,1,87.500000834465,8|2,0:0|0:0,0:0:0:0:
468,72,148902,2,0,L|204:72,1,262.500002503395,2|2,0:0|0:0,0:0:0:0:
496,72,149523,1,2,0:0:0:0:
16,72,149833,1,2,0:0:0:0:
280,72,150144,1,2,0:0:0:0:
