osu file format v14

[General]
AudioFilename: audio.mp3
AudioLeadIn: 0
PreviewTime: 130860
Countdown: 0
SampleSet: Normal
StackLeniency: 0.5
Mode: 0
LetterboxInBreaks: 0
EpilepsyWarning: 1
WidescreenStoryboard: 1

[Editor]
Bookmarks: 30266,30453,30547
DistanceSpacing: 2.7
BeatDivisor: 4
GridSize: 32
TimelineZoom: 4.299997

[Metadata]
Title:Feral (osu! edit)
TitleUnicode:Feral (osu! edit)
Artist:meganeko
ArtistUnicode:meganeko
Creator:Respirte
Version:Nowa's Extra
Source:osu!
Tags:Featured Artist FA Mappers Guild Eclipse Psytrance Psycore PaRaDogi DTM9_Nowa DTM9 Nowa Electronic Instrumental
BeatmapID:2549390
BeatmapSetID:1204383

[Difficulty]
HPDrainRate:5
CircleSize:4
OverallDifficulty:9
ApproachRate:9.2
SliderMultiplier:1.6
SliderTickRate:1

[Events]
//Background and Video events
0,0,"Photobound for Dark Magician.jpg",0,0
//Break Periods
//Storyboard Layer 0 (Background)
//Storyboard Layer 1 (Fail)
//Storyboard Layer 2 (Pass)
//Storyboard Layer 3 (Foreground)
Sprite,Foreground,Centre,"sb\dot.png",0,0 L,97331,7 MY,16,0,1250,240,345 MX,17,0,2500,215,425 MY,17,1250,3750,345,135 MX,17,2500,5000,425,215 MY,15,3750,5000,135,240 F,0,96360,,1 S,0,96360,,0.02260857 MX,16,96360,97331,311,215 MY,15,96360,97331,176,240 F,0,128360,129560,1,0
Sprite,Foreground,Centre,"sb\dot.png",0,0 L,97331,7 MY,16,0,1250,240,345 MX,17,0,2500,215,425 MY,17,1250,3750,345,135 MX,17,2500,5000,425,215 MY,15,3750,5000,135,240 F,0,96360,,1 S,0,96360,,0.02506778 MX,16,96360,97331,311,215 MY,15,96360,97331,176,240 F,0,128360,129560,1,0
Sprite,Foreground,Centre,"sb\dot.png",320,226 F,0,96453,,1 S,0,96453,,0.02373661 F,0,128360,129560,1,0
Sprite,Foreground,Centre,"sb\dot.png",320,226 F,0,96453,,1 S,0,96453,,0.01807035 F,0,128360,129560,1,0
Sprite,Foreground,Centre,"sb\dot.png",0,0 L,97405,7 MY,16,0,1250,240,127 MX,17,0,2500,433,207 MY,17,1250,3750,127,353 MX,17,2500,5000,207,433 MY,15,3750,5000,353,240 F,0,96547,,1 S,0,96547,,0.008562895 MX,16,96547,97405,330,433 MY,15,96547,97405,278,240 F,0,128360,129560,1,0
Sprite,Foreground,Centre,"sb\dot.png",0,0 L,97405,7 MY,16,0,1250,240,127 MX,17,0,2500,433,207 MY,17,1250,3750,127,353 MX,17,2500,5000,207,433 MY,15,3750,5000,353,240 F,0,96547,,1 S,0,96547,,0.01808989 MX,16,96547,97405,330,433 MY,15,96547,97405,278,240 F,0,128360,129560,1,0
Sprite,Foreground,Centre,"sb\dot.png",0,0 L,97711,7 MY,16,0,1250,240,144 MX,17,0,2500,416,224 MY,17,1250,3750,144,336 MX,17,2500,5000,224,416 MY,15,3750,5000,336,240 F,0,96641,,1 S,0,96641,,0.02746273 MX,16,96641,97711,340,416 MY,15,96641,97711,328,240 F,0,128360,129560,1,0
Sprite,Foreground,Centre,"sb\dot.png",0,0 L,97711,7 MY,16,0,1250,240,144 MX,17,0,2500,416,224 MY,17,1250,3750,144,336 MX,17,2500,5000,224,416 MY,15,3750,5000,336,240 F,0,96641,,1 S,0,96641,,0.0149388 MX,16,96641,97711,340,416 MY,15,96641,97711,328,240 F,0,128360,129560,1,0
Sprite,Foreground,Centre,"sb\dot.png",0,0 L,97854,7 MY,16,0,1250,240,98 MX,17,0,2500,462,178 MY,17,1250,3750,98,382 MX,17,2500,5000,178,462 MY,15,3750,5000,382,240 F,0,96735,,1 S,0,96735,,0.02939384 MX,16,96735,97854,349,462 MY,15,96735,97854,380,240 F,0,128360,129560,1,0
Sprite,Foreground,Centre,"sb\dot.png",0,0 L,97854,7 MY,16,0,1250,240,98 MX,17,0,2500,462,178 MY,17,1250,3750,98,382 MX,17,2500,5000,178,462 MY,15,3750,5000,382,240 F,0,96735,,1 S,0,96735,,0.01039002 MX,16,96735,97854,349,462 MY,15,96735,97854,380,240 F,0,128360,129560,1,0
Sprite,Foreground,Centre,"sb\dot.png",0,0 L,98048,7 MX,16,0,1250,320,421 MY,17,0,2500,341,139 MX,17,1250,3750,421,219 MY,17,2500,5000,139,341 MX,15,3750,5000,219,320 F,0,96922,,1 S,0,96922,,0.01088147 MX,15,96922,98048,220,320 MY,16,96922,98048,260,341 F,0,128360,129560,1,0
Sprite,Foreground,Centre,"sb\dot.png",0,0 L,98048,7 MX,16,0,1250,320,421 MY,17,0,2500,341,139 MX,17,1250,3750,421,219 MY,17,2500,5000,139,341 MX,15,3750,5000,219,320 F,0,96922,,1 S,0,96922,,0.0156175 MX,15,96922,98048,220,320 MY,16,96922,98048,260,341 F,0,128360,129560,1,0
Sprite,Foreground,Centre,"sb\dot.png",0,0 L,98315,7 MX,16,0,1250,320,210 MY,17,0,2500,130,350 MX,17,1250,3750,210,430 MY,17,2500,5000,350,130 MX,15,3750,5000,430,320 F,0,97110,,1 S,0,97110,,0.0200818 MX,15,97110,98315,430,320 MY,16,97110,98315,232,130 F,0,128360,129560,1,0
Sprite,Foreground,Centre,"sb\dot.png",0,0 L,98315,7 MX,16,0,1250,320,210 MY,17,0,2500,130,350 MX,17,1250,3750,210,430 MY,17,2500,5000,350,130 MX,15,3750,5000,430,320 F,0,97110,,1 S,0,97110,,0.01567682 MX,15,97110,98315,430,320 MY,16,97110,98315,232,130 F,0,128360,129560,1,0
Sprite,Foreground,Centre,"sb\dot.png",0,0 L,97922,7 MX,16,0,1250,320,468 MY,17,0,2500,388,92 MX,17,1250,3750,468,172 MY,17,2500,5000,92,388 MX,15,3750,5000,172,320 F,0,97297,,1 S,0,97297,,0.02951808 MX,15,97297,97922,222,320 MY,16,97297,97922,351,388 F,0,128360,129560,1,0
Sprite,Foreground,Centre,"sb\dot.png",0,0 L,97922,7 MX,16,0,1250,320,468 MY,17,0,2500,388,92 MX,17,1250,3750,468,172 MY,17,2500,5000,92,388 MX,15,3750,5000,172,320 F,0,97297,,1 S,0,97297,,0.003819909 MX,15,97297,97922,222,320 MY,16,97297,97922,351,388 F,0,128360,129560,1,0
Sprite,Foreground,Centre,"sb\dot.png",0,0 L,98121,7 MX,16,0,1250,320,479 MY,17,0,2500,399,81 MX,17,1250,3750,479,161 MY,17,2500,5000,81,399 MX,15,3750,5000,161,320 F,0,97390,,1 S,0,97390,,0.02628399 MX,15,97390,98121,200,320 MY,16,97390,98121,345,399 F,0,128360,129560,1,0
Sprite,Foreground,Centre,"sb\dot.png",0,0 L,98121,7 MX,16,0,1250,320,479 MY,17,0,2500,399,81 MX,17,1250,3750,479,161 MY,17,2500,5000,81,399 MX,15,3750,5000,161,320 F,0,97390,,1 S,0,97390,,0.02987437 MX,15,97390,98121,200,320 MY,16,97390,98121,345,399 F,0,128360,129560,1,0
Sprite,Foreground,Centre,"sb\dot.png",0,0 L,98297,7 MX,16,0,1250,320,492 MY,17,0,2500,412,68 MX,17,1250,3750,492,148 MY,17,2500,5000,68,412 MX,15,3750,5000,148,320 F,0,97484,,1 S,0,97484,,0.02128389 MX,15,97484,98297,179,320 MY,16,97484,98297,340,412 F,0,128360,129560,1,0
Sprite,Foreground,Centre,"sb\dot.png",0,0 L,98297,7 MX,16,0,1250,320,492 MY,17,0,2500,412,68 MX,17,1250,3750,492,148 MY,17,2500,5000,68,412 MX,15,3750,5000,148,320 F,0,97484,,1 S,0,97484,,0.01149398 MX,15,97484,98297,179,320 MY,16,97484,98297,340,412 F,0,128360,129560,1,0
Sprite,Foreground,Centre,"sb\dot.png",0,0 L,98458,7 MX,16,0,1250,320,507 MY,17,0,2500,427,53 MX,17,1250,3750,507,133 MY,17,2500,5000,53,427 MX,15,3750,5000,133,320 F,0,97578,,1 S,0,97578,,0.02505651 MX,15,97578,98458,158,320 MY,16,97578,98458,335,427 F,0,128360,129560,1,0
Sprite,Foreground,Centre,"sb\dot.png",0,0 L,98458,7 MX,16,0,1250,320,507 MY,17,0,2500,427,53 MX,17,1250,3750,507,133 MY,17,2500,5000,53,427 MX,15,3750,5000,133,320 F,0,97578,,1 S,0,97578,,0.0258974 MX,15,97578,98458,158,320 MY,16,97578,98458,335,427 F,0,128360,129560,1,0
Sprite,Foreground,Centre,"sb\dot.png",0,0 L,98610,7 MX,16,0,1250,320,523 MY,17,0,2500,443,37 MX,17,1250,3750,523,117 MY,17,2500,5000,37,443 MX,15,3750,5000,117,320 F,0,97672,,1 S,0,97672,,0.02978136 MX,15,97672,98610,137,320 MY,16,97672,98610,329,443 F,0,128360,129560,1,0
Sprite,Foreground,Centre,"sb\dot.png",0,0 L,98610,7 MX,16,0,1250,320,523 MY,17,0,2500,443,37 MX,17,1250,3750,523,117 MY,17,2500,5000,37,443 MX,15,3750,5000,117,320 F,0,97672,,1 S,0,97672,,0.00388088 MX,15,97672,98610,137,320 MY,16,97672,98610,329,443 F,0,128360,129560,1,0
Sprite,Foreground,Centre,"sb\dot.png",0,0 L,98751,7 MX,16,0,1250,320,541 MY,17,0,2500,461,19 MX,17,1250,3750,541,99 MY,17,2500,5000,19,461 MX,15,3750,5000,99,320 F,0,97765,,1 S,0,97765,,0.02189843 MX,15,97765,98751,115,320 MY,16,97765,98751,324,461 F,0,128360,129560,1,0
Sprite,Foreground,Centre,"sb\dot.png",0,0 L,98751,7 MX,16,0,1250,320,541 MY,17,0,2500,461,19 MX,17,1250,3750,541,99 MY,17,2500,5000,19,461 MX,15,3750,5000,99,320 F,0,97765,,1 S,0,97765,,0.01720967 MX,15,97765,98751,115,320 MY,16,97765,98751,324,461 F,0,128360,129560,1,0
Sprite,Foreground,Centre,"sb\dot.png",0,0 L,99061,7 MX,16,0,1250,320,561 MY,17,0,2500,481,-1 MX,17,1250,3750,561,79 MY,17,2500,5000,-1,481 MX,15,3750,5000,79,320 F,0,97860,,1 S,0,97860,,0.0282185 MX,15,97860,99061,79,320 MY,16,97860,99061,259,481 F,0,128360,129560,1,0
Sprite,Foreground,Centre,"sb\dot.png",0,0 L,99061,7 MX,16,0,1250,320,561 MY,17,0,2500,481,-1 MX,17,1250,3750,561,79 MY,17,2500,5000,-1,481 MX,15,3750,5000,79,320 F,0,97860,,1 S,0,97860,,0.02156575 MX,15,97860,99061,79,320 MY,16,97860,99061,259,481 F,0,128360,129560,1,0
Sprite,Foreground,Centre,"sb\dot.png",0,0 L,99170,7 MX,16,0,1250,320,530 MY,17,0,2500,450,30 MX,17,1250,3750,530,110 MY,17,2500,5000,30,450 MX,15,3750,5000,110,320 F,0,97953,,1 S,0,97953,,0.01776402 MX,15,97953,99170,110,320 MY,16,97953,99170,251,450 F,0,128360,129560,1,0
Sprite,Foreground,Centre,"sb\dot.png",0,0 L,99170,7 MX,16,0,1250,320,530 MY,17,0,2500,450,30 MX,17,1250,3750,530,110 MY,17,2500,5000,30,450 MX,15,3750,5000,110,320 F,0,97953,,1 S,0,97953,,0.005189969 MX,15,97953,99170,110,320 MY,16,97953,99170,251,450 F,0,128360,129560,1,0
Sprite,Foreground,Centre,"sb\dot.png",0,0 L,99283,7 MX,16,0,1250,320,498 MY,17,0,2500,418,62 MX,17,1250,3750,498,142 MY,17,2500,5000,62,418 MX,15,3750,5000,142,320 F,0,98047,,1 S,0,98047,,0.008052363 MX,15,98047,99283,142,320 MY,16,98047,99283,244,418 F,0,128360,129560,1,0
Sprite,Foreground,Centre,"sb\dot.png",0,0 L,99283,7 MX,16,0,1250,320,498 MY,17,0,2500,418,62 MX,17,1250,3750,498,142 MY,17,2500,5000,62,418 MX,15,3750,5000,142,320 F,0,98047,,1 S,0,98047,,0.01523983 MX,15,98047,99283,142,320 MY,16,98047,99283,244,418 F,0,128360,129560,1,0
Sprite,Foreground,Centre,"sb\dot.png",0,0 L,98159,7 MY,16,0,1250,240,386 MX,17,0,2500,174,466 MY,17,1250,3750,386,94 MX,17,2500,5000,466,174 MY,15,3750,5000,94,240 F,0,98141,,1 S,0,98141,,0.01102364 MX,16,98141,98159,174 MY,15,98141,98159,237,240 F,0,128360,129560,1,0
Sprite,Foreground,Centre,"sb\dot.png",0,0 L,98159,7 MY,16,0,1250,240,386 MX,17,0,2500,174,466 MY,17,1250,3750,386,94 MX,17,2500,5000,466,174 MY,15,3750,5000,94,240 F,0,98141,,1 S,0,98141,,0.02969068 MX,16,98141,98159,174 MY,15,98141,98159,237,240 F,0,128360,129560,1,0
Sprite,Foreground,Centre,"sb\dot.png",0,0 L,98311,7 MY,16,0,1250,240,355 MX,17,0,2500,205,435 MY,17,1250,3750,355,125 MX,17,2500,5000,435,205 MY,15,3750,5000,125,240 F,0,98235,,1 S,0,98235,,0.02035283 MX,16,98235,98311,205 MY,15,98235,98311,230,240 F,0,128360,129560,1,0
Sprite,Foreground,Centre,"sb\dot.png",0,0 L,98311,7 MY,16,0,1250,240,355 MX,17,0,2500,205,435 MY,17,1250,3750,355,125 MX,17,2500,5000,435,205 MY,15,3750,5000,125,240 F,0,98235,,1 S,0,98235,,0.02360002 MX,16,98235,98311,205 MY,15,98235,98311,230,240 F,0,128360,129560,1,0
Sprite,Foreground,Centre,"sb\dot.png",0,0 L,98532,7 MY,16,0,1250,240,338 MX,17,0,2500,222,418 MY,17,1250,3750,338,142 MX,17,2500,5000,418,222 MY,15,3750,5000,142,240 F,0,98328,,1 S,0,98328,,0.003820646 MX,16,98328,98532,237,222 MY,15,98328,98532,223,240 F,0,128360,129560,1,0
Sprite,Foreground,Centre,"sb\dot.png",0,0 L,98532,7 MY,16,0,1250,240,338 MX,17,0,2500,222,418 MY,17,1250,3750,338,142 MX,17,2500,5000,418,222 MY,15,3750,5000,142,240 F,0,98328,,1 S,0,98328,,0.01328712 MX,16,98328,98532,237,222 MY,15,98328,98532,223,240 F,0,128360,129560,1,0
Sprite,Foreground,Centre,"sb\dot.png",0,0 L,98928,7 MY,16,0,1250,240,348 MX,17,0,2500,212,428 MY,17,1250,3750,348,132 MX,17,2500,5000,428,212 MY,15,3750,5000,132,240 F,0,98422,,1 S,0,98422,,0.01226483 MX,16,98422,98928,269,212 MY,15,98422,98928,216,240 F,0,128360,129560,1,0
Sprite,Foreground,Centre,"sb\dot.png",0,0 L,98928,7 MY,16,0,1250,240,348 MX,17,0,2500,212,428 MY,17,1250,3750,348,132 MX,17,2500,5000,428,212 MY,15,3750,5000,132,240 F,0,98422,,1 S,0,98422,,0.02885129 MX,16,98422,98928,269,212 MY,15,98422,98928,216,240 F,0,128360,129560,1,0
Sprite,Foreground,Centre,"sb\dot.png",0,0 L,99290,7 MY,16,0,1250,240,354 MX,17,0,2500,206,434 MY,17,1250,3750,354,126 MX,17,2500,5000,434,206 MY,15,3750,5000,126,240 F,0,98516,,1 S,0,98516,,0.01663849 MX,16,98516,99290,301,206 MY,15,98516,99290,209,240 F,0,128360,129560,1,0
Sprite,Foreground,Centre,"sb\dot.png",0,0 L,99290,7 MY,16,0,1250,240,354 MX,17,0,2500,206,434 MY,17,1250,3750,354,126 MX,17,2500,5000,434,206 MY,15,3750,5000,126,240 F,0,98516,,1 S,0,98516,,0.02233126 MX,16,98516,99290,301,206 MY,15,98516,99290,209,240 F,0,128360,129560,1,0
Sprite,Foreground,Centre,"sb\dot.png",0,0 L,99249,7 MY,16,0,1250,240,125 MX,17,0,2500,435,205 MY,17,1250,3750,125,355 MX,17,2500,5000,205,435 MY,15,3750,5000,355,240 F,0,98610,,1 S,0,98610,,0.006211859 MX,16,98610,99249,353,435 MY,15,98610,99249,254,240 F,0,128360,129560,1,0
Sprite,Foreground,Centre,"sb\dot.png",0,0 L,99249,7 MY,16,0,1250,240,125 MX,17,0,2500,435,205 MY,17,1250,3750,125,355 MX,17,2500,5000,205,435 MY,15,3750,5000,355,240 F,0,98610,,1 S,0,98610,,0.01038319 MX,16,98610,99249,353,435 MY,15,98610,99249,254,240 F,0,128360,129560,1,0
Sprite,Foreground,Centre,"sb\dot.png",0,0 L,99314,7 MX,16,0,1250,320,434 MY,17,0,2500,354,126 MX,17,1250,3750,434,206 MY,17,2500,5000,126,354 MX,15,3750,5000,206,320 F,0,98703,,1 S,0,98703,,0.02749164 MX,15,98703,99314,308,320 MY,16,98703,99314,276,354 F,0,128360,129560,1,0
Sprite,Foreground,Centre,"sb\dot.png",0,0 L,99314,7 MX,16,0,1250,320,434 MY,17,0,2500,354,126 MX,17,1250,3750,434,206 MY,17,2500,5000,126,354 MX,15,3750,5000,206,320 F,0,98703,,1 S,0,98703,,0.02445867 MX,15,98703,99314,308,320 MY,16,98703,99314,276,354 F,0,128360,129560,1,0
Sprite,Foreground,Centre,"sb\dot.png",0,0 L,99647,6 MX,16,0,1250,320,425 MY,17,0,2500,345,135 MX,17,1250,3750,425,215 MY,17,2500,5000,135,345 MX,15,3750,5000,215,320 F,0,98797,,1 S,0,98797,,0.01210333 MX,15,98797,99647,261,320 MY,16,98797,99647,263,345 F,0,128360,129560,1,0
Sprite,Foreground,Centre,"sb\dot.png",0,0 L,99647,6 MX,16,0,1250,320,425 MY,17,0,2500,345,135 MX,17,1250,3750,425,215 MY,17,2500,5000,135,345 MX,15,3750,5000,215,320 F,0,98797,,1 S,0,98797,,0.01534464 MX,15,98797,99647,261,320 MY,16,98797,99647,263,345 F,0,128360,129560,1,0
Sprite,Foreground,Centre,"sb\dot.png",0,0 L,99095,7 MY,16,0,1250,240,338 MX,17,0,2500,222,418 MY,17,1250,3750,338,142 MX,17,2500,5000,418,222 MY,15,3750,5000,142,240 F,0,98891,,1 S,0,98891,,0.006964276 MX,16,98891,99095,237,222 MY,15,98891,99095,223,240 F,0,128360,129560,1,0
Sprite,Foreground,Centre,"sb\dot.png",0,0 L,99095,7 MY,16,0,1250,240,338 MX,17,0,2500,222,418 MY,17,1250,3750,338,142 MX,17,2500,5000,418,222 MY,15,3750,5000,142,240 F,0,98891,,1 S,0,98891,,0.008975498 MX,16,98891,99095,237,222 MY,15,98891,99095,223,240 F,0,128360,129560,1,0
Sprite,Foreground,Centre,"sb\dot.png",0,0 L,99610,6 MY,16,0,1250,240,341 MX,17,0,2500,219,421 MY,17,1250,3750,341,139 MX,17,2500,5000,421,219 MY,15,3750,5000,139,240 F,0,98985,,1 S,0,98985,,0.01407198 MX,16,98985,99610,244,219 MY,15,98985,99610,173,240 F,0,128360,129560,1,0
Sprite,Foreground,Centre,"sb\dot.png",0,0 L,99610,6 MY,16,0,1250,240,341 MX,17,0,2500,219,421 MY,17,1250,3750,341,139 MX,17,2500,5000,421,219 MY,15,3750,5000,139,240 F,0,98985,,1 S,0,98985,,0.02240562 MX,16,98985,99610,244,219 MY,15,98985,99610,173,240 F,0,128360,129560,1,0
Sprite,Foreground,Centre,"sb\dot.png",0,0 L,100082,6 MY,16,0,1250,240,342 MX,17,0,2500,218,422 MY,17,1250,3750,342,138 MX,17,2500,5000,422,218 MY,15,3750,5000,138,240 F,0,99078,,1 S,0,99078,,0.01973542 MX,16,99078,100082,283,218 MY,15,99078,100082,144,240 F,0,128360,129560,1,0
Sprite,Foreground,Centre,"sb\dot.png",0,0 L,100082,6 MY,16,0,1250,240,342 MX,17,0,2500,218,422 MY,17,1250,3750,342,138 MX,17,2500,5000,422,218 MY,15,3750,5000,138,240 F,0,99078,,1 S,0,99078,,0.01617514 MX,16,99078,100082,283,218 MY,15,99078,100082,144,240 F,0,128360,129560,1,0
Sprite,Foreground,Centre,"sb\dot.png",0,0 L,99285,7 MX,16,0,1250,320,225 MY,17,0,2500,145,335 MX,17,1250,3750,225,415 MY,17,2500,5000,335,145 MX,15,3750,5000,415,320 F,0,99172,,1 S,0,99172,,0.008262663 MX,15,99172,99285,332,320 MY,16,99172,99285,147,145 F,0,128360,129560,1,0
Sprite,Foreground,Centre,"sb\dot.png",0,0 L,99285,7 MX,16,0,1250,320,225 MY,17,0,2500,145,335 MX,17,1250,3750,225,415 MY,17,2500,5000,335,145 MX,15,3750,5000,415,320 F,0,99172,,1 S,0,99172,,0.02671117 MX,15,99172,99285,332,320 MY,16,99172,99285,147,145 F,0,128360,129560,1,0
Sprite,Foreground,Centre,"sb\dot.png",0,0 L,99956,6 MX,16,0,1250,320,163 MY,17,0,2500,83,397 MX,17,1250,3750,163,477 MY,17,2500,5000,397,83 MX,15,3750,5000,477,320 F,0,99360,,1 S,0,99360,,0.02528643 MX,15,99360,99956,420,320 MY,16,99360,99956,118,83 F,0,128360,129560,1,0
Sprite,Foreground,Centre,"sb\dot.png",0,0 L,99956,6 MX,16,0,1250,320,163 MY,17,0,2500,83,397 MX,17,1250,3750,163,477 MY,17,2500,5000,397,83 MX,15,3750,5000,477,320 F,0,99360,,1 S,0,99360,,0.02285573 MX,15,99360,99956,420,320 MY,16,99360,99956,118,83 F,0,128360,129560,1,0
Sprite,Foreground,Centre,"sb\dot.png",0,0 L,100163,6 MX,16,0,1250,320,168 MY,17,0,2500,88,392 MX,17,1250,3750,168,472 MY,17,2500,5000,392,88 MX,15,3750,5000,472,320 F,0,99453,,1 S,0,99453,,0.02617192 MX,15,99453,100163,432,320 MY,16,99453,100163,137,88 F,0,128360,129560,1,0
Sprite,Foreground,Centre,"sb\dot.png",0,0 L,100163,6 MX,16,0,1250,320,168 MY,17,0,2500,88,392 MX,17,1250,3750,168,472 MY,17,2500,5000,392,88 MX,15,3750,5000,472,320 F,0,99453,,1 S,0,99453,,0.02135322 MX,15,99453,100163,432,320 MY,16,99453,100163,137,88 F,0,128360,129560,1,0
Sprite,Foreground,Centre,"sb\dot.png",0,0 L,100376,6 MX,16,0,1250,320,167 MY,17,0,2500,87,393 MX,17,1250,3750,167,473 MY,17,2500,5000,393,87 MX,15,3750,5000,473,320 F,0,99547,,1 S,0,99547,,0.01987139 MX,15,99547,100376,447,320 MY,16,99547,100376,154,87 F,0,128360,129560,1,0
Sprite,Foreground,Centre,"sb\dot.png",0,0 L,100376,6 MX,16,0,1250,320,167 MY,17,0,2500,87,393 MX,17,1250,3750,167,473 MY,17,2500,5000,393,87 MX,15,3750,5000,473,320 F,0,99547,,1 S,0,99547,,0.008896983 MX,15,99547,100376,447,320 MY,16,99547,100376,154,87 F,0,128360,129560,1,0
Sprite,Foreground,Centre,"sb\dot.png",0,0 L,100573,6 MX,16,0,1250,320,160 MY,17,0,2500,80,400 MX,17,1250,3750,160,480 MY,17,2500,5000,400,80 MX,15,3750,5000,480,320 F,0,99641,,1 S,0,99641,,0.02717479 MX,15,99641,100573,464,320 MY,16,99641,100573,168,80 F,0,128360,129560,1,0
Sprite,Foreground,Centre,"sb\dot.png",0,0 L,100573,6 MX,16,0,1250,320,160 MY,17,0,2500,80,400 MX,17,1250,3750,160,480 MY,17,2500,5000,400,80 MX,15,3750,5000,480,320 F,0,99641,,1 S,0,99641,,0.02720387 MX,15,99641,100573,464,320 MY,16,99641,100573,168,80 F,0,128360,129560,1,0
Sprite,Foreground,Centre,"sb\dot.png",0,0 L,100746,6 MX,16,0,1250,320,146 MY,17,0,2500,66,414 MX,17,1250,3750,146,494 MY,17,2500,5000,414,66 MX,15,3750,5000,494,320 F,0,99735,,1 S,0,99735,,0.005337657 MX,15,99735,100746,484,320 MY,16,99735,100746,179,66 F,0,128360,129560,1,0
Sprite,Foreground,Centre,"sb\dot.png",0,0 L,100746,6 MX,16,0,1250,320,146 MY,17,0,2500,66,414 MX,17,1250,3750,146,494 MY,17,2500,5000,414,66 MX,15,3750,5000,494,320 F,0,99735,,1 S,0,99735,,0.02564164 MX,15,99735,100746,484,320 MY,16,99735,100746,179,66 F,0,128360,129560,1,0
Sprite,Foreground,Centre,"sb\dot.png",0,0 L,100893,6 MX,16,0,1250,320,128 MY,17,0,2500,48,432 MX,17,1250,3750,128,512 MY,17,2500,5000,432,48 MX,15,3750,5000,512,320 F,0,99828,,1 S,0,99828,,0.007593857 MX,15,99828,100893,505,320 MY,16,99828,100893,187,48 F,0,128360,129560,1,0
Sprite,Foreground,Centre,"sb\dot.png",0,0 L,100893,6 MX,16,0,1250,320,128 MY,17,0,2500,48,432 MX,17,1250,3750,128,512 MY,17,2500,5000,432,48 MX,15,3750,5000,512,320 F,0,99828,,1 S,0,99828,,0.02039111 MX,15,99828,100893,505,320 MY,16,99828,100893,187,48 F,0,128360,129560,1,0
Sprite,Foreground,Centre,"sb\dot.png",0,0 L,101021,6 MX,16,0,1250,320,107 MY,17,0,2500,27,453 MX,17,1250,3750,107,533 MY,17,2500,5000,453,27 MX,15,3750,5000,533,320 F,0,99922,,1 S,0,99922,,0.02532399 MX,15,99922,101021,528,320 MY,16,99922,101021,191,27 F,0,128360,129560,1,0
Sprite,Foreground,Centre,"sb\dot.png",0,0 L,101021,6 MX,16,0,1250,320,107 MY,17,0,2500,27,453 MX,17,1250,3750,107,533 MY,17,2500,5000,453,27 MX,15,3750,5000,533,320 F,0,99922,,1 S,0,99922,,0.008918067 MX,15,99922,101021,528,320 MY,16,99922,101021,191,27 F,0,128360,129560,1,0
Sprite,Foreground,Centre,"sb\dot.png",0,0 L,101129,6 MX,16,0,1250,320,84 MY,17,0,2500,4,476 MX,17,1250,3750,84,556 MY,17,2500,5000,476,4 MX,15,3750,5000,556,320 F,0,100016,,1 S,0,100016,,0.02999926 MX,15,100016,101129,551,320 MY,16,100016,101129,191,4 F,0,128360,129560,1,0
Sprite,Foreground,Centre,"sb\dot.png",0,0 L,101129,6 MX,16,0,1250,320,84 MY,17,0,2500,4,476 MX,17,1250,3750,84,556 MY,17,2500,5000,476,4 MX,15,3750,5000,556,320 F,0,100016,,1 S,0,100016,,0.01599687 MX,15,100016,101129,551,320 MY,16,100016,101129,191,4 F,0,128360,129560,1,0
Sprite,Foreground,Centre,"sb\dot.png",0,0 L,101350,6 MX,16,0,1250,320,64 MY,17,0,2500,-16,496 MX,17,1250,3750,64,576 MY,17,2500,5000,496,-16 MX,15,3750,5000,576,320 F,0,100110,,1 S,0,100110,,0.02060954 MX,15,100110,101350,576,320 MY,16,100110,101350,236,-16 F,0,128360,129560,1,0
Sprite,Foreground,Centre,"sb\dot.png",0,0 L,101350,6 MX,16,0,1250,320,64 MY,17,0,2500,-16,496 MX,17,1250,3750,64,576 MY,17,2500,5000,496,-16 MX,15,3750,5000,576,320 F,0,100110,,1 S,0,100110,,0.0224326 MX,15,100110,101350,576,320 MY,16,100110,101350,236,-16 F,0,128360,129560,1,0
Sprite,Foreground,Centre,"sb\dot.png",0,0 L,100232,6 MY,16,0,1250,240,2 MX,17,0,2500,558,82 MY,17,1250,3750,2,478 MX,17,2500,5000,82,558 MY,15,3750,5000,478,240 F,0,100203,,1 S,0,100203,,0.02485549 MX,16,100203,100232,558 MY,15,100203,100232,248,240 F,0,128360,129560,1,0
Sprite,Foreground,Centre,"sb\dot.png",0,0 L,100232,6 MY,16,0,1250,240,2 MX,17,0,2500,558,82 MY,17,1250,3750,2,478 MX,17,2500,5000,82,558 MY,15,3750,5000,478,240 F,0,100203,,1 S,0,100203,,0.005725256 MX,16,100203,100232,558 MY,15,100203,100232,248,240 F,0,128360,129560,1,0
Sprite,Foreground,Centre,"sb\dot.png",0,0 L,100372,6 MY,16,0,1250,240,19 MX,17,0,2500,541,99 MY,17,1250,3750,19,461 MX,17,2500,5000,99,541 MY,15,3750,5000,461,240 F,0,100297,,1 S,0,100297,,0.02268554 MX,16,100297,100372,541 MY,15,100297,100372,259,240 F,0,128360,129560,1,0
Sprite,Foreground,Centre,"sb\dot.png",0,0 L,100372,6 MY,16,0,1250,240,19 MX,17,0,2500,541,99 MY,17,1250,3750,19,461 MX,17,2500,5000,99,541 MY,15,3750,5000,461,240 F,0,100297,,1 S,0,100297,,0.02239817 MX,16,100297,100372,541 MY,15,100297,100372,259,240 F,0,128360,129560,1,0
Sprite,Foreground,Centre,"sb\dot.png",0,0 L,100504,6 MY,16,0,1250,240,37 MX,17,0,2500,523,117 MY,17,1250,3750,37,443 MX,17,2500,5000,117,523 MY,15,3750,5000,443,240 F,0,100391,,1 S,0,100391,,0.006389236 MX,16,100391,100504,522,523 MY,15,100391,100504,266,240 F,0,128360,129560,1,0
Sprite,Foreground,Centre,"sb\dot.png",0,0 L,100504,6 MY,16,0,1250,240,37 MX,17,0,2500,523,117 MY,17,1250,3750,37,443 MX,17,2500,5000,117,523 MY,15,3750,5000,443,240 F,0,100391,,1 S,0,100391,,0.02743976 MX,16,100391,100504,522,523 MY,15,100391,100504,266,240 F,0,128360,129560,1,0
Sprite,Foreground,Centre,"sb\dot.png",0,0 L,100628,6 MY,16,0,1250,240,55 MX,17,0,2500,505,135 MY,17,1250,3750,55,425 MX,17,2500,5000,135,505 MY,15,3750,5000,425,240 F,0,100485,,1 S,0,100485,,0.008106343 MX,16,100485,100628,503,505 MY,15,100485,100628,270,240 F,0,128360,129560,1,0
Sprite,Foreground,Centre,"sb\dot.png",0,0 L,100628,6 MY,16,0,1250,240,55 MX,17,0,2500,505,135 MY,17,1250,3750,55,425 MX,17,2500,5000,135,505 MY,15,3750,5000,425,240 F,0,100485,,1 S,0,100485,,0.01587387 MX,16,100485,100628,503,505 MY,15,100485,100628,270,240 F,0,128360,129560,1,0
Sprite,Foreground,Centre,"sb\dot.png",0,0 L,100746,6 MY,16,0,1250,240,77 MX,17,0,2500,483,157 MY,17,1250,3750,77,403 MX,17,2500,5000,157,483 MY,15,3750,5000,403,240 F,0,100578,,1 S,0,100578,,0.01760147 MX,16,100578,100746,481,483 MY,15,100578,100746,271,240 F,0,128360,129560,1,0
Sprite,Foreground,Centre,"sb\dot.png",0,0 L,100746,6 MY,16,0,1250,240,77 MX,17,0,2500,483,157 MY,17,1250,3750,77,403 MX,17,2500,5000,157,483 MY,15,3750,5000,403,240 F,0,100578,,1 S,0,100578,,0.01178852 MX,16,100578,100746,481,483 MY,15,100578,100746,271,240 F,0,128360,129560,1,0
Sprite,Foreground,Centre,"sb\dot.png",0,0 L,100845,6 MY,16,0,1250,240,97 MX,17,0,2500,463,177 MY,17,1250,3750,97,383 MX,17,2500,5000,177,463 MY,15,3750,5000,383,240 F,0,100672,,1 S,0,100672,,0.02111799 MX,16,100672,100845,461,463 MY,15,100672,100845,268,240 F,0,128360,129560,1,0
Sprite,Foreground,Centre,"sb\dot.png",0,0 L,100845,6 MY,16,0,1250,240,97 MX,17,0,2500,463,177 MY,17,1250,3750,97,383 MX,17,2500,5000,177,463 MY,15,3750,5000,383,240 F,0,100672,,1 S,0,100672,,0.01564674 MX,16,100672,100845,461,463 MY,15,100672,100845,268,240 F,0,128360,129560,1,0
Sprite,Foreground,Centre,"sb\dot.png",0,0 L,100924,6 MY,16,0,1250,240,117 MX,17,0,2500,443,197 MY,17,1250,3750,117,363 MX,17,2500,5000,197,443 MY,15,3750,5000,363,240 F,0,100766,,1 S,0,100766,,0.02550442 MX,16,100766,100924,442,443 MY,15,100766,100924,262,240 F,0,128360,129560,1,0
Sprite,Foreground,Centre,"sb\dot.png",0,0 L,100924,6 MY,16,0,1250,240,117 MX,17,0,2500,443,197 MY,17,1250,3750,117,363 MX,17,2500,5000,197,443 MY,15,3750,5000,363,240 F,0,100766,,1 S,0,100766,,0.0248485 MX,16,100766,100924,442,443 MY,15,100766,100924,262,240 F,0,128360,129560,1,0
Sprite,Foreground,Centre,"sb\dot.png",0,0 L,101393,6 MY,16,0,1250,240,129 MX,17,0,2500,431,209 MY,17,1250,3750,129,351 MX,17,2500,5000,209,431 MY,15,3750,5000,351,240 F,0,100860,,1 S,0,100860,,0.02442802 MX,16,100860,101393,411,431 MY,15,100860,101393,304,240 F,0,128360,129560,1,0
Sprite,Foreground,Centre,"sb\dot.png",0,0 L,101393,6 MY,16,0,1250,240,129 MX,17,0,2500,431,209 MY,17,1250,3750,129,351 MX,17,2500,5000,209,431 MY,15,3750,5000,351,240 F,0,100860,,1 S,0,100860,,0.02364166 MX,16,100860,101393,411,431 MY,15,100860,101393,304,240 F,0,128360,129560,1,0
Sprite,Foreground,Centre,"sb\dot.png",0,0 L,101534,6 MY,16,0,1250,240,113 MX,17,0,2500,447,193 MY,17,1250,3750,113,367 MX,17,2500,5000,193,447 MY,15,3750,5000,367,240 F,0,100953,,1 S,0,100953,,0.02831359 MX,16,100953,101534,420,447 MY,15,100953,101534,319,240 F,0,128360,129560,1,0
Sprite,Foreground,Centre,"sb\dot.png",0,0 L,101534,6 MY,16,0,1250,240,113 MX,17,0,2500,447,193 MY,17,1250,3750,113,367 MX,17,2500,5000,193,447 MY,15,3750,5000,367,240 F,0,100953,,1 S,0,100953,,0.01096491 MX,16,100953,101534,420,447 MY,15,100953,101534,319,240 F,0,128360,129560,1,0
Sprite,Foreground,Centre,"sb\dot.png",0,0 L,101640,6 MY,16,0,1250,240,95 MX,17,0,2500,465,175 MY,17,1250,3750,95,385 MX,17,2500,5000,175,465 MY,15,3750,5000,385,240 F,0,101047,,1 S,0,101047,,0.0171152 MX,16,101047,101640,433,465 MY,15,101047,101640,332,240 F,0,128360,129560,1,0
Sprite,Foreground,Centre,"sb\dot.png",0,0 L,101640,6 MY,16,0,1250,240,95 MX,17,0,2500,465,175 MY,17,1250,3750,95,385 MX,17,2500,5000,175,465 MY,15,3750,5000,385,240 F,0,101047,,1 S,0,101047,,0.02091161 MX,16,101047,101640,433,465 MY,15,101047,101640,332,240 F,0,128360,129560,1,0
Sprite,Foreground,Centre,"sb\dot.png",0,0 L,101739,6 MY,16,0,1250,240,77 MX,17,0,2500,483,157 MY,17,1250,3750,77,403 MX,17,2500,5000,157,483 MY,15,3750,5000,403,240 F,0,101141,,1 S,0,101141,,0.0119799 MX,16,101141,101739,446,483 MY,15,101141,101739,344,240 F,0,128360,129560,1,0
Sprite,Foreground,Centre,"sb\dot.png",0,0 L,101739,6 MY,16,0,1250,240,77 MX,17,0,2500,483,157 MY,17,1250,3750,77,403 MX,17,2500,5000,157,483 MY,15,3750,5000,403,240 F,0,101141,,1 S,0,101141,,0.01074151 MX,16,101141,101739,446,483 MY,15,101141,101739,344,240 F,0,128360,129560,1,0
Sprite,Foreground,Centre,"sb\dot.png",0,0 L,101815,6 MY,16,0,1250,240,58 MX,17,0,2500,502,138 MY,17,1250,3750,58,422 MX,17,2500,5000,138,502 MY,15,3750,5000,422,240 F,0,101235,,1 S,0,101235,,0.02515647 MX,16,101235,101815,463,502 MY,15,101235,101815,353,240 F,0,128360,129560,1,0
Sprite,Foreground,Centre,"sb\dot.png",0,0 L,101815,6 MY,16,0,1250,240,58 MX,17,0,2500,502,138 MY,17,1250,3750,58,422 MX,17,2500,5000,138,502 MY,15,3750,5000,422,240 F,0,101235,,1 S,0,101235,,0.009007984 MX,16,101235,101815,463,502 MY,15,101235,101815,353,240 F,0,128360,129560,1,0
Sprite,Foreground,Centre,"sb\dot.png",0,0 L,101884,6 MY,16,0,1250,240,41 MX,17,0,2500,519,121 MY,17,1250,3750,41,439 MX,17,2500,5000,121,519 MY,15,3750,5000,439,240 F,0,101328,,1 S,0,101328,,0.008045533 MX,16,101328,101884,480,519 MY,15,101328,101884,359,240 F,0,128360,129560,1,0
Sprite,Foreground,Centre,"sb\dot.png",0,0 L,101884,6 MY,16,0,1250,240,41 MX,17,0,2500,519,121 MY,17,1250,3750,41,439 MX,17,2500,5000,121,519 MY,15,3750,5000,439,240 F,0,101328,,1 S,0,101328,,0.004850009 MX,16,101328,101884,480,519 MY,15,101328,101884,359,240 F,0,128360,129560,1,0
Sprite,Foreground,Centre,"sb\dot.png",0,0 L,101943,6 MY,16,0,1250,240,24 MX,17,0,2500,536,104 MY,17,1250,3750,24,456 MX,17,2500,5000,104,536 MY,15,3750,5000,456,240 F,0,101422,,1 S,0,101422,,0.01986481 MX,16,101422,101943,499,536 MY,15,101422,101943,362,240 F,0,128360,129560,1,0
Sprite,Foreground,Centre,"sb\dot.png",0,0 L,101943,6 MY,16,0,1250,240,24 MX,17,0,2500,536,104 MY,17,1250,3750,24,456 MX,17,2500,5000,104,536 MY,15,3750,5000,456,240 F,0,101422,,1 S,0,101422,,0.02171222 MX,16,101422,101943,499,536 MY,15,101422,101943,362,240 F,0,128360,129560,1,0
Sprite,Foreground,Centre,"sb\dot.png",0,0 L,102000,6 MY,16,0,1250,240,9 MX,17,0,2500,551,89 MY,17,1250,3750,9,471 MX,17,2500,5000,89,551 MY,15,3750,5000,471,240 F,0,101516,,1 S,0,101516,,0.02002065 MX,16,101516,102000,517,551 MY,15,101516,102000,362,240 F,0,128360,129560,1,0
Sprite,Foreground,Centre,"sb\dot.png",0,0 L,102000,6 MY,16,0,1250,240,9 MX,17,0,2500,551,89 MY,17,1250,3750,9,471 MX,17,2500,5000,89,551 MY,15,3750,5000,471,240 F,0,101516,,1 S,0,101516,,0.02804621 MX,16,101516,102000,517,551 MY,15,101516,102000,362,240 F,0,128360,129560,1,0
Sprite,Foreground,Centre,"sb\dot.png",0,0 L,102054,6 MY,16,0,1250,240,-4 MX,17,0,2500,564,76 MY,17,1250,3750,-4,484 MX,17,2500,5000,76,564 MY,15,3750,5000,484,240 F,0,101610,,1 S,0,101610,,0.008976235 MX,16,101610,102054,534,564 MY,15,101610,102054,359,240 F,0,128360,129560,1,0
Sprite,Foreground,Centre,"sb\dot.png",0,0 L,102054,6 MY,16,0,1250,240,-4 MX,17,0,2500,564,76 MY,17,1250,3750,-4,484 MX,17,2500,5000,76,564 MY,15,3750,5000,484,240 F,0,101610,,1 S,0,101610,,0.02807511 MX,16,101610,102054,534,564 MY,15,101610,102054,359,240 F,0,128360,129560,1,0
Sprite,Foreground,Centre,"sb\dot.png",0,0 L,102549,6 MY,16,0,1250,240,-49 MX,17,0,2500,609,31 MY,17,1250,3750,-49,529 MX,17,2500,5000,31,609 MY,15,3750,5000,529,240 F,0,101891,,1 S,0,101891,,0.004796083 MX,16,101891,102549,529,609 MY,15,101891,102549,440,240 F,0,128360,129560,1,0
Sprite,Foreground,Centre,"sb\dot.png",0,0 L,102549,6 MY,16,0,1250,240,-49 MX,17,0,2500,609,31 MY,17,1250,3750,-49,529 MX,17,2500,5000,31,609 MY,15,3750,5000,529,240 F,0,101891,,1 S,0,101891,,0.02730282 MX,16,101891,102549,529,609 MY,15,101891,102549,440,240 F,0,128360,129560,1,0
Sprite,Foreground,Centre,"sb\dot.png",0,0 L,102688,6 MY,16,0,1250,240,137 MX,17,0,2500,423,217 MY,17,1250,3750,137,343 MX,17,2500,5000,217,423 MY,15,3750,5000,343,240 F,0,102078,,1 S,0,102078,,0.02131965 MX,16,102078,102688,399,423 MY,15,102078,102688,307,240 F,0,128360,129560,1,0
Sprite,Foreground,Centre,"sb\dot.png",0,0 L,102688,6 MY,16,0,1250,240,137 MX,17,0,2500,423,217 MY,17,1250,3750,137,343 MX,17,2500,5000,217,423 MY,15,3750,5000,343,240 F,0,102078,,1 S,0,102078,,0.005537407 MX,16,102078,102688,399,423 MY,15,102078,102688,307,240 F,0,128360,129560,1,0
Sprite,Foreground,Centre,"sb\dot.png",0,0 L,103242,6 MX,16,0,1250,320,220 MY,17,0,2500,140,340 MX,17,1250,3750,220,420 MY,17,2500,5000,340,140 MX,15,3750,5000,420,320 F,0,102360,,1 S,0,102360,,0.007025631 MX,15,102360,103242,407,320 MY,16,102360,103242,189,140 F,0,128360,129560,1,0
Sprite,Foreground,Centre,"sb\dot.png",0,0 L,103242,6 MX,16,0,1250,320,220 MY,17,0,2500,140,340 MX,17,1250,3750,220,420 MY,17,2500,5000,340,140 MX,15,3750,5000,420,320 F,0,102360,,1 S,0,102360,,0.005888257 MX,15,102360,103242,407,320 MY,16,102360,103242,189,140 F,0,128360,129560,1,0
Sprite,Foreground,Centre,"sb\dot.png",0,0 L,103060,6 MX,16,0,1250,320,217 MY,17,0,2500,137,343 MX,17,1250,3750,217,423 MY,17,2500,5000,343,137 MX,15,3750,5000,423,320 F,0,102453,,1 S,0,102453,,0.0194665 MX,15,102453,103060,368,320 MY,16,102453,103060,189,137 F,0,128360,129560,1,0
Sprite,Foreground,Centre,"sb\dot.png",0,0 L,103060,6 MX,16,0,1250,320,217 MY,17,0,2500,137,343 MX,17,1250,3750,217,423 MY,17,2500,5000,343,137 MX,15,3750,5000,423,320 F,0,102453,,1 S,0,102453,,0.02873216 MX,15,102453,103060,368,320 MY,16,102453,103060,189,137 F,0,128360,129560,1,0
Sprite,Foreground,Centre,"sb\dot.png",0,0 L,103175,6 MX,16,0,1250,320,206 MY,17,0,2500,126,354 MX,17,1250,3750,206,434 MY,17,2500,5000,354,126 MX,15,3750,5000,434,320 F,0,102547,,1 S,0,102547,,0.01624688 MX,15,102547,103175,333,320 MY,16,102547,103175,206,126 F,0,128360,129560,1,0
Sprite,Foreground,Centre,"sb\dot.png",0,0 L,103175,6 MX,16,0,1250,320,206 MY,17,0,2500,126,354 MX,17,1250,3750,206,434 MY,17,2500,5000,354,126 MX,15,3750,5000,434,320 F,0,102547,,1 S,0,102547,,0.006997519 MX,15,102547,103175,333,320 MY,16,102547,103175,206,126 F,0,128360,129560,1,0
Sprite,Foreground,Centre,"sb\dot.png",0,0 L,103446,6 MY,16,0,1250,240,363 MX,17,0,2500,197,443 MY,17,1250,3750,363,117 MX,17,2500,5000,443,197 MY,15,3750,5000,117,240 F,0,102641,,1 S,0,102641,,0.02129551 MX,16,102641,103446,309,197 MY,15,102641,103446,236,240 F,0,128360,129560,1,0
Sprite,Foreground,Centre,"sb\dot.png",0,0 L,103446,6 MY,16,0,1250,240,363 MX,17,0,2500,197,443 MY,17,1250,3750,363,117 MX,17,2500,5000,443,197 MY,15,3750,5000,117,240 F,0,102641,,1 S,0,102641,,0.01838627 MX,16,102641,103446,309,197 MY,15,102641,103446,236,240 F,0,128360,129560,1,0
Sprite,Foreground,Centre,"sb\dot.png",0,0 L,103372,6 MX,16,0,1250,320,434 MY,17,0,2500,354,126 MX,17,1250,3750,434,206 MY,17,2500,5000,126,354 MX,15,3750,5000,206,320 F,0,102735,,1 S,0,102735,,0.009085884 MX,15,102735,103372,301,320 MY,16,102735,103372,274,354 F,0,128360,129560,1,0
Sprite,Foreground,Centre,"sb\dot.png",0,0 L,103372,6 MX,16,0,1250,320,434 MY,17,0,2500,354,126 MX,17,1250,3750,434,206 MY,17,2500,5000,126,354 MX,15,3750,5000,206,320 F,0,102735,,1 S,0,102735,,0.01969092 MX,15,102735,103372,301,320 MY,16,102735,103372,274,354 F,0,128360,129560,1,0
Sprite,Foreground,Centre,"sb\dot.png",0,0 L,103555,6 MX,16,0,1250,320,496 MY,17,0,2500,416,64 MX,17,1250,3750,496,144 MY,17,2500,5000,64,416 MX,15,3750,5000,144,320 F,0,103110,,1 S,0,103110,,0.003137219 MX,15,103110,103555,234,320 MY,16,103110,103555,394,416 F,0,128360,129560,1,0
Sprite,Foreground,Centre,"sb\dot.png",0,0 L,103555,6 MX,16,0,1250,320,496 MY,17,0,2500,416,64 MX,17,1250,3750,496,144 MY,17,2500,5000,64,416 MX,15,3750,5000,144,320 F,0,103110,,1 S,0,103110,,0.01274535 MX,15,103110,103555,234,320 MY,16,103110,103555,394,416 F,0,128360,129560,1,0
Sprite,Foreground,Centre,"sb\dot.png",0,0 L,103794,6 MX,16,0,1250,320,518 MY,17,0,2500,438,42 MX,17,1250,3750,518,122 MY,17,2500,5000,42,438 MX,15,3750,5000,122,320 F,0,103203,,1 S,0,103203,,0.02596309 MX,15,103203,103794,195,320 MY,16,103203,103794,394,438 F,0,128360,129560,1,0
Sprite,Foreground,Centre,"sb\dot.png",0,0 L,103794,6 MX,16,0,1250,320,518 MY,17,0,2500,438,42 MX,17,1250,3750,518,122 MY,17,2500,5000,42,438 MX,15,3750,5000,122,320 F,0,103203,,1 S,0,103203,,0.004682327 MX,15,103203,103794,195,320 MY,16,103203,103794,394,438 F,0,128360,129560,1,0
Sprite,Foreground,Centre,"sb\dot.png",0,0 L,104037,6 MX,16,0,1250,320,530 MY,17,0,2500,450,30 MX,17,1250,3750,530,110 MY,17,2500,5000,30,450 MX,15,3750,5000,110,320 F,0,103297,,1 S,0,103297,,0.01060448 MX,15,103297,104037,160,320 MY,16,103297,104037,377,450 F,0,128360,129560,1,0
Sprite,Foreground,Centre,"sb\dot.png",0,0 L,104037,6 MX,16,0,1250,320,530 MY,17,0,2500,450,30 MX,17,1250,3750,530,110 MY,17,2500,5000,30,450 MX,15,3750,5000,110,320 F,0,103297,,1 S,0,103297,,0.02203435 MX,15,103297,104037,160,320 MY,16,103297,104037,377,450 F,0,128360,129560,1,0
Sprite,Foreground,Centre,"sb\dot.png",0,0 L,104274,6 MX,16,0,1250,320,532 MY,17,0,2500,452,28 MX,17,1250,3750,532,108 MY,17,2500,5000,28,452 MX,15,3750,5000,108,320 F,0,103391,,1 S,0,103391,,0.02888167 MX,15,103391,104274,136,320 MY,16,103391,104274,347,452 F,0,128360,129560,1,0
Sprite,Foreground,Centre,"sb\dot.png",0,0 L,104274,6 MX,16,0,1250,320,532 MY,17,0,2500,452,28 MX,17,1250,3750,532,108 MY,17,2500,5000,28,452 MX,15,3750,5000,108,320 F,0,103391,,1 S,0,103391,,0.02969793 MX,15,103391,104274,136,320 MY,16,103391,104274,347,452 F,0,128360,129560,1,0
Sprite,Foreground,Centre,"sb\dot.png",0,0 L,104501,5 MX,16,0,1250,320,524 MY,17,0,2500,444,36 MX,17,1250,3750,524,116 MY,17,2500,5000,36,444 MX,15,3750,5000,116,320 F,0,103485,,1 S,0,103485,,0.0134527 MX,15,103485,104501,128,320 MY,16,103485,104501,309,444 F,0,128360,129560,1,0
Sprite,Foreground,Centre,"sb\dot.png",0,0 L,104501,5 MX,16,0,1250,320,524 MY,17,0,2500,444,36 MX,17,1250,3750,524,116 MY,17,2500,5000,36,444 MX,15,3750,5000,116,320 F,0,103485,,1 S,0,103485,,0.01711398 MX,15,103485,104501,128,320 MY,16,103485,104501,309,444 F,0,128360,129560,1,0
Sprite,Foreground,Centre,"sb\dot.png",0,0 L,104105,6 MY,16,0,1250,240,505 MX,17,0,2500,55,585 MY,17,1250,3750,505,-25 MX,17,2500,5000,585,55 MY,15,3750,5000,-25,240 F,0,103860,,1 S,0,103860,,0.01056878 MX,16,103860,104105,65,55 MY,15,103860,104105,167,240 F,0,128360,129560,1,0
Sprite,Foreground,Centre,"sb\dot.png",0,0 L,104105,6 MY,16,0,1250,240,505 MX,17,0,2500,55,585 MY,17,1250,3750,505,-25 MX,17,2500,5000,585,55 MY,15,3750,5000,-25,240 F,0,103860,,1 S,0,103860,,0.01667755 MX,16,103860,104105,65,55 MY,15,103860,104105,167,240 F,0,128360,129560,1,0
Sprite,Foreground,Centre,"sb\dot.png",0,0 L,104304,6 MY,16,0,1250,240,471 MX,17,0,2500,89,551 MY,17,1250,3750,471,9 MX,17,2500,5000,551,89 MY,15,3750,5000,9,240 F,0,103953,,1 S,0,103953,,0.01735264 MX,16,103953,104304,107,89 MY,15,103953,104304,150,240 F,0,128360,129560,1,0
Sprite,Foreground,Centre,"sb\dot.png",0,0 L,104304,6 MY,16,0,1250,240,471 MX,17,0,2500,89,551 MY,17,1250,3750,471,9 MX,17,2500,5000,551,89 MY,15,3750,5000,9,240 F,0,103953,,1 S,0,103953,,0.004539227 MX,16,103953,104304,107,89 MY,15,103953,104304,150,240 F,0,128360,129560,1,0
Sprite,Foreground,Centre,"sb\dot.png",0,0 L,104470,5 MY,16,0,1250,240,429 MX,17,0,2500,131,509 MY,17,1250,3750,429,51 MX,17,2500,5000,509,131 MY,15,3750,5000,51,240 F,0,104047,,1 S,0,104047,,0.01057495 MX,16,104047,104470,152,131 MY,15,104047,104470,152,240 F,0,128360,129560,1,0
Sprite,Foreground,Centre,"sb\dot.png",0,0 L,104470,5 MY,16,0,1250,240,429 MX,17,0,2500,131,509 MY,17,1250,3750,429,51 MX,17,2500,5000,509,131 MY,15,3750,5000,51,240 F,0,104047,,1 S,0,104047,,0.01639413 MX,16,104047,104470,152,131 MY,15,104047,104470,152,240 F,0,128360,129560,1,0
Sprite,Foreground,Centre,"sb\dot.png",0,0 L,104553,5 MY,16,0,1250,240,383 MX,17,0,2500,177,463 MY,17,1250,3750,383,97 MX,17,2500,5000,463,177 MY,15,3750,5000,97,240 F,0,104141,,1 S,0,104141,,0.02585322 MX,16,104141,104553,192,177 MY,15,104141,104553,175,240 F,0,128360,129560,1,0
Sprite,Foreground,Centre,"sb\dot.png",0,0 L,104553,5 MY,16,0,1250,240,383 MX,17,0,2500,177,463 MY,17,1250,3750,383,97 MX,17,2500,5000,463,177 MY,15,3750,5000,97,240 F,0,104141,,1 S,0,104141,,0.01955526 MX,16,104141,104553,192,177 MY,15,104141,104553,175,240 F,0,128360,129560,1,0
Sprite,Foreground,Centre,"sb\dot.png",0,0 L,104481,5 MY,16,0,1250,240,345 MX,17,0,2500,215,425 MY,17,1250,3750,345,135 MX,17,2500,5000,425,215 MY,15,3750,5000,135,240 F,0,104235,,1 S,0,104235,,0.005812284 MX,16,104235,104481,219,215 MY,15,104235,104481,211,240 F,0,128360,129560,1,0
Sprite,Foreground,Centre,"sb\dot.png",0,0 L,104481,5 MY,16,0,1250,240,345 MX,17,0,2500,215,425 MY,17,1250,3750,345,135 MX,17,2500,5000,425,215 MY,15,3750,5000,135,240 F,0,104235,,1 S,0,104235,,0.02304288 MX,16,104235,104481,219,215 MY,15,104235,104481,211,240 F,0,128360,129560,1,0
Sprite,Foreground,Centre,"sb\dot.png",0,0 L,105365,5 MX,16,0,1250,320,422 MY,17,0,2500,342,138 MX,17,1250,3750,422,218 MY,17,2500,5000,138,342 MX,15,3750,5000,218,320 F,0,104329,,1 S,0,104329,,0.01385066 MX,15,104329,105365,246,320 MY,16,104329,105365,248,342 F,0,128360,129560,1,0
Sprite,Foreground,Centre,"sb\dot.png",0,0 L,105365,5 MX,16,0,1250,320,422 MY,17,0,2500,342,138 MX,17,1250,3750,422,218 MY,17,2500,5000,138,342 MX,15,3750,5000,218,320 F,0,104329,,1 S,0,104329,,0.0282016 MX,15,104329,105365,246,320 MY,16,104329,105365,248,342 F,0,128360,129560,1,0
Sprite,Foreground,Centre,"sb\dot.png",0,0 L,105130,5 MX,16,0,1250,320,432 MY,17,0,2500,352,128 MX,17,1250,3750,432,208 MY,17,2500,5000,128,352 MX,15,3750,5000,208,320 F,0,104423,,1 S,0,104423,,0.006528855 MX,15,104423,105130,286,320 MY,16,104423,105130,269,352 F,0,128360,129560,1,0
Sprite,Foreground,Centre,"sb\dot.png",0,0 L,105130,5 MX,16,0,1250,320,432 MY,17,0,2500,352,128 MX,17,1250,3750,432,208 MY,17,2500,5000,128,352 MX,15,3750,5000,208,320 F,0,104423,,1 S,0,104423,,0.02189061 MX,15,104423,105130,286,320 MY,16,104423,105130,269,352 F,0,128360,129560,1,0
Sprite,Foreground,Centre,"sb\dot.png",0,0 L,105355,5 MY,16,0,1250,240,125 MX,17,0,2500,435,205 MY,17,1250,3750,125,355 MX,17,2500,5000,205,435 MY,15,3750,5000,355,240 F,0,104517,,1 S,0,104517,,0.01961603 MX,16,104517,105355,331,435 MY,15,104517,105355,273,240 F,0,128360,129560,1,0
Sprite,Foreground,Centre,"sb\dot.png",0,0 L,105355,5 MY,16,0,1250,240,125 MX,17,0,2500,435,205 MY,17,1250,3750,125,355 MX,17,2500,5000,205,435 MY,15,3750,5000,355,240 F,0,104517,,1 S,0,104517,,0.02542533 MX,16,104517,105355,331,435 MY,15,104517,105355,273,240 F,0,128360,129560,1,0
Sprite,Foreground,Centre,"sb\dot.png",0,0 L,105059,5 MY,16,0,1250,240,133 MX,17,0,2500,427,213 MY,17,1250,3750,133,347 MX,17,2500,5000,213,427 MY,15,3750,5000,347,240 F,0,104610,,1 S,0,104610,,0.02149842 MX,16,104610,105059,375,427 MY,15,104610,105059,256,240 F,0,128360,129560,1,0
Sprite,Foreground,Centre,"sb\dot.png",0,0 L,105059,5 MY,16,0,1250,240,133 MX,17,0,2500,427,213 MY,17,1250,3750,133,347 MX,17,2500,5000,213,427 MY,15,3750,5000,347,240 F,0,104610,,1 S,0,104610,,0.01838305 MX,16,104610,105059,375,427 MY,15,104610,105059,256,240 F,0,128360,129560,1,0
Sprite,Foreground,Centre,"sb\dot.png",0,0 L,105919,5 MX,16,0,1250,320,211 MY,17,0,2500,131,349 MX,17,1250,3750,211,429 MY,17,2500,5000,349,131 MX,15,3750,5000,429,320 F,0,104703,,1 S,0,104703,,0.007664726 MX,15,104703,105919,429,320 MY,16,104703,105919,234,131 F,0,128360,129560,1,0
Sprite,Foreground,Centre,"sb\dot.png",0,0 L,105919,5 MX,16,0,1250,320,211 MY,17,0,2500,131,349 MX,17,1250,3750,211,429 MY,17,2500,5000,349,131 MX,15,3750,5000,429,320 F,0,104703,,1 S,0,104703,,0.007982384 MX,15,104703,105919,429,320 MY,16,104703,105919,234,131 F,0,128360,129560,1,0
Sprite,Foreground,Centre,"sb\dot.png",0,0 L,106017,5 MX,16,0,1250,320,153 MY,17,0,2500,73,407 MX,17,1250,3750,153,487 MY,17,2500,5000,407,73 MX,15,3750,5000,487,320 F,0,104797,,1 S,0,104797,,0.01944599 MX,15,104797,106017,487,320 MY,16,104797,106017,232,73 F,0,128360,129560,1,0
Sprite,Foreground,Centre,"sb\dot.png",0,0 L,106017,5 MX,16,0,1250,320,153 MY,17,0,2500,73,407 MX,17,1250,3750,153,487 MY,17,2500,5000,407,73 MX,15,3750,5000,487,320 F,0,104797,,1 S,0,104797,,0.009770205 MX,15,104797,106017,487,320 MY,16,104797,106017,232,73 F,0,128360,129560,1,0
Sprite,Foreground,Centre,"sb\dot.png",0,0 L,104993,5 MY,16,0,1250,240,25 MX,17,0,2500,535,105 MY,17,1250,3750,25,455 MX,17,2500,5000,105,535 MY,15,3750,5000,455,240 F,0,104891,,1 S,0,104891,,0.0299221 MX,16,104891,104993,534,535 MY,15,104891,104993,265,240 F,0,128360,129560,1,0
Sprite,Foreground,Centre,"sb\dot.png",0,0 L,104993,5 MY,16,0,1250,240,25 MX,17,0,2500,535,105 MY,17,1250,3750,25,455 MX,17,2500,5000,105,535 MY,15,3750,5000,455,240 F,0,104891,,1 S,0,104891,,0.01835462 MX,16,104891,104993,534,535 MY,15,104891,104993,265,240 F,0,128360,129560,1,0
Sprite,Foreground,Centre,"sb\dot.png",0,0 L,105272,5 MY,16,0,1250,240,-6 MX,17,0,2500,566,74 MY,17,1250,3750,-6,486 MX,17,2500,5000,74,566 MY,15,3750,5000,486,240 F,0,104985,,1 S,0,104985,,0.00471279 MX,16,104985,105272,553,566 MY,15,104985,105272,319,240 F,0,128360,129560,1,0
Sprite,Foreground,Centre,"sb\dot.png",0,0 L,105272,5 MY,16,0,1250,240,-6 MX,17,0,2500,566,74 MY,17,1250,3750,-6,486 MX,17,2500,5000,74,566 MY,15,3750,5000,486,240 F,0,104985,,1 S,0,104985,,0.01011946 MX,16,104985,105272,553,566 MY,15,104985,105272,319,240 F,0,128360,129560,1,0
Sprite,Foreground,Centre,"sb\dot.png",0,0 L,105562,5 MY,16,0,1250,240,-14 MX,17,0,2500,574,66 MY,17,1250,3750,-14,494 MX,17,2500,5000,66,574 MY,15,3750,5000,494,240 F,0,105078,,1 S,0,105078,,0.02574912 MX,16,105078,105562,536,574 MY,15,105078,105562,374,240 F,0,128360,129560,1,0
Sprite,Foreground,Centre,"sb\dot.png",0,0 L,105562,5 MY,16,0,1250,240,-14 MX,17,0,2500,574,66 MY,17,1250,3750,-14,494 MX,17,2500,5000,66,574 MY,15,3750,5000,494,240 F,0,105078,,1 S,0,105078,,0.01833832 MX,16,105078,105562,536,574 MY,15,105078,105562,374,240 F,0,128360,129560,1,0
Sprite,Foreground,Centre,"sb\dot.png",0,0 L,105843,5 MY,16,0,1250,240,1 MX,17,0,2500,559,81 MY,17,1250,3750,1,479 MX,17,2500,5000,81,559 MY,15,3750,5000,479,240 F,0,105172,,1 S,0,105172,,0.02044173 MX,16,105172,105843,490,559 MY,15,105172,105843,408,240 F,0,128360,129560,1,0
Sprite,Foreground,Centre,"sb\dot.png",0,0 L,105843,5 MY,16,0,1250,240,1 MX,17,0,2500,559,81 MY,17,1250,3750,1,479 MX,17,2500,5000,81,559 MY,15,3750,5000,479,240 F,0,105172,,1 S,0,105172,,0.01694189 MX,16,105172,105843,490,559 MY,15,105172,105843,408,240 F,0,128360,129560,1,0
Sprite,Foreground,Centre,"sb\dot.png",0,0 L,106103,5 MY,16,0,1250,240,38 MX,17,0,2500,522,118 MY,17,1250,3750,38,442 MX,17,2500,5000,118,522 MY,15,3750,5000,442,240 F,0,105266,,1 S,0,105266,,0.02919344 MX,16,105266,106103,432,522 MY,15,105266,106103,409,240 F,0,128360,129560,1,0
Sprite,Foreground,Centre,"sb\dot.png",0,0 L,106103,5 MY,16,0,1250,240,38 MX,17,0,2500,522,118 MY,17,1250,3750,38,442 MX,17,2500,5000,118,522 MY,15,3750,5000,442,240 F,0,105266,,1 S,0,105266,,0.005098148 MX,16,105266,106103,432,522 MY,15,105266,106103,409,240 F,0,128360,129560,1,0
Sprite,Foreground,Centre,"sb\dot.png",0,0 L,106266,5 MY,16,0,1250,240,87 MX,17,0,2500,473,167 MY,17,1250,3750,87,393 MX,17,2500,5000,167,473 MY,15,3750,5000,393,240 F,0,105360,,1 S,0,105360,,0.01685012 MX,16,105360,106266,393,473 MY,15,105360,106266,375,240 F,0,128360,129560,1,0
Sprite,Foreground,Centre,"sb\dot.png",0,0 L,106266,5 MY,16,0,1250,240,87 MX,17,0,2500,473,167 MY,17,1250,3750,87,393 MX,17,2500,5000,167,473 MY,15,3750,5000,393,240 F,0,105360,,1 S,0,105360,,0.007205664 MX,16,105360,106266,393,473 MY,15,105360,106266,375,240 F,0,128360,129560,1,0
Sprite,Foreground,Centre,"sb\dot.png",0,0 L,106340,5 MY,16,0,1250,240,132 MX,17,0,2500,428,212 MY,17,1250,3750,132,348 MX,17,2500,5000,212,428 MY,15,3750,5000,348,240 F,0,105453,,1 S,0,105453,,0.02496862 MX,16,105453,106340,374,428 MY,15,105453,106340,334,240 F,0,128360,129560,1,0
Sprite,Foreground,Centre,"sb\dot.png",0,0 L,106340,5 MY,16,0,1250,240,132 MX,17,0,2500,428,212 MY,17,1250,3750,132,348 MX,17,2500,5000,212,428 MY,15,3750,5000,348,240 F,0,105453,,1 S,0,105453,,0.02034808 MX,16,105453,106340,374,428 MY,15,105453,106340,334,240 F,0,128360,129560,1,0
Sprite,Foreground,Centre,"sb\dot.png",0,0 L,106106,5 MY,16,0,1250,240,139 MX,17,0,2500,421,219 MY,17,1250,3750,139,341 MX,17,2500,5000,219,421 MY,15,3750,5000,341,240 F,0,105547,,1 S,0,105547,,0.01853562 MX,16,105547,106106,380,421 MY,15,105547,106106,289,240 F,0,128360,129560,1,0
Sprite,Foreground,Centre,"sb\dot.png",0,0 L,106106,5 MY,16,0,1250,240,139 MX,17,0,2500,421,219 MY,17,1250,3750,139,341 MX,17,2500,5000,219,421 MY,15,3750,5000,341,240 F,0,105547,,1 S,0,105547,,0.01792727 MX,16,105547,106106,380,421 MY,15,105547,106106,289,240 F,0,128360,129560,1,0
Sprite,Foreground,Centre,"sb\dot.png",0,0 L,105792,5 MY,16,0,1250,240,143 MX,17,0,2500,417,223 MY,17,1250,3750,143,337 MX,17,2500,5000,223,417 MY,15,3750,5000,337,240 F,0,105641,,1 S,0,105641,,0.02115721 MX,16,105641,105792,408,417 MY,15,105641,105792,254,240 F,0,128360,129560,1,0
Sprite,Foreground,Centre,"sb\dot.png",0,0 L,105792,5 MY,16,0,1250,240,143 MX,17,0,2500,417,223 MY,17,1250,3750,143,337 MX,17,2500,5000,223,417 MY,15,3750,5000,337,240 F,0,105641,,1 S,0,105641,,0.02985275 MX,16,105641,105792,408,417 MY,15,105641,105792,254,240 F,0,128360,129560,1,0
Sprite,Foreground,Centre,"sb\dot.png",451,240 F,0,105735,,1 S,0,105735,,0.0111443 F,0,128360,129560,1,0
Sprite,Foreground,Centre,"sb\dot.png",451,240 F,0,105735,,1 S,0,105735,,0.004740249 F,0,128360,129560,1,0
Sprite,Foreground,Centre,"sb\dot.png",0,0 L,105878,5 MY,16,0,1250,240,66 MX,17,0,2500,494,146 MY,17,1250,3750,66,414 MX,17,2500,5000,146,494 MY,15,3750,5000,414,240 F,0,105828,,1 S,0,105828,,0.01557398 MX,16,105828,105878,494 MY,15,105828,105878,250,240 F,0,128360,129560,1,0
Sprite,Foreground,Centre,"sb\dot.png",0,0 L,105878,5 MY,16,0,1250,240,66 MX,17,0,2500,494,146 MY,17,1250,3750,66,414 MX,17,2500,5000,146,494 MY,15,3750,5000,414,240 F,0,105828,,1 S,0,105828,,0.016043 MX,16,105828,105878,494 MY,15,105828,105878,250,240 F,0,128360,129560,1,0
Sprite,Foreground,Centre,"sb\dot.png",0,0 L,106095,5 MY,16,0,1250,240,30 MX,17,0,2500,530,110 MY,17,1250,3750,30,450 MX,17,2500,5000,110,530 MY,15,3750,5000,450,240 F,0,105922,,1 S,0,105922,,0.008840262 MX,16,105922,106095,526,530 MY,15,105922,106095,281,240 F,0,128360,129560,1,0
Sprite,Foreground,Centre,"sb\dot.png",0,0 L,106095,5 MY,16,0,1250,240,30 MX,17,0,2500,530,110 MY,17,1250,3750,30,450 MX,17,2500,5000,110,530 MY,15,3750,5000,450,240 F,0,105922,,1 S,0,105922,,0.004935619 MX,16,105922,106095,526,530 MY,15,105922,106095,281,240 F,0,128360,129560,1,0
Sprite,Foreground,Centre,"sb\dot.png",0,0 L,106344,5 MY,16,0,1250,240,7 MX,17,0,2500,553,87 MY,17,1250,3750,7,473 MX,17,2500,5000,87,553 MY,15,3750,5000,473,240 F,0,106016,,1 S,0,106016,,0.009216499 MX,16,106016,106344,537,553 MY,15,106016,106344,325,240 F,0,128360,129560,1,0
Sprite,Foreground,Centre,"sb\dot.png",0,0 L,106344,5 MY,16,0,1250,240,7 MX,17,0,2500,553,87 MY,17,1250,3750,7,473 MX,17,2500,5000,87,553 MY,15,3750,5000,473,240 F,0,106016,,1 S,0,106016,,0.007072481 MX,16,106016,106344,537,553 MY,15,106016,106344,325,240 F,0,128360,129560,1,0
Sprite,Foreground,Centre,"sb\dot.png",0,0 L,106598,5 MY,16,0,1250,240,1 MX,17,0,2500,559,81 MY,17,1250,3750,1,479 MX,17,2500,5000,81,559 MY,15,3750,5000,479,240 F,0,106110,,1 S,0,106110,,0.0150663 MX,16,106110,106598,523,559 MY,15,106110,106598,367,240 F,0,128360,129560,1,0
Sprite,Foreground,Centre,"sb\dot.png",0,0 L,106598,5 MY,16,0,1250,240,1 MX,17,0,2500,559,81 MY,17,1250,3750,1,479 MX,17,2500,5000,81,559 MY,15,3750,5000,479,240 F,0,106110,,1 S,0,106110,,0.01517914 MX,16,106110,106598,523,559 MY,15,106110,106598,367,240 F,0,128360,129560,1,0
Sprite,Foreground,Centre,"sb\dot.png",0,0 L,106801,5 MY,16,0,1250,240,8 MX,17,0,2500,552,88 MY,17,1250,3750,8,472 MX,17,2500,5000,88,552 MY,15,3750,5000,472,240 F,0,106203,,1 S,0,106203,,0.003535932 MX,16,106203,106801,499,552 MY,15,106203,106801,388,240 F,0,128360,129560,1,0
Sprite,Foreground,Centre,"sb\dot.png",0,0 L,106801,5 MY,16,0,1250,240,8 MX,17,0,2500,552,88 MY,17,1250,3750,8,472 MX,17,2500,5000,88,552 MY,15,3750,5000,472,240 F,0,106203,,1 S,0,106203,,0.01349862 MX,16,106203,106801,499,552 MY,15,106203,106801,388,240 F,0,128360,129560,1,0
Sprite,Foreground,Centre,"sb\dot.png",0,0 L,106998,5 MY,16,0,1250,240,26 MX,17,0,2500,534,106 MY,17,1250,3750,26,454 MX,17,2500,5000,106,534 MY,15,3750,5000,454,240 F,0,106297,,1 S,0,106297,,0.02503321 MX,16,106297,106998,467,534 MY,15,106297,106998,396,240 F,0,128360,129560,1,0
Sprite,Foreground,Centre,"sb\dot.png",0,0 L,106998,5 MY,16,0,1250,240,26 MX,17,0,2500,534,106 MY,17,1250,3750,26,454 MX,17,2500,5000,106,534 MY,15,3750,5000,454,240 F,0,106297,,1 S,0,106297,,0.008470313 MX,16,106297,106998,467,534 MY,15,106297,106998,396,240 F,0,128360,129560,1,0
Sprite,Foreground,Centre,"sb\dot.png",0,0 L,107173,5 MY,16,0,1250,240,51 MX,17,0,2500,509,131 MY,17,1250,3750,51,429 MX,17,2500,5000,131,509 MY,15,3750,5000,429,240 F,0,106391,,1 S,0,106391,,0.02766799 MX,16,106391,107173,435,509 MY,15,106391,107173,390,240 F,0,128360,129560,1,0
Sprite,Foreground,Centre,"sb\dot.png",0,0 L,107173,5 MY,16,0,1250,240,51 MX,17,0,2500,509,131 MY,17,1250,3750,51,429 MX,17,2500,5000,131,509 MY,15,3750,5000,429,240 F,0,106391,,1 S,0,106391,,0.003798579 MX,16,106391,107173,435,509 MY,15,106391,107173,390,240 F,0,128360,129560,1,0
Sprite,Foreground,Centre,"sb\dot.png",0,0 L,107328,5 MY,16,0,1250,240,82 MX,17,0,2500,478,162 MY,17,1250,3750,82,398 MX,17,2500,5000,162,478 MY,15,3750,5000,398,240 F,0,106485,,1 S,0,106485,,0.01675546 MX,16,106485,107328,407,478 MY,15,106485,107328,373,240 F,0,128360,129560,1,0
Sprite,Foreground,Centre,"sb\dot.png",0,0 L,107328,5 MY,16,0,1250,240,82 MX,17,0,2500,478,162 MY,17,1250,3750,82,398 MX,17,2500,5000,162,478 MY,15,3750,5000,398,240 F,0,106485,,1 S,0,106485,,0.02899802 MX,16,106485,107328,407,478 MY,15,106485,107328,373,240 F,0,128360,129560,1,0
Sprite,Foreground,Centre,"sb\dot.png",0,0 L,107409,5 MY,16,0,1250,240,114 MX,17,0,2500,446,194 MY,17,1250,3750,114,366 MX,17,2500,5000,194,446 MY,15,3750,5000,366,240 F,0,106578,,1 S,0,106578,,0.02982644 MX,16,106578,107409,391,446 MY,15,106578,107409,345,240 F,0,128360,129560,1,0
Sprite,Foreground,Centre,"sb\dot.png",0,0 L,107409,5 MY,16,0,1250,240,114 MX,17,0,2500,446,194 MY,17,1250,3750,114,366 MX,17,2500,5000,194,446 MY,15,3750,5000,366,240 F,0,106578,,1 S,0,106578,,0.003455487 MX,16,106578,107409,391,446 MY,15,106578,107409,345,240 F,0,128360,129560,1,0
Sprite,Foreground,Centre,"sb\dot.png",0,0 L,107383,5 MY,16,0,1250,240,141 MX,17,0,2500,419,221 MY,17,1250,3750,141,339 MX,17,2500,5000,221,419 MY,15,3750,5000,339,240 F,0,106672,,1 S,0,106672,,0.020645 MX,16,106672,107383,387,419 MY,15,106672,107383,313,240 F,0,128360,129560,1,0
Sprite,Foreground,Centre,"sb\dot.png",0,0 L,107383,5 MY,16,0,1250,240,141 MX,17,0,2500,419,221 MY,17,1250,3750,141,339 MX,17,2500,5000,221,419 MY,15,3750,5000,339,240 F,0,106672,,1 S,0,106672,,0.0105149 MX,16,106672,107383,387,419 MY,15,106672,107383,313,240 F,0,128360,129560,1,0
Sprite,Foreground,Centre,"sb\dot.png",0,0 L,107198,5 MY,16,0,1250,240,143 MX,17,0,2500,417,223 MY,17,1250,3750,143,337 MX,17,2500,5000,223,417 MY,15,3750,5000,337,240 F,0,106766,,1 S,0,106766,,0.02911353 MX,16,106766,107198,397,417 MY,15,106766,107198,283,240 F,0,128360,129560,1,0
Sprite,Foreground,Centre,"sb\dot.png",0,0 L,107198,5 MY,16,0,1250,240,143 MX,17,0,2500,417,223 MY,17,1250,3750,143,337 MX,17,2500,5000,223,417 MY,15,3750,5000,337,240 F,0,106766,,1 S,0,106766,,0.0188704 MX,16,106766,107198,397,417 MY,15,106766,107198,283,240 F,0,128360,129560,1,0
Sprite,Foreground,Centre,"sb\dot.png",0,0 L,107054,5 MY,16,0,1250,240,144 MX,17,0,2500,416,224 MY,17,1250,3750,144,336 MX,17,2500,5000,224,416 MY,15,3750,5000,336,240 F,0,106860,,1 S,0,106860,,0.02384945 MX,16,106860,107054,414,416 MY,15,106860,107054,261,240 F,0,128360,129560,1,0
Sprite,Foreground,Centre,"sb\dot.png",0,0 L,107054,5 MY,16,0,1250,240,144 MX,17,0,2500,416,224 MY,17,1250,3750,144,336 MX,17,2500,5000,224,416 MY,15,3750,5000,336,240 F,0,106860,,1 S,0,106860,,0.01175251 MX,16,106860,107054,414,416 MY,15,106860,107054,261,240 F,0,128360,129560,1,0
Sprite,Foreground,Centre,"sb\dot.png",0,0 L,107095,5 MY,16,0,1250,240,128 MX,17,0,2500,432,208 MY,17,1250,3750,128,352 MX,17,2500,5000,208,432 MY,15,3750,5000,352,240 F,0,106953,,1 S,0,106953,,0.01435148 MX,16,106953,107095,431,432 MY,15,106953,107095,258,240 F,0,128360,129560,1,0
Sprite,Foreground,Centre,"sb\dot.png",0,0 L,107095,5 MY,16,0,1250,240,128 MX,17,0,2500,432,208 MY,17,1250,3750,128,352 MX,17,2500,5000,208,432 MY,15,3750,5000,352,240 F,0,106953,,1 S,0,106953,,0.02932319 MX,16,106953,107095,431,432 MY,15,106953,107095,258,240 F,0,128360,129560,1,0
Sprite,Foreground,Centre,"sb\dot.png",0,0 L,107157,5 MY,16,0,1250,240,112 MX,17,0,2500,448,192 MY,17,1250,3750,112,368 MX,17,2500,5000,192,448 MY,15,3750,5000,368,240 F,0,107047,,1 S,0,107047,,0.02692199 MX,16,107047,107157,448 MY,15,107047,107157,256,240 F,0,128360,129560,1,0
Sprite,Foreground,Centre,"sb\dot.png",0,0 L,107157,5 MY,16,0,1250,240,112 MX,17,0,2500,448,192 MY,17,1250,3750,112,368 MX,17,2500,5000,192,448 MY,15,3750,5000,368,240 F,0,107047,,1 S,0,107047,,0.02926796 MX,16,107047,107157,448 MY,15,107047,107157,256,240 F,0,128360,129560,1,0
Sprite,Foreground,Centre,"sb\dot.png",0,0 L,107220,5 MY,16,0,1250,240,95 MX,17,0,2500,465,175 MY,17,1250,3750,95,385 MX,17,2500,5000,175,465 MY,15,3750,5000,385,240 F,0,107141,,1 S,0,107141,,0.009889712 MX,16,107141,107220,465 MY,15,107141,107220,253,240 F,0,128360,129560,1,0
Sprite,Foreground,Centre,"sb\dot.png",0,0 L,107220,5 MY,16,0,1250,240,95 MX,17,0,2500,465,175 MY,17,1250,3750,95,385 MX,17,2500,5000,175,465 MY,15,3750,5000,385,240 F,0,107141,,1 S,0,107141,,0.006571147 MX,16,107141,107220,465 MY,15,107141,107220,253,240 F,0,128360,129560,1,0
Sprite,Foreground,Centre,"sb\dot.png",0,0 L,108472,5 MX,16,0,1250,320,167 MY,17,0,2500,87,393 MX,17,1250,3750,167,473 MY,17,2500,5000,393,87 MX,15,3750,5000,473,320 F,0,107235,,1 S,0,107235,,0.02722584 MX,15,107235,108472,473,320 MY,16,107235,108472,237,87 F,0,128360,129560,1,0
Sprite,Foreground,Centre,"sb\dot.png",0,0 L,108472,5 MX,16,0,1250,320,167 MY,17,0,2500,87,393 MX,17,1250,3750,167,473 MY,17,2500,5000,393,87 MX,15,3750,5000,473,320 F,0,107235,,1 S,0,107235,,0.007811972 MX,15,107235,108472,473,320 MY,16,107235,108472,237,87 F,0,128360,129560,1,0
Sprite,Foreground,Centre,"sb\dot.png",0,0 L,108574,5 MX,16,0,1250,320,190 MY,17,0,2500,110,370 MX,17,1250,3750,190,450 MY,17,2500,5000,370,110 MX,15,3750,5000,450,320 F,0,107329,,1 S,0,107329,,0.02683808 MX,15,107329,108574,450,320 MY,16,107329,108574,239,110 F,0,128360,129560,1,0
Sprite,Foreground,Centre,"sb\dot.png",0,0 L,108574,5 MX,16,0,1250,320,190 MY,17,0,2500,110,370 MX,17,1250,3750,190,450 MY,17,2500,5000,370,110 MX,15,3750,5000,450,320 F,0,107329,,1 S,0,107329,,0.01770574 MX,15,107329,108574,450,320 MY,16,107329,108574,239,110 F,0,128360,129560,1,0
Sprite,Foreground,Centre,"sb\dot.png",0,0 L,107447,5 MY,16,0,1250,240,132 MX,17,0,2500,428,212 MY,17,1250,3750,132,348 MX,17,2500,5000,212,428 MY,15,3750,5000,348,240 F,0,107423,,1 S,0,107423,,0.02419622 MX,16,107423,107447,428 MY,15,107423,107447,243,240 F,0,128360,129560,1,0
Sprite,Foreground,Centre,"sb\dot.png",0,0 L,107447,5 MY,16,0,1250,240,132 MX,17,0,2500,428,212 MY,17,1250,3750,132,348 MX,17,2500,5000,212,428 MY,15,3750,5000,348,240 F,0,107423,,1 S,0,107423,,0.0168791 MX,16,107423,107447,428 MY,15,107423,107447,243,240 F,0,128360,129560,1,0
Sprite,Foreground,Centre,"sb\dot.png",0,0 L,107637,5 MY,16,0,1250,240,142 MX,17,0,2500,418,222 MY,17,1250,3750,142,338 MX,17,2500,5000,222,418 MY,15,3750,5000,338,240 F,0,107516,,1 S,0,107516,,0.01251435 MX,16,107516,107637,406,418 MY,15,107516,107637,246,240 F,0,128360,129560,1,0
Sprite,Foreground,Centre,"sb\dot.png",0,0 L,107637,5 MY,16,0,1250,240,142 MX,17,0,2500,418,222 MY,17,1250,3750,142,338 MX,17,2500,5000,222,418 MY,15,3750,5000,338,240 F,0,107516,,1 S,0,107516,,0.02977717 MX,16,107516,107637,406,418 MY,15,107516,107637,246,240 F,0,128360,129560,1,0
Sprite,Foreground,Centre,"sb\dot.png",0,0 L,108621,5 MX,16,0,1250,320,219 MY,17,0,2500,139,341 MX,17,1250,3750,219,421 MY,17,2500,5000,341,139 MX,15,3750,5000,421,320 F,0,107610,,1 S,0,107610,,0.003902963 MX,15,107610,108621,395,320 MY,16,107610,108621,227,139 F,0,128360,129560,1,0
Sprite,Foreground,Centre,"sb\dot.png",0,0 L,108621,5 MX,16,0,1250,320,219 MY,17,0,2500,139,341 MX,17,1250,3750,219,421 MY,17,2500,5000,341,139 MX,15,3750,5000,421,320 F,0,107610,,1 S,0,107610,,0.02167664 MX,15,107610,108621,395,320 MY,16,107610,108621,227,139 F,0,128360,129560,1,0
Sprite,Foreground,Centre,"sb\dot.png",0,0 L,108848,5 MX,16,0,1250,320,216 MY,17,0,2500,136,344 MX,17,1250,3750,216,424 MY,17,2500,5000,344,136 MX,15,3750,5000,424,320 F,0,107703,,1 S,0,107703,,0.006272024 MX,15,107703,108848,423,320 MY,16,107703,108848,223,136 F,0,128360,129560,1,0
Sprite,Foreground,Centre,"sb\dot.png",0,0 L,108848,5 MX,16,0,1250,320,216 MY,17,0,2500,136,344 MX,17,1250,3750,216,424 MY,17,2500,5000,344,136 MX,15,3750,5000,424,320 F,0,107703,,1 S,0,107703,,0.008262591 MX,15,107703,108848,423,320 MY,16,107703,108848,223,136 F,0,128360,129560,1,0
Sprite,Foreground,Centre,"sb\dot.png",0,0 L,108943,5 MX,16,0,1250,320,187 MY,17,0,2500,107,373 MX,17,1250,3750,187,453 MY,17,2500,5000,373,107 MX,15,3750,5000,453,320 F,0,107797,,1 S,0,107797,,0.01640595 MX,15,107797,108943,452,320 MY,16,107797,108943,218,107 F,0,128360,129560,1,0
Sprite,Foreground,Centre,"sb\dot.png",0,0 L,108943,5 MX,16,0,1250,320,187 MY,17,0,2500,107,373 MX,17,1250,3750,187,453 MY,17,2500,5000,373,107 MX,15,3750,5000,453,320 F,0,107797,,1 S,0,107797,,0.01869481 MX,15,107797,108943,452,320 MY,16,107797,108943,218,107 F,0,128360,129560,1,0
Sprite,Foreground,Centre,"sb\dot.png",0,0 L,109044,5 MX,16,0,1250,320,157 MY,17,0,2500,77,403 MX,17,1250,3750,157,483 MY,17,2500,5000,403,77 MX,15,3750,5000,483,320 F,0,107891,,1 S,0,107891,,0.01006494 MX,15,107891,109044,482,320 MY,16,107891,109044,215,77 F,0,128360,129560,1,0
Sprite,Foreground,Centre,"sb\dot.png",0,0 L,109044,5 MX,16,0,1250,320,157 MY,17,0,2500,77,403 MX,17,1250,3750,157,483 MY,17,2500,5000,403,77 MX,15,3750,5000,483,320 F,0,107891,,1 S,0,107891,,0.01137981 MX,15,107891,109044,482,320 MY,16,107891,109044,215,77 F,0,128360,129560,1,0
Sprite,Foreground,Centre,"sb\dot.png",0,0 L,109033,5 MX,16,0,1250,320,139 MY,17,0,2500,59,421 MX,17,1250,3750,139,501 MY,17,2500,5000,421,59 MX,15,3750,5000,501,320 F,0,107985,,1 S,0,107985,,0.009537674 MX,15,107985,109033,493,320 MY,16,107985,109033,186,59 F,0,128360,129560,1,0
Sprite,Foreground,Centre,"sb\dot.png",0,0 L,109033,5 MX,16,0,1250,320,139 MY,17,0,2500,59,421 MX,17,1250,3750,139,501 MY,17,2500,5000,421,59 MX,15,3750,5000,501,320 F,0,107985,,1 S,0,107985,,0.02417004 MX,15,107985,109033,493,320 MY,16,107985,109033,186,59 F,0,128360,129560,1,0
Sprite,Foreground,Centre,"sb\dot.png",0,0 L,109087,5 MX,16,0,1250,320,177 MY,17,0,2500,97,383 MX,17,1250,3750,177,463 MY,17,2500,5000,383,97 MX,15,3750,5000,463,320 F,0,108079,,1 S,0,108079,,0.006592619 MX,15,108079,109087,454,320 MY,16,108079,109087,190,97 F,0,128360,129560,1,0
Sprite,Foreground,Centre,"sb\dot.png",0,0 L,109087,5 MX,16,0,1250,320,177 MY,17,0,2500,97,383 MX,17,1250,3750,177,463 MY,17,2500,5000,383,97 MX,15,3750,5000,463,320 F,0,108079,,1 S,0,108079,,0.0195376 MX,15,108079,109087,454,320 MY,16,108079,109087,190,97 F,0,128360,129560,1,0
Sprite,Foreground,Centre,"sb\dot.png",0,0 L,109137,5 MX,16,0,1250,320,214 MY,17,0,2500,134,346 MX,17,1250,3750,214,426 MY,17,2500,5000,346,134 MX,15,3750,5000,426,320 F,0,108173,,1 S,0,108173,,0.01810083 MX,15,108173,109137,417,320 MY,16,108173,109137,197,134 F,0,128360,129560,1,0
Sprite,Foreground,Centre,"sb\dot.png",0,0 L,109137,5 MX,16,0,1250,320,214 MY,17,0,2500,134,346 MX,17,1250,3750,214,426 MY,17,2500,5000,346,134 MX,15,3750,5000,426,320 F,0,108173,,1 S,0,108173,,0.02070172 MX,15,108173,109137,417,320 MY,16,108173,109137,197,134 F,0,128360,129560,1,0
Sprite,Foreground,Centre,"sb\dot.png",0,0 L,109025,5 MX,16,0,1250,320,217 MY,17,0,2500,137,343 MX,17,1250,3750,217,423 MY,17,2500,5000,343,137 MX,15,3750,5000,423,320 F,0,108266,,1 S,0,108266,,0.01220775 MX,15,108266,109025,380,320 MY,16,108266,109025,202,137 F,0,128360,129560,1,0
Sprite,Foreground,Centre,"sb\dot.png",0,0 L,109025,5 MX,16,0,1250,320,217 MY,17,0,2500,137,343 MX,17,1250,3750,217,423 MY,17,2500,5000,343,137 MX,15,3750,5000,423,320 F,0,108266,,1 S,0,108266,,0.003629404 MX,15,108266,109025,380,320 MY,16,108266,109025,202,137 F,0,128360,129560,1,0
Sprite,Foreground,Centre,"sb\dot.png",0,0 L,108738,5 MX,16,0,1250,320,215 MY,17,0,2500,135,345 MX,17,1250,3750,215,425 MY,17,2500,5000,345,135 MX,15,3750,5000,425,320 F,0,108360,,1 S,0,108360,,0.00562672 MX,15,108360,108738,336,320 MY,16,108360,108738,177,135 F,0,128360,129560,1,0
Sprite,Foreground,Centre,"sb\dot.png",0,0 L,108738,5 MX,16,0,1250,320,215 MY,17,0,2500,135,345 MX,17,1250,3750,215,425 MY,17,2500,5000,345,135 MX,15,3750,5000,425,320 F,0,108360,,1 S,0,108360,,0.02670358 MX,15,108360,108738,336,320 MY,16,108360,108738,177,135 F,0,128360,129560,1,0
Sprite,Foreground,Centre,"sb\dot.png",0,0 L,109857,4 MX,16,0,1250,320,449 MY,17,0,2500,369,111 MX,17,1250,3750,449,191 MY,17,2500,5000,111,369 MX,15,3750,5000,191,320 F,0,109110,,1 S,0,109110,,0.02219355 MX,15,109110,109857,221,320 MY,16,109110,109857,323,369 F,0,128360,129560,1,0
Sprite,Foreground,Centre,"sb\dot.png",0,0 L,109857,4 MX,16,0,1250,320,449 MY,17,0,2500,369,111 MX,17,1250,3750,449,191 MY,17,2500,5000,111,369 MX,15,3750,5000,191,320 F,0,109110,,1 S,0,109110,,0.02708775 MX,15,109110,109857,221,320 MY,16,109110,109857,323,369 F,0,128360,129560,1,0
Sprite,Foreground,Centre,"sb\dot.png",0,0 L,109580,4 MY,16,0,1250,240,357 MX,17,0,2500,203,437 MY,17,1250,3750,357,123 MX,17,2500,5000,437,203 MY,15,3750,5000,123,240 F,0,109391,,1 S,0,109391,,0.02058414 MX,16,109391,109580,205,203 MY,15,109391,109580,215,240 F,0,128360,129560,1,0
Sprite,Foreground,Centre,"sb\dot.png",0,0 L,109580,4 MY,16,0,1250,240,357 MX,17,0,2500,203,437 MY,17,1250,3750,357,123 MX,17,2500,5000,437,203 MY,15,3750,5000,123,240 F,0,109391,,1 S,0,109391,,0.009893307 MX,16,109391,109580,205,203 MY,15,109391,109580,215,240 F,0,128360,129560,1,0
Sprite,Foreground,Centre,"sb\dot.png",0,0 L,110343,4 MY,16,0,1250,240,426 MX,17,0,2500,134,506 MY,17,1250,3750,426,54 MX,17,2500,5000,506,134 MY,15,3750,5000,54,240 F,0,109672,,1 S,0,109672,,0.01015049 MX,16,109672,110343,187,134 MY,15,109672,110343,109,240 F,0,128360,129560,1,0
Sprite,Foreground,Centre,"sb\dot.png",0,0 L,110343,4 MY,16,0,1250,240,426 MX,17,0,2500,134,506 MY,17,1250,3750,426,54 MX,17,2500,5000,506,134 MY,15,3750,5000,54,240 F,0,109672,,1 S,0,109672,,0.01579834 MX,16,109672,110343,187,134 MY,15,109672,110343,109,240 F,0,128360,129560,1,0
Sprite,Foreground,Centre,"sb\dot.png",0,0 L,111070,4 MY,16,0,1250,240,99 MX,17,0,2500,461,179 MY,17,1250,3750,99,381 MX,17,2500,5000,179,461 MY,15,3750,5000,381,240 F,0,109860,,1 S,0,109860,,0.00828943 MX,16,109860,111070,329,461 MY,15,109860,111070,381,240 F,0,128360,129560,1,0
Sprite,Foreground,Centre,"sb\dot.png",0,0 L,111070,4 MY,16,0,1250,240,99 MX,17,0,2500,461,179 MY,17,1250,3750,99,381 MX,17,2500,5000,179,461 MY,15,3750,5000,381,240 F,0,109860,,1 S,0,109860,,0.02696479 MX,16,109860,111070,329,461 MY,15,109860,111070,381,240 F,0,128360,129560,1,0
Sprite,Foreground,Centre,"sb\dot.png",0,0 L,111140,4 MY,16,0,1250,240,123 MX,17,0,2500,437,203 MY,17,1250,3750,123,357 MX,17,2500,5000,203,437 MY,15,3750,5000,357,240 F,0,109953,,1 S,0,109953,,0.01627278 MX,16,109953,111140,332,437 MY,15,109953,111140,357,240 F,0,128360,129560,1,0
Sprite,Foreground,Centre,"sb\dot.png",0,0 L,111140,4 MY,16,0,1250,240,123 MX,17,0,2500,437,203 MY,17,1250,3750,123,357 MX,17,2500,5000,203,437 MY,15,3750,5000,357,240 F,0,109953,,1 S,0,109953,,0.02022124 MX,16,109953,111140,332,437 MY,15,109953,111140,357,240 F,0,128360,129560,1,0
Sprite,Foreground,Centre,"sb\dot.png",0,0 L,111182,4 MY,16,0,1250,240,145 MX,17,0,2500,415,225 MY,17,1250,3750,145,335 MX,17,2500,5000,225,415 MY,15,3750,5000,335,240 F,0,110047,,1 S,0,110047,,0.01163223 MX,16,110047,111182,336,415 MY,15,110047,111182,333,240 F,0,128360,129560,1,0
Sprite,Foreground,Centre,"sb\dot.png",0,0 L,111182,4 MY,16,0,1250,240,145 MX,17,0,2500,415,225 MY,17,1250,3750,145,335 MX,17,2500,5000,225,415 MY,15,3750,5000,335,240 F,0,110047,,1 S,0,110047,,0.01296225 MX,16,110047,111182,336,415 MY,15,110047,111182,333,240 F,0,128360,129560,1,0
Sprite,Foreground,Centre,"sb\dot.png",0,0 L,111067,4 MY,16,0,1250,240,137 MX,17,0,2500,423,217 MY,17,1250,3750,137,343 MX,17,2500,5000,217,423 MY,15,3750,5000,343,240 F,0,110141,,1 S,0,110141,,0.009602358 MX,16,110141,111067,340,423 MY,15,110141,111067,309,240 F,0,128360,129560,1,0
Sprite,Foreground,Centre,"sb\dot.png",0,0 L,111067,4 MY,16,0,1250,240,137 MX,17,0,2500,423,217 MY,17,1250,3750,137,343 MX,17,2500,5000,217,423 MY,15,3750,5000,343,240 F,0,110141,,1 S,0,110141,,0.02987636 MX,16,110141,111067,340,423 MY,15,110141,111067,309,240 F,0,128360,129560,1,0
Sprite,Foreground,Centre,"sb\dot.png",0,0 L,111298,4 MY,16,0,1250,240,38 MX,17,0,2500,522,118 MY,17,1250,3750,38,442 MX,17,2500,5000,118,522 MY,15,3750,5000,442,240 F,0,110610,,1 S,0,110610,,0.01948367 MX,16,110610,111298,461,522 MY,15,110610,111298,385,240 F,0,128360,129560,1,0
Sprite,Foreground,Centre,"sb\dot.png",0,0 L,111298,4 MY,16,0,1250,240,38 MX,17,0,2500,522,118 MY,17,1250,3750,38,442 MX,17,2500,5000,118,522 MY,15,3750,5000,442,240 F,0,110610,,1 S,0,110610,,0.003049267 MX,16,110610,111298,461,522 MY,15,110610,111298,385,240 F,0,128360,129560,1,0
Sprite,Foreground,Centre,"sb\dot.png",0,0 L,111336,4 MY,16,0,1250,240,40 MX,17,0,2500,520,120 MY,17,1250,3750,40,440 MX,17,2500,5000,120,520 MY,15,3750,5000,440,240 F,0,110703,,1 S,0,110703,,0.02955252 MX,16,110703,111336,469,520 MY,15,110703,111336,374,240 F,0,128360,129560,1,0
Sprite,Foreground,Centre,"sb\dot.png",0,0 L,111336,4 MY,16,0,1250,240,40 MX,17,0,2500,520,120 MY,17,1250,3750,40,440 MX,17,2500,5000,120,520 MY,15,3750,5000,440,240 F,0,110703,,1 S,0,110703,,0.02896836 MX,16,110703,111336,469,520 MY,15,110703,111336,374,240 F,0,128360,129560,1,0
Sprite,Foreground,Centre,"sb\dot.png",0,0 L,111374,4 MY,16,0,1250,240,41 MX,17,0,2500,519,121 MY,17,1250,3750,41,439 MX,17,2500,5000,121,519 MY,15,3750,5000,439,240 F,0,110797,,1 S,0,110797,,0.007242872 MX,16,110797,111374,477,519 MY,15,110797,111374,363,240 F,0,128360,129560,1,0
Sprite,Foreground,Centre,"sb\dot.png",0,0 L,111374,4 MY,16,0,1250,240,41 MX,17,0,2500,519,121 MY,17,1250,3750,41,439 MX,17,2500,5000,121,519 MY,15,3750,5000,439,240 F,0,110797,,1 S,0,110797,,0.02385094 MX,16,110797,111374,477,519 MY,15,110797,111374,363,240 F,0,128360,129560,1,0
Sprite,Foreground,Centre,"sb\dot.png",0,0 L,111410,4 MY,16,0,1250,240,41 MX,17,0,2500,519,121 MY,17,1250,3750,41,439 MX,17,2500,5000,121,519 MY,15,3750,5000,439,240 F,0,110891,,1 S,0,110891,,0.005464444 MX,16,110891,111410,485,519 MY,15,110891,111410,352,240 F,0,128360,129560,1,0
Sprite,Foreground,Centre,"sb\dot.png",0,0 L,111410,4 MY,16,0,1250,240,41 MX,17,0,2500,519,121 MY,17,1250,3750,41,439 MX,17,2500,5000,121,519 MY,15,3750,5000,439,240 F,0,110891,,1 S,0,110891,,0.008154633 MX,16,110891,111410,485,519 MY,15,110891,111410,352,240 F,0,128360,129560,1,0
Sprite,Foreground,Centre,"sb\dot.png",0,0 L,111601,4 MY,16,0,1250,240,-62 MX,17,0,2500,622,18 MY,17,1250,3750,-62,542 MX,17,2500,5000,18,622 MY,15,3750,5000,542,240 F,0,111078,,1 S,0,111078,,0.004687569 MX,16,111078,111601,569,622 MY,15,111078,111601,411,240 F,0,128360,129560,1,0
Sprite,Foreground,Centre,"sb\dot.png",0,0 L,111601,4 MY,16,0,1250,240,-62 MX,17,0,2500,622,18 MY,17,1250,3750,-62,542 MX,17,2500,5000,18,622 MY,15,3750,5000,542,240 F,0,111078,,1 S,0,111078,,0.005971677 MX,16,111078,111601,569,622 MY,15,111078,111601,411,240 F,0,128360,129560,1,0
Sprite,Foreground,Centre,"sb\dot.png",0,0 L,111733,4 MY,16,0,1250,240,-60 MX,17,0,2500,620,20 MY,17,1250,3750,-60,540 MX,17,2500,5000,20,620 MY,15,3750,5000,540,240 F,0,111172,,1 S,0,111172,,0.02278552 MX,16,111172,111733,560,620 MY,15,111172,111733,421,240 F,0,128360,129560,1,0
Sprite,Foreground,Centre,"sb\dot.png",0,0 L,111733,4 MY,16,0,1250,240,-60 MX,17,0,2500,620,20 MY,17,1250,3750,-60,540 MX,17,2500,5000,20,620 MY,15,3750,5000,540,240 F,0,111172,,1 S,0,111172,,0.005751944 MX,16,111172,111733,560,620 MY,15,111172,111733,421,240 F,0,128360,129560,1,0
Sprite,Foreground,Centre,"sb\dot.png",0,0 L,111893,4 MX,16,0,1250,320,429 MY,17,0,2500,349,131 MX,17,1250,3750,429,211 MY,17,2500,5000,131,349 MX,15,3750,5000,211,320 F,0,111360,,1 S,0,111360,,0.02567534 MX,15,111360,111893,298,320 MY,16,111360,111893,287,349 F,0,128360,129560,1,0
Sprite,Foreground,Centre,"sb\dot.png",0,0 L,111893,4 MX,16,0,1250,320,429 MY,17,0,2500,349,131 MX,17,1250,3750,429,211 MY,17,2500,5000,131,349 MX,15,3750,5000,211,320 F,0,111360,,1 S,0,111360,,0.02035211 MX,15,111360,111893,298,320 MY,16,111360,111893,287,349 F,0,128360,129560,1,0
Sprite,Foreground,Centre,"sb\dot.png",0,0 L,112844,4 MY,16,0,1250,240,56 MX,17,0,2500,504,136 MY,17,1250,3750,56,424 MX,17,2500,5000,136,504 MY,15,3750,5000,424,240 F,0,111641,,1 S,0,111641,,0.01847032 MX,16,111641,112844,334,504 MY,15,111641,112844,424,240 F,0,128360,129560,1,0
Sprite,Foreground,Centre,"sb\dot.png",0,0 L,112844,4 MY,16,0,1250,240,56 MX,17,0,2500,504,136 MY,17,1250,3750,56,424 MX,17,2500,5000,136,504 MY,15,3750,5000,424,240 F,0,111641,,1 S,0,111641,,0.009524118 MX,16,111641,112844,334,504 MY,15,111641,112844,424,240 F,0,128360,129560,1,0
Sprite,Foreground,Centre,"sb\dot.png",0,0 L,112981,4 MY,16,0,1250,240,46 MX,17,0,2500,514,126 MY,17,1250,3750,46,434 MX,17,2500,5000,126,514 MY,15,3750,5000,434,240 F,0,111735,,1 S,0,111735,,0.02560422 MX,16,111735,112981,321,514 MY,15,111735,112981,434,240 F,0,128360,129560,1,0
Sprite,Foreground,Centre,"sb\dot.png",0,0 L,112981,4 MY,16,0,1250,240,46 MX,17,0,2500,514,126 MY,17,1250,3750,46,434 MX,17,2500,5000,126,514 MY,15,3750,5000,434,240 F,0,111735,,1 S,0,111735,,0.02620868 MX,16,111735,112981,321,514 MY,15,111735,112981,434,240 F,0,128360,129560,1,0
Sprite,Foreground,Centre,"sb\dot.png",0,0 L,112222,4 MY,16,0,1250,240,389 MX,17,0,2500,171,469 MY,17,1250,3750,389,91 MX,17,2500,5000,469,171 MY,15,3750,5000,91,240 F,0,111922,,1 S,0,111922,,0.01507903 MX,16,111922,112222,179,171 MY,15,111922,112222,190,240 F,0,128360,129560,1,0
Sprite,Foreground,Centre,"sb\dot.png",0,0 L,112222,4 MY,16,0,1250,240,389 MX,17,0,2500,171,469 MY,17,1250,3750,389,91 MX,17,2500,5000,469,171 MY,15,3750,5000,91,240 F,0,111922,,1 S,0,111922,,0.02749263 MX,16,111922,112222,179,171 MY,15,111922,112222,190,240 F,0,128360,129560,1,0
Sprite,Foreground,Centre,"sb\dot.png",0,0 L,112256,4 MY,16,0,1250,240,384 MX,17,0,2500,176,464 MY,17,1250,3750,384,96 MX,17,2500,5000,464,176 MY,15,3750,5000,96,240 F,0,112015,,1 S,0,112015,,0.02468554 MX,16,112015,112256,181,176 MY,15,112015,112256,201,240 F,0,128360,129560,1,0
Sprite,Foreground,Centre,"sb\dot.png",0,0 L,112256,4 MY,16,0,1250,240,384 MX,17,0,2500,176,464 MY,17,1250,3750,384,96 MX,17,2500,5000,464,176 MY,15,3750,5000,96,240 F,0,112015,,1 S,0,112015,,0.0154266 MX,16,112015,112256,181,176 MY,15,112015,112256,201,240 F,0,128360,129560,1,0
Sprite,Foreground,Centre,"sb\dot.png",0,0 L,113248,4 MX,16,0,1250,320,416 MY,17,0,2500,336,144 MX,17,1250,3750,416,224 MY,17,2500,5000,144,336 MX,15,3750,5000,224,320 F,0,112109,,1 S,0,112109,,0.01219303 MX,15,112109,113248,230,320 MY,16,112109,113248,251,336 F,0,128360,129560,1,0
Sprite,Foreground,Centre,"sb\dot.png",0,0 L,113248,4 MX,16,0,1250,320,416 MY,17,0,2500,336,144 MX,17,1250,3750,416,224 MY,17,2500,5000,144,336 MX,15,3750,5000,224,320 F,0,112109,,1 S,0,112109,,0.02400966 MX,15,112109,113248,230,320 MY,16,112109,113248,251,336 F,0,128360,129560,1,0
Sprite,Foreground,Centre,"sb\dot.png",0,0 L,113297,4 MX,16,0,1250,320,435 MY,17,0,2500,355,125 MX,17,1250,3750,435,205 MY,17,2500,5000,125,355 MX,15,3750,5000,205,320 F,0,112203,,1 S,0,112203,,0.01452615 MX,15,112203,113297,208,320 MY,16,112203,113297,267,355 F,0,128360,129560,1,0
Sprite,Foreground,Centre,"sb\dot.png",0,0 L,113297,4 MX,16,0,1250,320,435 MY,17,0,2500,355,125 MX,17,1250,3750,435,205 MY,17,2500,5000,125,355 MX,15,3750,5000,205,320 F,0,112203,,1 S,0,112203,,0.02047368 MX,15,112203,113297,208,320 MY,16,112203,113297,267,355 F,0,128360,129560,1,0
Sprite,Foreground,Centre,"sb\dot.png",0,0 L,113133,4 MY,16,0,1250,240,117 MX,17,0,2500,443,197 MY,17,1250,3750,117,363 MX,17,2500,5000,197,443 MY,15,3750,5000,363,240 F,0,112391,,1 S,0,112391,,0.02997316 MX,16,112391,113133,400,443 MY,15,112391,113133,334,240 F,0,128360,129560,1,0
Sprite,Foreground,Centre,"sb\dot.png",0,0 L,113133,4 MY,16,0,1250,240,117 MX,17,0,2500,443,197 MY,17,1250,3750,117,363 MX,17,2500,5000,197,443 MY,15,3750,5000,363,240 F,0,112391,,1 S,0,112391,,0.01944117 MX,16,112391,113133,400,443 MY,15,112391,113133,334,240 F,0,128360,129560,1,0
Sprite,Foreground,Centre,"sb\dot.png",0,0 L,113178,4 MY,16,0,1250,240,120 MX,17,0,2500,440,200 MY,17,1250,3750,120,360 MX,17,2500,5000,200,440 MY,15,3750,5000,360,240 F,0,112485,,1 S,0,112485,,0.005422031 MX,16,112485,113178,404,440 MY,15,112485,113178,327,240 F,0,128360,129560,1,0
Sprite,Foreground,Centre,"sb\dot.png",0,0 L,113178,4 MY,16,0,1250,240,120 MX,17,0,2500,440,200 MY,17,1250,3750,120,360 MX,17,2500,5000,200,440 MY,15,3750,5000,360,240 F,0,112485,,1 S,0,112485,,0.0198437 MX,16,112485,113178,404,440 MY,15,112485,113178,327,240 F,0,128360,129560,1,0
Sprite,Foreground,Centre,"sb\dot.png",0,0 L,113087,4 MX,16,0,1250,320,193 MY,17,0,2500,113,367 MX,17,1250,3750,193,447 MY,17,2500,5000,367,113 MX,15,3750,5000,447,320 F,0,112672,,1 S,0,112672,,0.02974758 MX,15,112672,113087,378,320 MY,16,112672,113087,127,113 F,0,128360,129560,1,0
Sprite,Foreground,Centre,"sb\dot.png",0,0 L,113087,4 MX,16,0,1250,320,193 MY,17,0,2500,113,367 MX,17,1250,3750,193,447 MY,17,2500,5000,367,113 MX,15,3750,5000,447,320 F,0,112672,,1 S,0,112672,,0.02657543 MX,15,112672,113087,378,320 MY,16,112672,113087,127,113 F,0,128360,129560,1,0
Sprite,Foreground,Centre,"sb\dot.png",0,0 L,113112,4 MX,16,0,1250,320,193 MY,17,0,2500,113,367 MX,17,1250,3750,193,447 MY,17,2500,5000,367,113 MX,15,3750,5000,447,320 F,0,112766,,1 S,0,112766,,0.01756769 MX,15,112766,113112,369,320 MY,16,112766,113112,122,113 F,0,128360,129560,1,0
Sprite,Foreground,Centre,"sb\dot.png",0,0 L,113112,4 MX,16,0,1250,320,193 MY,17,0,2500,113,367 MX,17,1250,3750,193,447 MY,17,2500,5000,367,113 MX,15,3750,5000,447,320 F,0,112766,,1 S,0,112766,,0.006716262 MX,15,112766,113112,369,320 MY,16,112766,113112,122,113 F,0,128360,129560,1,0
Sprite,Foreground,Centre,"sb\dot.png",0,0 L,114104,4 MY,16,0,1250,240,355 MX,17,0,2500,205,435 MY,17,1250,3750,355,125 MX,17,2500,5000,435,205 MY,15,3750,5000,125,240 F,0,112860,,1 S,0,112860,,0.003053935 MX,16,112860,114104,319,205 MY,15,112860,114104,125,240 F,0,128360,129560,1,0
Sprite,Foreground,Centre,"sb\dot.png",0,0 L,114104,4 MY,16,0,1250,240,355 MX,17,0,2500,205,435 MY,17,1250,3750,355,125 MX,17,2500,5000,435,205 MY,15,3750,5000,125,240 F,0,112860,,1 S,0,112860,,0.01805157 MX,16,112860,114104,319,205 MY,15,112860,114104,125,240 F,0,128360,129560,1,0
Sprite,Foreground,Centre,"sb\dot.png",0,0 L,113236,4 MX,16,0,1250,320,191 MY,17,0,2500,111,369 MX,17,1250,3750,191,449 MY,17,2500,5000,369,111 MX,15,3750,5000,449,320 F,0,112953,,1 S,0,112953,,0.0211492 MX,15,112953,113236,361,320 MY,16,112953,113236,117,111 F,0,128360,129560,1,0
Sprite,Foreground,Centre,"sb\dot.png",0,0 L,113236,4 MX,16,0,1250,320,191 MY,17,0,2500,111,369 MX,17,1250,3750,191,449 MY,17,2500,5000,369,111 MX,15,3750,5000,449,320 F,0,112953,,1 S,0,112953,,0.01323939 MX,15,112953,113236,361,320 MY,16,112953,113236,117,111 F,0,128360,129560,1,0
Sprite,Foreground,Centre,"sb\dot.png",0,0 L,114301,4 MX,16,0,1250,320,97 MY,17,0,2500,17,463 MX,17,1250,3750,97,543 MY,17,2500,5000,463,17 MX,15,3750,5000,543,320 F,0,113141,,1 S,0,113141,,0.02638653 MX,15,113141,114301,541,320 MY,16,113141,114301,209,17 F,0,128360,129560,1,0
Sprite,Foreground,Centre,"sb\dot.png",0,0 L,114301,4 MX,16,0,1250,320,97 MY,17,0,2500,17,463 MX,17,1250,3750,97,543 MY,17,2500,5000,463,17 MX,15,3750,5000,543,320 F,0,113141,,1 S,0,113141,,0.01177578 MX,15,113141,114301,541,320 MY,16,113141,114301,209,17 F,0,128360,129560,1,0
Sprite,Foreground,Centre,"sb\dot.png",0,0 L,114408,3 MX,16,0,1250,320,105 MY,17,0,2500,25,455 MX,17,1250,3750,105,535 MY,17,2500,5000,455,25 MX,15,3750,5000,535,320 F,0,113235,,1 S,0,113235,,0.02423914 MX,15,113235,114408,534,320 MY,16,113235,114408,214,25 F,0,128360,129560,1,0
Sprite,Foreground,Centre,"sb\dot.png",0,0 L,114408,3 MX,16,0,1250,320,105 MY,17,0,2500,25,455 MX,17,1250,3750,105,535 MY,17,2500,5000,455,25 MX,15,3750,5000,535,320 F,0,113235,,1 S,0,113235,,0.01703892 MX,15,113235,114408,534,320 MY,16,113235,114408,214,25 F,0,128360,129560,1,0
Sprite,Foreground,Centre,"sb\dot.png",0,0 L,113652,4 MX,16,0,1250,320,189 MY,17,0,2500,109,371 MX,17,1250,3750,189,451 MY,17,2500,5000,371,109 MX,15,3750,5000,451,320 F,0,113422,,1 S,0,113422,,0.02540019 MX,15,113422,113652,354,320 MY,16,113422,113652,113,109 F,0,128360,129560,1,0
Sprite,Foreground,Centre,"sb\dot.png",0,0 L,113652,4 MX,16,0,1250,320,189 MY,17,0,2500,109,371 MX,17,1250,3750,189,451 MY,17,2500,5000,371,109 MX,15,3750,5000,451,320 F,0,113422,,1 S,0,113422,,0.01761246 MX,15,113422,113652,354,320 MY,16,113422,113652,113,109 F,0,128360,129560,1,0
Sprite,Foreground,Centre,"sb\dot.png",0,0 L,114104,4 MY,16,0,1250,240,350 MX,17,0,2500,210,430 MY,17,1250,3750,350,130 MX,17,2500,5000,430,210 MY,15,3750,5000,130,240 F,0,113610,,1 S,0,113610,,0.01710779 MX,16,113610,114104,271,210 MY,15,113610,114104,232,240 F,0,128360,129560,1,0
Sprite,Foreground,Centre,"sb\dot.png",0,0 L,114104,4 MY,16,0,1250,240,350 MX,17,0,2500,210,430 MY,17,1250,3750,350,130 MX,17,2500,5000,430,210 MY,15,3750,5000,130,240 F,0,113610,,1 S,0,113610,,0.007398549 MX,16,113610,114104,271,210 MY,15,113610,114104,232,240 F,0,128360,129560,1,0
Sprite,Foreground,Centre,"sb\dot.png",0,0 L,114150,4 MY,16,0,1250,240,350 MX,17,0,2500,210,430 MY,17,1250,3750,350,130 MX,17,2500,5000,430,210 MY,15,3750,5000,130,240 F,0,113656,,1 S,0,113656,,0.020123 MX,16,113656,114150,271,210 MY,15,113656,114150,232,240 F,0,128360,129560,1,0
Sprite,Foreground,Centre,"sb\dot.png",0,0 L,114150,4 MY,16,0,1250,240,350 MX,17,0,2500,210,430 MY,17,1250,3750,350,130 MX,17,2500,5000,430,210 MY,15,3750,5000,130,240 F,0,113656,,1 S,0,113656,,0.01793732 MX,16,113656,114150,271,210 MY,15,113656,114150,232,240 F,0,128360,129560,1,0
Sprite,Foreground,Centre,"sb\dot.png",0,0 L,114197,4 MY,16,0,1250,240,350 MX,17,0,2500,210,430 MY,17,1250,3750,350,130 MX,17,2500,5000,430,210 MY,15,3750,5000,130,240 F,0,113703,,1 S,0,113703,,0.01149447 MX,16,113703,114197,271,210 MY,15,113703,114197,232,240 F,0,128360,129560,1,0
Sprite,Foreground,Centre,"sb\dot.png",0,0 L,114197,4 MY,16,0,1250,240,350 MX,17,0,2500,210,430 MY,17,1250,3750,350,130 MX,17,2500,5000,430,210 MY,15,3750,5000,130,240 F,0,113703,,1 S,0,113703,,0.009748666 MX,16,113703,114197,271,210 MY,15,113703,114197,232,240 F,0,128360,129560,1,0
Sprite,Foreground,Centre,"sb\dot.png",0,0 L,114218,4 MY,16,0,1250,240,396 MX,17,0,2500,164,476 MY,17,1250,3750,396,84 MX,17,2500,5000,476,164 MY,15,3750,5000,84,240 F,0,113891,,1 S,0,113891,,0.02461702 MX,16,113891,114218,174,164 MY,15,113891,114218,183,240 F,0,128360,129560,1,0
Sprite,Foreground,Centre,"sb\dot.png",0,0 L,114218,4 MY,16,0,1250,240,396 MX,17,0,2500,164,476 MY,17,1250,3750,396,84 MX,17,2500,5000,476,164 MY,15,3750,5000,84,240 F,0,113891,,1 S,0,113891,,0.01542355 MX,16,113891,114218,174,164 MY,15,113891,114218,183,240 F,0,128360,129560,1,0
Sprite,Foreground,Centre,"sb\dot.png",0,0 L,114268,4 MY,16,0,1250,240,382 MX,17,0,2500,178,462 MY,17,1250,3750,382,98 MX,17,2500,5000,462,178 MY,15,3750,5000,98,240 F,0,113985,,1 S,0,113985,,0.02788322 MX,16,113985,114268,185,178 MY,15,113985,114268,195,240 F,0,128360,129560,1,0
Sprite,Foreground,Centre,"sb\dot.png",0,0 L,114268,4 MY,16,0,1250,240,382 MX,17,0,2500,178,462 MY,17,1250,3750,382,98 MX,17,2500,5000,462,178 MY,15,3750,5000,98,240 F,0,113985,,1 S,0,113985,,0.01210972 MX,16,113985,114268,185,178 MY,15,113985,114268,195,240 F,0,128360,129560,1,0
Sprite,Foreground,Centre,"sb\dot.png",0,0 L,114962,3 MX,16,0,1250,320,592 MY,17,0,2500,512,-32 MX,17,1250,3750,592,48 MY,17,2500,5000,-32,512 MX,15,3750,5000,48,320 F,0,114172,,1 S,0,114172,,0.008190812 MX,15,114172,114962,102,320 MY,16,114172,114962,404,512 F,0,128360,129560,1,0
Sprite,Foreground,Centre,"sb\dot.png",0,0 L,114962,3 MX,16,0,1250,320,592 MY,17,0,2500,512,-32 MX,17,1250,3750,592,48 MY,17,2500,5000,-32,512 MX,15,3750,5000,48,320 F,0,114172,,1 S,0,114172,,0.007057067 MX,15,114172,114962,102,320 MY,16,114172,114962,404,512 F,0,128360,129560,1,0
Sprite,Foreground,Centre,"sb\dot.png",0,0 L,115091,3 MX,16,0,1250,320,580 MY,17,0,2500,500,-20 MX,17,1250,3750,580,60 MY,17,2500,5000,-20,500 MX,15,3750,5000,60,320 F,0,114266,,1 S,0,114266,,0.02085623 MX,15,114266,115091,105,320 MY,16,114266,115091,387,500 F,0,128360,129560,1,0
Sprite,Foreground,Centre,"sb\dot.png",0,0 L,115091,3 MX,16,0,1250,320,580 MY,17,0,2500,500,-20 MX,17,1250,3750,580,60 MY,17,2500,5000,-20,500 MX,15,3750,5000,60,320 F,0,114266,,1 S,0,114266,,0.008542869 MX,15,114266,115091,105,320 MY,16,114266,115091,387,500 F,0,128360,129560,1,0
Sprite,Foreground,Centre,"sb\dot.png",0,0 L,115395,3 MX,16,0,1250,320,569 MY,17,0,2500,489,-9 MX,17,1250,3750,569,71 MY,17,2500,5000,-9,489 MX,15,3750,5000,71,320 F,0,114360,,1 S,0,114360,,0.01744222 MX,15,114360,115395,83,320 MY,16,114360,115395,319,489 F,0,128360,129560,1,0
Sprite,Foreground,Centre,"sb\dot.png",0,0 L,115395,3 MX,16,0,1250,320,569 MY,17,0,2500,489,-9 MX,17,1250,3750,569,71 MY,17,2500,5000,-9,489 MX,15,3750,5000,71,320 F,0,114360,,1 S,0,114360,,0.01676919 MX,15,114360,115395,83,320 MY,16,114360,115395,319,489 F,0,128360,129560,1,0
Sprite,Foreground,Centre,"sb\dot.png",0,0 L,115404,3 MX,16,0,1250,320,559 MY,17,0,2500,479,1 MX,17,1250,3750,559,81 MY,17,2500,5000,1,479 MX,15,3750,5000,81,320 F,0,114453,,1 S,0,114453,,0.02387778 MX,15,114453,115404,103,320 MY,16,114453,115404,341,479 F,0,128360,129560,1,0
Sprite,Foreground,Centre,"sb\dot.png",0,0 L,115404,3 MX,16,0,1250,320,559 MY,17,0,2500,479,1 MX,17,1250,3750,559,81 MY,17,2500,5000,1,479 MX,15,3750,5000,81,320 F,0,114453,,1 S,0,114453,,0.01602327 MX,15,114453,115404,103,320 MY,16,114453,115404,341,479 F,0,128360,129560,1,0
Sprite,Foreground,Centre,"sb\dot.png",0,0 L,115529,3 MY,16,0,1250,240,123 MX,17,0,2500,437,203 MY,17,1250,3750,123,357 MX,17,2500,5000,203,437 MY,15,3750,5000,357,240 F,0,114641,,1 S,0,114641,,0.005732602 MX,16,114641,115529,323,437 MY,15,114641,115529,269,240 F,0,128360,129560,1,0
Sprite,Foreground,Centre,"sb\dot.png",0,0 L,115529,3 MY,16,0,1250,240,123 MX,17,0,2500,437,203 MY,17,1250,3750,123,357 MX,17,2500,5000,203,437 MY,15,3750,5000,357,240 F,0,114641,,1 S,0,114641,,0.01484387 MX,16,114641,115529,323,437 MY,15,114641,115529,269,240 F,0,128360,129560,1,0
Sprite,Foreground,Centre,"sb\dot.png",0,0 L,115448,3 MX,16,0,1250,320,439 MY,17,0,2500,359,121 MX,17,1250,3750,439,201 MY,17,2500,5000,121,359 MX,15,3750,5000,201,320 F,0,114735,,1 S,0,114735,,0.0062241 MX,15,114735,115448,316,320 MY,16,114735,115448,263,359 F,0,128360,129560,1,0
Sprite,Foreground,Centre,"sb\dot.png",0,0 L,115448,3 MX,16,0,1250,320,439 MY,17,0,2500,359,121 MX,17,1250,3750,439,201 MY,17,2500,5000,121,359 MX,15,3750,5000,201,320 F,0,114735,,1 S,0,114735,,0.02621009 MX,15,114735,115448,316,320 MY,16,114735,115448,263,359 F,0,128360,129560,1,0
Sprite,Foreground,Centre,"sb\dot.png",0,0 L,115025,3 MX,16,0,1250,320,500 MY,17,0,2500,420,60 MX,17,1250,3750,500,140 MY,17,2500,5000,60,420 MX,15,3750,5000,140,320 F,0,114922,,1 S,0,114922,,0.01818426 MX,15,114922,115025,299,320 MY,16,114922,115025,419,420 F,0,128360,129560,1,0
Sprite,Foreground,Centre,"sb\dot.png",0,0 L,115025,3 MX,16,0,1250,320,500 MY,17,0,2500,420,60 MX,17,1250,3750,500,140 MY,17,2500,5000,60,420 MX,15,3750,5000,140,320 F,0,114922,,1 S,0,114922,,0.02195907 MX,15,114922,115025,299,320 MY,16,114922,115025,419,420 F,0,128360,129560,1,0
Sprite,Foreground,Centre,"sb\dot.png",0,0 L,115107,3 MX,16,0,1250,320,485 MY,17,0,2500,405,75 MX,17,1250,3750,485,155 MY,17,2500,5000,75,405 MX,15,3750,5000,155,320 F,0,115016,,1 S,0,115016,,0.02029818 MX,15,115016,115107,303,320 MY,16,115016,115107,405 F,0,128360,129560,1,0
Sprite,Foreground,Centre,"sb\dot.png",0,0 L,115107,3 MX,16,0,1250,320,485 MY,17,0,2500,405,75 MX,17,1250,3750,485,155 MY,17,2500,5000,75,405 MX,15,3750,5000,155,320 F,0,115016,,1 S,0,115016,,0.003418748 MX,15,115016,115107,303,320 MY,16,115016,115107,405 F,0,128360,129560,1,0
Sprite,Foreground,Centre,"sb\dot.png",0,0 L,115383,3 MX,16,0,1250,320,454 MY,17,0,2500,374,106 MX,17,1250,3750,454,186 MY,17,2500,5000,106,374 MX,15,3750,5000,186,320 F,0,115110,,1 S,0,115110,,0.01837492 MX,15,115110,115383,279,320 MY,16,115110,115383,368,374 F,0,128360,129560,1,0
Sprite,Foreground,Centre,"sb\dot.png",0,0 L,115383,3 MX,16,0,1250,320,454 MY,17,0,2500,374,106 MX,17,1250,3750,454,186 MY,17,2500,5000,106,374 MX,15,3750,5000,186,320 F,0,115110,,1 S,0,115110,,0.01536483 MX,15,115110,115383,279,320 MY,16,115110,115383,368,374 F,0,128360,129560,1,0
Sprite,Foreground,Centre,"sb\dot.png",0,0 L,115273,3 MX,16,0,1250,320,470 MY,17,0,2500,390,90 MX,17,1250,3750,470,170 MY,17,2500,5000,90,390 MX,15,3750,5000,170,320 F,0,115203,,1 S,0,115203,,0.02982215 MX,15,115203,115273,308,320 MY,16,115203,115273,390 F,0,128360,129560,1,0
Sprite,Foreground,Centre,"sb\dot.png",0,0 L,115273,3 MX,16,0,1250,320,470 MY,17,0,2500,390,90 MX,17,1250,3750,470,170 MY,17,2500,5000,90,390 MX,15,3750,5000,170,320 F,0,115203,,1 S,0,115203,,0.006303244 MX,15,115203,115273,308,320 MY,16,115203,115273,390 F,0,128360,129560,1,0
Sprite,Foreground,Centre,"sb\dot.png",0,0 L,115924,3 MY,16,0,1250,240,42 MX,17,0,2500,518,122 MY,17,1250,3750,42,438 MX,17,2500,5000,122,518 MY,15,3750,5000,438,240 F,0,115391,,1 S,0,115391,,0.006253494 MX,16,115391,115924,482,518 MY,15,115391,115924,354,240 F,0,128360,129560,1,0
Sprite,Foreground,Centre,"sb\dot.png",0,0 L,115924,3 MY,16,0,1250,240,42 MX,17,0,2500,518,122 MY,17,1250,3750,42,438 MX,17,2500,5000,122,518 MY,15,3750,5000,438,240 F,0,115391,,1 S,0,115391,,0.01064663 MX,16,115391,115924,482,518 MY,15,115391,115924,354,240 F,0,128360,129560,1,0
Sprite,Foreground,Centre,"sb\dot.png",0,0 L,116018,3 MY,16,0,1250,240,42 MX,17,0,2500,518,122 MY,17,1250,3750,42,438 MX,17,2500,5000,122,518 MY,15,3750,5000,438,240 F,0,115485,,1 S,0,115485,,0.02002641 MX,16,115485,116018,482,518 MY,15,115485,116018,354,240 F,0,128360,129560,1,0
Sprite,Foreground,Centre,"sb\dot.png",0,0 L,116018,3 MY,16,0,1250,240,42 MX,17,0,2500,518,122 MY,17,1250,3750,42,438 MX,17,2500,5000,122,518 MY,15,3750,5000,438,240 F,0,115485,,1 S,0,115485,,0.02458057 MX,16,115485,116018,482,518 MY,15,115485,116018,354,240 F,0,128360,129560,1,0
Sprite,Foreground,Centre,"sb\dot.png",0,0 L,116465,3 MX,16,0,1250,320,173 MY,17,0,2500,93,387 MX,17,1250,3750,173,467 MY,17,2500,5000,387,93 MX,15,3750,5000,467,320 F,0,115672,,1 S,0,115672,,0.009901867 MX,15,115672,116465,438,320 MY,16,115672,116465,152,93 F,0,128360,129560,1,0
Sprite,Foreground,Centre,"sb\dot.png",0,0 L,116465,3 MX,16,0,1250,320,173 MY,17,0,2500,93,387 MX,17,1250,3750,173,467 MY,17,2500,5000,387,93 MX,15,3750,5000,467,320 F,0,115672,,1 S,0,115672,,0.0101276 MX,15,115672,116465,438,320 MY,16,115672,116465,152,93 F,0,128360,129560,1,0
Sprite,Foreground,Centre,"sb\dot.png",0,0 L,116609,3 MX,16,0,1250,320,176 MY,17,0,2500,96,384 MX,17,1250,3750,176,464 MY,17,2500,5000,384,96 MX,15,3750,5000,464,320 F,0,115766,,1 S,0,115766,,0.00335068 MX,15,115766,116609,441,320 MY,16,115766,116609,161,96 F,0,128360,129560,1,0
Sprite,Foreground,Centre,"sb\dot.png",0,0 L,116609,3 MX,16,0,1250,320,176 MY,17,0,2500,96,384 MX,17,1250,3750,176,464 MY,17,2500,5000,384,96 MX,15,3750,5000,464,320 F,0,115766,,1 S,0,115766,,0.01503584 MX,15,115766,116609,441,320 MY,16,115766,116609,161,96 F,0,128360,129560,1,0
Sprite,Foreground,Centre,"sb\dot.png",0,0 L,116955,3 MX,16,0,1250,320,123 MY,17,0,2500,43,437 MX,17,1250,3750,123,517 MY,17,2500,5000,437,43 MX,15,3750,5000,517,320 F,0,115860,,1 S,0,115860,,0.0109467 MX,15,115860,116955,512,320 MY,16,115860,116955,194,43 F,0,128360,129560,1,0
Sprite,Foreground,Centre,"sb\dot.png",0,0 L,116955,3 MX,16,0,1250,320,123 MY,17,0,2500,43,437 MX,17,1250,3750,123,517 MY,17,2500,5000,437,43 MX,15,3750,5000,517,320 F,0,115860,,1 S,0,115860,,0.02567337 MX,15,115860,116955,512,320 MY,16,115860,116955,194,43 F,0,128360,129560,1,0
Sprite,Foreground,Centre,"sb\dot.png",0,0 L,116930,3 MX,16,0,1250,320,104 MY,17,0,2500,24,456 MX,17,1250,3750,104,536 MY,17,2500,5000,456,24 MX,15,3750,5000,536,320 F,0,115953,,1 S,0,115953,,0.02522669 MX,15,115953,116930,519,320 MY,16,115953,116930,156,24 F,0,128360,129560,1,0
Sprite,Foreground,Centre,"sb\dot.png",0,0 L,116930,3 MX,16,0,1250,320,104 MY,17,0,2500,24,456 MX,17,1250,3750,104,536 MY,17,2500,5000,456,24 MX,15,3750,5000,536,320 F,0,115953,,1 S,0,115953,,0.01732403 MX,15,115953,116930,519,320 MY,16,115953,116930,156,24 F,0,128360,129560,1,0
Sprite,Foreground,Centre,"sb\dot.png",0,0 L,116836,3 MX,16,0,1250,320,215 MY,17,0,2500,135,345 MX,17,1250,3750,215,425 MY,17,2500,5000,345,135 MX,15,3750,5000,425,320 F,0,116141,,1 S,0,116141,,0.02869221 MX,15,116141,116836,371,320 MY,16,116141,116836,200,135 F,0,128360,129560,1,0
Sprite,Foreground,Centre,"sb\dot.png",0,0 L,116836,3 MX,16,0,1250,320,215 MY,17,0,2500,135,345 MX,17,1250,3750,215,425 MY,17,2500,5000,345,135 MX,15,3750,5000,425,320 F,0,116141,,1 S,0,116141,,0.008457965 MX,15,116141,116836,371,320 MY,16,116141,116836,200,135 F,0,128360,129560,1,0
Sprite,Foreground,Centre,"sb\dot.png",0,0 L,116836,3 MX,16,0,1250,320,215 MY,17,0,2500,135,345 MX,17,1250,3750,215,425 MY,17,2500,5000,345,135 MX,15,3750,5000,425,320 F,0,116234,,1 S,0,116234,,0.02852545 MX,15,116234,116836,362,320 MY,16,116234,116836,193,135 F,0,128360,129560,1,0
Sprite,Foreground,Centre,"sb\dot.png",0,0 L,116836,3 MX,16,0,1250,320,215 MY,17,0,2500,135,345 MX,17,1250,3750,215,425 MY,17,2500,5000,345,135 MX,15,3750,5000,425,320 F,0,116234,,1 S,0,116234,,0.02599687 MX,15,116234,116836,362,320 MY,16,116234,116836,193,135 F,0,128360,129560,1,0
Sprite,Foreground,Centre,"sb\dot.png",0,0 L,117522,3 MX,16,0,1250,320,427 MY,17,0,2500,347,133 MX,17,1250,3750,427,213 MY,17,2500,5000,133,347 MX,15,3750,5000,213,320 F,0,116422,,1 S,0,116422,,0.02719533 MX,15,116422,117522,215,320 MY,16,116422,117522,265,347 F,0,128360,129560,1,0
Sprite,Foreground,Centre,"sb\dot.png",0,0 L,117522,3 MX,16,0,1250,320,427 MY,17,0,2500,347,133 MX,17,1250,3750,427,213 MY,17,2500,5000,133,347 MX,15,3750,5000,213,320 F,0,116422,,1 S,0,116422,,0.01560633 MX,15,116422,117522,215,320 MY,16,116422,117522,265,347 F,0,128360,129560,1,0
Sprite,Foreground,Centre,"sb\dot.png",0,0 L,117617,3 MX,16,0,1250,320,416 MY,17,0,2500,336,144 MX,17,1250,3750,416,224 MY,17,2500,5000,144,336 MX,15,3750,5000,224,320 F,0,116516,,1 S,0,116516,,0.02579717 MX,15,116516,117617,226,320 MY,16,116516,117617,262,336 F,0,128360,129560,1,0
Sprite,Foreground,Centre,"sb\dot.png",0,0 L,117617,3 MX,16,0,1250,320,416 MY,17,0,2500,336,144 MX,17,1250,3750,416,224 MY,17,2500,5000,144,336 MX,15,3750,5000,224,320 F,0,116516,,1 S,0,116516,,0.01261734 MX,15,116516,117617,226,320 MY,16,116516,117617,262,336 F,0,128360,129560,1,0
Sprite,Foreground,Centre,"sb\dot.png",0,0 L,117211,3 MX,16,0,1250,320,425 MY,17,0,2500,345,135 MX,17,1250,3750,425,215 MY,17,2500,5000,135,345 MX,15,3750,5000,215,320 F,0,116610,,1 S,0,116610,,0.017898 MX,15,116610,117211,277,320 MY,16,116610,117211,288,345 F,0,128360,129560,1,0
Sprite,Foreground,Centre,"sb\dot.png",0,0 L,117211,3 MX,16,0,1250,320,425 MY,17,0,2500,345,135 MX,17,1250,3750,425,215 MY,17,2500,5000,135,345 MX,15,3750,5000,215,320 F,0,116610,,1 S,0,116610,,0.01121587 MX,15,116610,117211,277,320 MY,16,116610,117211,288,345 F,0,128360,129560,1,0
Sprite,Foreground,Centre,"sb\dot.png",0,0 L,117713,3 MX,16,0,1250,320,419 MY,17,0,2500,339,141 MX,17,1250,3750,419,221 MY,17,2500,5000,141,339 MX,15,3750,5000,221,320 F,0,116703,,1 S,0,116703,,0.01430632 MX,15,116703,117713,239,320 MY,16,116703,117713,260,339 F,0,128360,129560,1,0
Sprite,Foreground,Centre,"sb\dot.png",0,0 L,117713,3 MX,16,0,1250,320,419 MY,17,0,2500,339,141 MX,17,1250,3750,419,221 MY,17,2500,5000,141,339 MX,15,3750,5000,221,320 F,0,116703,,1 S,0,116703,,0.01355632 MX,15,116703,117713,239,320 MY,16,116703,117713,260,339 F,0,128360,129560,1,0
Sprite,Foreground,Centre,"sb\dot.png",0,0 L,117818,3 MX,16,0,1250,320,584 MY,17,0,2500,504,-24 MX,17,1250,3750,584,56 MY,17,2500,5000,-24,504 MX,15,3750,5000,56,320 F,0,116891,,1 S,0,116891,,0.01438836 MX,15,116891,117818,84,320 MY,16,116891,117818,359,504 F,0,128360,129560,1,0
Sprite,Foreground,Centre,"sb\dot.png",0,0 L,117818,3 MX,16,0,1250,320,584 MY,17,0,2500,504,-24 MX,17,1250,3750,584,56 MY,17,2500,5000,-24,504 MX,15,3750,5000,56,320 F,0,116891,,1 S,0,116891,,0.0208977 MX,15,116891,117818,84,320 MY,16,116891,117818,359,504 F,0,128360,129560,1,0
Sprite,Foreground,Centre,"sb\dot.png",0,0 L,117954,3 MX,16,0,1250,320,586 MY,17,0,2500,506,-26 MX,17,1250,3750,586,54 MY,17,2500,5000,-26,506 MX,15,3750,5000,54,320 F,0,116985,,1 S,0,116985,,0.01921429 MX,15,116985,117954,76,320 MY,16,116985,117954,346,506 F,0,128360,129560,1,0
Sprite,Foreground,Centre,"sb\dot.png",0,0 L,117954,3 MX,16,0,1250,320,586 MY,17,0,2500,506,-26 MX,17,1250,3750,586,54 MY,17,2500,5000,-26,506 MX,15,3750,5000,54,320 F,0,116985,,1 S,0,116985,,0.02816393 MX,15,116985,117954,76,320 MY,16,116985,117954,346,506 F,0,128360,129560,1,0
Sprite,Foreground,Centre,"sb\dot.png",0,0 L,118000,3 MX,16,0,1250,320,541 MY,17,0,2500,461,19 MX,17,1250,3750,541,99 MY,17,2500,5000,19,461 MX,15,3750,5000,99,320 F,0,117078,,1 S,0,117078,,0.02763915 MX,15,117078,118000,123,320 MY,16,117078,118000,341,461 F,0,128360,129560,1,0
Sprite,Foreground,Centre,"sb\dot.png",0,0 L,118000,3 MX,16,0,1250,320,541 MY,17,0,2500,461,19 MX,17,1250,3750,541,99 MY,17,2500,5000,19,461 MX,15,3750,5000,99,320 F,0,117078,,1 S,0,117078,,0.01107572 MX,15,117078,118000,123,320 MY,16,117078,118000,341,461 F,0,128360,129560,1,0
Sprite,Foreground,Centre,"sb\dot.png",0,0 L,117968,3 MX,16,0,1250,320,506 MY,17,0,2500,426,54 MX,17,1250,3750,506,134 MY,17,2500,5000,54,426 MX,15,3750,5000,134,320 F,0,117172,,1 S,0,117172,,0.02137374 MX,15,117172,117968,170,320 MY,16,117172,117968,351,426 F,0,128360,129560,1,0
Sprite,Foreground,Centre,"sb\dot.png",0,0 L,117968,3 MX,16,0,1250,320,506 MY,17,0,2500,426,54 MX,17,1250,3750,506,134 MY,17,2500,5000,54,426 MX,15,3750,5000,134,320 F,0,117172,,1 S,0,117172,,0.01225218 MX,15,117172,117968,170,320 MY,16,117172,117968,351,426 F,0,128360,129560,1,0
Sprite,Foreground,Centre,"sb\dot.png",0,0 L,117852,3 MX,16,0,1250,320,492 MY,17,0,2500,412,68 MX,17,1250,3750,492,148 MY,17,2500,5000,68,412 MX,15,3750,5000,148,320 F,0,117266,,1 S,0,117266,,0.0156014 MX,15,117266,117852,212,320 MY,16,117266,117852,375,412 F,0,128360,129560,1,0
Sprite,Foreground,Centre,"sb\dot.png",0,0 L,117852,3 MX,16,0,1250,320,492 MY,17,0,2500,412,68 MX,17,1250,3750,492,148 MY,17,2500,5000,68,412 MX,15,3750,5000,148,320 F,0,117266,,1 S,0,117266,,0.02457998 MX,15,117266,117852,212,320 MY,16,117266,117852,375,412 F,0,128360,129560,1,0
Sprite,Foreground,Centre,"sb\dot.png",0,0 L,117578,3 MX,16,0,1250,320,511 MY,17,0,2500,431,49 MX,17,1250,3750,511,129 MY,17,2500,5000,49,431 MX,15,3750,5000,129,320 F,0,117360,,1 S,0,117360,,0.008856228 MX,15,117360,117578,273,320 MY,16,117360,117578,426,431 F,0,128360,129560,1,0
Sprite,Foreground,Centre,"sb\dot.png",0,0 L,117578,3 MX,16,0,1250,320,511 MY,17,0,2500,431,49 MX,17,1250,3750,511,129 MY,17,2500,5000,49,431 MX,15,3750,5000,129,320 F,0,117360,,1 S,0,117360,,0.02754419 MX,15,117360,117578,273,320 MY,16,117360,117578,426,431 F,0,128360,129560,1,0
Sprite,Foreground,Centre,"sb\dot.png",0,0 L,117639,3 MX,16,0,1250,320,506 MY,17,0,2500,426,54 MX,17,1250,3750,506,134 MY,17,2500,5000,54,426 MX,15,3750,5000,134,320 F,0,117453,,1 S,0,117453,,0.01703065 MX,15,117453,117639,281,320 MY,16,117453,117639,422,426 F,0,128360,129560,1,0
Sprite,Foreground,Centre,"sb\dot.png",0,0 L,117639,3 MX,16,0,1250,320,506 MY,17,0,2500,426,54 MX,17,1250,3750,506,134 MY,17,2500,5000,54,426 MX,15,3750,5000,134,320 F,0,117453,,1 S,0,117453,,0.02627566 MX,15,117453,117639,281,320 MY,16,117453,117639,422,426 F,0,128360,129560,1,0
Sprite,Foreground,Centre,"sb\dot.png",0,0 L,118336,3 MX,16,0,1250,320,215 MY,17,0,2500,135,345 MX,17,1250,3750,215,425 MY,17,2500,5000,345,135 MX,15,3750,5000,425,320 F,0,117641,,1 S,0,117641,,0.028641 MX,15,117641,118336,371,320 MY,16,117641,118336,200,135 F,0,128360,129560,1,0
Sprite,Foreground,Centre,"sb\dot.png",0,0 L,118336,3 MX,16,0,1250,320,215 MY,17,0,2500,135,345 MX,17,1250,3750,215,425 MY,17,2500,5000,345,135 MX,15,3750,5000,425,320 F,0,117641,,1 S,0,117641,,0.01031461 MX,15,117641,118336,371,320 MY,16,117641,118336,200,135 F,0,128360,129560,1,0
Sprite,Foreground,Centre,"sb\dot.png",0,0 L,118421,3 MX,16,0,1250,320,212 MY,17,0,2500,132,348 MX,17,1250,3750,212,428 MY,17,2500,5000,348,132 MX,15,3750,5000,428,320 F,0,117735,,1 S,0,117735,,0.01641851 MX,15,117735,118421,363,320 MY,16,117735,118421,204,132 F,0,128360,129560,1,0
Sprite,Foreground,Centre,"sb\dot.png",0,0 L,118421,3 MX,16,0,1250,320,212 MY,17,0,2500,132,348 MX,17,1250,3750,212,428 MY,17,2500,5000,348,132 MX,15,3750,5000,428,320 F,0,117735,,1 S,0,117735,,0.01184194 MX,15,117735,118421,363,320 MY,16,117735,118421,204,132 F,0,128360,129560,1,0
Sprite,Foreground,Centre,"sb\dot.png",0,0 L,118653,3 MY,16,0,1250,240,60 MX,17,0,2500,500,140 MY,17,1250,3750,60,420 MX,17,2500,5000,140,500 MY,15,3750,5000,420,240 F,0,117922,,1 S,0,117922,,0.008076576 MX,16,117922,118653,439,500 MY,15,117922,118653,376,240 F,0,128360,129560,1,0
Sprite,Foreground,Centre,"sb\dot.png",0,0 L,118653,3 MY,16,0,1250,240,60 MX,17,0,2500,500,140 MY,17,1250,3750,60,420 MX,17,2500,5000,140,500 MY,15,3750,5000,420,240 F,0,117922,,1 S,0,117922,,0.01005924 MX,16,117922,118653,439,500 MY,15,117922,118653,376,240 F,0,128360,129560,1,0
Sprite,Foreground,Centre,"sb\dot.png",0,0 L,118665,3 MY,16,0,1250,240,15 MX,17,0,2500,545,95 MY,17,1250,3750,15,465 MX,17,2500,5000,95,545 MY,15,3750,5000,465,240 F,0,118016,,1 S,0,118016,,0.01961718 MX,16,118016,118665,485,545 MY,15,118016,118665,394,240 F,0,128360,129560,1,0
Sprite,Foreground,Centre,"sb\dot.png",0,0 L,118665,3 MY,16,0,1250,240,15 MX,17,0,2500,545,95 MY,17,1250,3750,15,465 MX,17,2500,5000,95,545 MY,15,3750,5000,465,240 F,0,118016,,1 S,0,118016,,0.01890007 MX,16,118016,118665,485,545 MY,15,118016,118665,394,240 F,0,128360,129560,1,0
Sprite,Foreground,Centre,"sb\dot.png",0,0 L,118609,3 MY,16,0,1250,240,-18 MX,17,0,2500,578,62 MY,17,1250,3750,-18,498 MX,17,2500,5000,62,578 MY,15,3750,5000,498,240 F,0,118110,,1 S,0,118110,,0.02751788 MX,16,118110,118609,537,578 MY,15,118110,118609,380,240 F,0,128360,129560,1,0
Sprite,Foreground,Centre,"sb\dot.png",0,0 L,118609,3 MY,16,0,1250,240,-18 MX,17,0,2500,578,62 MY,17,1250,3750,-18,498 MX,17,2500,5000,62,578 MY,15,3750,5000,498,240 F,0,118110,,1 S,0,118110,,0.01272629 MX,16,118110,118609,537,578 MY,15,118110,118609,380,240 F,0,128360,129560,1,0
Sprite,Foreground,Centre,"sb\dot.png",0,0 L,118446,3 MY,16,0,1250,240,-20 MX,17,0,2500,580,60 MY,17,1250,3750,-20,500 MX,17,2500,5000,60,580 MY,15,3750,5000,500,240 F,0,118203,,1 S,0,118203,,0.02343362 MX,16,118203,118446,571,580 MY,15,118203,118446,311,240 F,0,128360,129560,1,0
Sprite,Foreground,Centre,"sb\dot.png",0,0 L,118446,3 MY,16,0,1250,240,-20 MX,17,0,2500,580,60 MY,17,1250,3750,-20,500 MX,17,2500,5000,60,580 MY,15,3750,5000,500,240 F,0,118203,,1 S,0,118203,,0.02430131 MX,16,118203,118446,571,580 MY,15,118203,118446,311,240 F,0,128360,129560,1,0
Sprite,Foreground,Centre,"sb\dot.png",0,0 L,119086,3 MX,16,0,1250,320,215 MY,17,0,2500,135,345 MX,17,1250,3750,215,425 MY,17,2500,5000,345,135 MX,15,3750,5000,425,320 F,0,118391,,1 S,0,118391,,0.006223416 MX,15,118391,119086,371,320 MY,16,118391,119086,200,135 F,0,128360,129560,1,0
Sprite,Foreground,Centre,"sb\dot.png",0,0 L,119086,3 MX,16,0,1250,320,215 MY,17,0,2500,135,345 MX,17,1250,3750,215,425 MY,17,2500,5000,345,135 MX,15,3750,5000,425,320 F,0,118391,,1 S,0,118391,,0.005768594 MX,15,118391,119086,371,320 MY,16,118391,119086,200,135 F,0,128360,129560,1,0
Sprite,Foreground,Centre,"sb\dot.png",0,0 L,119171,3 MX,16,0,1250,320,212 MY,17,0,2500,132,348 MX,17,1250,3750,212,428 MY,17,2500,5000,348,132 MX,15,3750,5000,428,320 F,0,118485,,1 S,0,118485,,0.01956766 MX,15,118485,119171,363,320 MY,16,118485,119171,204,132 F,0,128360,129560,1,0
Sprite,Foreground,Centre,"sb\dot.png",0,0 L,119171,3 MX,16,0,1250,320,212 MY,17,0,2500,132,348 MX,17,1250,3750,212,428 MY,17,2500,5000,348,132 MX,15,3750,5000,428,320 F,0,118485,,1 S,0,118485,,0.02020481 MX,15,118485,119171,363,320 MY,16,118485,119171,204,132 F,0,128360,129560,1,0
Sprite,Foreground,Centre,"sb\dot.png",0,0 L,119647,2 MX,16,0,1250,320,78 MY,17,0,2500,-2,482 MX,17,1250,3750,78,562 MY,17,2500,5000,482,-2 MX,15,3750,5000,562,320 F,0,118672,,1 S,0,118672,,0.01840524 MX,15,118672,119647,543,320 MY,16,118672,119647,145,-2 F,0,128360,129560,1,0
Sprite,Foreground,Centre,"sb\dot.png",0,0 L,119647,2 MX,16,0,1250,320,78 MY,17,0,2500,-2,482 MX,17,1250,3750,78,562 MY,17,2500,5000,482,-2 MX,15,3750,5000,562,320 F,0,118672,,1 S,0,118672,,0.02503763 MX,15,118672,119647,543,320 MY,16,118672,119647,145,-2 F,0,128360,129560,1,0
Sprite,Foreground,Centre,"sb\dot.png",0,0 L,119593,2 MX,16,0,1250,320,63 MY,17,0,2500,-17,497 MX,17,1250,3750,63,577 MY,17,2500,5000,497,-17 MX,15,3750,5000,577,320 F,0,118766,,1 S,0,118766,,0.02634031 MX,15,118766,119593,533,320 MY,16,118766,119593,95,-17 F,0,128360,129560,1,0
Sprite,Foreground,Centre,"sb\dot.png",0,0 L,119593,2 MX,16,0,1250,320,63 MY,17,0,2500,-17,497 MX,17,1250,3750,63,577 MY,17,2500,5000,497,-17 MX,15,3750,5000,577,320 F,0,118766,,1 S,0,118766,,0.009470094 MX,15,118766,119593,533,320 MY,16,118766,119593,95,-17 F,0,128360,129560,1,0
Sprite,Foreground,Centre,"sb\dot.png",0,0 L,119496,2 MX,16,0,1250,320,79 MY,17,0,2500,-1,481 MX,17,1250,3750,79,561 MY,17,2500,5000,481,-1 MX,15,3750,5000,561,320 F,0,118860,,1 S,0,118860,,0.01319221 MX,15,118860,119496,482,320 MY,16,118860,119496,61,-1 F,0,128360,129560,1,0
Sprite,Foreground,Centre,"sb\dot.png",0,0 L,119496,2 MX,16,0,1250,320,79 MY,17,0,2500,-1,481 MX,17,1250,3750,79,561 MY,17,2500,5000,481,-1 MX,15,3750,5000,561,320 F,0,118860,,1 S,0,118860,,0.01900417 MX,15,118860,119496,482,320 MY,16,118860,119496,61,-1 F,0,128360,129560,1,0
Sprite,Foreground,Centre,"sb\dot.png",0,0 L,119460,2 MX,16,0,1250,320,146 MY,17,0,2500,66,414 MX,17,1250,3750,146,494 MY,17,2500,5000,414,66 MX,15,3750,5000,494,320 F,0,118953,,1 S,0,118953,,0.02091331 MX,15,118953,119460,416,320 MY,16,118953,119460,94,66 F,0,128360,129560,1,0
Sprite,Foreground,Centre,"sb\dot.png",0,0 L,119460,2 MX,16,0,1250,320,146 MY,17,0,2500,66,414 MX,17,1250,3750,146,494 MY,17,2500,5000,414,66 MX,15,3750,5000,494,320 F,0,118953,,1 S,0,118953,,0.00518675 MX,15,118953,119460,416,320 MY,16,118953,119460,94,66 F,0,128360,129560,1,0
Sprite,Foreground,Centre,"sb\dot.png",0,0 L,119653,2 MY,16,0,1250,240,366 MX,17,0,2500,194,446 MY,17,1250,3750,366,114 MX,17,2500,5000,446,194 MY,15,3750,5000,114,240 F,0,119141,,1 S,0,119141,,0.01739669 MX,16,119141,119653,215,194 MY,15,119141,119653,170,240 F,0,128360,129560,1,0
Sprite,Foreground,Centre,"sb\dot.png",0,0 L,119653,2 MY,16,0,1250,240,366 MX,17,0,2500,194,446 MY,17,1250,3750,366,114 MX,17,2500,5000,446,194 MY,15,3750,5000,114,240 F,0,119141,,1 S,0,119141,,0.02987098 MX,16,119141,119653,215,194 MY,15,119141,119653,170,240 F,0,128360,129560,1,0
Sprite,Foreground,Centre,"sb\dot.png",0,0 L,119734,2 MY,16,0,1250,240,352 MX,17,0,2500,208,432 MY,17,1250,3750,352,128 MX,17,2500,5000,432,208 MY,15,3750,5000,128,240 F,0,119235,,1 S,0,119235,,0.007299622 MX,16,119235,119734,225,208 MY,15,119235,119734,179,240 F,0,128360,129560,1,0
Sprite,Foreground,Centre,"sb\dot.png",0,0 L,119734,2 MY,16,0,1250,240,352 MX,17,0,2500,208,432 MY,17,1250,3750,352,128 MX,17,2500,5000,432,208 MY,15,3750,5000,128,240 F,0,119235,,1 S,0,119235,,0.0159745 MX,16,119235,119734,225,208 MY,15,119235,119734,179,240 F,0,128360,129560,1,0
Sprite,Foreground,Centre,"sb\dot.png",0,0 L,119574,2 MX,16,0,1250,320,152 MY,17,0,2500,72,408 MX,17,1250,3750,152,488 MY,17,2500,5000,408,72 MX,15,3750,5000,488,320 F,0,119422,,1 S,0,119422,,0.004722626 MX,15,119422,119574,349,320 MY,16,119422,119574,74,72 F,0,128360,129560,1,0
Sprite,Foreground,Centre,"sb\dot.png",0,0 L,119574,2 MX,16,0,1250,320,152 MY,17,0,2500,72,408 MX,17,1250,3750,152,488 MY,17,2500,5000,408,72 MX,15,3750,5000,488,320 F,0,119422,,1 S,0,119422,,0.007112231 MX,15,119422,119574,349,320 MY,16,119422,119574,74,72 F,0,128360,129560,1,0
Sprite,Foreground,Centre,"sb\dot.png",0,0 L,120809,2 MX,16,0,1250,320,91 MY,17,0,2500,11,469 MX,17,1250,3750,91,549 MY,17,2500,5000,469,11 MX,15,3750,5000,549,320 F,0,119610,,1 S,0,119610,,0.02960174 MX,15,119610,120809,549,320 MY,16,119610,120809,221,11 F,0,128360,129560,1,0
Sprite,Foreground,Centre,"sb\dot.png",0,0 L,120809,2 MX,16,0,1250,320,91 MY,17,0,2500,11,469 MX,17,1250,3750,91,549 MY,17,2500,5000,469,11 MX,15,3750,5000,549,320 F,0,119610,,1 S,0,119610,,0.003981264 MX,15,119610,120809,549,320 MY,16,119610,120809,221,11 F,0,128360,129560,1,0
Sprite,Foreground,Centre,"sb\dot.png",0,0 L,120881,2 MX,16,0,1250,320,89 MY,17,0,2500,9,471 MX,17,1250,3750,89,551 MY,17,2500,5000,471,9 MX,15,3750,5000,551,320 F,0,119656,,1 S,0,119656,,0.01196621 MX,15,119656,120881,551,320 MY,16,119656,120881,231,9 F,0,128360,129560,1,0
Sprite,Foreground,Centre,"sb\dot.png",0,0 L,120881,2 MX,16,0,1250,320,89 MY,17,0,2500,9,471 MX,17,1250,3750,89,551 MY,17,2500,5000,471,9 MX,15,3750,5000,551,320 F,0,119656,,1 S,0,119656,,0.003919672 MX,15,119656,120881,551,320 MY,16,119656,120881,231,9 F,0,128360,129560,1,0
Sprite,Foreground,Centre,"sb\dot.png",0,0 L,119706,2 MY,16,0,1250,240,8 MX,17,0,2500,552,88 MY,17,1250,3750,8,472 MX,17,2500,5000,88,552 MY,15,3750,5000,472,240 F,0,119703,,1 S,0,119703,,0.01696533 MX,16,119703,119706,552 MY,15,119703,119706,241,240 F,0,128360,129560,1,0
Sprite,Foreground,Centre,"sb\dot.png",0,0 L,119706,2 MY,16,0,1250,240,8 MX,17,0,2500,552,88 MY,17,1250,3750,8,472 MX,17,2500,5000,88,552 MY,15,3750,5000,472,240 F,0,119703,,1 S,0,119703,,0.01848256 MX,16,119703,119706,552 MY,15,119703,119706,241,240 F,0,128360,129560,1,0
Sprite,Foreground,Centre,"sb\dot.png",0,0 L,120446,2 MY,16,0,1250,240,72 MX,17,0,2500,488,152 MY,17,1250,3750,72,408 MX,17,2500,5000,152,488 MY,15,3750,5000,408,240 F,0,119985,,1 S,0,119985,,0.02619883 MX,16,119985,120446,466,488 MY,15,119985,120446,325,240 F,0,128360,129560,1,0
Sprite,Foreground,Centre,"sb\dot.png",0,0 L,120446,2 MY,16,0,1250,240,72 MX,17,0,2500,488,152 MY,17,1250,3750,72,408 MX,17,2500,5000,152,488 MY,15,3750,5000,408,240 F,0,119985,,1 S,0,119985,,0.009056063 MX,16,119985,120446,466,488 MY,15,119985,120446,325,240 F,0,128360,129560,1,0
Sprite,Foreground,Centre,"sb\dot.png",0,0 L,120451,2 MY,16,0,1250,240,78 MX,17,0,2500,482,158 MY,17,1250,3750,78,402 MX,17,2500,5000,158,482 MY,15,3750,5000,402,240 F,0,120031,,1 S,0,120031,,0.006139291 MX,16,120031,120451,464,482 MY,15,120031,120451,315,240 F,0,128360,129560,1,0
Sprite,Foreground,Centre,"sb\dot.png",0,0 L,120451,2 MY,16,0,1250,240,78 MX,17,0,2500,482,158 MY,17,1250,3750,78,402 MX,17,2500,5000,158,482 MY,15,3750,5000,402,240 F,0,120031,,1 S,0,120031,,0.007247081 MX,16,120031,120451,464,482 MY,15,120031,120451,315,240 F,0,128360,129560,1,0
Sprite,Foreground,Centre,"sb\dot.png",0,0 L,120452,2 MY,16,0,1250,240,83 MX,17,0,2500,477,163 MY,17,1250,3750,83,397 MX,17,2500,5000,163,477 MY,15,3750,5000,397,240 F,0,120078,,1 S,0,120078,,0.02393914 MX,16,120078,120452,463,477 MY,15,120078,120452,305,240 F,0,128360,129560,1,0
Sprite,Foreground,Centre,"sb\dot.png",0,0 L,120452,2 MY,16,0,1250,240,83 MX,17,0,2500,477,163 MY,17,1250,3750,83,397 MX,17,2500,5000,163,477 MY,15,3750,5000,397,240 F,0,120078,,1 S,0,120078,,0.02548829 MX,16,120078,120452,463,477 MY,15,120078,120452,305,240 F,0,128360,129560,1,0
Sprite,Foreground,Centre,"sb\dot.png",0,0 L,121307,2 MY,16,0,1250,240,66 MX,17,0,2500,494,146 MY,17,1250,3750,66,414 MX,17,2500,5000,146,494 MY,15,3750,5000,414,240 F,0,120360,,1 S,0,120360,,0.02337982 MX,16,120360,121307,395,494 MY,15,120360,121307,398,240 F,0,128360,129560,1,0
Sprite,Foreground,Centre,"sb\dot.png",0,0 L,121307,2 MY,16,0,1250,240,66 MX,17,0,2500,494,146 MY,17,1250,3750,66,414 MX,17,2500,5000,146,494 MY,15,3750,5000,414,240 F,0,120360,,1 S,0,120360,,0.009488 MX,16,120360,121307,395,494 MY,15,120360,121307,398,240 F,0,128360,129560,1,0
Sprite,Foreground,Centre,"sb\dot.png",0,0 L,121339,2 MY,16,0,1250,240,73 MX,17,0,2500,487,153 MY,17,1250,3750,73,407 MX,17,2500,5000,153,487 MY,15,3750,5000,407,240 F,0,120453,,1 S,0,120453,,0.007730305 MX,16,120453,121339,403,487 MY,15,120453,121339,385,240 F,0,128360,129560,1,0
Sprite,Foreground,Centre,"sb\dot.png",0,0 L,121339,2 MY,16,0,1250,240,73 MX,17,0,2500,487,153 MY,17,1250,3750,73,407 MX,17,2500,5000,153,487 MY,15,3750,5000,407,240 F,0,120453,,1 S,0,120453,,0.006337838 MX,16,120453,121339,403,487 MY,15,120453,121339,385,240 F,0,128360,129560,1,0
Sprite,Foreground,Centre,"sb\dot.png",0,0 L,121285,2 MX,16,0,1250,320,517 MY,17,0,2500,437,43 MX,17,1250,3750,517,123 MY,17,2500,5000,43,437 MX,15,3750,5000,123,320 F,0,120641,,1 S,0,120641,,0.007852306 MX,15,120641,121285,186,320 MY,16,120641,121285,385,437 F,0,128360,129560,1,0
Sprite,Foreground,Centre,"sb\dot.png",0,0 L,121285,2 MX,16,0,1250,320,517 MY,17,0,2500,437,43 MX,17,1250,3750,517,123 MY,17,2500,5000,43,437 MX,15,3750,5000,123,320 F,0,120641,,1 S,0,120641,,0.01860515 MX,15,120641,121285,186,320 MY,16,120641,121285,385,437 F,0,128360,129560,1,0
Sprite,Foreground,Centre,"sb\dot.png",0,0 L,121361,2 MX,16,0,1250,320,534 MY,17,0,2500,454,26 MX,17,1250,3750,534,106 MY,17,2500,5000,26,454 MX,15,3750,5000,106,320 F,0,120735,,1 S,0,120735,,0.02268452 MX,15,120735,121361,178,320 MY,16,120735,121361,401,454 F,0,128360,129560,1,0
Sprite,Foreground,Centre,"sb\dot.png",0,0 L,121361,2 MX,16,0,1250,320,534 MY,17,0,2500,454,26 MX,17,1250,3750,534,106 MY,17,2500,5000,26,454 MX,15,3750,5000,106,320 F,0,120735,,1 S,0,120735,,0.02539659 MX,15,120735,121361,178,320 MY,16,120735,121361,401,454 F,0,128360,129560,1,0
Sprite,Foreground,Centre,"sb\dot.png",0,0 L,121770,2 MX,16,0,1250,320,430 MY,17,0,2500,350,130 MX,17,1250,3750,430,210 MY,17,2500,5000,130,350 MX,15,3750,5000,210,320 F,0,120922,,1 S,0,120922,,0.009174736 MX,15,120922,121770,274,320 MY,16,120922,121770,255,350 F,0,128360,129560,1,0
Sprite,Foreground,Centre,"sb\dot.png",0,0 L,121770,2 MX,16,0,1250,320,430 MY,17,0,2500,350,130 MX,17,1250,3750,430,210 MY,17,2500,5000,130,350 MX,15,3750,5000,210,320 F,0,120922,,1 S,0,120922,,0.0138186 MX,15,120922,121770,274,320 MY,16,120922,121770,255,350 F,0,128360,129560,1,0
Sprite,Foreground,Centre,"sb\dot.png",0,0 L,121266,2 MY,16,0,1250,240,495 MX,17,0,2500,65,575 MY,17,1250,3750,495,-15 MX,17,2500,5000,575,65 MY,15,3750,5000,-15,240 F,0,121110,,1 S,0,121110,,0.004203879 MX,16,121110,121266,68,65 MY,15,121110,121266,195,240 F,0,128360,129560,1,0
Sprite,Foreground,Centre,"sb\dot.png",0,0 L,121266,2 MY,16,0,1250,240,495 MX,17,0,2500,65,575 MY,17,1250,3750,495,-15 MX,17,2500,5000,575,65 MY,15,3750,5000,-15,240 F,0,121110,,1 S,0,121110,,0.01056056 MX,16,121110,121266,68,65 MY,15,121110,121266,195,240 F,0,128360,129560,1,0
Sprite,Foreground,Centre,"sb\dot.png",0,0 L,121216,2 MY,16,0,1250,240,434 MX,17,0,2500,126,514 MY,17,1250,3750,434,46 MX,17,2500,5000,514,126 MY,15,3750,5000,46,240 F,0,121203,,1 S,0,121203,,0.01608345 MX,16,121203,121216,126 MY,15,121203,121216,237,240 F,0,128360,129560,1,0
Sprite,Foreground,Centre,"sb\dot.png",0,0 L,121216,2 MY,16,0,1250,240,434 MX,17,0,2500,126,514 MY,17,1250,3750,434,46 MX,17,2500,5000,514,126 MY,15,3750,5000,46,240 F,0,121203,,1 S,0,121203,,0.01263683 MX,16,121203,121216,126 MY,15,121203,121216,237,240 F,0,128360,129560,1,0
Sprite,Foreground,Centre,"sb\dot.png",0,0 L,122436,2 MY,16,0,1250,240,398 MX,17,0,2500,162,478 MY,17,1250,3750,398,82 MX,17,2500,5000,478,162 MY,15,3750,5000,82,240 F,0,121391,,1 S,0,121391,,0.01940131 MX,16,121391,122436,272,162 MY,15,121391,122436,89,240 F,0,128360,129560,1,0
Sprite,Foreground,Centre,"sb\dot.png",0,0 L,122436,2 MY,16,0,1250,240,398 MX,17,0,2500,162,478 MY,17,1250,3750,398,82 MX,17,2500,5000,478,162 MY,15,3750,5000,82,240 F,0,121391,,1 S,0,121391,,0.01423176 MX,16,121391,122436,272,162 MY,15,121391,122436,89,240 F,0,128360,129560,1,0
Sprite,Foreground,Centre,"sb\dot.png",0,0 L,122492,2 MY,16,0,1250,240,404 MX,17,0,2500,156,484 MY,17,1250,3750,404,76 MX,17,2500,5000,484,156 MY,15,3750,5000,76,240 F,0,121485,,1 S,0,121485,,0.02444525 MX,16,121485,122492,262,156 MY,15,121485,122492,86,240 F,0,128360,129560,1,0
Sprite,Foreground,Centre,"sb\dot.png",0,0 L,122492,2 MY,16,0,1250,240,404 MX,17,0,2500,156,484 MY,17,1250,3750,404,76 MX,17,2500,5000,484,156 MY,15,3750,5000,76,240 F,0,121485,,1 S,0,121485,,0.008205599 MX,16,121485,122492,262,156 MY,15,121485,122492,86,240 F,0,128360,129560,1,0
Sprite,Foreground,Centre,"sb\dot.png",0,0 L,122720,2 MX,16,0,1250,320,216 MY,17,0,2500,136,344 MX,17,1250,3750,216,424 MY,17,2500,5000,344,136 MX,15,3750,5000,424,320 F,0,121672,,1 S,0,121672,,0.005759615 MX,15,121672,122720,388,320 MY,16,121672,122720,239,136 F,0,128360,129560,1,0
Sprite,Foreground,Centre,"sb\dot.png",0,0 L,122720,2 MX,16,0,1250,320,216 MY,17,0,2500,136,344 MX,17,1250,3750,216,424 MY,17,2500,5000,344,136 MX,15,3750,5000,424,320 F,0,121672,,1 S,0,121672,,0.006642676 MX,15,121672,122720,388,320 MY,16,121672,122720,239,136 F,0,128360,129560,1,0
Sprite,Foreground,Centre,"sb\dot.png",0,0 L,122851,2 MX,16,0,1250,320,220 MY,17,0,2500,140,340 MX,17,1250,3750,220,420 MY,17,2500,5000,340,140 MX,15,3750,5000,420,320 F,0,121766,,1 S,0,121766,,0.01717745 MX,15,121766,122851,399,320 MY,16,121766,122851,234,140 F,0,128360,129560,1,0
Sprite,Foreground,Centre,"sb\dot.png",0,0 L,122851,2 MX,16,0,1250,320,220 MY,17,0,2500,140,340 MX,17,1250,3750,220,420 MY,17,2500,5000,340,140 MX,15,3750,5000,420,320 F,0,121766,,1 S,0,121766,,0.02340565 MX,15,121766,122851,399,320 MY,16,121766,122851,234,140 F,0,128360,129560,1,0
Sprite,Foreground,Centre,"sb\dot.png",0,0 L,121992,2 MY,16,0,1250,240,100 MX,17,0,2500,460,180 MY,17,1250,3750,100,380 MX,17,2500,5000,180,460 MY,15,3750,5000,380,240 F,0,121860,,1 S,0,121860,,0.01312455 MX,16,121860,121992,459,460 MY,15,121860,121992,261,240 F,0,128360,129560,1,0
Sprite,Foreground,Centre,"sb\dot.png",0,0 L,121992,2 MY,16,0,1250,240,100 MX,17,0,2500,460,180 MY,17,1250,3750,100,380 MX,17,2500,5000,180,460 MY,15,3750,5000,380,240 F,0,121860,,1 S,0,121860,,0.02245236 MX,16,121860,121992,459,460 MY,15,121860,121992,261,240 F,0,128360,129560,1,0
Sprite,Foreground,Centre,"sb\dot.png",0,0 L,123092,2 MX,16,0,1250,320,224 MY,17,0,2500,144,336 MX,17,1250,3750,224,416 MY,17,2500,5000,336,144 MX,15,3750,5000,416,320 F,0,121953,,1 S,0,121953,,0.01533509 MX,15,121953,123092,410,320 MY,16,121953,123092,229,144 F,0,128360,129560,1,0
Sprite,Foreground,Centre,"sb\dot.png",0,0 L,123092,2 MX,16,0,1250,320,224 MY,17,0,2500,144,336 MX,17,1250,3750,224,416 MY,17,2500,5000,336,144 MX,15,3750,5000,416,320 F,0,121953,,1 S,0,121953,,0.005303744 MX,15,121953,123092,410,320 MY,16,121953,123092,229,144 F,0,128360,129560,1,0
Sprite,Foreground,Centre,"sb\dot.png",0,0 L,123268,2 MX,16,0,1250,320,60 MY,17,0,2500,-20,500 MX,17,1250,3750,60,580 MY,17,2500,5000,500,-20 MX,15,3750,5000,580,320 F,0,122141,,1 S,0,122141,,0.01880327 MX,15,122141,123268,576,320 MY,16,122141,123268,191,-20 F,0,128360,129560,1,0
Sprite,Foreground,Centre,"sb\dot.png",0,0 L,123268,2 MX,16,0,1250,320,60 MY,17,0,2500,-20,500 MX,17,1250,3750,60,580 MY,17,2500,5000,500,-20 MX,15,3750,5000,580,320 F,0,122141,,1 S,0,122141,,0.004085104 MX,15,122141,123268,576,320 MY,16,122141,123268,191,-20 F,0,128360,129560,1,0
Sprite,Foreground,Centre,"sb\dot.png",0,0 L,123364,2 MX,16,0,1250,320,60 MY,17,0,2500,-20,500 MX,17,1250,3750,60,580 MY,17,2500,5000,500,-20 MX,15,3750,5000,580,320 F,0,122235,,1 S,0,122235,,0.02400597 MX,15,122235,123364,576,320 MY,16,122235,123364,192,-20 F,0,128360,129560,1,0
Sprite,Foreground,Centre,"sb\dot.png",0,0 L,123364,2 MX,16,0,1250,320,60 MY,17,0,2500,-20,500 MX,17,1250,3750,60,580 MY,17,2500,5000,500,-20 MX,15,3750,5000,580,320 F,0,122235,,1 S,0,122235,,0.01234918 MX,15,122235,123364,576,320 MY,16,122235,123364,192,-20 F,0,128360,129560,1,0
Sprite,Foreground,Centre,"sb\dot.png",0,0 L,123113,2 MY,16,0,1250,240,35 MX,17,0,2500,525,115 MY,17,1250,3750,35,445 MX,17,2500,5000,115,525 MY,15,3750,5000,445,240 F,0,122422,,1 S,0,122422,,0.02189833 MX,16,122422,123113,463,525 MY,15,122422,123113,388,240 F,0,128360,129560,1,0
Sprite,Foreground,Centre,"sb\dot.png",0,0 L,123113,2 MY,16,0,1250,240,35 MX,17,0,2500,525,115 MY,17,1250,3750,35,445 MX,17,2500,5000,115,525 MY,15,3750,5000,445,240 F,0,122422,,1 S,0,122422,,0.02209323 MX,16,122422,123113,463,525 MY,15,122422,123113,388,240 F,0,128360,129560,1,0
Sprite,Foreground,Centre,"sb\dot.png",0,0 L,123256,2 MY,16,0,1250,240,80 MX,17,0,2500,480,160 MY,17,1250,3750,80,400 MX,17,2500,5000,160,480 MY,15,3750,5000,400,240 F,0,122515,,1 S,0,122515,,0.01553096 MX,16,122515,123256,424,480 MY,15,122515,123256,362,240 F,0,128360,129560,1,0
Sprite,Foreground,Centre,"sb\dot.png",0,0 L,123256,2 MY,16,0,1250,240,80 MX,17,0,2500,480,160 MY,17,1250,3750,80,400 MX,17,2500,5000,160,480 MY,15,3750,5000,400,240 F,0,122515,,1 S,0,122515,,0.01770393 MX,16,122515,123256,424,480 MY,15,122515,123256,362,240 F,0,128360,129560,1,0
Sprite,Foreground,Centre,"sb\dot.png",0,0 L,123769,2 MY,16,0,1250,240,84 MX,17,0,2500,476,164 MY,17,1250,3750,84,396 MX,17,2500,5000,164,476 MY,15,3750,5000,396,240 F,0,122609,,1 S,0,122609,,0.02562435 MX,16,122609,123769,342,476 MY,15,122609,123769,395,240 F,0,128360,129560,1,0
Sprite,Foreground,Centre,"sb\dot.png",0,0 L,123769,2 MY,16,0,1250,240,84 MX,17,0,2500,476,164 MY,17,1250,3750,84,396 MX,17,2500,5000,164,476 MY,15,3750,5000,396,240 F,0,122609,,1 S,0,122609,,0.01442531 MX,16,122609,123769,342,476 MY,15,122609,123769,395,240 F,0,128360,129560,1,0
Sprite,Foreground,Centre,"sb\dot.png",0,0 L,123810,2 MY,16,0,1250,240,98 MX,17,0,2500,462,178 MY,17,1250,3750,98,382 MX,17,2500,5000,178,462 MY,15,3750,5000,382,240 F,0,122703,,1 S,0,122703,,0.02745645 MX,16,122703,123810,351,462 MY,15,122703,123810,379,240 F,0,128360,129560,1,0
Sprite,Foreground,Centre,"sb\dot.png",0,0 L,123810,2 MY,16,0,1250,240,98 MX,17,0,2500,462,178 MY,17,1250,3750,98,382 MX,17,2500,5000,178,462 MY,15,3750,5000,382,240 F,0,122703,,1 S,0,122703,,0.01405886 MX,16,122703,123810,351,462 MY,15,122703,123810,379,240 F,0,128360,129560,1,0
Sprite,Foreground,Centre,"sb\dot.png",0,0 L,124029,2 MX,16,0,1250,320,158 MY,17,0,2500,78,402 MX,17,1250,3750,158,482 MY,17,2500,5000,402,78 MX,15,3750,5000,482,320 F,0,122891,,1 S,0,122891,,0.02501867 MX,15,122891,124029,480,320 MY,16,122891,124029,212,78 F,0,128360,129560,1,0
Sprite,Foreground,Centre,"sb\dot.png",0,0 L,124029,2 MX,16,0,1250,320,158 MY,17,0,2500,78,402 MX,17,1250,3750,158,482 MY,17,2500,5000,402,78 MX,15,3750,5000,482,320 F,0,122891,,1 S,0,122891,,0.01869447 MX,15,122891,124029,480,320 MY,16,122891,124029,212,78 F,0,128360,129560,1,0
Sprite,Foreground,Centre,"sb\dot.png",0,0 L,124152,2 MX,16,0,1250,320,166 MY,17,0,2500,86,394 MX,17,1250,3750,166,474 MY,17,2500,5000,394,86 MX,15,3750,5000,474,320 F,0,122985,,1 S,0,122985,,0.02328998 MX,15,122985,124152,473,320 MY,16,122985,124152,220,86 F,0,128360,129560,1,0
Sprite,Foreground,Centre,"sb\dot.png",0,0 L,124152,2 MX,16,0,1250,320,166 MY,17,0,2500,86,394 MX,17,1250,3750,166,474 MY,17,2500,5000,394,86 MX,15,3750,5000,474,320 F,0,122985,,1 S,0,122985,,0.009326032 MX,15,122985,124152,473,320 MY,16,122985,124152,220,86 F,0,128360,129560,1,0
Sprite,Foreground,Centre,"sb\dot.png",0,0 L,123912,2 MY,16,0,1250,240,338 MX,17,0,2500,222,418 MY,17,1250,3750,338,142 MX,17,2500,5000,418,222 MY,15,3750,5000,142,240 F,0,123172,,1 S,0,123172,,0.02793749 MX,16,123172,123912,268,222 MY,15,123172,123912,172,240 F,0,128360,129560,1,0
Sprite,Foreground,Centre,"sb\dot.png",0,0 L,123912,2 MY,16,0,1250,240,338 MX,17,0,2500,222,418 MY,17,1250,3750,338,142 MX,17,2500,5000,418,222 MY,15,3750,5000,142,240 F,0,123172,,1 S,0,123172,,0.01878314 MX,16,123172,123912,268,222 MY,15,123172,123912,172,240 F,0,128360,129560,1,0
Sprite,Foreground,Centre,"sb\dot.png",0,0 L,124034,2 MY,16,0,1250,240,341 MX,17,0,2500,219,421 MY,17,1250,3750,341,139 MX,17,2500,5000,421,219 MY,15,3750,5000,139,240 F,0,123266,,1 S,0,123266,,0.02977739 MX,16,123266,124034,278,219 MY,15,123266,124034,175,240 F,0,128360,129560,1,0
Sprite,Foreground,Centre,"sb\dot.png",0,0 L,124034,2 MY,16,0,1250,240,341 MX,17,0,2500,219,421 MY,17,1250,3750,341,139 MX,17,2500,5000,421,219 MY,15,3750,5000,139,240 F,0,123266,,1 S,0,123266,,0.004405655 MX,16,123266,124034,278,219 MY,15,123266,124034,175,240 F,0,128360,129560,1,0
Sprite,Foreground,Centre,"sb\dot.png",251,240 F,0,123360,,1 S,0,123360,,0.01783622 F,0,128360,129560,1,0
Sprite,Foreground,Centre,"sb\dot.png",251,240 F,0,123360,,1 S,0,123360,,0.007328491 F,0,128360,129560,1,0
Sprite,Foreground,Centre,"sb\dot.png",0,0 L,124407,1 MX,16,0,1250,320,427 MY,17,0,2500,347,133 MX,17,1250,3750,427,213 MY,17,2500,5000,133,347 MX,15,3750,5000,213,320 F,0,123453,,1 S,0,123453,,0.02908125 MX,15,123453,124407,262,320 MY,16,123453,124407,247,347 F,0,128360,129560,1,0
Sprite,Foreground,Centre,"sb\dot.png",0,0 L,124407,1 MX,16,0,1250,320,427 MY,17,0,2500,347,133 MX,17,1250,3750,427,213 MY,17,2500,5000,133,347 MX,15,3750,5000,213,320 F,0,123453,,1 S,0,123453,,0.01496707 MX,15,123453,124407,262,320 MY,16,123453,124407,247,347 F,0,128360,129560,1,0
Sprite,Foreground,Centre,"sb\dot.png",0,0 L,124381,1 MX,16,0,1250,320,554 MY,17,0,2500,474,6 MX,17,1250,3750,554,86 MY,17,2500,5000,6,474 MX,15,3750,5000,86,320 F,0,123641,,1 S,0,123641,,0.01461082 MX,15,123641,124381,142,320 MY,16,123641,124381,392,474 F,0,128360,129560,1,0
Sprite,Foreground,Centre,"sb\dot.png",0,0 L,124381,1 MX,16,0,1250,320,554 MY,17,0,2500,474,6 MX,17,1250,3750,554,86 MY,17,2500,5000,6,474 MX,15,3750,5000,86,320 F,0,123641,,1 S,0,123641,,0.02793369 MX,15,123641,124381,142,320 MY,16,123641,124381,392,474 F,0,128360,129560,1,0
Sprite,Foreground,Centre,"sb\dot.png",0,0 L,124516,1 MX,16,0,1250,320,558 MY,17,0,2500,478,2 MX,17,1250,3750,558,82 MY,17,2500,5000,2,478 MX,15,3750,5000,82,320 F,0,123734,,1 S,0,123734,,0.004487466 MX,15,123734,124516,131,320 MY,16,123734,124516,385,478 F,0,128360,129560,1,0
Sprite,Foreground,Centre,"sb\dot.png",0,0 L,124516,1 MX,16,0,1250,320,558 MY,17,0,2500,478,2 MX,17,1250,3750,558,82 MY,17,2500,5000,2,478 MX,15,3750,5000,82,320 F,0,123734,,1 S,0,123734,,0.02029646 MX,15,123734,124516,131,320 MY,16,123734,124516,385,478 F,0,128360,129560,1,0
Sprite,Foreground,Centre,"sb\dot.png",0,0 L,124446,1 MX,16,0,1250,320,424 MY,17,0,2500,344,136 MX,17,1250,3750,424,216 MY,17,2500,5000,136,344 MX,15,3750,5000,216,320 F,0,123922,,1 S,0,123922,,0.01131084 MX,15,123922,124446,261,320 MY,16,123922,124446,326,344 F,0,128360,129560,1,0
Sprite,Foreground,Centre,"sb\dot.png",0,0 L,124446,1 MX,16,0,1250,320,424 MY,17,0,2500,344,136 MX,17,1250,3750,424,216 MY,17,2500,5000,136,344 MX,15,3750,5000,216,320 F,0,123922,,1 S,0,123922,,0.02997417 MX,15,123922,124446,261,320 MY,16,123922,124446,326,344 F,0,128360,129560,1,0
Sprite,Foreground,Centre,"sb\dot.png",0,0 L,124914,1 MY,16,0,1250,240,13 MX,17,0,2500,547,93 MY,17,1250,3750,13,467 MX,17,2500,5000,93,547 MY,15,3750,5000,467,240 F,0,124110,,1 S,0,124110,,0.02636345 MX,16,124110,124914,453,547 MY,15,124110,124914,424,240 F,0,128360,129560,1,0
Sprite,Foreground,Centre,"sb\dot.png",0,0 L,124914,1 MY,16,0,1250,240,13 MX,17,0,2500,547,93 MY,17,1250,3750,13,467 MX,17,2500,5000,93,547 MY,15,3750,5000,467,240 F,0,124110,,1 S,0,124110,,0.01527795 MX,16,124110,124914,453,547 MY,15,124110,124914,424,240 F,0,128360,129560,1,0
Sprite,Foreground,Centre,"sb\dot.png",0,0 L,125096,1 MY,16,0,1250,240,80 MX,17,0,2500,480,160 MY,17,1250,3750,80,400 MX,17,2500,5000,160,480 MY,15,3750,5000,400,240 F,0,124203,,1 S,0,124203,,0.02100274 MX,16,124203,125096,399,480 MY,15,124203,125096,380,240 F,0,128360,129560,1,0
Sprite,Foreground,Centre,"sb\dot.png",0,0 L,125096,1 MY,16,0,1250,240,80 MX,17,0,2500,480,160 MY,17,1250,3750,80,400 MX,17,2500,5000,160,480 MY,15,3750,5000,400,240 F,0,124203,,1 S,0,124203,,0.005548562 MX,16,124203,125096,399,480 MY,15,124203,125096,380,240 F,0,128360,129560,1,0
Sprite,Foreground,Centre,"sb\dot.png",0,0 L,125580,1 MX,16,0,1250,320,160 MY,17,0,2500,80,400 MX,17,1250,3750,160,480 MY,17,2500,5000,400,80 MX,15,3750,5000,480,320 F,0,124391,,1 S,0,124391,,0.02980188 MX,15,124391,125580,480,320 MY,16,124391,125580,224,80 F,0,128360,129560,1,0
Sprite,Foreground,Centre,"sb\dot.png",0,0 L,125580,1 MX,16,0,1250,320,160 MY,17,0,2500,80,400 MX,17,1250,3750,160,480 MY,17,2500,5000,400,80 MX,15,3750,5000,480,320 F,0,124391,,1 S,0,124391,,0.02159942 MX,15,124391,125580,480,320 MY,16,124391,125580,224,80 F,0,128360,129560,1,0
Sprite,Foreground,Centre,"sb\dot.png",0,0 L,125641,1 MX,16,0,1250,320,150 MY,17,0,2500,70,410 MX,17,1250,3750,150,490 MY,17,2500,5000,410,70 MX,15,3750,5000,490,320 F,0,124484,,1 S,0,124484,,0.004390621 MX,15,124484,125641,489,320 MY,16,124484,125641,215,70 F,0,128360,129560,1,0
Sprite,Foreground,Centre,"sb\dot.png",0,0 L,125641,1 MX,16,0,1250,320,150 MY,17,0,2500,70,410 MX,17,1250,3750,150,490 MY,17,2500,5000,410,70 MX,15,3750,5000,490,320 F,0,124484,,1 S,0,124484,,0.02682556 MX,15,124484,125641,489,320 MY,16,124484,125641,215,70 F,0,128360,129560,1,0
Sprite,Foreground,Centre,"sb\dot.png",0,0 L,124931,1 MX,16,0,1250,320,134 MY,17,0,2500,54,426 MX,17,1250,3750,134,506 MY,17,2500,5000,426,54 MX,15,3750,5000,506,320 F,0,124672,,1 S,0,124672,,0.02192027 MX,15,124672,124931,374,320 MY,16,124672,124931,62,54 F,0,128360,129560,1,0
Sprite,Foreground,Centre,"sb\dot.png",0,0 L,124931,1 MX,16,0,1250,320,134 MY,17,0,2500,54,426 MX,17,1250,3750,134,506 MY,17,2500,5000,426,54 MX,15,3750,5000,506,320 F,0,124672,,1 S,0,124672,,0.01211065 MX,15,124672,124931,374,320 MY,16,124672,124931,62,54 F,0,128360,129560,1,0
Sprite,Foreground,Centre,"sb\dot.png",0,0 L,125044,1 MX,16,0,1250,320,156 MY,17,0,2500,76,404 MX,17,1250,3750,156,484 MY,17,2500,5000,404,76 MX,15,3750,5000,484,320 F,0,124766,,1 S,0,124766,,0.0250296 MX,15,124766,125044,371,320 MY,16,124766,125044,84,76 F,0,128360,129560,1,0
Sprite,Foreground,Centre,"sb\dot.png",0,0 L,125044,1 MX,16,0,1250,320,156 MY,17,0,2500,76,404 MX,17,1250,3750,156,484 MY,17,2500,5000,404,76 MX,15,3750,5000,484,320 F,0,124766,,1 S,0,124766,,0.02837952 MX,15,124766,125044,371,320 MY,16,124766,125044,84,76 F,0,128360,129560,1,0
Sprite,Foreground,Centre,"sb\dot.png",0,0 L,125190,1 MX,16,0,1250,320,221 MY,17,0,2500,141,339 MX,17,1250,3750,221,419 MY,17,2500,5000,339,141 MX,15,3750,5000,419,320 F,0,124860,,1 S,0,124860,,0.01701248 MX,15,124860,125190,349,320 MY,16,124860,125190,164,141 F,0,128360,129560,1,0
Sprite,Foreground,Centre,"sb\dot.png",0,0 L,125190,1 MX,16,0,1250,320,221 MY,17,0,2500,141,339 MX,17,1250,3750,221,419 MY,17,2500,5000,339,141 MX,15,3750,5000,419,320 F,0,124860,,1 S,0,124860,,0.007975997 MX,15,124860,125190,349,320 MY,16,124860,125190,164,141 F,0,128360,129560,1,0
Sprite,Foreground,Centre,"sb\dot.png",0,0 L,125454,1 MX,16,0,1250,320,223 MY,17,0,2500,143,337 MX,17,1250,3750,223,417 MY,17,2500,5000,337,143 MX,15,3750,5000,417,320 F,0,124953,,1 S,0,124953,,0.01677531 MX,15,124953,125454,373,320 MY,16,124953,125454,158,143 F,0,128360,129560,1,0
Sprite,Foreground,Centre,"sb\dot.png",0,0 L,125454,1 MX,16,0,1250,320,223 MY,17,0,2500,143,337 MX,17,1250,3750,223,417 MY,17,2500,5000,337,143 MX,15,3750,5000,417,320 F,0,124953,,1 S,0,124953,,0.01338639 MX,15,124953,125454,373,320 MY,16,124953,125454,158,143 F,0,128360,129560,1,0
Sprite,Foreground,Centre,"sb\dot.png",0,0 L,125483,1 MY,16,0,1250,240,374 MX,17,0,2500,186,454 MY,17,1250,3750,374,106 MX,17,2500,5000,454,186 MY,15,3750,5000,106,240 F,0,125141,,1 S,0,125141,,0.01318693 MX,16,125141,125483,196,186 MY,15,125141,125483,189,240 F,0,128360,129560,1,0
Sprite,Foreground,Centre,"sb\dot.png",0,0 L,125483,1 MY,16,0,1250,240,374 MX,17,0,2500,186,454 MY,17,1250,3750,374,106 MX,17,2500,5000,454,186 MY,15,3750,5000,106,240 F,0,125141,,1 S,0,125141,,0.01706514 MX,16,125141,125483,196,186 MY,15,125141,125483,189,240 F,0,128360,129560,1,0
Sprite,Foreground,Centre,"sb\dot.png",0,0 L,125614,1 MY,16,0,1250,240,383 MX,17,0,2500,177,463 MY,17,1250,3750,383,97 MX,17,2500,5000,463,177 MY,15,3750,5000,97,240 F,0,125235,,1 S,0,125235,,0.01335269 MX,16,125235,125614,190,177 MY,15,125235,125614,180,240 F,0,128360,129560,1,0
Sprite,Foreground,Centre,"sb\dot.png",0,0 L,125614,1 MY,16,0,1250,240,383 MX,17,0,2500,177,463 MY,17,1250,3750,383,97 MX,17,2500,5000,463,177 MY,15,3750,5000,97,240 F,0,125235,,1 S,0,125235,,0.01085142 MX,16,125235,125614,190,177 MY,15,125235,125614,180,240 F,0,128360,129560,1,0
Sprite,Foreground,Centre,"sb\dot.png",0,0 L,125942,1 MX,16,0,1250,320,431 MY,17,0,2500,351,129 MX,17,1250,3750,431,209 MY,17,2500,5000,129,351 MX,15,3750,5000,209,320 F,0,125422,,1 S,0,125422,,0.02546816 MX,15,125422,125942,313,320 MY,16,125422,125942,286,351 F,0,128360,129560,1,0
Sprite,Foreground,Centre,"sb\dot.png",0,0 L,125942,1 MX,16,0,1250,320,431 MY,17,0,2500,351,129 MX,17,1250,3750,431,209 MY,17,2500,5000,129,351 MX,15,3750,5000,209,320 F,0,125422,,1 S,0,125422,,0.02434142 MX,15,125422,125942,313,320 MY,16,125422,125942,286,351 F,0,128360,129560,1,0
Sprite,Foreground,Centre,"sb\dot.png",0,0 L,126597,1 MX,16,0,1250,320,84 MY,17,0,2500,4,476 MX,17,1250,3750,84,556 MY,17,2500,5000,476,4 MX,15,3750,5000,556,320 F,0,125610,,1 S,0,125610,,0.02267498 MX,15,125610,126597,539,320 MY,16,125610,126597,151,4 F,0,128360,129560,1,0
Sprite,Foreground,Centre,"sb\dot.png",0,0 L,126597,1 MX,16,0,1250,320,84 MY,17,0,2500,4,476 MX,17,1250,3750,84,556 MY,17,2500,5000,476,4 MX,15,3750,5000,556,320 F,0,125610,,1 S,0,125610,,0.01392944 MX,15,125610,126597,539,320 MY,16,125610,126597,151,4 F,0,128360,129560,1,0
Sprite,Foreground,Centre,"sb\dot.png",0,0 L,126680,1 MX,16,0,1250,320,135 MY,17,0,2500,55,425 MX,17,1250,3750,135,505 MY,17,2500,5000,425,55 MX,15,3750,5000,505,320 F,0,125704,,1 S,0,125704,,0.01746752 MX,15,125704,126680,491,320 MY,16,125704,126680,167,55 F,0,128360,129560,1,0
Sprite,Foreground,Centre,"sb\dot.png",0,0 L,126680,1 MX,16,0,1250,320,135 MY,17,0,2500,55,425 MX,17,1250,3750,135,505 MY,17,2500,5000,425,55 MX,15,3750,5000,505,320 F,0,125704,,1 S,0,125704,,0.01447478 MX,15,125704,126680,491,320 MY,16,125704,126680,167,55 F,0,128360,129560,1,0
Sprite,Foreground,Centre,"sb\dot.png",0,0 L,126963,1 MX,16,0,1250,320,134 MY,17,0,2500,54,426 MX,17,1250,3750,134,506 MY,17,2500,5000,426,54 MX,15,3750,5000,506,320 F,0,125798,,1 S,0,125798,,0.005003852 MX,15,125798,126963,505,320 MY,16,125798,126963,215,54 F,0,128360,129560,1,0
Sprite,Foreground,Centre,"sb\dot.png",0,0 L,126963,1 MX,16,0,1250,320,134 MY,17,0,2500,54,426 MX,17,1250,3750,134,506 MY,17,2500,5000,426,54 MX,15,3750,5000,506,320 F,0,125798,,1 S,0,125798,,0.0120389 MX,15,125798,126963,505,320 MY,16,125798,126963,215,54 F,0,128360,129560,1,0
Sprite,Foreground,Centre,"sb\dot.png",0,0 L,127029,1 MX,16,0,1250,320,82 MY,17,0,2500,2,478 MX,17,1250,3750,82,558 MY,17,2500,5000,478,2 MX,15,3750,5000,558,320 F,0,125891,,1 S,0,125891,,0.02773836 MX,15,125891,127029,555,320 MY,16,125891,127029,199,2 F,0,128360,129560,1,0
Sprite,Foreground,Centre,"sb\dot.png",0,0 L,127029,1 MX,16,0,1250,320,82 MY,17,0,2500,2,478 MX,17,1250,3750,82,558 MY,17,2500,5000,478,2 MX,15,3750,5000,558,320 F,0,125891,,1 S,0,125891,,0.02396464 MX,15,125891,127029,555,320 MY,16,125891,127029,199,2 F,0,128360,129560,1,0
Sprite,Foreground,Centre,"sb\dot.png",0,0 L,127056,1 MX,16,0,1250,320,111 MY,17,0,2500,31,449 MX,17,1250,3750,111,529 MY,17,2500,5000,449,31 MX,15,3750,5000,529,320 F,0,125985,,1 S,0,125985,,0.02060576 MX,15,125985,127056,522,320 MY,16,125985,127056,184,31 F,0,128360,129560,1,0
Sprite,Foreground,Centre,"sb\dot.png",0,0 L,127056,1 MX,16,0,1250,320,111 MY,17,0,2500,31,449 MX,17,1250,3750,111,529 MY,17,2500,5000,449,31 MX,15,3750,5000,529,320 F,0,125985,,1 S,0,125985,,0.02523449 MX,15,125985,127056,522,320 MY,16,125985,127056,184,31 F,0,128360,129560,1,0
Sprite,Foreground,Centre,"sb\dot.png",0,0 L,126469,1 MY,16,0,1250,240,-13 MX,17,0,2500,573,67 MY,17,1250,3750,-13,493 MX,17,2500,5000,67,573 MY,15,3750,5000,493,240 F,0,126266,,1 S,0,126266,,0.009393089 MX,16,126266,126469,567,573 MY,15,126266,126469,298,240 F,0,128360,129560,1,0
Sprite,Foreground,Centre,"sb\dot.png",0,0 L,126469,1 MY,16,0,1250,240,-13 MX,17,0,2500,573,67 MY,17,1250,3750,-13,493 MX,17,2500,5000,67,573 MY,15,3750,5000,493,240 F,0,126266,,1 S,0,126266,,0.02565018 MX,16,126266,126469,567,573 MY,15,126266,126469,298,240 F,0,128360,129560,1,0
Sprite,Foreground,Centre,"sb\dot.png",0,0 L,126526,1 MY,16,0,1250,240,-16 MX,17,0,2500,576,64 MY,17,1250,3750,-16,496 MX,17,2500,5000,64,576 MY,15,3750,5000,496,240 F,0,126360,,1 S,0,126360,,0.01806186 MX,16,126360,126526,572,576 MY,15,126360,126526,288,240 F,0,128360,129560,1,0
Sprite,Foreground,Centre,"sb\dot.png",0,0 L,126526,1 MY,16,0,1250,240,-16 MX,17,0,2500,576,64 MY,17,1250,3750,-16,496 MX,17,2500,5000,64,576 MY,15,3750,5000,496,240 F,0,126360,,1 S,0,126360,,0.0151785 MX,16,126360,126526,572,576 MY,15,126360,126526,288,240 F,0,128360,129560,1,0
Sprite,Foreground,Centre,"sb\dot.png",0,0 L,127458,1 MY,16,0,1250,240,93 MX,17,0,2500,467,173 MY,17,1250,3750,93,387 MX,17,2500,5000,173,467 MY,15,3750,5000,387,240 F,0,126547,,1 S,0,126547,,0.02305611 MX,16,126547,127458,389,467 MY,15,126547,127458,370,240 F,0,128360,129560,1,0
Sprite,Foreground,Centre,"sb\dot.png",0,0 L,127458,1 MY,16,0,1250,240,93 MX,17,0,2500,467,173 MY,17,1250,3750,93,387 MX,17,2500,5000,173,467 MY,15,3750,5000,387,240 F,0,126547,,1 S,0,126547,,0.02247011 MX,16,126547,127458,389,467 MY,15,126547,127458,370,240 F,0,128360,129560,1,0
Sprite,Foreground,Centre,"sb\dot.png",0,0 L,127517,1 MY,16,0,1250,240,86 MX,17,0,2500,474,166 MY,17,1250,3750,86,394 MX,17,2500,5000,166,474 MY,15,3750,5000,394,240 F,0,126641,,1 S,0,126641,,0.01889259 MX,16,126641,127517,399,474 MY,15,126641,127517,373,240 F,0,128360,129560,1,0
Sprite,Foreground,Centre,"sb\dot.png",0,0 L,127517,1 MY,16,0,1250,240,86 MX,17,0,2500,474,166 MY,17,1250,3750,86,394 MX,17,2500,5000,166,474 MY,15,3750,5000,394,240 F,0,126641,,1 S,0,126641,,0.004690568 MX,16,126641,127517,399,474 MY,15,126641,127517,373,240 F,0,128360,129560,1,0
Sprite,Foreground,Centre,"sb\dot.png",0,0 L,127334,1 MY,16,0,1250,240,68 MX,17,0,2500,492,148 MY,17,1250,3750,68,412 MX,17,2500,5000,148,492 MY,15,3750,5000,412,240 F,0,126735,,1 S,0,126735,,0.007935411 MX,16,126735,127334,453,492 MY,15,126735,127334,350,240 F,0,128360,129560,1,0
Sprite,Foreground,Centre,"sb\dot.png",0,0 L,127334,1 MY,16,0,1250,240,68 MX,17,0,2500,492,148 MY,17,1250,3750,68,412 MX,17,2500,5000,148,492 MY,15,3750,5000,412,240 F,0,126735,,1 S,0,126735,,0.004111937 MX,16,126735,127334,453,492 MY,15,126735,127334,350,240 F,0,128360,129560,1,0
Sprite,Foreground,Centre,"sb\dot.png",0,0 L,127773,1 MY,16,0,1250,240,103 MX,17,0,2500,457,183 MY,17,1250,3750,103,377 MX,17,2500,5000,183,457 MY,15,3750,5000,377,240 F,0,126828,,1 S,0,126828,,0.02686287 MX,16,126828,127773,379,457 MY,15,126828,127773,364,240 F,0,128360,129560,1,0
Sprite,Foreground,Centre,"sb\dot.png",0,0 L,127773,1 MY,16,0,1250,240,103 MX,17,0,2500,457,183 MY,17,1250,3750,103,377 MX,17,2500,5000,183,457 MY,15,3750,5000,377,240 F,0,126828,,1 S,0,126828,,0.02066673 MX,16,126828,127773,379,457 MY,15,126828,127773,364,240 F,0,128360,129560,1,0
Sprite,Foreground,Centre,"sb\dot.png",0,0 L,127018,1 MX,16,0,1250,320,458 MY,17,0,2500,378,102 MX,17,1250,3750,458,182 MY,17,2500,5000,102,378 MX,15,3750,5000,182,320 F,0,126922,,1 S,0,126922,,0.009376051 MX,15,126922,127018,305,320 MY,16,126922,127018,378 F,0,128360,129560,1,0
Sprite,Foreground,Centre,"sb\dot.png",0,0 L,127018,1 MX,16,0,1250,320,458 MY,17,0,2500,378,102 MX,17,1250,3750,458,182 MY,17,2500,5000,102,378 MX,15,3750,5000,182,320 F,0,126922,,1 S,0,126922,,0.0194567 MX,15,126922,127018,305,320 MY,16,126922,127018,378 F,0,128360,129560,1,0
Sprite,Foreground,Centre,"sb\dot.png",0,0 L,127113,1 MY,16,0,1250,240,464 MX,17,0,2500,96,544 MY,17,1250,3750,464,16 MX,17,2500,5000,544,96 MY,15,3750,5000,16,240 F,0,127110,,1 S,0,127110,,0.02031601 MX,16,127110,127113,96 MY,15,127110,127113,239,240 F,0,128360,129560,1,0
Sprite,Foreground,Centre,"sb\dot.png",0,0 L,127113,1 MY,16,0,1250,240,464 MX,17,0,2500,96,544 MY,17,1250,3750,464,16 MX,17,2500,5000,544,96 MY,15,3750,5000,16,240 F,0,127110,,1 S,0,127110,,0.02410525 MX,16,127110,127113,96 MY,15,127110,127113,239,240 F,0,128360,129560,1,0
Sprite,Foreground,Centre,"sb\dot.png",0,0 L,128053,1 MX,16,0,1250,320,427 MY,17,0,2500,347,133 MX,17,1250,3750,427,213 MY,17,2500,5000,133,347 MX,15,3750,5000,213,320 F,0,127297,,1 S,0,127297,,0.02819176 MX,15,127297,128053,269,320 MY,16,127297,128053,271,347 F,0,128360,129560,1,0
Sprite,Foreground,Centre,"sb\dot.png",0,0 L,128053,1 MX,16,0,1250,320,427 MY,17,0,2500,347,133 MX,17,1250,3750,427,213 MY,17,2500,5000,133,347 MX,15,3750,5000,213,320 F,0,127297,,1 S,0,127297,,0.00422443 MX,15,127297,128053,269,320 MY,16,127297,128053,271,347 F,0,128360,129560,1,0
Sprite,Foreground,Centre,"sb\dot.png",0,0 L,128121,1 MX,16,0,1250,320,424 MY,17,0,2500,344,136 MX,17,1250,3750,424,216 MY,17,2500,5000,136,344 MX,15,3750,5000,216,320 F,0,127391,,1 S,0,127391,,0.01774677 MX,15,127391,128121,265,320 MY,16,127391,128121,278,344 F,0,128360,129560,1,0
Sprite,Foreground,Centre,"sb\dot.png",0,0 L,128121,1 MX,16,0,1250,320,424 MY,17,0,2500,344,136 MX,17,1250,3750,424,216 MY,17,2500,5000,136,344 MX,15,3750,5000,216,320 F,0,127391,,1 S,0,127391,,0.01742232 MX,15,127391,128121,265,320 MY,16,127391,128121,278,344 F,0,128360,129560,1,0
Sprite,Foreground,Centre,"sb\dot.png",0,0 L,128313,1 MX,16,0,1250,320,445 MY,17,0,2500,365,115 MX,17,1250,3750,445,195 MY,17,2500,5000,115,365 MX,15,3750,5000,195,320 F,0,127485,,1 S,0,127485,,0.009943771 MX,15,127485,128313,216,320 MY,16,127485,128313,311,365 F,0,128360,129560,1,0
Sprite,Foreground,Centre,"sb\dot.png",0,0 L,128313,1 MX,16,0,1250,320,445 MY,17,0,2500,365,115 MX,17,1250,3750,445,195 MY,17,2500,5000,115,365 MX,15,3750,5000,195,320 F,0,127485,,1 S,0,127485,,0.003459421 MX,15,127485,128313,216,320 MY,16,127485,128313,311,365 F,0,128360,129560,1,0
Sprite,Foreground,Centre,"sb\dot.png",0,0 L,128389,1 MX,16,0,1250,320,428 MY,17,0,2500,348,132 MX,17,1250,3750,428,212 MY,17,2500,5000,132,348 MX,15,3750,5000,212,320 F,0,127578,,1 S,0,127578,,0.00750601 MX,15,127578,128389,269,320 MY,16,127578,128389,263,348 F,0,128360,129560,1,0
Sprite,Foreground,Centre,"sb\dot.png",0,0 L,128389,1 MX,16,0,1250,320,428 MY,17,0,2500,348,132 MX,17,1250,3750,428,212 MY,17,2500,5000,132,348 MX,15,3750,5000,212,320 F,0,127578,,1 S,0,127578,,0.005022026 MX,15,127578,128389,269,320 MY,16,127578,128389,263,348 F,0,128360,129560,1,0
Sprite,Foreground,Centre,"sb\dot.png",0,0 L,128427,1 MY,16,0,1250,240,121 MX,17,0,2500,439,201 MY,17,1250,3750,121,359 MX,17,2500,5000,201,439 MY,15,3750,5000,359,240 F,0,127672,,1 S,0,127672,,0.02260297 MX,16,127672,128427,338,439 MY,15,127672,128427,252,240 F,0,128360,129560,1,0
Sprite,Foreground,Centre,"sb\dot.png",0,0 L,128427,1 MY,16,0,1250,240,121 MX,17,0,2500,439,201 MY,17,1250,3750,121,359 MX,17,2500,5000,201,439 MY,15,3750,5000,359,240 F,0,127672,,1 S,0,127672,,0.01007331 MX,16,127672,128427,338,439 MY,15,127672,128427,252,240 F,0,128360,129560,1,0
Sprite,Foreground,Centre,"sb\dot.png",0,0 L,127921,1 MY,16,0,1250,240,26 MX,17,0,2500,534,106 MY,17,1250,3750,26,454 MX,17,2500,5000,106,534 MY,15,3750,5000,454,240 F,0,127860,,1 S,0,127860,,0.01808104 MX,16,127860,127921,534 MY,15,127860,127921,255,240 F,0,128360,129560,1,0
Sprite,Foreground,Centre,"sb\dot.png",0,0 L,127921,1 MY,16,0,1250,240,26 MX,17,0,2500,534,106 MY,17,1250,3750,26,454 MX,17,2500,5000,106,534 MY,15,3750,5000,454,240 F,0,127860,,1 S,0,127860,,0.0183271 MX,16,127860,127921,534 MY,15,127860,127921,255,240 F,0,128360,129560,1,0
Sprite,Foreground,Centre,"sb\dot.png",0,0 L,128877,1 MX,16,0,1250,320,200 MY,17,0,2500,120,360 MX,17,1250,3750,200,440 MY,17,2500,5000,360,120 MX,15,3750,5000,440,320 F,0,128047,,1 S,0,128047,,0.01959556 MX,15,128047,128877,420,320 MY,16,128047,128877,172,120 F,0,128360,129560,1,0
Sprite,Foreground,Centre,"sb\dot.png",0,0 L,128877,1 MX,16,0,1250,320,200 MY,17,0,2500,120,360 MX,17,1250,3750,200,440 MY,17,2500,5000,360,120 MX,15,3750,5000,440,320 F,0,128047,,1 S,0,128047,,0.02235172 MX,15,128047,128877,420,320 MY,16,128047,128877,172,120 F,0,128360,129560,1,0
Sprite,Foreground,Centre,"sb\dot.png",0,0 L,129019,1 MX,16,0,1250,320,202 MY,17,0,2500,122,358 MX,17,1250,3750,202,438 MY,17,2500,5000,358,122 MX,15,3750,5000,438,320 F,0,128141,,1 S,0,128141,,0.0290872 MX,15,128141,129019,422,320 MY,16,128141,129019,180,122 F,0,128360,129560,1,0
Sprite,Foreground,Centre,"sb\dot.png",0,0 L,129019,1 MX,16,0,1250,320,202 MY,17,0,2500,122,358 MX,17,1250,3750,202,438 MY,17,2500,5000,358,122 MX,15,3750,5000,438,320 F,0,128141,,1 S,0,128141,,0.02795562 MX,15,128141,129019,422,320 MY,16,128141,129019,180,122 F,0,128360,129560,1,0
Sprite,Foreground,Centre,"sb\dot.png",0,0 L,128541,1 MX,16,0,1250,320,220 MY,17,0,2500,140,340 MX,17,1250,3750,220,420 MY,17,2500,5000,340,140 MX,15,3750,5000,420,320 F,0,128235,,1 S,0,128235,,0.02150489 MX,15,128235,128541,345,320 MY,16,128235,128541,164,140 F,0,128360,129560,1,0
Sprite,Foreground,Centre,"sb\dot.png",0,0 L,128541,1 MX,16,0,1250,320,220 MY,17,0,2500,140,340 MX,17,1250,3750,220,420 MY,17,2500,5000,340,140 MX,15,3750,5000,420,320 F,0,128235,,1 S,0,128235,,0.02979511 MX,15,128235,128541,345,320 MY,16,128235,128541,164,140 F,0,128360,129560,1,0
Sprite,Foreground,Centre,"sb\dot.png",0,0 L,128562,1 MX,16,0,1250,320,210 MY,17,0,2500,130,350 MX,17,1250,3750,210,430 MY,17,2500,5000,350,130 MX,15,3750,5000,430,320 F,0,128328,,1 S,0,128328,,0.02198643 MX,15,128328,128562,349,320 MY,16,128328,128562,133,130 F,0,128360,129560,1,0
Sprite,Foreground,Centre,"sb\dot.png",0,0 L,128562,1 MX,16,0,1250,320,210 MY,17,0,2500,130,350 MX,17,1250,3750,210,430 MY,17,2500,5000,350,130 MX,15,3750,5000,430,320 F,0,128328,,1 S,0,128328,,0.0213623 MX,15,128328,128562,349,320 MY,16,128328,128562,133,130 F,0,128360,129560,1,0
Sprite,Foreground,Centre,"sb\dot.png",0,0 L,128622,1 MX,16,0,1250,320,178 MY,17,0,2500,98,382 MX,17,1250,3750,178,462 MY,17,2500,5000,382,98 MX,15,3750,5000,462,320 F,0,128422,,1 S,0,128422,,0.01991413 MX,15,128422,128622,352,320 MY,16,128422,128622,101,98 F,0,128422,129560,0.4,0
Sprite,Foreground,Centre,"sb\dot.png",0,0 L,128622,1 MX,16,0,1250,320,178 MY,17,0,2500,98,382 MX,17,1250,3750,178,462 MY,17,2500,5000,382,98 MX,15,3750,5000,462,320 F,0,128422,,1 S,0,128422,,0.004596815 MX,15,128422,128622,352,320 MY,16,128422,128622,101,98 F,0,128422,129560,0.4,0
Sprite,Foreground,Centre,"sb\dot.png",0,0 L,129091,1 MY,16,0,1250,240,337 MX,17,0,2500,223,417 MY,17,1250,3750,337,143 MX,17,2500,5000,417,223 MY,15,3750,5000,143,240 F,0,128610,,1 S,0,128610,,0.02033028 MX,16,128610,129091,245,223 MY,15,128610,129091,192,240 F,0,128610,129560,0.4,0
Sprite,Foreground,Centre,"sb\dot.png",0,0 L,129091,1 MY,16,0,1250,240,337 MX,17,0,2500,223,417 MY,17,1250,3750,337,143 MX,17,2500,5000,417,223 MY,15,3750,5000,143,240 F,0,128610,,1 S,0,128610,,0.02071682 MX,16,128610,129091,245,223 MY,15,128610,129091,192,240 F,0,128610,129560,0.4,0
Sprite,Foreground,Centre,"sb\dot.png",0,0 L,129415,1 MY,16,0,1250,240,449 MX,17,0,2500,111,529 MY,17,1250,3750,449,31 MX,17,2500,5000,529,111 MY,15,3750,5000,31,240 F,0,128797,,1 S,0,128797,,0.02817255 MX,16,128797,129415,162,111 MY,15,128797,129415,103,240 F,0,128797,129560,0.4,0
Sprite,Foreground,Centre,"sb\dot.png",0,0 L,129415,1 MY,16,0,1250,240,449 MX,17,0,2500,111,529 MY,17,1250,3750,449,31 MX,17,2500,5000,529,111 MY,15,3750,5000,31,240 F,0,128797,,1 S,0,128797,,0.01166212 MX,16,128797,129415,162,111 MY,15,128797,129415,103,240 F,0,128797,129560,0.4,0
Sprite,Foreground,Centre,"sb\dot.png",0,0 L,129451,1 MY,16,0,1250,240,442 MX,17,0,2500,118,522 MY,17,1250,3750,442,38 MX,17,2500,5000,522,118 MY,15,3750,5000,38,240 F,0,128890,,1 S,0,128890,,0.005916005 MX,16,128890,129451,158,118 MY,15,128890,129451,118,240 F,0,128890,129560,0.4,0
Sprite,Foreground,Centre,"sb\dot.png",0,0 L,129451,1 MY,16,0,1250,240,442 MX,17,0,2500,118,522 MY,17,1250,3750,442,38 MX,17,2500,5000,522,118 MY,15,3750,5000,38,240 F,0,128890,,1 S,0,128890,,0.02435622 MX,16,128890,129451,158,118 MY,15,128890,129451,118,240 F,0,128890,129560,0.4,0
Sprite,Foreground,Centre,"sb\dot.png",0,0 L,129482,1 MY,16,0,1250,240,434 MX,17,0,2500,126,514 MY,17,1250,3750,434,46 MX,17,2500,5000,514,126 MY,15,3750,5000,46,240 F,0,128985,,1 S,0,128985,,0.02747855 MX,16,128985,129482,156,126 MY,15,128985,129482,135,240 F,0,128985,129560,0.4,0
Sprite,Foreground,Centre,"sb\dot.png",0,0 L,129482,1 MY,16,0,1250,240,434 MX,17,0,2500,126,514 MY,17,1250,3750,434,46 MX,17,2500,5000,514,126 MY,15,3750,5000,46,240 F,0,128985,,1 S,0,128985,,0.005008243 MX,16,128985,129482,156,126 MY,15,128985,129482,135,240 F,0,128985,129560,0.4,0
Sprite,Foreground,Centre,"sb\dot.png",0,0 L,130071,1 MY,16,0,1250,240,373 MX,17,0,2500,187,453 MY,17,1250,3750,373,107 MX,17,2500,5000,453,187 MY,15,3750,5000,107,240 F,0,129172,,1 S,0,129172,,0.007553389 F,0,129172,129560,0.4,0 MX,16,129172,130071,255,187 MY,15,129172,130071,123,240
Sprite,Foreground,Centre,"sb\dot.png",0,0 L,130071,1 MY,16,0,1250,240,373 MX,17,0,2500,187,453 MY,17,1250,3750,373,107 MX,17,2500,5000,453,187 MY,15,3750,5000,107,240 F,0,129172,,1 S,0,129172,,0.02801082 F,0,129172,129560,0.4,0 MX,16,129172,130071,255,187 MY,15,129172,130071,123,240
Sprite,Foreground,Centre,"sb\hl.png",147,402 S,0,12360,,0.6 C,0,12360,,80,141,135 F,2,12360,12841,0.4,0
Sprite,Foreground,Centre,"sb\hl.png",146,396 S,0,12378,,0.6 C,0,12378,,80,141,135 F,2,12378,12841,0.4,0
Sprite,Foreground,Centre,"sb\hl.png",146,389 S,0,12397,,0.6 C,0,12397,,80,141,135 F,2,12397,12841,0.4,0
Sprite,Foreground,Centre,"sb\hl.png",145,383 S,0,12416,,0.6 C,0,12416,,80,141,135 F,2,12416,12841,0.4,0
Sprite,Foreground,Centre,"sb\hl.png",144,377 S,0,12435,,0.6 C,0,12435,,80,141,135 F,2,12435,12841,0.4,0
Sprite,Foreground,Centre,"sb\hl.png",144,370 S,0,12453,,0.6 C,0,12453,,80,141,135 F,2,12453,12841,0.4,0
Sprite,Foreground,Centre,"sb\hl.png",144,377 S,0,12472,,0.6 C,0,12472,,80,141,135 F,2,12472,12841,0.4,0
Sprite,Foreground,Centre,"sb\hl.png",145,383 S,0,12491,,0.6 C,0,12491,,80,141,135 F,2,12491,12841,0.4,0
Sprite,Foreground,Centre,"sb\hl.png",146,389 S,0,12510,,0.6 C,0,12510,,80,141,135 F,2,12510,12841,0.4,0
Sprite,Foreground,Centre,"sb\hl.png",146,396 S,0,12528,,0.6 C,0,12528,,80,141,135 F,2,12528,12841,0.4,0
Sprite,Foreground,Centre,"sb\hl.png",147,402 S,0,12547,,0.6 C,0,12547,,80,141,135 F,2,12547,12841,0.4,0
Sprite,Foreground,Centre,"sb\hl.png",146,396 S,0,12566,,0.6 C,0,12566,,80,141,135 F,2,12566,12841,0.4,0
Sprite,Foreground,Centre,"sb\hl.png",146,389 S,0,12585,,0.6 C,0,12585,,80,141,135 F,2,12585,12841,0.4,0
Sprite,Foreground,Centre,"sb\hl.png",145,383 S,0,12603,,0.6 C,0,12603,,80,141,135 F,2,12603,12841,0.4,0
Sprite,Foreground,Centre,"sb\hl.png",144,377 S,0,12622,,0.6 C,0,12622,,80,141,135 F,2,12622,12841,0.4,0
Sprite,Foreground,Centre,"sb\hl.png",135,297 S,0,12735,,0.6 C,0,12735,,80,141,135 F,2,12735,12935,1,0
Sprite,Foreground,Centre,"sb\hl.png",240,368 S,0,12922,,0.6 C,0,12922,,80,141,135 F,2,12922,13403,0.4,0
Sprite,Foreground,Centre,"sb\hl.png",239,362 S,0,12940,,0.6 C,0,12940,,80,141,135 F,2,12940,13403,0.4,0
Sprite,Foreground,Centre,"sb\hl.png",239,355 S,0,12959,,0.6 C,0,12959,,80,141,135 F,2,12959,13403,0.4,0
Sprite,Foreground,Centre,"sb\hl.png",238,349 S,0,12978,,0.6 C,0,12978,,80,141,135 F,2,12978,13403,0.4,0
Sprite,Foreground,Centre,"sb\hl.png",237,343 S,0,12997,,0.6 C,0,12997,,80,141,135 F,2,12997,13403,0.4,0
Sprite,Foreground,Centre,"sb\hl.png",237,336 S,0,13015,,0.6 C,0,13015,,80,141,135 F,2,13015,13403,0.4,0
Sprite,Foreground,Centre,"sb\hl.png",237,343 S,0,13034,,0.6 C,0,13034,,80,141,135 F,2,13034,13403,0.4,0
Sprite,Foreground,Centre,"sb\hl.png",238,349 S,0,13053,,0.6 C,0,13053,,80,141,135 F,2,13053,13403,0.4,0
Sprite,Foreground,Centre,"sb\hl.png",239,355 S,0,13072,,0.6 C,0,13072,,80,141,135 F,2,13072,13403,0.4,0
Sprite,Foreground,Centre,"sb\hl.png",239,362 S,0,13090,,0.6 C,0,13090,,80,141,135 F,2,13090,13403,0.4,0
Sprite,Foreground,Centre,"sb\hl.png",240,368 S,0,13109,,0.6 C,0,13109,,80,141,135 F,2,13109,13403,0.4,0
Sprite,Foreground,Centre,"sb\hl.png",239,362 S,0,13128,,0.6 C,0,13128,,80,141,135 F,2,13128,13403,0.4,0
Sprite,Foreground,Centre,"sb\hl.png",239,355 S,0,13147,,0.6 C,0,13147,,80,141,135 F,2,13147,13403,0.4,0
Sprite,Foreground,Centre,"sb\hl.png",238,349 S,0,13165,,0.6 C,0,13165,,80,141,135 F,2,13165,13403,0.4,0
Sprite,Foreground,Centre,"sb\hl.png",237,343 S,0,13184,,0.6 C,0,13184,,80,141,135 F,2,13184,13403,0.4,0
Sprite,Foreground,Centre,"sb\hl.png",228,263 S,0,13297,,0.6 C,0,13297,,80,141,135 F,2,13297,13497,1,0
Sprite,Foreground,Centre,"sb\hl.png",333,334 S,0,13485,,0.6 C,0,13485,,80,141,135 F,2,13485,13966,0.4,0
Sprite,Foreground,Centre,"sb\hl.png",332,328 S,0,13503,,0.6 C,0,13503,,80,141,135 F,2,13503,13966,0.4,0
Sprite,Foreground,Centre,"sb\hl.png",332,321 S,0,13522,,0.6 C,0,13522,,80,141,135 F,2,13522,13966,0.4,0
Sprite,Foreground,Centre,"sb\hl.png",331,315 S,0,13541,,0.6 C,0,13541,,80,141,135 F,2,13541,13966,0.4,0
Sprite,Foreground,Centre,"sb\hl.png",330,309 S,0,13560,,0.6 C,0,13560,,80,141,135 F,2,13560,13966,0.4,0
Sprite,Foreground,Centre,"sb\hl.png",330,302 S,0,13578,,0.6 C,0,13578,,80,141,135 F,2,13578,13966,0.4,0
Sprite,Foreground,Centre,"sb\hl.png",330,309 S,0,13597,,0.6 C,0,13597,,80,141,135 F,2,13597,13966,0.4,0
Sprite,Foreground,Centre,"sb\hl.png",331,315 S,0,13616,,0.6 C,0,13616,,80,141,135 F,2,13616,13966,0.4,0
Sprite,Foreground,Centre,"sb\hl.png",332,321 S,0,13635,,0.6 C,0,13635,,80,141,135 F,2,13635,13966,0.4,0
Sprite,Foreground,Centre,"sb\hl.png",332,328 S,0,13653,,0.6 C,0,13653,,80,141,135 F,2,13653,13966,0.4,0
Sprite,Foreground,Centre,"sb\hl.png",333,334 S,0,13672,,0.6 C,0,13672,,80,141,135 F,2,13672,13966,0.4,0
Sprite,Foreground,Centre,"sb\hl.png",332,328 S,0,13691,,0.6 C,0,13691,,80,141,135 F,2,13691,13966,0.4,0
Sprite,Foreground,Centre,"sb\hl.png",332,321 S,0,13710,,0.6 C,0,13710,,80,141,135 F,2,13710,13966,0.4,0
Sprite,Foreground,Centre,"sb\hl.png",331,315 S,0,13728,,0.6 C,0,13728,,80,141,135 F,2,13728,13966,0.4,0
Sprite,Foreground,Centre,"sb\hl.png",330,309 S,0,13747,,0.6 C,0,13747,,80,141,135 F,2,13747,13966,0.4,0
Sprite,Foreground,Centre,"sb\hl.png",321,229 S,0,13860,,0.6 C,0,13860,,80,141,135 F,2,13860,14060,1,0
Sprite,Foreground,Centre,"sb\hl.png",426,300 S,0,14047,,0.6 C,0,14047,,80,141,135 F,2,14047,14528,0.4,0
Sprite,Foreground,Centre,"sb\hl.png",425,294 S,0,14065,,0.6 C,0,14065,,80,141,135 F,2,14065,14528,0.4,0
Sprite,Foreground,Centre,"sb\hl.png",425,287 S,0,14084,,0.6 C,0,14084,,80,141,135 F,2,14084,14528,0.4,0
Sprite,Foreground,Centre,"sb\hl.png",424,281 S,0,14103,,0.6 C,0,14103,,80,141,135 F,2,14103,14528,0.4,0
Sprite,Foreground,Centre,"sb\hl.png",423,275 S,0,14122,,0.6 C,0,14122,,80,141,135 F,2,14122,14528,0.4,0
Sprite,Foreground,Centre,"sb\hl.png",423,268 S,0,14140,,0.6 C,0,14140,,80,141,135 F,2,14140,14528,0.4,0
Sprite,Foreground,Centre,"sb\hl.png",423,275 S,0,14159,,0.6 C,0,14159,,80,141,135 F,2,14159,14528,0.4,0
Sprite,Foreground,Centre,"sb\hl.png",424,281 S,0,14178,,0.6 C,0,14178,,80,141,135 F,2,14178,14528,0.4,0
Sprite,Foreground,Centre,"sb\hl.png",425,287 S,0,14197,,0.6 C,0,14197,,80,141,135 F,2,14197,14528,0.4,0
Sprite,Foreground,Centre,"sb\hl.png",425,294 S,0,14215,,0.6 C,0,14215,,80,141,135 F,2,14215,14528,0.4,0
Sprite,Foreground,Centre,"sb\hl.png",426,300 S,0,14234,,0.6 C,0,14234,,80,141,135 F,2,14234,14528,0.4,0
Sprite,Foreground,Centre,"sb\hl.png",425,294 S,0,14253,,0.6 C,0,14253,,80,141,135 F,2,14253,14528,0.4,0
Sprite,Foreground,Centre,"sb\hl.png",425,287 S,0,14272,,0.6 C,0,14272,,80,141,135 F,2,14272,14528,0.4,0
Sprite,Foreground,Centre,"sb\hl.png",424,281 S,0,14290,,0.6 C,0,14290,,80,141,135 F,2,14290,14528,0.4,0
Sprite,Foreground,Centre,"sb\hl.png",423,275 S,0,14309,,0.6 C,0,14309,,80,141,135 F,2,14309,14528,0.4,0
Sprite,Foreground,Centre,"sb\hl.png",414,195 S,0,14422,,0.6 C,0,14422,,80,141,135 F,2,14422,14622,1,0
Sprite,Foreground,Centre,"sb\hl.png",537,356 S,0,14610,,0.6 C,0,14610,,80,141,135 F,2,14610,15091,0.4,0
Sprite,Foreground,Centre,"sb\hl.png",538,350 S,0,14628,,0.6 C,0,14628,,80,141,135 F,2,14628,15091,0.4,0
Sprite,Foreground,Centre,"sb\hl.png",538,343 S,0,14647,,0.6 C,0,14647,,80,141,135 F,2,14647,15091,0.4,0
Sprite,Foreground,Centre,"sb\hl.png",539,337 S,0,14666,,0.6 C,0,14666,,80,141,135 F,2,14666,15091,0.4,0
Sprite,Foreground,Centre,"sb\hl.png",539,331 S,0,14685,,0.6 C,0,14685,,80,141,135 F,2,14685,15091,0.4,0
Sprite,Foreground,Centre,"sb\hl.png",540,324 S,0,14703,,0.6 C,0,14703,,80,141,135 F,2,14703,15091,0.4,0
Sprite,Foreground,Centre,"sb\hl.png",541,318 S,0,14722,,0.6 C,0,14722,,80,141,135 F,2,14722,15091,0.4,0
Sprite,Foreground,Centre,"sb\hl.png",541,311 S,0,14741,,0.6 C,0,14741,,80,141,135 F,2,14741,15091,0.4,0
Sprite,Foreground,Centre,"sb\hl.png",542,305 S,0,14760,,0.6 C,0,14760,,80,141,135 F,2,14760,15091,0.4,0
Sprite,Foreground,Centre,"sb\hl.png",542,299 S,0,14778,,0.6 C,0,14778,,80,141,135 F,2,14778,15091,0.4,0
Sprite,Foreground,Centre,"sb\hl.png",543,292 S,0,14797,,0.6 C,0,14797,,80,141,135 F,2,14797,15091,0.4,0
Sprite,Foreground,Centre,"sb\hl.png",544,286 S,0,14816,,0.6 C,0,14816,,80,141,135 F,2,14816,15091,0.4,0
Sprite,Foreground,Centre,"sb\hl.png",544,280 S,0,14835,,0.6 C,0,14835,,80,141,135 F,2,14835,15091,0.4,0
Sprite,Foreground,Centre,"sb\hl.png",545,273 S,0,14853,,0.6 C,0,14853,,80,141,135 F,2,14853,15091,0.4,0
Sprite,Foreground,Centre,"sb\hl.png",545,267 S,0,14872,,0.6 C,0,14872,,80,141,135 F,2,14872,15091,0.4,0
Sprite,Foreground,Centre,"sb\hl.png",553,189 S,0,14985,,0.6 C,0,14985,,80,141,135 F,2,14985,15560,0.4,0
Sprite,Foreground,Centre,"sb\hl.png",547,189 S,0,15003,,0.6 C,0,15003,,80,141,135 F,2,15003,15560,0.4,0
Sprite,Foreground,Centre,"sb\hl.png",540,189 S,0,15022,,0.6 C,0,15022,,80,141,135 F,2,15022,15560,0.4,0
Sprite,Foreground,Centre,"sb\hl.png",534,189 S,0,15041,,0.6 C,0,15041,,80,141,135 F,2,15041,15560,0.4,0
Sprite,Foreground,Centre,"sb\hl.png",528,190 S,0,15060,,0.6 C,0,15060,,80,141,135 F,2,15060,15560,0.4,0
Sprite,Foreground,Centre,"sb\hl.png",522,192 S,0,15078,,0.6 C,0,15078,,80,141,135 F,2,15078,15560,0.4,0
Sprite,Foreground,Centre,"sb\hl.png",516,195 S,0,15097,,0.6 C,0,15097,,80,141,135 F,2,15097,15560,0.4,0
Sprite,Foreground,Centre,"sb\hl.png",510,197 S,0,15116,,0.6 C,0,15116,,80,141,135 F,2,15116,15560,0.4,0
Sprite,Foreground,Centre,"sb\hl.png",504,201 S,0,15135,,0.6 C,0,15135,,80,141,135 F,2,15135,15560,0.4,0
Sprite,Foreground,Centre,"sb\hl.png",499,204 S,0,15153,,0.6 C,0,15153,,80,141,135 F,2,15153,15560,0.4,0
Sprite,Foreground,Centre,"sb\hl.png",494,209 S,0,15172,,0.6 C,0,15172,,80,141,135 F,2,15172,15560,0.4,0
Sprite,Foreground,Centre,"sb\hl.png",499,204 S,0,15191,,0.6 C,0,15191,,80,141,135 F,2,15191,15560,0.4,0
Sprite,Foreground,Centre,"sb\hl.png",504,201 S,0,15210,,0.6 C,0,15210,,80,141,135 F,2,15210,15560,0.4,0
Sprite,Foreground,Centre,"sb\hl.png",510,197 S,0,15228,,0.6 C,0,15228,,80,141,135 F,2,15228,15560,0.4,0
Sprite,Foreground,Centre,"sb\hl.png",516,195 S,0,15247,,0.6 C,0,15247,,80,141,135 F,2,15247,15560,0.4,0
Sprite,Foreground,Centre,"sb\hl.png",522,192 S,0,15266,,0.6 C,0,15266,,80,141,135 F,2,15266,15560,0.4,0
Sprite,Foreground,Centre,"sb\hl.png",528,190 S,0,15285,,0.6 C,0,15285,,80,141,135 F,2,15285,15560,0.4,0
Sprite,Foreground,Centre,"sb\hl.png",534,189 S,0,15303,,0.6 C,0,15303,,80,141,135 F,2,15303,15560,0.4,0
Sprite,Foreground,Centre,"sb\hl.png",540,189 S,0,15322,,0.6 C,0,15322,,80,141,135 F,2,15322,15560,0.4,0
Sprite,Foreground,Centre,"sb\hl.png",547,189 S,0,15341,,0.6 C,0,15341,,80,141,135 F,2,15341,15560,0.4,0
Sprite,Foreground,Centre,"sb\hl.png",383,400 S,0,15735,,0.6 C,0,15735,,80,141,135 F,2,15735,15935,1,0
Sprite,Foreground,Centre,"sb\hl.png",383,400 S,0,15922,,0.6 C,0,15922,,80,141,135 F,2,15922,16403,0.4,0
Sprite,Foreground,Centre,"sb\hl.png",377,399 S,0,15940,,0.6 C,0,15940,,80,141,135 F,2,15940,16403,0.4,0
Sprite,Foreground,Centre,"sb\hl.png",370,399 S,0,15959,,0.6 C,0,15959,,80,141,135 F,2,15959,16403,0.4,0
Sprite,Foreground,Centre,"sb\hl.png",364,398 S,0,15978,,0.6 C,0,15978,,80,141,135 F,2,15978,16403,0.4,0
Sprite,Foreground,Centre,"sb\hl.png",358,397 S,0,15997,,0.6 C,0,15997,,80,141,135 F,2,15997,16403,0.4,0
Sprite,Foreground,Centre,"sb\hl.png",351,397 S,0,16015,,0.6 C,0,16015,,80,141,135 F,2,16015,16403,0.4,0
Sprite,Foreground,Centre,"sb\hl.png",358,397 S,0,16034,,0.6 C,0,16034,,80,141,135 F,2,16034,16403,0.4,0
Sprite,Foreground,Centre,"sb\hl.png",364,398 S,0,16053,,0.6 C,0,16053,,80,141,135 F,2,16053,16403,0.4,0
Sprite,Foreground,Centre,"sb\hl.png",370,399 S,0,16072,,0.6 C,0,16072,,80,141,135 F,2,16072,16403,0.4,0
Sprite,Foreground,Centre,"sb\hl.png",377,399 S,0,16090,,0.6 C,0,16090,,80,141,135 F,2,16090,16403,0.4,0
Sprite,Foreground,Centre,"sb\hl.png",383,400 S,0,16109,,0.6 C,0,16109,,80,141,135 F,2,16109,16403,0.4,0
Sprite,Foreground,Centre,"sb\hl.png",377,399 S,0,16128,,0.6 C,0,16128,,80,141,135 F,2,16128,16403,0.4,0
Sprite,Foreground,Centre,"sb\hl.png",370,399 S,0,16147,,0.6 C,0,16147,,80,141,135 F,2,16147,16403,0.4,0
Sprite,Foreground,Centre,"sb\hl.png",364,398 S,0,16165,,0.6 C,0,16165,,80,141,135 F,2,16165,16403,0.4,0
Sprite,Foreground,Centre,"sb\hl.png",358,397 S,0,16184,,0.6 C,0,16184,,80,141,135 F,2,16184,16403,0.4,0
Sprite,Foreground,Centre,"sb\hl.png",278,388 S,0,16297,,0.6 C,0,16297,,80,141,135 F,2,16297,16497,1,0
Sprite,Foreground,Centre,"sb\hl.png",198,328 S,0,16485,,0.6 C,0,16485,,80,141,135 F,2,16485,16966,0.4,0
Sprite,Foreground,Centre,"sb\hl.png",204,327 S,0,16503,,0.6 C,0,16503,,80,141,135 F,2,16503,16966,0.4,0
Sprite,Foreground,Centre,"sb\hl.png",211,327 S,0,16522,,0.6 C,0,16522,,80,141,135 F,2,16522,16966,0.4,0
Sprite,Foreground,Centre,"sb\hl.png",217,326 S,0,16541,,0.6 C,0,16541,,80,141,135 F,2,16541,16966,0.4,0
Sprite,Foreground,Centre,"sb\hl.png",223,325 S,0,16560,,0.6 C,0,16560,,80,141,135 F,2,16560,16966,0.4,0
Sprite,Foreground,Centre,"sb\hl.png",230,325 S,0,16578,,0.6 C,0,16578,,80,141,135 F,2,16578,16966,0.4,0
Sprite,Foreground,Centre,"sb\hl.png",223,325 S,0,16597,,0.6 C,0,16597,,80,141,135 F,2,16597,16966,0.4,0
Sprite,Foreground,Centre,"sb\hl.png",217,326 S,0,16616,,0.6 C,0,16616,,80,141,135 F,2,16616,16966,0.4,0
Sprite,Foreground,Centre,"sb\hl.png",211,327 S,0,16635,,0.6 C,0,16635,,80,141,135 F,2,16635,16966,0.4,0
Sprite,Foreground,Centre,"sb\hl.png",204,327 S,0,16653,,0.6 C,0,16653,,80,141,135 F,2,16653,16966,0.4,0
Sprite,Foreground,Centre,"sb\hl.png",198,328 S,0,16672,,0.6 C,0,16672,,80,141,135 F,2,16672,16966,0.4,0
Sprite,Foreground,Centre,"sb\hl.png",204,327 S,0,16691,,0.6 C,0,16691,,80,141,135 F,2,16691,16966,0.4,0
Sprite,Foreground,Centre,"sb\hl.png",211,327 S,0,16710,,0.6 C,0,16710,,80,141,135 F,2,16710,16966,0.4,0
Sprite,Foreground,Centre,"sb\hl.png",217,326 S,0,16728,,0.6 C,0,16728,,80,141,135 F,2,16728,16966,0.4,0
Sprite,Foreground,Centre,"sb\hl.png",223,325 S,0,16747,,0.6 C,0,16747,,80,141,135 F,2,16747,16966,0.4,0
Sprite,Foreground,Centre,"sb\hl.png",303,316 S,0,16860,,0.6 C,0,16860,,80,141,135 F,2,16860,17060,1,0
Sprite,Foreground,Centre,"sb\hl.png",379,260 S,0,17047,,0.6 C,0,17047,,80,141,135 F,2,17047,17528,0.4,0
Sprite,Foreground,Centre,"sb\hl.png",373,259 S,0,17065,,0.6 C,0,17065,,80,141,135 F,2,17065,17528,0.4,0
Sprite,Foreground,Centre,"sb\hl.png",366,259 S,0,17084,,0.6 C,0,17084,,80,141,135 F,2,17084,17528,0.4,0
Sprite,Foreground,Centre,"sb\hl.png",360,258 S,0,17103,,0.6 C,0,17103,,80,141,135 F,2,17103,17528,0.4,0
Sprite,Foreground,Centre,"sb\hl.png",354,257 S,0,17122,,0.6 C,0,17122,,80,141,135 F,2,17122,17528,0.4,0
Sprite,Foreground,Centre,"sb\hl.png",347,257 S,0,17140,,0.6 C,0,17140,,80,141,135 F,2,17140,17528,0.4,0
Sprite,Foreground,Centre,"sb\hl.png",354,257 S,0,17159,,0.6 C,0,17159,,80,141,135 F,2,17159,17528,0.4,0
Sprite,Foreground,Centre,"sb\hl.png",360,258 S,0,17178,,0.6 C,0,17178,,80,141,135 F,2,17178,17528,0.4,0
Sprite,Foreground,Centre,"sb\hl.png",366,259 S,0,17197,,0.6 C,0,17197,,80,141,135 F,2,17197,17528,0.4,0
Sprite,Foreground,Centre,"sb\hl.png",373,259 S,0,17215,,0.6 C,0,17215,,80,141,135 F,2,17215,17528,0.4,0
Sprite,Foreground,Centre,"sb\hl.png",379,260 S,0,17234,,0.6 C,0,17234,,80,141,135 F,2,17234,17528,0.4,0
Sprite,Foreground,Centre,"sb\hl.png",373,259 S,0,17253,,0.6 C,0,17253,,80,141,135 F,2,17253,17528,0.4,0
Sprite,Foreground,Centre,"sb\hl.png",366,259 S,0,17272,,0.6 C,0,17272,,80,141,135 F,2,17272,17528,0.4,0
Sprite,Foreground,Centre,"sb\hl.png",360,258 S,0,17290,,0.6 C,0,17290,,80,141,135 F,2,17290,17528,0.4,0
Sprite,Foreground,Centre,"sb\hl.png",354,257 S,0,17309,,0.6 C,0,17309,,80,141,135 F,2,17309,17528,0.4,0
Sprite,Foreground,Centre,"sb\hl.png",274,248 S,0,17422,,0.6 C,0,17422,,80,141,135 F,2,17422,17622,1,0
Sprite,Foreground,Centre,"sb\hl.png",147,182 S,0,17610,,0.6 C,0,17610,,80,141,135 F,2,17610,18091,0.4,0
Sprite,Foreground,Centre,"sb\hl.png",153,181 S,0,17628,,0.6 C,0,17628,,80,141,135 F,2,17628,18091,0.4,0
Sprite,Foreground,Centre,"sb\hl.png",160,180 S,0,17647,,0.6 C,0,17647,,80,141,135 F,2,17647,18091,0.4,0
Sprite,Foreground,Centre,"sb\hl.png",166,179 S,0,17666,,0.6 C,0,17666,,80,141,135 F,2,17666,18091,0.4,0
Sprite,Foreground,Centre,"sb\hl.png",172,178 S,0,17685,,0.6 C,0,17685,,80,141,135 F,2,17685,18091,0.4,0
Sprite,Foreground,Centre,"sb\hl.png",179,177 S,0,17703,,0.6 C,0,17703,,80,141,135 F,2,17703,18091,0.4,0
Sprite,Foreground,Centre,"sb\hl.png",185,176 S,0,17722,,0.6 C,0,17722,,80,141,135 F,2,17722,18091,0.4,0
Sprite,Foreground,Centre,"sb\hl.png",191,175 S,0,17741,,0.6 C,0,17741,,80,141,135 F,2,17741,18091,0.4,0
Sprite,Foreground,Centre,"sb\hl.png",198,174 S,0,17760,,0.6 C,0,17760,,80,141,135 F,2,17760,18091,0.4,0
Sprite,Foreground,Centre,"sb\hl.png",204,173 S,0,17778,,0.6 C,0,17778,,80,141,135 F,2,17778,18091,0.4,0
Sprite,Foreground,Centre,"sb\hl.png",210,171 S,0,17797,,0.6 C,0,17797,,80,141,135 F,2,17797,18091,0.4,0
Sprite,Foreground,Centre,"sb\hl.png",216,170 S,0,17816,,0.6 C,0,17816,,80,141,135 F,2,17816,18091,0.4,0
Sprite,Foreground,Centre,"sb\hl.png",223,169 S,0,17835,,0.6 C,0,17835,,80,141,135 F,2,17835,18091,0.4,0
Sprite,Foreground,Centre,"sb\hl.png",229,168 S,0,17853,,0.6 C,0,17853,,80,141,135 F,2,17853,18091,0.4,0
Sprite,Foreground,Centre,"sb\hl.png",235,167 S,0,17872,,0.6 C,0,17872,,80,141,135 F,2,17872,18091,0.4,0
Sprite,Foreground,Centre,"sb\hl.png",323,173 S,0,17985,,0.6 C,0,17985,,80,141,135 F,2,17985,18560,0.4,0
Sprite,Foreground,Centre,"sb\hl.png",329,172 S,0,18003,,0.6 C,0,18003,,80,141,135 F,2,18003,18560,0.4,0
Sprite,Foreground,Centre,"sb\hl.png",336,171 S,0,18022,,0.6 C,0,18022,,80,141,135 F,2,18022,18560,0.4,0
Sprite,Foreground,Centre,"sb\hl.png",342,170 S,0,18041,,0.6 C,0,18041,,80,141,135 F,2,18041,18560,0.4,0
Sprite,Foreground,Centre,"sb\hl.png",348,169 S,0,18060,,0.6 C,0,18060,,80,141,135 F,2,18060,18560,0.4,0
Sprite,Foreground,Centre,"sb\hl.png",355,168 S,0,18078,,0.6 C,0,18078,,80,141,135 F,2,18078,18560,0.4,0
Sprite,Foreground,Centre,"sb\hl.png",361,167 S,0,18097,,0.6 C,0,18097,,80,141,135 F,2,18097,18560,0.4,0
Sprite,Foreground,Centre,"sb\hl.png",367,166 S,0,18116,,0.6 C,0,18116,,80,141,135 F,2,18116,18560,0.4,0
Sprite,Foreground,Centre,"sb\hl.png",373,164 S,0,18135,,0.6 C,0,18135,,80,141,135 F,2,18135,18560,0.4,0
Sprite,Foreground,Centre,"sb\hl.png",380,163 S,0,18153,,0.6 C,0,18153,,80,141,135 F,2,18153,18560,0.4,0
Sprite,Foreground,Centre,"sb\hl.png",386,162 S,0,18172,,0.6 C,0,18172,,80,141,135 F,2,18172,18560,0.4,0
Sprite,Foreground,Centre,"sb\hl.png",380,163 S,0,18191,,0.6 C,0,18191,,80,141,135 F,2,18191,18560,0.4,0
Sprite,Foreground,Centre,"sb\hl.png",373,164 S,0,18210,,0.6 C,0,18210,,80,141,135 F,2,18210,18560,0.4,0
Sprite,Foreground,Centre,"sb\hl.png",367,166 S,0,18228,,0.6 C,0,18228,,80,141,135 F,2,18228,18560,0.4,0
Sprite,Foreground,Centre,"sb\hl.png",361,167 S,0,18247,,0.6 C,0,18247,,80,141,135 F,2,18247,18560,0.4,0
Sprite,Foreground,Centre,"sb\hl.png",355,168 S,0,18266,,0.6 C,0,18266,,80,141,135 F,2,18266,18560,0.4,0
Sprite,Foreground,Centre,"sb\hl.png",348,169 S,0,18285,,0.6 C,0,18285,,80,141,135 F,2,18285,18560,0.4,0
Sprite,Foreground,Centre,"sb\hl.png",342,170 S,0,18303,,0.6 C,0,18303,,80,141,135 F,2,18303,18560,0.4,0
Sprite,Foreground,Centre,"sb\hl.png",336,171 S,0,18322,,0.6 C,0,18322,,80,141,135 F,2,18322,18560,0.4,0
Sprite,Foreground,Centre,"sb\hl.png",329,172 S,0,18341,,0.6 C,0,18341,,80,141,135 F,2,18341,18560,0.4,0
Sprite,Foreground,Centre,"sb\hl.png",484,284 S,0,18735,,0.6 C,0,18735,,80,141,135 F,2,18735,18935,1,0
Sprite,Foreground,Centre,"sb\hl.png",484,284 S,0,18922,,0.6 C,0,18922,,80,141,135 F,2,18922,19403,0.4,0
Sprite,Foreground,Centre,"sb\hl.png",486,278 S,0,18940,,0.6 C,0,18940,,80,141,135 F,2,18940,19403,0.4,0
Sprite,Foreground,Centre,"sb\hl.png",487,272 S,0,18959,,0.6 C,0,18959,,80,141,135 F,2,18959,19403,0.4,0
Sprite,Foreground,Centre,"sb\hl.png",489,265 S,0,18978,,0.6 C,0,18978,,80,141,135 F,2,18978,19403,0.4,0
Sprite,Foreground,Centre,"sb\hl.png",489,259 S,0,18997,,0.6 C,0,18997,,80,141,135 F,2,18997,19403,0.4,0
Sprite,Foreground,Centre,"sb\hl.png",489,253 S,0,19015,,0.6 C,0,19015,,80,141,135 F,2,19015,19403,0.4,0
Sprite,Foreground,Centre,"sb\hl.png",489,259 S,0,19034,,0.6 C,0,19034,,80,141,135 F,2,19034,19403,0.4,0
Sprite,Foreground,Centre,"sb\hl.png",489,265 S,0,19053,,0.6 C,0,19053,,80,141,135 F,2,19053,19403,0.4,0
Sprite,Foreground,Centre,"sb\hl.png",487,272 S,0,19072,,0.6 C,0,19072,,80,141,135 F,2,19072,19403,0.4,0
Sprite,Foreground,Centre,"sb\hl.png",486,278 S,0,19090,,0.6 C,0,19090,,80,141,135 F,2,19090,19403,0.4,0
Sprite,Foreground,Centre,"sb\hl.png",484,284 S,0,19109,,0.6 C,0,19109,,80,141,135 F,2,19109,19403,0.4,0
Sprite,Foreground,Centre,"sb\hl.png",486,278 S,0,19128,,0.6 C,0,19128,,80,141,135 F,2,19128,19403,0.4,0
Sprite,Foreground,Centre,"sb\hl.png",487,272 S,0,19147,,0.6 C,0,19147,,80,141,135 F,2,19147,19403,0.4,0
Sprite,Foreground,Centre,"sb\hl.png",489,265 S,0,19165,,0.6 C,0,19165,,80,141,135 F,2,19165,19403,0.4,0
Sprite,Foreground,Centre,"sb\hl.png",489,259 S,0,19184,,0.6 C,0,19184,,80,141,135 F,2,19184,19403,0.4,0
Sprite,Foreground,Centre,"sb\hl.png",481,172 S,0,19297,,0.6 C,0,19297,,80,141,135 F,2,19297,19497,1,0
Sprite,Foreground,Centre,"sb\hl.png",389,296 S,0,19485,,0.6 C,0,19485,,80,141,135 F,2,19485,19966,0.4,0
Sprite,Foreground,Centre,"sb\hl.png",388,290 S,0,19503,,0.6 C,0,19503,,80,141,135 F,2,19503,19966,0.4,0
Sprite,Foreground,Centre,"sb\hl.png",387,283 S,0,19522,,0.6 C,0,19522,,80,141,135 F,2,19522,19966,0.4,0
Sprite,Foreground,Centre,"sb\hl.png",385,277 S,0,19541,,0.6 C,0,19541,,80,141,135 F,2,19541,19966,0.4,0
Sprite,Foreground,Centre,"sb\hl.png",382,271 S,0,19560,,0.6 C,0,19560,,80,141,135 F,2,19560,19966,0.4,0
Sprite,Foreground,Centre,"sb\hl.png",380,266 S,0,19578,,0.6 C,0,19578,,80,141,135 F,2,19578,19966,0.4,0
Sprite,Foreground,Centre,"sb\hl.png",382,271 S,0,19597,,0.6 C,0,19597,,80,141,135 F,2,19597,19966,0.4,0
Sprite,Foreground,Centre,"sb\hl.png",385,277 S,0,19616,,0.6 C,0,19616,,80,141,135 F,2,19616,19966,0.4,0
Sprite,Foreground,Centre,"sb\hl.png",387,283 S,0,19635,,0.6 C,0,19635,,80,141,135 F,2,19635,19966,0.4,0
Sprite,Foreground,Centre,"sb\hl.png",388,290 S,0,19653,,0.6 C,0,19653,,80,141,135 F,2,19653,19966,0.4,0
Sprite,Foreground,Centre,"sb\hl.png",389,296 S,0,19672,,0.6 C,0,19672,,80,141,135 F,2,19672,19966,0.4,0
Sprite,Foreground,Centre,"sb\hl.png",388,290 S,0,19691,,0.6 C,0,19691,,80,141,135 F,2,19691,19966,0.4,0
Sprite,Foreground,Centre,"sb\hl.png",387,283 S,0,19710,,0.6 C,0,19710,,80,141,135 F,2,19710,19966,0.4,0
Sprite,Foreground,Centre,"sb\hl.png",385,277 S,0,19728,,0.6 C,0,19728,,80,141,135 F,2,19728,19966,0.4,0
Sprite,Foreground,Centre,"sb\hl.png",382,271 S,0,19747,,0.6 C,0,19747,,80,141,135 F,2,19747,19966,0.4,0
Sprite,Foreground,Centre,"sb\hl.png",338,195 S,0,19860,,0.6 C,0,19860,,80,141,135 F,2,19860,20060,1,0
Sprite,Foreground,Centre,"sb\hl.png",302,336 S,0,20047,,0.6 C,0,20047,,80,141,135 F,2,20047,20528,0.4,0
Sprite,Foreground,Centre,"sb\hl.png",298,331 S,0,20065,,0.6 C,0,20065,,80,141,135 F,2,20065,20528,0.4,0
Sprite,Foreground,Centre,"sb\hl.png",295,325 S,0,20084,,0.6 C,0,20084,,80,141,135 F,2,20084,20528,0.4,0
Sprite,Foreground,Centre,"sb\hl.png",291,321 S,0,20103,,0.6 C,0,20103,,80,141,135 F,2,20103,20528,0.4,0
Sprite,Foreground,Centre,"sb\hl.png",286,316 S,0,20122,,0.6 C,0,20122,,80,141,135 F,2,20122,20528,0.4,0
Sprite,Foreground,Centre,"sb\hl.png",282,312 S,0,20140,,0.6 C,0,20140,,80,141,135 F,2,20140,20528,0.4,0
Sprite,Foreground,Centre,"sb\hl.png",286,316 S,0,20159,,0.6 C,0,20159,,80,141,135 F,2,20159,20528,0.4,0
Sprite,Foreground,Centre,"sb\hl.png",291,321 S,0,20178,,0.6 C,0,20178,,80,141,135 F,2,20178,20528,0.4,0
Sprite,Foreground,Centre,"sb\hl.png",295,325 S,0,20197,,0.6 C,0,20197,,80,141,135 F,2,20197,20528,0.4,0
Sprite,Foreground,Centre,"sb\hl.png",298,331 S,0,20215,,0.6 C,0,20215,,80,141,135 F,2,20215,20528,0.4,0
Sprite,Foreground,Centre,"sb\hl.png",302,336 S,0,20234,,0.6 C,0,20234,,80,141,135 F,2,20234,20528,0.4,0
Sprite,Foreground,Centre,"sb\hl.png",298,331 S,0,20253,,0.6 C,0,20253,,80,141,135 F,2,20253,20528,0.4,0
Sprite,Foreground,Centre,"sb\hl.png",295,325 S,0,20272,,0.6 C,0,20272,,80,141,135 F,2,20272,20528,0.4,0
Sprite,Foreground,Centre,"sb\hl.png",291,321 S,0,20290,,0.6 C,0,20290,,80,141,135 F,2,20290,20528,0.4,0
Sprite,Foreground,Centre,"sb\hl.png",286,316 S,0,20309,,0.6 C,0,20309,,80,141,135 F,2,20309,20528,0.4,0
Sprite,Foreground,Centre,"sb\hl.png",214,266 S,0,20422,,0.6 C,0,20422,,80,141,135 F,2,20422,20622,1,0
Sprite,Foreground,Centre,"sb\hl.png",240,406 S,0,20610,,0.6 C,0,20610,,80,141,135 F,2,20610,21091,0.4,0
Sprite,Foreground,Centre,"sb\hl.png",235,403 S,0,20628,,0.6 C,0,20628,,80,141,135 F,2,20628,21091,0.4,0
Sprite,Foreground,Centre,"sb\hl.png",229,399 S,0,20647,,0.6 C,0,20647,,80,141,135 F,2,20647,21091,0.4,0
Sprite,Foreground,Centre,"sb\hl.png",223,397 S,0,20666,,0.6 C,0,20666,,80,141,135 F,2,20666,21091,0.4,0
Sprite,Foreground,Centre,"sb\hl.png",217,394 S,0,20685,,0.6 C,0,20685,,80,141,135 F,2,20685,21091,0.4,0
Sprite,Foreground,Centre,"sb\hl.png",211,392 S,0,20703,,0.6 C,0,20703,,80,141,135 F,2,20703,21091,0.4,0
Sprite,Foreground,Centre,"sb\hl.png",217,394 S,0,20722,,0.6 C,0,20722,,80,141,135 F,2,20722,21091,0.4,0
Sprite,Foreground,Centre,"sb\hl.png",223,397 S,0,20741,,0.6 C,0,20741,,80,141,135 F,2,20741,21091,0.4,0
Sprite,Foreground,Centre,"sb\hl.png",229,399 S,0,20760,,0.6 C,0,20760,,80,141,135 F,2,20760,21091,0.4,0
Sprite,Foreground,Centre,"sb\hl.png",235,403 S,0,20778,,0.6 C,0,20778,,80,141,135 F,2,20778,21091,0.4,0
Sprite,Foreground,Centre,"sb\hl.png",240,406 S,0,20797,,0.6 C,0,20797,,80,141,135 F,2,20797,21091,0.4,0
Sprite,Foreground,Centre,"sb\hl.png",235,403 S,0,20816,,0.6 C,0,20816,,80,141,135 F,2,20816,21091,0.4,0
Sprite,Foreground,Centre,"sb\hl.png",229,399 S,0,20835,,0.6 C,0,20835,,80,141,135 F,2,20835,21091,0.4,0
Sprite,Foreground,Centre,"sb\hl.png",223,397 S,0,20853,,0.6 C,0,20853,,80,141,135 F,2,20853,21091,0.4,0
Sprite,Foreground,Centre,"sb\hl.png",217,394 S,0,20872,,0.6 C,0,20872,,80,141,135 F,2,20872,21091,0.4,0
Sprite,Foreground,Centre,"sb\hl.png",131,379 S,0,20985,,0.6 C,0,20985,,80,141,135 F,2,20985,21372,0.4,0
Sprite,Foreground,Centre,"sb\hl.png",125,380 S,0,21003,,0.6 C,0,21003,,80,141,135 F,2,21003,21372,0.4,0
Sprite,Foreground,Centre,"sb\hl.png",118,381 S,0,21022,,0.6 C,0,21022,,80,141,135 F,2,21022,21372,0.4,0
Sprite,Foreground,Centre,"sb\hl.png",112,382 S,0,21041,,0.6 C,0,21041,,80,141,135 F,2,21041,21372,0.4,0
Sprite,Foreground,Centre,"sb\hl.png",106,383 S,0,21060,,0.6 C,0,21060,,80,141,135 F,2,21060,21372,0.4,0
Sprite,Foreground,Centre,"sb\hl.png",99,383 S,0,21078,,0.6 C,0,21078,,80,141,135 F,2,21078,21372,0.4,0
Sprite,Foreground,Centre,"sb\hl.png",93,384 S,0,21097,,0.6 C,0,21097,,80,141,135 F,2,21097,21372,0.4,0
Sprite,Foreground,Centre,"sb\hl.png",87,385 S,0,21116,,0.6 C,0,21116,,80,141,135 F,2,21116,21372,0.4,0
Sprite,Foreground,Centre,"sb\hl.png",80,386 S,0,21135,,0.6 C,0,21135,,80,141,135 F,2,21135,21372,0.4,0
Sprite,Foreground,Centre,"sb\hl.png",74,387 S,0,21153,,0.6 C,0,21153,,80,141,135 F,2,21153,21372,0.4,0
Sprite,Foreground,Centre,"sb\hl.png",248,416 S,0,21360,,0.6 C,0,21360,,80,141,135 F,2,21360,21560,1,0
Sprite,Foreground,Centre,"sb\hl.png",333,343 S,0,21547,,0.6 C,0,21547,,80,141,135 F,2,21547,21747,1,0
Sprite,Foreground,Centre,"sb\hl.png",333,343 S,0,21641,,0.6 C,0,21641,,80,141,135 F,2,21641,21841,1,0
Sprite,Foreground,Centre,"sb\hl.png",333,343 S,0,21735,,0.6 C,0,21735,,80,141,135 F,2,21735,21935,1,0
Sprite,Foreground,Centre,"sb\hl.png",431,398 S,0,21922,,0.6 C,0,21922,,80,141,135 F,2,21922,22122,1,0
Sprite,Foreground,Centre,"sb\hl.png",431,398 S,0,22016,,0.6 C,0,22016,,80,141,135 F,2,22016,22216,1,0
Sprite,Foreground,Centre,"sb\hl.png",431,398 S,0,22110,,0.6 C,0,22110,,80,141,135 F,2,22110,22310,1,0
Sprite,Foreground,Centre,"sb\hl.png",550,307 S,0,22297,,0.6 C,0,22297,,80,141,135 F,2,22297,22684,0.4,0
Sprite,Foreground,Centre,"sb\hl.png",543,309 S,0,22315,,0.6 C,0,22315,,80,141,135 F,2,22315,22684,0.4,0
Sprite,Foreground,Centre,"sb\hl.png",536,311 S,0,22334,,0.6 C,0,22334,,80,141,135 F,2,22334,22684,0.4,0
Sprite,Foreground,Centre,"sb\hl.png",529,313 S,0,22353,,0.6 C,0,22353,,80,141,135 F,2,22353,22684,0.4,0
Sprite,Foreground,Centre,"sb\hl.png",522,315 S,0,22372,,0.6 C,0,22372,,80,141,135 F,2,22372,22684,0.4,0
Sprite,Foreground,Centre,"sb\hl.png",515,317 S,0,22390,,0.6 C,0,22390,,80,141,135 F,2,22390,22684,0.4,0
Sprite,Foreground,Centre,"sb\hl.png",508,318 S,0,22409,,0.6 C,0,22409,,80,141,135 F,2,22409,22684,0.4,0
Sprite,Foreground,Centre,"sb\hl.png",501,320 S,0,22428,,0.6 C,0,22428,,80,141,135 F,2,22428,22684,0.4,0
Sprite,Foreground,Centre,"sb\hl.png",494,322 S,0,22447,,0.6 C,0,22447,,80,141,135 F,2,22447,22684,0.4,0
Sprite,Foreground,Centre,"sb\hl.png",487,324 S,0,22465,,0.6 C,0,22465,,80,141,135 F,2,22465,22684,0.4,0
Sprite,Foreground,Centre,"sb\hl.png",431,398 S,0,22672,,0.6 C,0,22672,,80,141,135 F,2,22672,22872,1,0
Sprite,Foreground,Centre,"sb\hl.png",431,398 S,0,22766,,0.6 C,0,22766,,80,141,135 F,2,22766,22966,1,0
//Storyboard Layer 4 (Overlay)
//Storyboard Sound Samples

[TimingPoints]
12360,375,4,2,1,50,1,0
12360,-125,4,2,1,50,0,0
22110,-111.111111111111,4,2,1,50,0,0
22672,-83.3333333333333,4,2,1,50,0,0
22860,-83.3333333333333,4,1,7,40,0,0
24235,-166.666666666667,4,1,1,50,0,0
24360,-133.333333333333,4,1,5,60,0,0
24672,-133.333333333333,4,1,5,5,0,0
24735,-33.3333333333333,4,1,5,60,0,0
25047,-33.3333333333333,4,1,5,5,0,0
25110,-100,4,1,5,60,0,0
29235,-88.4955752212389,4,1,5,60,0,0
29610,-47.6190476190476,4,1,5,60,0,0
29985,-50,4,1,5,5,0,0
30360,-88.4955752212389,4,1,5,60,0,0
35485,-100,4,1,5,60,0,0
35610,-41.6666666666667,4,1,3,60,0,0
36235,-50,4,1,3,5,0,0
36360,-100,4,1,5,50,0,0
37110,-47.6190476190476,4,1,5,60,0,0
37735,-50,4,1,5,5,0,0
37860,-133.333333333333,4,1,5,60,0,0
38235,-50,4,1,5,5,0,0
38610,-88.4955752212389,4,1,5,60,0,0
41235,-88.4955752212389,4,1,5,60,0,0
41735,-33.3333333333333,4,1,5,60,0,0
41985,-58.8235294117647,4,1,5,60,0,0
43110,-88.4955752212389,4,1,5,60,0,0
46860,-250,4,2,1,35,0,0
47235,-142.857142857143,4,2,1,35,0,0
47610,-100,4,2,1,35,0,0
47985,-76.9230769230769,4,2,1,35,0,0
48360,-76.9230769230769,4,1,3,45,0,0
50235,-50,4,1,3,60,0,0
50610,-76.9230769230769,4,1,3,60,0,0
51360,-100,4,1,3,60,0,0
53610,-50,4,1,5,60,0,0
53985,-50,4,1,5,5,0,0
54360,-100,4,1,3,60,0,0
59610,-50,4,1,5,60,0,0
59985,-76.9230769230769,4,1,5,60,0,0
60297,-76.9230769230769,4,1,5,5,0,0
60360,-50,4,1,3,60,0,0
60985,-50,4,1,3,5,0,0
61110,-66.6666666666667,4,1,3,60,0,0
64485,-100,4,1,3,60,0,0
70860,-125,4,1,7,40,0,0
72360,-125,4,2,3,45,0,0
78360,-66.6666666666667,4,2,7,60,0,0
79110,-83.3333333333333,4,2,7,60,0,0
79860,-111.111111111111,4,2,7,60,0,0
80610,-166.666666666667,4,2,7,60,0,0
81360,-111.111111111111,4,2,7,60,0,0
82110,-76.9230769230769,4,2,7,60,0,0
82860,-76.9230769230769,4,1,7,50,0,0
83141,-76.9230769230769,4,2,5,50,0,0
83985,-62.5,4,2,5,50,0,0
84078,-62.5,4,2,5,50,0,0
84266,-62.5,4,2,5,50,0,0
84360,-62.5,4,1,9,35,0,0
87172,-125,4,1,9,35,0,0
89985,-125,4,1,9,5,0,0
90078,-125,4,1,9,35,0,0
96360,-76.9230769230769,4,1,9,45,0,0
97860,-76.9230769230769,4,1,9,40,0,0
99360,-76.9230769230769,4,1,9,35,0,0
103860,-76.9230769230769,4,1,9,40,0,0
105360,-76.9230769230769,4,1,9,45,0,0
106860,-76.9230769230769,4,1,9,50,0,0
108360,-111.111111111111,4,1,1,50,0,0
110422,-142.857142857143,4,1,1,40,0,0
111360,-62.5,4,1,1,60,0,0
119610,-50,4,1,1,60,0,0
120360,-62.5,4,1,1,60,0,0
120641,-50,4,1,1,60,0,0
121203,-62.5,4,1,1,60,0,0
127110,-62.5,4,1,1,55,0,0
127860,-90.9090909090909,4,1,1,45,0,0
128610,-125,4,1,1,35,0,0
129360,-125,4,2,1,30,0,0
129735,-125,4,2,1,30,0,0
130110,-76.9230769230769,4,2,1,35,0,0
130485,-66.6666666666667,4,2,1,40,0,0
130860,-41.6666666666667,4,2,1,45,0,0
131235,-58.8235294117647,4,2,1,50,0,0
131610,-100,4,2,1,55,0,0
132360,-50,4,1,1,60,0,0
142860,-50,4,1,7,60,0,0
143985,-133.333333333333,4,1,1,60,0,0
144360,-55.5555555555556,4,1,1,60,0,0
152985,-100,4,1,1,60,0,0
154860,-83.3333333333333,4,2,3,45,0,0
155235,-83.3333333333333,4,2,7,35,0,0
155610,-41.6666666666667,4,2,1,40,0,0
155985,-58.8235294117647,4,2,1,50,0,0
156172,-41.6666666666667,4,2,1,50,0,0
156360,-55.5555555555556,4,1,1,70,0,1
166860,-55.5555555555556,4,1,7,70,0,1
167985,-83.3333333333333,4,1,1,70,0,1
168360,-50,4,1,1,80,0,1
168641,-55.5555555555556,4,1,1,80,0,1
177360,-50,4,2,1,80,0,1
177735,-50,4,2,1,80,0,1
178110,-58.8235294117647,4,2,1,75,0,1
178485,-58.8235294117647,4,2,1,75,0,1
178860,-76.9230769230769,4,2,1,70,0,1
179235,-76.9230769230769,4,2,1,70,0,1
179610,-111.111111111111,4,2,1,60,0,1
179985,-111.111111111111,4,2,1,60,0,1
180360,-200,4,2,1,50,0,0
181110,-200,4,2,1,40,0,0
181860,-200,4,2,1,35,0,0
182610,-200,4,2,1,30,0,0
183360,-200,4,2,1,25,0,0
184110,-200,4,2,1,20,0,0
184860,-200,4,2,1,15,0,0
185610,-200,4,2,1,10,0,0
186360,-200,4,2,1,5,0,0

[Colours]
Combo1 : 186,31,31
Combo2 : 82,120,190
Combo3 : 37,185,239
Combo4 : 14,126,70
Combo5 : 65,99,109
Combo6 : 128,0,255
Combo7 : 164,32,240
Combo8 : 191,148,15

[HitObjects]
83,346,12360,6,0,L|78:297,3,32,2|0|0|2,3:2|0:0|0:0|3:2,0:0:0:0:
71,241,12735,1,8,0:0:0:0:
176,312,12922,6,0,L|171:263,3,32,2|0|0|2,3:2|0:0|0:0|3:2,0:0:0:0:
164,207,13297,1,8,0:0:0:0:
269,278,13485,6,0,L|264:229,3,32,2|0|0|2,3:2|0:0|0:0|3:2,0:0:0:0:
257,173,13860,1,8,0:0:0:0:
362,244,14047,6,0,L|357:195,3,32,2|0|0|2,3:2|0:0|0:0|3:2,0:0:0:0:
350,139,14422,1,8,0:0:0:0:
473,300,14610,70,0,L|482:204,1,96,2|2,3:2|3:2,0:0:0:0:
489,133,14985,2,0,P|457:136|430:153,2,64,8|2|2,0:0|3:2|3:2,0:0:0:0:
319,344,15735,1,8,0:0:0:0:
319,344,15922,6,0,L|270:339,3,32,2|0|0|2,3:2|0:0|0:0|3:2,0:0:0:0:
214,332,16297,1,8,0:0:0:0:
134,272,16485,6,0,L|183:267,3,32,2|0|0|2,3:2|0:0|0:0|3:2,0:0:0:0:
239,260,16860,1,8,0:0:0:0:
315,204,17047,6,0,L|266:199,3,32,2|0|0|2,3:2|0:0|0:0|3:2,0:0:0:0:
210,192,17422,1,8,0:0:0:0:
83,126,17610,70,0,L|185:109,1,96,2|2,3:2|3:2,0:0:0:0:
259,117,17985,2,0,L|336:104,2,64,8|2|2,0:0|3:2|3:2,0:0:0:0:
420,228,18735,1,8,0:0:0:0:
420,228,18922,6,0,P|425:207|425:191,3,32,2|0|2|2,3:2|0:0|0:0|3:2,0:0:0:0:
417,116,19297,1,8,0:0:0:0:
325,240,19485,6,0,P|320:218|313:204,3,32,2|0|0|2,3:2|0:0|0:0|3:2,0:0:0:0:
274,139,19860,1,8,0:0:0:0:
238,280,20047,6,0,P|225:262|212:252,3,32,2|2|2|0,3:2|0:0|0:0|0:0,0:0:0:0:
150,210,20422,1,8,0:0:0:0:
176,350,20610,70,0,P|157:339|141:335,3,32,2|0|0|2,3:2|0:0|0:0|3:2,0:0:0:0:
67,323,20985,2,0,L|3:332,1,64,8|2,0:0|3:2,0:0:0:0:
184,360,21360,5,2,3:2:0:0:
269,287,21547,1,2,0:0:0:0:
269,287,21641,1,2,3:2:0:0:
269,287,21735,1,8,0:0:0:0:
367,342,21922,1,2,3:2:0:0:
367,342,22016,1,2,0:0:0:0:
367,342,22110,1,2,0:0:0:0:
486,251,22297,6,0,L|391:277,1,71.9999978027344,8|2,0:0|3:2,0:0:0:0:
367,342,22672,1,2,0:0:0:0:
367,342,22766,1,2,3:2:0:0:
367,342,22860,1,4,0:0:0:0:
421,102,23235,5,8,0:3:0:0:
394,168,23360,1,8,0:0:0:0:
353,220,23485,1,8,0:0:0:0:
303,255,23610,1,8,0:3:0:0:
252,276,23735,1,8,0:0:0:0:
202,281,23860,1,8,0:0:0:0:
158,278,23985,1,8,0:3:0:0:
120,269,24110,1,8,0:0:0:0:
91,255,24235,1,10,0:2:0:0:
72,238,24360,70,0,P|58:205|56:171,1,60.0000022888184,4|0,0:0|0:0,0:0:0:0:
171,94,24735,6,0,P|148:109|108:101,6,60.0000022888184,2|0|0|0|0|0|0,0:0|0:0|0:0|0:0|0:0|0:0|0:0,0:0:0:0:
59,54,25110,5,8,0:0:0:0:
103,14,25235,1,0,0:0:0:0:
161,7,25360,1,0,0:0:0:0:
214,33,25485,1,0,0:0:0:0:
267,59,25610,1,0,0:0:0:0:
325,52,25735,1,0,0:0:0:0:
370,0,25860,5,0,3:0:0:0:
341,50,25985,1,0,0:0:0:0:
340,108,26110,1,0,0:0:0:0:
366,161,26235,1,0,0:0:0:0:
413,195,26360,1,0,0:0:0:0:
471,202,26485,1,0,3:0:0:0:
512,300,26610,69,8,0:0:0:0:
452,303,26735,1,0,0:0:0:0:
394,305,26860,1,0,0:0:0:0:
336,307,26985,1,0,0:0:0:0:
276,310,27110,1,0,0:0:0:0:
218,312,27235,1,0,0:0:0:0:
146,258,27360,5,0,3:0:0:0:
89,252,27485,1,0,0:0:0:0:
46,290,27610,1,0,0:0:0:0:
48,349,27735,1,0,0:0:0:0:
93,383,27860,1,0,0:0:0:0:
149,373,27985,1,0,3:0:0:0:
146,258,28110,5,8,0:0:0:0:
89,252,28235,1,0,0:0:0:0:
55,206,28360,1,0,0:0:0:0:
69,149,28485,1,0,0:0:0:0:
120,125,28610,1,0,0:0:0:0:
173,146,28735,1,0,0:0:0:0:
241,216,28860,5,0,3:0:0:0:
299,207,28985,1,0,0:0:0:0:
357,198,29110,1,0,0:0:0:0:
433,174,29235,2,0,L|424:239,2,60.2666668505859
369,116,29610,70,0,B|397:85|440:85|440:85|417:11|343:-10|263:15|227:98,1,335.999989746094,8|0,0:0|0:0,0:0:0:0:
41,213,30360,6,0,L|29:135,2,60.2666668505859
101,280,30735,2,0,L|89:357,2,60.2666668505859,0|0|0,0:0|0:0|3:0,0:0:0:0:
223,145,31110,5,8,0:0:0:0:
231,210,31235,1,0,0:0:0:0:
268,264,31360,1,0,0:0:0:0:
325,297,31485,1,0,0:0:0:0:
390,300,31610,1,0,0:0:0:0:
450,274,31735,1,0,0:0:0:0:
487,200,31860,5,0,3:0:0:0:
427,173,31985,1,0,0:0:0:0:
361,177,32110,1,0,0:0:0:0:
304,209,32235,1,0,0:0:0:0:
268,264,32360,1,0,0:0:0:0:
259,329,32485,1,0,3:0:0:0:
146,375,32610,69,8,0:0:0:0:
98,328,32735,1,0,0:0:0:0:
66,271,32860,1,0,0:0:0:0:
51,206,32985,1,0,0:0:0:0:
56,141,33110,1,0,0:0:0:0:
79,79,33235,1,0,0:0:0:0:
153,86,33360,5,0,3:0:0:0:
121,141,33485,1,0,0:0:0:0:
58,152,33610,1,0,0:0:0:0:
11,109,33735,1,0,0:0:0:0:
15,45,33860,1,0,0:0:0:0:
68,9,33985,1,0,3:0:0:0:
228,83,34110,5,8,0:0:0:0:
260,138,34235,1,0,0:0:0:0:
323,149,34360,1,0,0:0:0:0:
370,106,34485,1,0,0:0:0:0:
366,42,34610,1,0,0:0:0:0:
313,6,34735,1,0,0:0:0:0:
251,84,34860,5,0,3:0:0:0:
273,122,34985,1,0,0:0:0:0:
317,130,35110,1,0,0:0:0:0:
350,100,35235,1,0,0:0:0:0:
347,55,35360,1,0,0:0:0:0:
310,30,35485,2,0,P|321:37|334:52,1,26.6666666666667,0|0,3:0|0:0,0:0:0:0:
421,72,35610,70,0,B|443:27|523:6|523:6|480:30|416:109|345:218|381:303|430:332|506:330|556:244|483:159,1,639.999980468751,8|0,0:0|0:0,0:0:0:0:
350,100,36360,5,0,0:0:0:0:
329,96,36485,1,0,0:0:0:0:
308,92,36610,1,0,0:0:0:0:
287,88,36735,1,0,0:0:0:0:
266,84,36860,1,0,0:0:0:0:
245,80,36985,1,0,0:0:0:0:
188,141,37110,6,0,B|138:90|175:25|175:25|90:90|78:249|78:249|1:207|0:137|0:137|14:166|23:176,1,559.999982910157,8|0,0:0|0:0,0:0:0:0:
145,282,37860,6,0,P|117:314|42:315,1,120.000004577637,0|0,3:0|0:0,0:0:0:0:
43,315,38610,69,8,0:0:0:0:
109,320,38735,1,0,0:0:0:0:
175,326,38860,1,0,0:0:0:0:
241,332,38985,1,0,0:0:0:0:
307,338,39110,1,0,0:0:0:0:
373,344,39235,1,0,0:0:0:0:
446,355,39360,5,0,3:0:0:0:
388,325,39485,1,0,0:0:0:0:
349,272,39610,1,0,0:0:0:0:
337,208,39735,1,0,0:0:0:0:
353,144,39860,1,0,0:0:0:0:
396,94,39985,1,0,3:0:0:0:
496,163,40110,5,8,0:0:0:0:
466,221,40235,1,0,0:0:0:0:
413,260,40360,1,0,0:0:0:0:
349,272,40485,1,0,0:0:0:0:
285,256,40610,1,0,0:0:0:0:
235,213,40735,1,0,0:0:0:0:
165,158,40860,5,0,3:0:0:0:
101,172,40985,1,0,0:0:0:0:
56,220,41110,1,0,0:0:0:0:
46,286,41235,2,0,L|64:357,2,60.2666668505859,0|0|0,0:0|0:0|3:0,0:0:0:0:
116,95,41610,69,8,0:0:0:0:
165,158,41735,2,0,B|209:164|240:138|240:138|273:114|327:121,1,160.000006103516
156,165,41985,6,0,B|196:180|239:152|239:152|289:116|327:131,1,181.333336791992
303,209,42360,5,0,0:0:0:0:
310,174,42485,1,0,0:0:0:0:
334,147,42610,1,0,0:0:0:0:
368,135,42735,1,0,0:0:0:0:
403,140,42860,1,0,0:0:0:0:
432,162,42985,1,0,3:0:0:0:
310,213,43110,5,8,0:0:0:0:
245,228,43235,1,0,0:0:0:0:
180,218,43360,1,0,0:0:0:0:
123,184,43485,1,0,0:0:0:0:
84,132,43610,1,0,0:0:0:0:
67,68,43735,1,0,0:0:0:0:
93,0,43860,69,0,3:0:0:0:
89,66,43985,1,0,0:0:0:0:
84,132,44110,1,0,0:0:0:0:
80,198,44235,1,0,0:0:0:0:
76,264,44360,1,0,0:0:0:0:
71,330,44485,1,0,3:0:0:0:
181,384,44610,5,8,0:0:0:0:
186,318,44735,1,0,0:0:0:0:
190,252,44860,1,0,0:0:0:0:
194,186,44985,1,0,0:0:0:0:
199,120,45110,1,0,0:0:0:0:
203,54,45235,1,0,0:0:0:0:
294,8,45360,5,0,3:0:0:0:
360,2,45485,1,0,0:0:0:0:
420,27,45610,1,0,0:0:0:0:
465,76,45735,1,0,0:0:0:0:
483,139,45860,1,0,0:0:0:0:
471,204,45985,1,0,3:0:0:0:
327,239,46110,5,8,0:0:0:0:
358,182,46235,1,0,0:0:0:0:
421,172,46360,1,0,0:0:0:0:
469,214,46485,1,0,0:0:0:0:
467,278,46610,1,0,0:0:0:0:
415,316,46735,1,0,0:0:0:0:
342,308,46860,70,0,L|338:342,2,21.3333333333333,0|0|0,3:2|0:0|0:0,0:0:0:0:
259,291,47235,6,0,L|263:333,2,37.3333321940105,8|0|0,0:0|0:0|0:0,0:0:0:0:
177,295,47610,6,0,L|198:371,2,53.3333333333333,2|0|0,3:2|0:0|0:0,0:0:0:0:
97,315,47985,6,0,L|130:387,2,69.3333301595054,8|0|2,0:0|0:0|0:0,0:0:0:0:
12,271,48360,69,0,0:0:0:0:
20,260,48485,1,0,0:0:0:0:
14,248,48610,1,0,0:0:0:0:
22,237,48735,1,0,0:0:0:0:
17,225,48860,1,0,0:0:0:0:
25,214,48985,1,0,0:0:0:0:
19,202,49110,1,0,0:0:0:0:
28,191,49235,1,0,0:0:0:0:
22,179,49360,1,0,0:0:0:0:
30,168,49485,1,0,0:0:0:0:
25,156,49610,1,0,0:0:0:0:
33,145,49735,1,0,0:0:0:0:
60,60,50235,6,0,P|75:66|91:93,8,26.6666666666667,4|0|0|0|0|0|0|0|0,3:0|3:0|3:0|3:0|3:0|3:0|3:0|3:0|3:0,3:0:0:0:
143,140,50610,5,8,0:0:0:0:
143,140,50735,2,0,L|150:96,2,34.6666650797527
196,216,50985,2,0,L|185:284,2,69.3333301595054,0|0|0,3:0|0:0|0:0,0:0:0:0:
294,126,51360,21,0,3:0:0:0:
294,126,51422,1,0,0:0:0:0:
294,126,51485,2,0,L|337:118,2,26.6666666666667
361,202,51735,1,0,3:0:0:0:
361,202,51797,1,0,0:0:0:0:
361,202,51860,2,0,L|404:194,2,26.6666666666667
428,278,52110,1,8,0:0:0:0:
428,278,52172,1,0,0:0:0:0:
428,278,52235,2,0,L|471:270,2,26.6666666666667
352,343,52485,101,0,0:0:0:0:
294,331,52610,1,0,0:0:0:0:
236,320,52735,1,0,0:0:0:0:
167,331,52860,6,0,L|174:375,4,26.6666666666667
76,304,53235,1,0,3:0:0:0:
76,304,53297,1,0,0:0:0:0:
76,304,53360,2,0,L|83:348,2,26.6666666666667
165,372,53610,54,0,B|177:364|177:364|132:85|132:85|154:69,1,320,8|0,0:0|0:0,0:0:0:0:
327,129,54360,5,0,0:0:0:0:
309,127,54485,1,0,0:0:0:0:
291,126,54610,1,0,0:0:0:0:
273,124,54735,1,0,0:0:0:0:
256,123,54860,1,0,0:0:0:0:
238,121,54985,1,0,0:0:0:0:
220,120,55110,6,0,L|213:160,4,26.6666666666667,8|0|0|0|0,0:0|0:0|0:0|0:0|0:0,0:0:0:0:
283,40,55485,5,0,3:0:0:0:
339,29,55610,1,0,0:0:0:0:
394,50,55735,1,0,0:0:0:0:
424,120,55860,2,0,L|430:189,1,53.3333333333333,0|0,3:0|0:0,0:0:0:0:
301,200,56110,1,0,0:0:0:0:
312,190,56235,2,0,L|306:121,2,53.3333333333333,0|0|0,3:0|0:0|0:0,0:0:0:0:
440,353,56610,69,8,0:0:0:0:
408,305,56735,1,0,0:0:0:0:
356,279,56860,1,0,0:0:0:0:
298,282,56985,70,0,L|292:320,4,26.6666666666667,0|0|0|0|0,3:0|0:0|0:0|0:0|0:0,0:0:0:0:
197,338,57360,1,0,3:0:0:0:
197,338,57422,1,0,0:0:0:0:
197,338,57485,2,0,L|191:300,2,26.6666666666667
294,381,57735,1,0,3:0:0:0:
303,323,57860,1,0,0:0:0:0:
312,265,57985,1,0,0:0:0:0:
411,195,58110,37,8,0:0:0:0:
467,202,58235,1,0,0:0:0:0:
500,249,58360,1,0,0:0:0:0:
487,304,58485,1,0,0:0:0:0:
437,332,58610,1,0,0:0:0:0:
384,313,58735,1,0,0:0:0:0:
418,210,58860,5,0,3:0:0:0:
463,216,58985,1,0,0:0:0:0:
489,253,59110,1,0,0:0:0:0:
478,297,59235,1,0,0:0:0:0:
439,319,59360,1,0,0:0:0:0:
396,304,59485,1,0,3:0:0:0:
311,180,59610,6,0,B|234:210|230:304|230:304|190:246|199:209,1,240,8|0,0:0|0:0,0:0:0:0:
171,146,59985,6,0,B|116:167|113:233|113:233|85:193|97:154,1,155.999992858887
88,193,60360,70,0,B|92:216|111:241|111:241|109:153|184:136|184:136|174:198|186:271|232:311|232:311|224:221|268:174|350:161,1,586.666666666667
406,197,61110,6,0,L|415:254,4,40.000001525879,0|0|0|0|0,3:0|0:0|0:0|0:0|0:0,0:0:0:0:
344,273,61485,37,0,3:0:0:0:
344,273,61547,1,0,0:0:0:0:
344,273,61610,2,0,L|353:330,2,40.000001525879
420,191,61860,5,0,3:0:0:0:
420,191,61922,1,0,0:0:0:0:
420,191,61985,2,0,L|429:248,2,40.000001525879
336,283,62235,101,0,3:0:0:0:
336,283,62297,1,0,0:0:0:0:
336,283,62360,2,0,L|345:340,2,40.000001525879
432,182,62610,5,8,0:0:0:0:
432,182,62672,1,0,0:0:0:0:
432,182,62735,2,0,L|441:239,2,40.000001525879
317,122,62985,86,0,L|328:43,2,80.0000030517579,0|0|0,3:0|0:0|0:0,0:0:0:0:
237,192,63360,5,0,3:0:0:0:
227,193,63422,1,0,0:0:0:0:
217,195,63485,1,0,0:0:0:0:
207,196,63547,1,0,0:0:0:0:
198,197,63610,1,0,0:0:0:0:
260,269,63735,5,0,3:0:0:0:
250,270,63797,1,0,0:0:0:0:
240,272,63860,2,0,L|187:279,2,40.000001525879
272,350,64110,101,8,0:0:0:0:
259,351,64172,1,0,0:0:0:0:
247,353,64235,2,0,L|181:361,2,40.000001525879
258,277,64485,102,0,L|205:284,2,53.3333333333333,0|0|0,3:0|0:0|0:0,0:0:0:0:
238,199,64860,5,0,3:0:0:0:
228,200,64922,1,0,0:0:0:0:
218,202,64985,1,0,0:0:0:0:
208,203,65047,1,0,0:0:0:0:
199,204,65110,1,0,0:0:0:0:
111,260,65235,54,0,P|71:250|43:227,2,53.3333333333333
129,92,65610,5,8,0:0:0:0:
129,92,67110,37,8,0:0:0:0:
130,98,67172,1,0,0:0:0:0:
132,104,67235,1,0,0:0:0:0:
133,111,67297,1,0,0:0:0:0:
135,117,67360,1,0,0:0:0:0:
205,69,67485,5,0,3:0:0:0:
206,75,67547,1,0,0:0:0:0:
208,81,67610,2,0,L|220:130,2,26.6666666666667
282,50,67860,101,0,3:0:0:0:
283,56,67922,1,0,0:0:0:0:
285,62,67985,2,0,L|297:111,2,26.6666666666667
378,131,68235,102,0,L|388:60,2,53.3333333333333,0|0|0,3:0|0:0|0:0,0:0:0:0:
326,228,68610,5,8,0:0:0:0:
327,222,68672,1,0,0:0:0:0:
329,216,68735,1,0,0:0:0:0:
330,209,68797,1,0,0:0:0:0:
332,203,68860,1,0,0:0:0:0:
402,251,68985,5,0,3:0:0:0:
403,245,69047,1,0,0:0:0:0:
405,239,69110,2,0,L|417:190,2,26.6666666666667
479,270,69360,101,0,3:0:0:0:
480,264,69422,1,0,0:0:0:0:
482,258,69485,2,0,L|494:209,2,26.6666666666667
460,364,69735,86,0,L|528:354,2,53.3333333333333,0|0|0,3:0|0:0|3:0,0:0:0:0:
363,370,70110,37,8,0:0:0:0:
353,367,70173,1,0,0:0:0:0:
343,363,70235,1,0,0:0:0:0:
334,359,70298,1,0,0:0:0:0:
323,356,70360,1,0,0:0:0:0:
226,286,70485,38,0,L|289:271,1,53.3333333333333,0|0,3:0|0:0,0:0:0:0:
160,365,70735,1,0,0:0:0:0:
112,352,70860,1,4,0:0:0:0:
23,23,71235,5,8,0:3:0:0:
50,89,71360,1,8,0:0:0:0:
91,141,71485,1,8,0:0:0:0:
141,176,71610,1,8,0:3:0:0:
192,197,71735,1,8,0:0:0:0:
242,202,71860,1,8,0:0:0:0:
286,199,71985,1,8,0:3:0:0:
324,190,72110,1,8,0:0:0:0:
353,176,72235,1,8,0:0:0:0:
373,150,72360,6,0,P|380:129|382:105,3,32,10|0|0|2,0:0|0:0|0:0|0:0,0:0:0:0:
374,33,72735,2,0,P|330:50|310:72,1,72,10|0,0:0|0:0,0:0:0:0:
278,193,73110,6,0,P|273:171|263:149,3,32,10|0|0|2,0:0|0:0|0:0|0:0,0:0:0:0:
220,91,73485,2,0,P|190:127|184:156,1,72,10|0,0:0|0:0,0:0:0:0:
217,278,73860,70,0,P|201:261|182:247,3,32,10|0|0|2,0:0|0:0|0:0|0:0,0:0:0:0:
116,218,74235,2,0,P|108:264|117:292,1,72,10|0,0:0|0:0,0:0:0:0:
198,377,74610,6,0,P|176:370|152:367,3,32,10|0|0|2,0:0|0:0|0:0|0:0,0:0:0:0:
125,296,74985,2,0,P|104:306|85:321,3,32,10|0|2|0,0:0|0:0|0:0|0:0,0:0:0:0:
14,287,75360,6,0,P|7:309|4:333,3,32,10|0|0|2,0:0|0:0|0:0|0:0,0:0:0:0:
82,383,75735,2,0,P|96:350|97:309,1,64,10|2,0:0|0:0,0:0:0:0:
265,184,76110,6,0,P|272:206|275:230,3,32,10|0|0|2,0:0|0:0|0:0|0:0,0:0:0:0:
197,280,76485,2,0,P|183:247|182:206,1,64,10|2,0:0|0:0,0:0:0:0:
46,85,76860,70,0,P|39:107|36:131,3,32,10|0|0|2,0:0|0:0|0:0|0:0,0:0:0:0:
114,181,77235,2,0,P|128:148|129:107,1,64,10|2,0:0|0:0,0:0:0:0:
275,0,77610,6,0,P|282:22|285:46,3,32,10|0|0|2,0:0|0:0|0:0|0:0,0:0:0:0:
200,78,77985,2,0,P|193:56|190:32,1,32,10|0,0:0|0:0,0:0:0:0:
284,1,78172,2,0,P|291:23|294:47,1,32,2|0,0:0|0:0,0:0:0:0:
373,172,78360,6,0,L|394:27,1,120.000004577637,8|0,0:0|0:0,0:0:0:0:
479,69,78641,2,0,L|460:187,1,120.000004577637,8|0,0:0|0:0,0:0:0:0:
361,178,78922,1,8,0:0:0:0:
231,56,79110,6,0,P|190:48|133:83,1,95.9999970703126,8|0,0:0|0:0,0:0:0:0:
207,151,79391,2,0,P|234:119|232:52,1,95.9999970703126,8|0,0:0|0:0,0:0:0:0:
139,84,79672,1,8,0:0:0:0:
216,238,79860,70,0,P|247:232|284:201,1,71.9999978027344,8|0,0:0|0:0,0:0:0:0:
340,165,80141,2,0,P|371:171|408:202,1,71.9999978027344,8|0,0:0|0:0,0:0:0:0:
452,256,80422,1,8,0:0:0:0:
480,111,80610,6,0,L|470:158,1,47.9999985351563,8|0,0:0|0:0,0:0:0:0:
452,256,80891,2,0,L|442:303,1,47.9999985351563,8|0,0:0|0:0,0:0:0:0:
428,378,81172,1,8,0:0:0:0:
281,272,81360,6,0,P|308:274|351:302,1,71.9999978027344,8|0,0:0|0:0,0:0:0:0:
319,384,81641,2,0,P|292:382|249:354,1,71.9999978027344,8|0,0:0|0:0,0:0:0:0:
277,261,81922,1,8,0:0:0:0:
123,357,82110,6,0,P|96:306|108:226,1,103.999995239258,8|0,0:0|0:0,0:0:0:0:
217,188,82391,2,0,P|190:239|202:319,1,103.999995239258,8|0,0:0|0:0,0:0:0:0:
254,371,82672,1,8,0:0:0:0:
176,97,82860,69,6,0:0:0:0:
294,130,83141,1,8,0:0:0:0:
305,127,83235,1,8,0:0:0:0:
176,97,83516,6,0,L|168:140,1,25.9999988098145,8|0,0:0|0:0,0:0:0:0:
163,94,83609,1,2,0:0:0:0:
150,92,83703,1,8,0:0:0:0:
137,90,83797,1,8,0:0:0:0:
124,88,83891,1,0,0:0:0:0:
57,115,83985,6,0,B|70:143|70:143|51:189,3,64
2,262,84360,5,0,3:0:0:0:
19,252,84453,1,0,0:0:0:0:
38,247,84547,1,0,0:0:0:0:
58,247,84641,1,0,0:0:0:0:
78,252,84735,1,0,3:1:0:0:
96,261,84828,1,0,0:0:0:0:
111,274,84922,1,0,0:0:0:0:
122,290,85016,1,0,0:0:0:0:
130,309,85110,1,0,3:0:0:0:
138,328,85204,1,0,0:0:0:0:
149,344,85298,1,0,0:0:0:0:
164,357,85392,1,0,0:0:0:0:
182,366,85485,1,0,3:0:0:0:
201,371,85579,1,0,0:0:0:0:
221,371,85673,1,0,0:0:0:0:
241,366,85767,1,0,0:0:0:0:
258,357,85860,1,0,3:0:0:0:
273,344,85953,1,0,0:0:0:0:
284,328,86047,1,0,0:0:0:0:
291,309,86141,1,0,0:0:0:0:
294,289,86235,1,0,3:0:0:0:
292,270,86328,1,0,0:0:0:0:
285,250,86422,1,0,0:0:0:0:
274,235,86516,1,0,0:0:0:0:
259,221,86610,1,0,3:0:0:0:
244,207,86704,1,0,0:0:0:0:
233,190,86798,1,0,0:0:0:0:
227,171,86892,1,0,0:0:0:0:
225,151,86985,1,0,3:0:0:0:
227,132,87079,1,0,0:0:0:0:
234,113,87172,2,0,L|240:97,2,16
303,152,87360,69,0,3:0:0:0:
310,139,87453,1,0,0:0:0:0:
319,128,87547,1,0,0:0:0:0:
331,119,87641,1,0,0:0:0:0:
344,112,87735,1,0,3:0:0:0:
358,108,87828,1,0,0:0:0:0:
372,106,87922,1,0,0:0:0:0:
387,107,88016,1,0,0:0:0:0:
401,111,88110,1,0,3:0:0:0:
414,117,88203,1,0,0:0:0:0:
426,125,88297,1,0,0:0:0:0:
436,136,88391,1,0,0:0:0:0:
443,148,88485,1,0,3:0:0:0:
449,162,88578,1,0,0:0:0:0:
452,176,88672,1,0,0:0:0:0:
452,191,88766,1,0,0:0:0:0:
449,205,88860,1,0,3:0:0:0:
444,219,88953,1,0,0:0:0:0:
437,231,89047,1,0,0:0:0:0:
427,242,89141,1,0,0:0:0:0:
415,251,89235,1,0,3:0:0:0:
402,257,89328,1,0,0:0:0:0:
388,261,89422,1,0,0:0:0:0:
374,263,89516,1,0,0:0:0:0:
362,262,89610,6,0,L|326:254,2,32,0|0|0,3:0|0:0|0:0,0:0:0:0:
425,328,89891,2,0,L|456:334,2,32,0|0|0,3:0|0:0|0:0,0:0:0:0:
344,374,90172,2,0,L|308:366,1,32,0|0,3:0|0:0,0:0:0:0:
249,327,90360,5,0,3:0:0:0:
239,348,90453,1,0,0:0:0:0:
222,365,90547,1,0,0:0:0:0:
201,377,90641,1,0,0:0:0:0:
178,383,90735,1,0,3:0:0:0:
154,383,90828,1,0,0:0:0:0:
131,376,90922,1,0,0:0:0:0:
111,364,91016,1,0,0:0:0:0:
95,346,91110,1,0,3:0:0:0:
83,325,91203,1,0,0:0:0:0:
78,302,91297,1,0,0:0:0:0:
78,278,91391,1,0,0:0:0:0:
86,256,91485,1,0,3:0:0:0:
98,235,91578,1,0,0:0:0:0:
116,219,91672,1,0,0:0:0:0:
136,207,91766,1,0,0:0:0:0:
158,199,91860,1,0,3:0:0:0:
178,187,91954,1,0,0:0:0:0:
195,170,92047,1,0,0:0:0:0:
206,149,92141,1,0,0:0:0:0:
212,126,92235,1,0,3:0:0:0:
211,102,92329,1,0,0:0:0:0:
205,79,92422,1,0,0:0:0:0:
192,59,92516,1,0,0:0:0:0:
175,43,92610,1,0,3:0:0:0:
154,31,92704,1,0,0:0:0:0:
131,27,92797,1,0,0:0:0:0:
107,27,92891,1,0,0:0:0:0:
84,35,92985,1,0,3:0:0:0:
63,48,93079,1,0,0:0:0:0:
48,65,93172,2,0,L|45:93,2,16
122,115,93360,5,0,3:0:0:0:
135,125,93453,1,0,0:0:0:0:
151,133,93547,1,0,0:0:0:0:
167,138,93641,1,0,0:0:0:0:
184,141,93735,1,0,3:0:0:0:
201,141,93828,1,0,0:0:0:0:
219,138,93922,1,0,0:0:0:0:
235,133,94016,1,0,0:0:0:0:
250,124,94110,1,0,3:0:0:0:
264,114,94203,1,0,0:0:0:0:
275,101,94297,1,0,0:0:0:0:
285,86,94391,1,0,0:0:0:0:
292,71,94485,1,0,3:0:0:0:
299,55,94578,1,0,0:0:0:0:
308,41,94672,1,0,0:0:0:0:
320,28,94766,1,0,0:0:0:0:
334,17,94859,1,0,3:0:0:0:
349,9,94953,1,0,0:0:0:0:
365,3,95047,1,0,0:0:0:0:
382,2,95141,1,0,0:0:0:0:
400,2,95234,1,0,3:0:0:0:
417,3,95328,1,0,0:0:0:0:
433,9,95422,69,0,0:0:0:0:
409,26,95515,1,0,0:0:0:0:
392,50,95609,1,0,3:0:0:0:
384,78,95703,1,0,0:0:0:0:
384,107,95797,1,0,0:0:0:0:
394,135,95890,1,0,0:0:0:0:
411,158,95985,2,0,L|444:164,2,32,0|0|0,3:0|0:0|0:0,0:0:0:0:
240,131,96266,1,0,0:0:0:0:
247,120,96360,5,2,3:1:0:0:
256,170,96453,1,0,0:0:0:0:
266,222,96547,1,2,0:1:0:0:
276,272,96641,1,0,0:0:0:0:
285,324,96735,2,0,L|294:374,1,51.999997619629,2|0,3:1|0:0,0:0:0:0:
156,204,96922,2,0,L|107:186,1,51.999997619629,2|0,0:1|0:0,0:0:0:0:
366,176,97110,2,0,L|412:148,1,51.999997619629,2|0,3:1|0:0,0:0:0:0:
158,295,97297,5,2,0:0:0:0:
136,289,97390,1,0,0:0:0:0:
115,284,97484,1,2,3:1:0:0:
94,279,97578,1,0,0:0:0:0:
73,273,97672,1,2,0:0:0:0:
51,268,97765,1,0,0:0:0:0:
15,203,97860,5,2,3:1:0:0:
46,195,97953,1,0,0:0:0:0:
78,188,98047,1,8,0:2:0:0:
110,181,98141,1,0,0:0:0:0:
141,174,98235,1,0,3:0:0:0:
173,167,98328,1,0,0:0:0:0:
205,160,98422,1,8,0:2:0:0:
237,153,98516,1,0,0:0:0:0:
289,198,98610,69,0,3:0:0:0:
244,220,98703,1,0,0:0:0:0:
197,207,98797,1,8,0:2:0:0:
173,167,98891,1,0,0:0:0:0:
180,117,98985,1,0,3:0:0:0:
219,88,99078,1,0,0:0:0:0:
268,91,99172,2,0,L|291:106,2,25.9999988098145,8|0|0,0:2|0:0|0:0,0:0:0:0:
356,62,99360,5,0,3:0:0:0:
368,81,99453,1,0,0:0:0:0:
383,98,99547,1,8,0:2:0:0:
400,112,99641,1,0,0:0:0:0:
420,123,99735,1,0,3:0:0:0:
441,131,99828,1,0,0:0:0:0:
464,135,99922,1,8,0:2:0:0:
487,135,100016,1,0,0:0:0:0:
512,180,100110,5,0,3:0:0:0:
494,192,100203,1,0,0:0:0:0:
477,203,100297,1,8,0:2:0:0:
458,210,100391,1,0,0:0:0:0:
439,214,100485,1,0,3:0:0:0:
417,215,100578,1,0,0:0:0:0:
397,212,100672,1,8,0:2:0:0:
378,206,100766,1,0,0:0:0:0:
347,248,100860,5,0,3:0:0:0:
356,263,100953,1,0,0:0:0:0:
369,276,101047,1,8,0:2:0:0:
382,288,101141,1,0,0:0:0:0:
399,297,101235,1,0,3:0:0:0:
416,303,101328,1,0,0:0:0:0:
435,306,101422,1,8,0:2:0:0:
453,306,101516,1,0,0:0:0:0:
470,303,101610,70,0,L|482:234,2,51.999997619629,0|0|8,3:0|0:0|0:2,0:0:0:0:
465,384,101891,1,0,3:0:0:0:
335,251,102078,6,0,L|331:223,4,25.9999988098145,0|0|8|0|0,0:0|0:0|3:2|0:0|0:0,0:0:0:0:
343,133,102360,5,0,3:0:0:0:
304,133,102453,1,0,0:0:0:0:
269,150,102547,1,8,0:2:0:0:
245,180,102641,1,0,0:0:0:0:
237,218,102735,2,0,L|228:271,3,51.999997619629,0|0|8|0,3:0|0:0|0:2|0:0,0:0:0:0:
170,338,103110,5,0,3:0:0:0:
131,338,103203,1,0,0:0:0:0:
96,321,103297,1,8,0:2:0:0:
72,291,103391,1,0,0:0:0:0:
64,253,103485,2,0,L|60:200,3,51.999997619629,0|0|8|0,3:0|0:0|0:2|0:0,0:0:0:0:
1,111,103860,69,0,3:0:0:0:
43,94,103953,1,0,0:0:0:0:
88,96,104047,1,8,0:2:0:0:
128,119,104141,1,0,0:0:0:0:
155,155,104235,1,0,3:0:0:0:
182,192,104329,1,0,0:0:0:0:
222,213,104423,1,8,0:2:0:0:
267,217,104517,1,0,0:0:0:0:
311,200,104610,1,0,3:0:0:0:
365,178,104703,1,0,0:0:0:0:
423,176,104797,1,8,0:2:0:0:
470,209,104891,1,0,0:0:0:0:
489,263,104985,1,0,3:0:0:0:
472,318,105078,1,0,0:0:0:0:
426,352,105172,1,8,0:2:0:0:
368,353,105266,1,0,0:0:0:0:
329,319,105360,1,0,3:0:0:0:
310,278,105453,1,0,0:0:0:0:
316,233,105547,1,8,0:2:0:0:
344,198,105641,1,0,0:0:0:0:
387,184,105735,1,0,3:0:0:0:
430,194,105828,1,0,0:0:0:0:
462,225,105922,1,8,0:2:0:0:
473,269,106016,1,0,0:0:0:0:
459,311,106110,1,0,3:0:0:0:
435,332,106203,1,0,0:0:0:0:
403,340,106297,1,8,0:2:0:0:
371,334,106391,1,0,0:0:0:0:
343,317,106485,1,0,3:0:0:0:
327,289,106578,1,0,0:0:0:0:
323,257,106672,1,8,0:2:0:0:
333,227,106766,1,0,0:0:0:0:
350,205,106860,5,0,3:0:0:0:
367,202,106953,1,0,0:0:0:0:
384,200,107047,1,8,0:2:0:0:
401,197,107141,1,0,0:0:0:0:
409,181,107235,5,0,3:0:0:0:
386,183,107329,1,0,0:0:0:0:
364,187,107423,1,8,0:2:0:0:
342,190,107516,1,0,0:0:0:0:
331,171,107610,5,0,3:0:0:0:
359,167,107703,1,0,0:0:0:0:
388,162,107797,1,8,0:2:0:0:
418,159,107891,1,0,0:0:0:0:
429,130,107985,69,0,3:0:0:0:
390,134,108079,1,0,0:0:0:0:
353,141,108173,1,8,0:2:0:0:
316,146,108266,1,0,0:0:0:0:
272,121,108360,6,0,L|292:2,2,107.999996704102,2|2|2,0:0|0:0|0:0,0:0:0:0:
157,267,109110,5,2,0:0:0:0:
141,159,109391,1,2,0:0:0:0:
123,53,109672,1,2,0:0:0:0:
265,325,109860,5,2,0:0:0:0:
268,301,109953,1,0,0:0:0:0:
272,277,110047,1,0,0:0:0:0:
276,253,110141,2,0,L|298:140,1,107.999996704102,2|2,0:0|0:0,0:0:0:0:
397,329,110610,69,2,0:0:0:0:
405,318,110703,1,0,0:0:0:0:
413,307,110797,1,0,0:0:0:0:
421,296,110891,2,0,L|460:290,1,27.9999991455078,2|0,0:0|0:0,0:0:0:0:
505,355,111078,5,0,0:0:0:0:
496,365,111172,2,0,L|468:369,1,27.9999991455078,2|0,0:0|0:0,0:0:0:0:
234,231,111360,6,0,P|300:232|344:298,1,128,2|0,3:1|0:0,0:0:0:0:
270,368,111641,1,2,0:0:0:0:
257,378,111735,2,0,L|264:303,1,64,8|0,3:0|0:0,0:0:0:0:
115,134,111922,1,2,0:0:0:0:
117,145,112015,1,0,0:0:0:0:
166,195,112109,5,2,3:1:0:0:
144,211,112203,2,0,L|137:280,1,64
336,278,112391,1,2,0:0:0:0:
340,271,112485,2,0,L|333:201,1,64,8|0,3:0|0:0,0:0:0:0:
314,71,112672,1,2,0:0:0:0:
305,66,112766,1,0,0:0:0:0:
255,69,112860,69,2,3:1:0:0:
297,61,112953,2,0,L|382:44,1,64
477,153,113141,1,2,0:0:0:0:
470,158,113235,2,0,L|408:146,1,64,8|0,3:0|0:0,0:0:0:0:
290,57,113422,2,0,L|375:40,1,64,2|0,0:0|0:0,0:0:0:0:
207,176,113610,85,2,3:1:0:0:
207,176,113656,5,2,0:0:0:0:
207,176,113703,6,0,L|199:220,2,32,2|2|2,0:0|0:0|0:0,0:0:0:0:
110,127,113891,5,0,0:0:0:0:
121,139,113985,2,0,L|105:227,1,64,10|0,3:1|0:0,0:0:0:0:
38,348,114172,1,2,0:0:0:0:
41,331,114266,1,2,0:0:0:0:
19,263,114360,21,2,3:1:0:0:
39,285,114453,2,0,P|67:298|134:304,1,64
259,213,114641,1,2,0:0:0:0:
252,207,114735,2,0,P|220:213|191:226,1,64,8|0,3:0|0:0,0:0:0:0:
235,363,114922,1,2,0:0:0:0:
239,349,115016,1,0,0:0:0:0:
215,312,115110,69,2,3:1:0:0:
244,334,115203,2,0,P|277:338|317:328,1,64
418,298,115391,1,2,0:0:0:0:
418,298,115485,2,0,L|430:200,1,64,8|0,3:0|0:0,0:0:0:0:
374,96,115672,1,2,0:0:0:0:
377,105,115766,1,0,0:0:0:0:
448,138,115860,5,2,3:1:0:0:
455,100,115953,2,0,L|467:2,1,64
307,144,116141,1,2,0:0:0:0:
298,137,116234,2,0,L|283:44,1,64,8|0,3:0|0:0,0:0:0:0:
151,209,116422,1,2,0:0:0:0:
162,206,116516,1,0,0:0:0:0:
213,232,116610,5,2,3:1:0:0:
175,204,116703,2,0,L|143:131,1,64
20,303,116891,1,2,0:0:0:0:
12,290,116985,5,8,3:0:0:0:
59,285,117078,1,0,0:0:0:0:
106,295,117172,1,2,0:0:0:0:
148,319,117266,1,0,0:0:0:0:
209,370,117360,1,2,3:1:0:0:
217,366,117453,2,0,P|225:336|226:292,1,64
307,144,117641,1,2,0:0:0:0:
299,148,117735,2,0,P|288:178|290:222,1,64,8|0,3:0|0:0,0:0:0:0:
375,320,117922,1,2,0:0:0:0:
421,338,118016,1,0,0:0:0:0:
473,324,118110,69,2,3:1:0:0:
507,255,118203,2,0,L|493:168,1,64
307,144,118391,1,2,0:0:0:0:
299,148,118485,2,0,P|293:183|313:235,1,64,8|0,3:0|0:0,0:0:0:0:
479,89,118672,1,2,0:0:0:0:
469,39,118766,1,0,0:0:0:0:
418,5,118860,5,2,3:1:0:0:
352,38,118953,2,0,L|253:23,1,64
151,114,119141,1,2,0:0:0:0:
161,123,119235,2,0,L|260:108,1,64,8|0,3:0|0:0,0:0:0:0:
285,18,119422,2,0,L|348:27,1,64,2|0,0:0|0:0,0:0:0:0:
485,165,119610,69,2,3:1:0:0:
487,175,119656,5,2,0:0:0:0:
488,185,119703,6,0,L|498:247,4,40,2|2|2|0|2,0:0|0:0|0:0|0:0|0:0,0:0:0:0:
402,269,119985,85,10,3:0:0:0:
400,259,120031,5,2,0:0:0:0:
399,249,120078,6,0,L|389:187,4,40,2|2|2|0|2,0:0|0:0|0:0|0:0|0:0,0:0:0:0:
331,342,120360,5,2,3:1:0:0:
339,329,120453,2,0,L|274:318,1,64
122,329,120641,1,2,0:0:0:0:
114,345,120735,2,0,P|144:332|182:289,1,80,8|0,3:0|0:0,0:0:0:0:
210,199,120922,2,0,P|213:166|195:112,1,80,2|0,0:0|0:0,0:0:0:0:
4,139,121110,5,2,3:1:0:0:
62,181,121203,2,0,L|135:168,1,64
208,33,121391,1,2,0:0:0:0:
198,30,121485,2,0,P|195:63|213:117,1,80,8|0,3:0|0:0,0:0:0:0:
324,183,121672,1,2,0:0:0:0:
335,178,121766,1,0,0:0:0:0:
395,205,121860,5,2,3:1:0:0:
346,173,121953,2,0,L|357:94,1,64
512,135,122141,1,2,0:0:0:0:
512,136,122235,2,0,L|503:199,1,64,8|0,3:0|0:0,0:0:0:0:
399,332,122422,1,2,0:0:0:0:
360,306,122515,1,0,0:0:0:0:
278,339,122609,69,2,3:1:0:0:
287,323,122703,2,0,L|277:246,1,64
416,156,122891,1,2,0:0:0:0:
409,164,122985,2,0,L|332:174,1,64,8|0,3:0|0:0,0:0:0:0:
204,116,123172,1,2,0:0:0:0:
214,119,123266,1,0,0:0:0:0:
187,184,123360,5,2,3:1:0:0:
198,191,123453,2,0,L|207:274,1,64
78,336,123641,1,2,0:0:0:0:
67,329,123734,2,0,P|78:298|119:262,1,64,8|0,3:0|0:0,0:0:0:0:
197,270,123922,2,0,P|230:262|281:281,1,64,2|0,0:0|0:0,0:0:0:0:
389,368,124110,5,2,3:1:0:0:
335,324,124203,2,0,L|347:241,1,64
416,168,124391,1,2,0:0:0:0:
425,159,124484,2,0,L|413:76,1,64,8|0,3:0|0:0,0:0:0:0:
310,6,124672,1,2,0:0:0:0:
307,28,124766,1,0,0:0:0:0:
285,108,124860,5,2,3:1:0:0:
309,102,124953,2,0,P|304:145|287:173,1,64
132,133,125141,1,2,0:0:0:0:
126,124,125235,2,0,P|165:106|198:107,1,64,8|0,3:0|0:0,0:0:0:0:
249,230,125422,2,0,P|288:247|321:246,1,64,2|0,0:0|0:0,0:0:0:0:
475,95,125610,69,2,3:1:0:0:
427,111,125704,1,2,0:0:0:0:
441,159,125798,1,2,0:0:0:0:
491,143,125891,1,2,0:0:0:0:
458,128,125985,2,0,L|468:159,4,32,10|2|2|2|2,3:1|0:0|0:0|0:0|0:0,0:0:0:0:
503,242,126266,5,0,0:0:0:0:
508,232,126360,2,0,L|420:243,1,64,10|0,3:1|0:0,0:0:0:0:
325,314,126547,1,0,0:0:0:0:
335,317,126641,1,2,0:0:0:0:
389,294,126735,5,8,3:0:0:0:
315,308,126828,1,0,0:0:0:0:
241,322,126922,2,0,L|174:335,1,64,2|0,0:0|0:0,0:0:0:0:
32,183,127110,6,0,L|99:196,1,64,10|0,3:1|0:0,0:0:0:0:
205,215,127297,1,0,0:0:0:0:
201,222,127391,1,2,0:0:0:0:
152,255,127485,69,8,3:0:0:0:
205,207,127578,1,0,0:0:0:0:
274,196,127672,2,0,P|315:197|350:205,1,64,2|0,0:0|0:0,0:0:0:0:
470,199,127860,6,0,P|442:198|419:192,1,44.0000013427735,10|0,3:1|0:0,0:0:0:0:
356,116,128047,1,0,0:0:0:0:
358,124,128141,1,2,0:0:0:0:
281,108,128235,5,8,3:0:0:0:
285,77,128328,1,0,0:0:0:0:
288,45,128422,2,0,L|294:-6,1,44.0000013427735,2|0,0:0|0:0,0:0:0:0:
181,136,128610,6,0,L|175:92,1,32,10|0,3:1|0:0,0:0:0:0:
98,47,128797,1,0,0:0:0:0:
94,62,128890,1,2,0:0:0:0:
92,79,128985,2,0,L|101:33,1,32,8|0,3:0|0:0,0:0:0:0:
191,67,129172,2,0,L|184:98,1,32,2|0,0:0|0:0,0:0:0:0:
31,232,129360,69,2,3:1:0:0:
27,212,129453,1,0,0:0:0:0:
23,192,129547,1,0,0:0:0:0:
20,172,129641,1,0,0:0:0:0:
103,152,129735,53,2,0:0:0:0:
102,157,129797,5,0,0:0:0:0:
102,162,129860,101,0,0:0:0:0:
102,167,129922,5,0,0:0:0:0:
101,173,129985,102,0,L|97:204,1,21.3333333333333
194,210,130110,22,0,L|188:162,5,34.6666650797527,2|0|0|0|0|0,0:0|0:0|0:0|0:0|0:0|0:0,0:0:0:0:
273,182,130485,6,0,L|270:152,6,30.0000011444092,2|0|0|0|0|0|0,0:0|0:0|0:0|0:0|0:0|0:0|0:0,0:0:0:0:
351,155,130860,102,0,L|348:126,12,23.9999992675781,2|0|0|0|0|0|0|0|0|0|0|0|0,0:0|0:0|0:0|0:0|0:0|0:0|0:0|0:0|0:0|0:0|0:0|0:0|0:0,0:0:0:0:
431,133,131235,6,0,L|428:104,12,17.0000003242493,2|0|0|0|0|0|0|0|0|0|0|0|0,0:0|0:0|0:0|0:0|0:0|0:0|0:0|0:0|0:0|0:0|0:0|0:0|0:0,0:0:0:0:
510,106,131610,102,0,L|512:116,30,10,2|0|0|0|0|0|0|0|0|0|0|0|0|0|0|0|2|0|0|0|0|0|0|0|0|0|0|0|0|0|0,0:0|0:0|0:0|0:0|0:0|0:0|0:0|0:0|0:0|0:0|0:0|0:0|0:0|0:0|0:0|0:0|0:0|0:0|0:0|0:0|0:0|0:0|0:0|0:0|0:0|0:0|0:0|0:0|0:0|0:0|0:0,0:0:0:0:
509,131,132360,22,0,L|491:36,1,80,0|0,3:1|0:0,0:0:0:0:
348,81,132547,2,0,L|362:159,1,80
163,319,132735,5,8,3:1:0:0:
123,315,132828,1,0,0:0:0:0:
88,297,132922,1,0,0:0:0:0:
62,266,133016,1,0,0:0:0:0:
49,229,133110,1,0,3:0:0:0:
52,189,133203,1,0,0:0:0:0:
70,153,133297,1,0,0:0:0:0:
99,127,133391,1,0,0:0:0:0:
137,114,133485,1,8,3:1:0:0:
177,116,133578,1,0,0:0:0:0:
213,133,133672,1,0,0:0:0:0:
240,162,133766,1,0,0:0:0:0:
275,234,133860,37,0,3:0:0:0:
329,262,133985,1,0,0:0:0:0:
392,263,134110,1,0,0:0:0:0:
449,236,134235,1,8,3:1:0:0:
486,185,134360,1,0,0:0:0:0:
495,123,134485,1,0,0:0:0:0:
475,63,134610,1,0,3:0:0:0:
432,19,134735,1,0,0:0:0:0:
372,0,134860,1,0,0:0:0:0:
310,10,134985,1,8,3:1:0:0:
260,49,135110,1,0,0:0:0:0:
232,105,135235,1,0,0:0:0:0:
234,168,135360,70,0,L|256:272,1,80,0|0,3:0|0:0,0:0:0:0:
133,290,135547,2,0,L|116:211,1,80
94,29,135735,5,8,3:1:0:0:
102,66,135828,1,0,0:0:0:0:
96,105,135922,1,0,0:0:0:0:
71,137,136016,1,0,0:0:0:0:
36,155,136110,1,0,3:0:0:0:
57,117,136203,1,0,0:0:0:0:
90,102,136297,1,0,0:0:0:0:
126,97,136391,1,0,0:0:0:0:
162,103,136485,1,8,3:1:0:0:
194,120,136578,1,0,0:0:0:0:
219,146,136672,1,0,0:0:0:0:
236,178,136766,1,0,0:0:0:0:
258,257,136860,37,0,3:0:0:0:
297,292,136985,1,0,0:0:0:0:
348,305,137110,1,0,0:0:0:0:
399,291,137235,1,8,3:1:0:0:
437,255,137360,1,0,0:0:0:0:
454,205,137485,1,0,0:0:0:0:
445,153,137610,1,0,3:0:0:0:
394,169,137735,1,0,0:0:0:0:
358,207,137860,1,0,0:0:0:0:
344,258,137985,1,8,3:1:0:0:
356,310,138110,1,0,0:0:0:0:
391,349,138235,1,0,0:0:0:0:
462,377,138360,70,0,P|428:360|365:367,1,80,0|0,3:0|0:0,0:0:0:0:
255,384,138547,2,0,P|215:383|179:366,1,80
92,85,138735,5,8,3:1:0:0:
126,74,138828,1,0,0:0:0:0:
163,70,138922,1,0,0:0:0:0:
199,75,139016,1,0,0:0:0:0:
232,89,139110,1,0,3:0:0:0:
262,110,139203,1,0,0:0:0:0:
288,136,139297,1,0,0:0:0:0:
317,158,139391,1,0,0:0:0:0:
350,173,139485,1,8,3:1:0:0:
386,178,139578,1,0,0:0:0:0:
422,173,139672,1,0,0:0:0:0:
456,160,139766,1,0,0:0:0:0:
511,92,139860,5,0,3:0:0:0:
468,68,139985,1,0,0:0:0:0:
423,56,140110,1,0,0:0:0:0:
376,56,140235,1,8,3:1:0:0:
330,68,140360,1,0,0:0:0:0:
289,93,140485,1,0,0:0:0:0:
253,122,140610,1,0,3:0:0:0:
220,156,140735,1,0,0:0:0:0:
183,185,140860,1,0,0:0:0:0:
139,203,140985,1,8,3:1:0:0:
92,207,141110,1,0,0:0:0:0:
46,199,141235,1,0,0:0:0:0:
12,116,141360,54,0,P|67:113|103:133,1,80,0|0,3:0|0:0,0:0:0:0:
184,85,141547,2,0,P|214:131|214:172,1,80
375,359,141735,5,8,3:1:0:0:
423,354,141828,1,0,0:0:0:0:
453,315,141922,1,0,0:0:0:0:
446,267,142016,1,0,0:0:0:0:
406,239,142110,1,0,3:0:0:0:
358,227,142203,1,0,0:0:0:0:
319,196,142297,1,0,0:0:0:0:
298,151,142391,1,0,0:0:0:0:
299,102,142485,1,8,3:1:0:0:
320,57,142578,1,0,0:0:0:0:
359,26,142672,1,0,0:0:0:0:
408,15,142766,1,0,0:0:0:0:
494,81,142860,37,8,3:0:0:0:
440,106,142985,1,8,0:0:0:0:
380,112,143110,1,8,0:0:0:0:
312,63,143235,5,8,3:0:0:0:
253,68,143360,1,8,0:0:0:0:
199,94,143485,1,8,0:0:0:0:
174,172,143610,101,8,3:0:0:0:
120,198,143735,1,8,0:0:0:0:
61,203,143860,1,8,0:0:0:0:
5,155,143985,6,0,P|-9:184|0:240,1,90.0000034332277,8|0,3:1|0:0,0:0:0:0:
15,262,144360,38,0,P|43:197|18:132,1,143.999995605469,2|0,3:1|0:0,0:0:0:0:
19,30,144641,1,2,0:0:0:0:
31,25,144735,2,0,P|72:37|105:71,1,71.9999978027344,8|0,3:1|0:0,0:0:0:0:
190,23,144922,2,0,P|200:64|187:110,1,71.9999978027344,2|0,0:0|0:0,0:0:0:0:
218,226,145110,5,2,3:1:0:0:
238,178,145203,1,0,0:0:0:0:
280,149,145297,1,0,0:0:0:0:
331,148,145391,1,2,0:0:0:0:
375,175,145485,2,0,L|379:250,1,71.9999978027344,8|0,3:1|0:0,0:0:0:0:
509,241,145672,2,0,L|505:169,1,71.9999978027344,2|0,0:0|0:0,0:0:0:0:
441,331,145860,37,0,3:1:0:0:
397,362,145985,1,0,0:0:0:0:
347,380,146110,1,0,0:0:0:0:
294,384,146235,1,8,3:1:0:0:
242,370,146360,1,0,0:0:0:0:
195,344,146485,1,0,0:0:0:0:
158,305,146610,1,0,3:1:0:0:
133,257,146735,1,0,0:0:0:0:
124,205,146860,1,0,0:0:0:0:
130,152,146985,1,8,3:1:0:0:
152,102,147110,1,0,0:0:0:0:
186,61,147235,1,0,0:0:0:0:
254,102,147360,86,0,P|296:145|391:140,1,143.999995605469,2|0,3:1|0:0,0:0:0:0:
501,103,147641,1,2,0:0:0:0:
501,103,147735,2,0,P|502:138|475:184,1,71.9999978027344,8|0,3:1|0:0,0:0:0:0:
334,68,147922,2,0,P|333:33|360:-13,1,71.9999978027344,2|0,0:0|0:0,0:0:0:0:
477,174,148110,1,2,3:1:0:0:
435,153,148203,1,0,0:0:0:0:
389,159,148297,1,0,0:0:0:0:
354,189,148391,1,2,0:0:0:0:
340,233,148485,2,0,P|340:275|309:313,1,71.9999978027344,8|0,3:1|0:0,0:0:0:0:
133,329,148672,2,0,P|169:350|217:342,1,71.9999978027344,2|0,0:0|0:0,0:0:0:0:
263,244,148860,21,0,3:1:0:0:
278,178,148985,1,0,0:0:0:0:
271,111,149110,1,0,0:0:0:0:
236,55,149235,1,8,3:1:0:0:
176,25,149360,1,0,0:0:0:0:
109,31,149485,1,0,0:0:0:0:
60,76,149610,1,0,3:1:0:0:
49,140,149735,1,0,0:0:0:0:
87,193,149860,1,0,0:0:0:0:
153,200,149985,5,8,3:1:0:0:
200,144,150110,1,0,0:0:0:0:
286,134,150235,101,8,0:3:0:0:
339,73,150360,54,0,L|486:103,1,143.999995605469,2|0,3:1|0:0,0:0:0:0:
471,176,150641,1,2,0:0:0:0:
458,178,150735,2,0,P|421:151|409:121,1,71.9999978027344,8|0,3:1|0:0,0:0:0:0:
339,73,150922,2,0,P|343:27|363:2,1,71.9999978027344,2|0,0:0|0:0,0:0:0:0:
310,212,151110,5,2,3:1:0:0:
280,250,151203,1,0,0:0:0:0:
237,271,151297,1,0,0:0:0:0:
188,270,151391,1,2,0:0:0:0:
145,248,151485,2,0,P|140:197|111:164,1,71.9999978027344,8|0,3:1|0:0,0:0:0:0:
6,202,151672,2,0,P|11:253|40:286,1,71.9999978027344,2|0,0:0|0:0,0:0:0:0:
175,370,151860,37,0,3:1:0:0:
210,326,151985,1,0,0:0:0:0:
232,275,152110,1,0,0:0:0:0:
239,220,152235,1,8,3:1:0:0:
230,165,152360,1,0,0:0:0:0:
206,114,152485,1,0,0:0:0:0:
169,73,152610,1,0,3:1:0:0:
122,43,152735,1,0,0:0:0:0:
68,28,152860,1,0,0:0:0:0:
1,60,152985,2,0,L|19:135,2,53.3333333333333,8|0|0,3:1|0:0|0:0,0:0:0:0:
77,21,153360,53,0,3:0:0:0:
116,25,153453,1,0,3:0:0:0:
156,30,153547,1,0,3:0:0:0:
196,35,153641,1,0,3:0:0:0:
235,39,153735,1,8,3:1:0:0:
275,44,153828,1,0,3:0:0:0:
315,49,153922,1,0,3:0:0:0:
355,54,154016,1,0,3:0:0:0:
438,31,154110,5,0,3:0:0:0:
434,45,154203,1,0,3:0:0:0:
430,60,154297,1,0,3:0:0:0:
426,74,154391,1,0,3:0:0:0:
422,89,154485,1,8,3:1:0:0:
418,103,154578,1,0,3:0:0:0:
415,118,154672,1,0,3:0:0:0:
411,132,154766,1,0,3:0:0:0:
407,147,154860,70,0,L|400:189,6,23.9999992675781,8|8|8|0|0|0|0,0:1|0:1|0:1|0:0|0:0|0:0|0:0,0:0:0:0:
321,190,155235,6,0,L|325:213,6,23.9999992675781,8|8|8|0|0|0|0,0:1|0:1|0:1|0:0|0:0|0:0|0:0,0:0:0:0:
392,302,155610,6,0,L|401:254,1,47.9999985351563
402,289,155703,2,0,L|406:240,1,47.9999985351563
412,276,155797,2,0,L|412:227,1,47.9999985351563
420,263,155891,2,0,L|416:214,1,47.9999985351563
428,248,155985,2,0,L|415:175,1,68.0000012969971
271,40,156172,6,0,P|300:68|339:73,1,47.9999985351563
276,35,156266,2,0,P|311:54|350:49,1,47.9999985351563
280,31,156360,6,0,P|247:7|199:1,1,71.9999978027344,2|0,3:1|0:0,0:0:0:0:
67,129,156547,1,0,0:0:0:0:
117,159,156641,1,0,3:0:0:0:
175,150,156735,2,0,P|208:112|222:69,1,71.9999978027344,8|0,3:1|0:0,0:0:0:0:
84,0,156922,2,0,P|51:38|37:81,1,71.9999978027344
146,232,157110,6,0,P|184:237|240:218,1,71.9999978027344,2|0,3:1|0:0,0:0:0:0:
363,107,157297,1,0,0:0:0:0:
430,110,157391,1,0,3:0:0:0:
478,155,157485,2,0,P|490:184|492:241,1,71.9999978027344,8|0,3:1|0:0,0:0:0:0:
348,279,157672,2,0,P|361:245|364:209,1,71.9999978027344
148,223,157860,70,0,P|180:235|219:230,1,71.9999978027344,2|0,3:1|0:0,0:0:0:0:
304,64,158047,1,0,0:0:0:0:
239,45,158141,1,0,3:0:0:0:
176,71,158235,2,0,L|185:149,1,71.9999978027344,8|0,3:1|0:0,0:0:0:0:
348,207,158422,2,0,L|339:278,1,71.9999978027344
206,365,158610,6,0,L|197:293,1,71.9999978027344,2|0,3:1|0:0,0:0:0:0:
114,160,158797,1,0,0:0:0:0:
55,152,158891,1,0,3:0:0:0:
0,183,158985,2,0,P|14:214|62:246,1,71.9999978027344,8|0,3:1|0:0,0:0:0:0:
187,281,159172,2,0,P|221:276|266:241,1,71.9999978027344
323,69,159360,6,0,L|306:166,1,71.9999978027344,2|0,3:1|0:0,0:0:0:0:
360,279,159547,1,0,0:0:0:0:
417,289,159641,1,0,3:0:0:0:
463,243,159735,2,0,L|446:146,1,71.9999978027344,8|0,3:1|0:0,0:0:0:0:
310,139,159922,2,0,L|322:209,1,71.9999978027344
284,359,160110,6,0,P|256:323|194:305,1,71.9999978027344,2|0,3:1|0:0,0:0:0:0:
38,352,160297,1,0,0:0:0:0:
103,365,160391,1,0,3:0:0:0:
154,323,160485,2,0,P|157:274|136:233,1,71.9999978027344,8|0,3:1|0:0,0:0:0:0:
11,230,160672,2,0,P|8:181|29:140,1,71.9999978027344
177,112,160860,70,0,P|180:161|159:202,1,71.9999978027344,2|0,3:1|0:0,0:0:0:0:
65,59,161047,1,0,0:0:0:0:
123,22,161141,1,0,3:0:0:0:
192,22,161235,2,0,P|213:27|259:72,1,71.9999978027344,8|0,3:1|0:0,0:0:0:0:
251,217,161422,2,0,P|251:181|267:149,1,71.9999978027344
408,80,161610,6,0,P|372:74|338:85,1,71.9999978027344,2|0,3:1|0:0,0:0:0:0:
250,158,161797,2,0,P|237:191|240:227,1,71.9999978027344,0|0,0:0|3:0,0:0:0:0:
381,318,161985,1,8,3:1:0:0:
331,297,162078,1,0,0:0:0:0:
277,297,162172,1,0,0:0:0:0:
227,316,162266,1,0,0:0:0:0:
189,381,162360,6,0,P|156:346|157:298,1,71.9999978027344,2|0,3:1|0:0,0:0:0:0:
57,138,162547,1,0,0:0:0:0:
52,186,162641,1,0,3:0:0:0:
47,234,162735,2,0,L|41:312,1,71.9999978027344,8|0,3:1|0:0,0:0:0:0:
151,323,162922,2,0,L|156:251,1,71.9999978027344
249,105,163110,6,0,P|206:112|172:148,1,71.9999978027344,2|0,3:1|0:0,0:0:0:0:
284,302,163297,1,0,0:0:0:0:
328,286,163391,1,0,3:0:0:0:
357,244,163485,2,0,L|361:163,1,71.9999978027344,8|0,3:1|0:0,0:0:0:0:
480,299,163672,2,0,L|476:370,1,71.9999978027344
349,237,163860,70,0,L|353:156,1,71.9999978027344,2|0,3:1|0:0,0:0:0:0:
512,56,164047,1,0,0:0:0:0:
467,87,164141,1,0,3:0:0:0:
411,88,164235,2,0,P|370:75|338:41,1,71.9999978027344,8|0,3:1|0:0,0:0:0:0:
225,0,164422,2,0,P|184:13|152:47,1,71.9999978027344
219,168,164610,6,0,P|260:155|292:121,1,71.9999978027344,2|0,3:1|0:0,0:0:0:0:
415,14,164797,1,0,0:0:0:0:
470,20,164891,1,0,3:0:0:0:
512,56,164985,2,0,L|497:140,1,71.9999978027344,8|0,3:1|0:0,0:0:0:0:
392,174,165172,2,0,L|407:258,1,71.9999978027344
496,381,165360,6,0,L|510:286,1,71.9999978027344,0|0,3:1|0:0,0:0:0:0:
314,218,165547,1,0,0:0:0:0:
301,218,165641,1,0,3:0:0:0:
288,220,165735,2,0,L|277:291,1,71.9999978027344,8|0,3:1|0:0,0:0:0:0:
394,316,165922,2,0,L|404:244,1,71.9999978027344
287,94,166110,6,0,P|239:100|200:129,1,71.9999978027344,0|0,3:1|0:0,0:0:0:0:
91,215,166297,1,0,0:0:0:0:
46,199,166391,1,0,3:0:0:0:
19,158,166485,2,0,L|35:77,1,71.9999978027344,8|0,3:1|0:0,0:0:0:0:
212,118,166672,2,0,L|198:188,1,71.9999978027344
83,375,166860,5,8,3:0:0:0:
130,314,166985,1,8,0:0:0:0:
197,277,167110,1,8,0:0:0:0:
203,194,167235,5,8,3:0:0:0:
278,191,167360,1,8,0:0:0:0:
349,219,167485,1,8,0:0:0:0:
420,158,167610,101,8,3:0:0:0:
471,214,167735,1,8,0:0:0:0:
494,286,167860,1,8,0:0:0:0:
442,384,167985,5,8,3:1:0:0:
442,384,168360,38,0,L|464:204,1,160,2|0,3:1|0:0,0:0:0:0:
352,158,168641,1,2,3:1:0:0:
344,161,168735,2,0,B|365:171|365:171|421:163,1,71.9999978027344,8|0,3:1|0:0,0:0:0:0:
474,40,168922,2,0,B|453:30|453:30|397:38,1,71.9999978027344,2|0,0:0|0:0,0:0:0:0:
281,118,169110,6,0,L|126:97,1,143.999995605469,2|0,3:1|0:0,0:0:0:0:
13,30,169391,1,2,3:1:0:0:
43,45,169485,2,0,P|54:72|55:124,1,71.9999978027344,8|0,3:1|0:0,0:0:0:0:
105,186,169672,2,0,P|98:221|80:252,1,71.9999978027344,2|0,0:0|0:0,0:0:0:0:
40,360,169860,6,0,P|107:354|185:286,1,143.999995605469,2|0,3:1|0:0,0:0:0:0:
258,201,170141,1,2,3:1:0:0:
242,219,170235,2,0,L|260:301,1,71.9999978027344,8|0,3:1|0:0,0:0:0:0:
96,191,170422,2,0,L|111:120,1,71.9999978027344,2|0,0:0|0:0,0:0:0:0:
258,201,170610,6,0,L|294:365,1,143.999995605469,2|0,3:1|0:0,0:0:0:0:
430,348,170891,1,2,3:1:0:0:
444,329,170985,2,0,P|410:312|371:309,1,71.9999978027344,8|0,3:1|0:0,0:0:0:0:
325,179,171172,2,0,P|289:184|257:200,1,71.9999978027344,2|0,0:0|0:0,0:0:0:0:
152,365,171360,70,0,P|85:369|23:319,1,143.999995605469,2|0,3:1|0:0,0:0:0:0:
103,177,171641,1,2,3:1:0:0:
134,199,171735,2,0,L|109:298,1,71.9999978027344,8|0,3:1|0:0,0:0:0:0:
0,231,171922,2,0,L|17:161,1,71.9999978027344,2|0,0:0|0:0,0:0:0:0:
131,39,172110,6,0,B|171:78|171:78|281:61,1,143.999995605469,2|0,3:1|0:0,0:0:0:0:
383,134,172391,1,2,3:1:0:0:
392,152,172485,2,0,B|304:138|304:138,1,71.9999978027344,8|0,3:1|0:0,0:0:0:0:
333,0,172672,2,0,B|404:10,1,71.9999978027344,2|0,0:0|0:0,0:0:0:0:
512,115,172860,37,8,3:1:0:0:
509,169,172985,1,8,0:0:0:0:
486,218,173110,1,8,0:0:0:0:
445,253,173235,1,8,3:1:0:0:
394,270,173360,1,8,0:0:0:0:
339,264,173485,1,8,0:0:0:0:
291,239,173610,1,8,3:1:0:0:
259,196,173735,1,8,0:0:0:0:
250,143,173860,1,8,0:0:0:0:
255,62,173985,53,8,3:1:0:0:
251,85,174078,1,8,0:0:0:0:
248,108,174172,1,8,0:0:0:0:
245,132,174266,1,8,0:0:0:0:
242,155,174360,1,2,3:1:0:0:
0,272,174641,5,2,3:1:0:0:
43,295,174735,2,0,P|26:258|31:197,1,71.9999978027344,8|0,3:1|0:0,0:0:0:0:
162,152,174922,2,0,P|145:189|150:250,1,71.9999978027344,2|0,0:0|0:0,0:0:0:0:
244,359,175110,6,0,P|314:319|383:326,1,143.999995605469,2|0,3:1|0:0,0:0:0:0:
483,380,175391,1,2,3:1:0:0:
474,375,175485,2,0,L|496:279,1,71.9999978027344,8|0,3:1|0:0,0:0:0:0:
375,323,175672,2,0,L|421:235,1,71.9999978027344,2|0,0:0|0:0,0:0:0:0:
510,102,175860,6,0,P|443:151|359:139,1,143.999995605469,2|0,3:1|0:0,0:0:0:0:
301,44,176141,1,2,3:1:0:0:
304,30,176235,2,0,P|328:44|350:98,1,71.9999978027344,8|0,3:1|0:0,0:0:0:0:
392,156,176422,2,0,P|376:188|346:207,1,71.9999978027344,2|0,0:0|0:0,0:0:0:0:
229,246,176610,70,0,P|168:181|96:187,1,143.999995605469,2|0,3:1|0:0,0:0:0:0:
13,265,176891,1,2,3:1:0:0:
13,284,176985,2,0,P|38:257|51:210,1,71.9999978027344,8|0,3:1|0:0,0:0:0:0:
132,247,177172,2,0,P|131:209|107:167,1,71.9999978027344,2|0,0:0|0:0,0:0:0:0:
32,34,177360,6,0,L|225:49,1,160,2|0,3:2|0:0,0:0:0:0:
33,45,177735,2,0,L|226:30,1,160,2|0,3:2|0:0,0:0:0:0:
407,128,178110,6,0,L|269:139,1,136.000002593994,2|0,3:2|0:0,0:0:0:0:
407,137,178485,2,0,L|269:126,1,136.000002593994,2|0,3:2|0:0,0:0:0:0:
96,240,178860,6,0,L|202:248,1,103.999995239258,2|0,3:2|0:0,0:0:0:0:
95,249,179235,2,0,L|198:241,1,103.999995239258,2|0,3:2|0:0,0:0:0:0:
367,335,179610,70,0,L|295:340,1,71.9999978027344,2|0,3:2|0:0,0:0:0:0:
367,340,179985,2,0,L|295:334,1,71.9999978027344,2|0,3:2|0:0,0:0:0:0:
15,305,180360,5,6,3:3:0:0:
256,192,180453,12,0,186360,0:0:0:0:
