osu file format v14

[General]
AudioFilename: audio.mp3
AudioLeadIn: 0
PreviewTime: 130860
Countdown: 0
SampleSet: Normal
StackLeniency: 0.5
Mode: 0
LetterboxInBreaks: 0
EpilepsyWarning: 1
WidescreenStoryboard: 1

[Editor]
Bookmarks: 24356,84356
DistanceSpacing: 1.2
BeatDivisor: 3
GridSize: 4
TimelineZoom: 2.599999

[Metadata]
Title:Feral (osu! edit)
TitleUnicode:Feral (osu! edit)
Artist:meganeko
ArtistUnicode:meganeko
Creator:Respirte
Version:Normal
Source:osu!
Tags:Featured Artist FA Mappers Guild Eclipse Psytrance Psycore PaRaDogi DTM9_Nowa DTM9 Nowa Electronic Instrumental
BeatmapID:2526704
BeatmapSetID:1204383

[Difficulty]
HPDrainRate:3
CircleSize:2
OverallDifficulty:4
ApproachRate:5
SliderMultiplier:1.1
SliderTickRate:1

[Events]
//Background and Video events
0,0,"Photobound for Dark Magician.jpg",0,0
//Break Periods
//Storyboard Layer 0 (Background)
//Storyboard Layer 1 (Fail)
//Storyboard Layer 2 (Pass)
//Storyboard Layer 3 (Foreground)
Sprite,Foreground,Centre,"sb\dot.png",0,0 L,96880,7 MY,16,0,1250,240,512 MX,17,0,2500,48,592 MY,17,1250,3750,512,-32 MX,17,2500,5000,592,48 MY,15,3750,5000,-32,240 F,0,96360,,1 S,0,96360,,0.02260857 MX,16,96360,96880,95,48 MY,15,96360,96880,87,240 F,0,128360,129560,1,0
Sprite,Foreground,Centre,"sb\dot.png",0,0 L,96880,7 MY,16,0,1250,240,512 MX,17,0,2500,48,592 MY,17,1250,3750,512,-32 MX,17,2500,5000,592,48 MY,15,3750,5000,-32,240 F,0,96360,,1 S,0,96360,,0.02506778 MX,16,96360,96880,95,48 MY,15,96360,96880,87,240 F,0,128360,129560,1,0
Sprite,Foreground,Centre,"sb\dot.png",0,0 L,98115,7 MX,16,0,1250,320,546 MY,17,0,2500,466,14 MX,17,1250,3750,546,94 MY,17,2500,5000,14,466 MX,15,3750,5000,94,320 F,0,96922,,1 S,0,96922,,0.02373661 MX,15,96922,98115,94,320 MY,16,96922,98115,261,466 F,0,128360,129560,1,0
Sprite,Foreground,Centre,"sb\dot.png",0,0 L,98115,7 MX,16,0,1250,320,546 MY,17,0,2500,466,14 MX,17,1250,3750,546,94 MY,17,2500,5000,14,466 MX,15,3750,5000,94,320 F,0,96922,,1 S,0,96922,,0.01807035 MX,15,96922,98115,94,320 MY,16,96922,98115,261,466 F,0,128360,129560,1,0
Sprite,Foreground,Centre,"sb\dot.png",0,0 L,98303,7 MX,16,0,1250,320,546 MY,17,0,2500,466,14 MX,17,1250,3750,546,94 MY,17,2500,5000,14,466 MX,15,3750,5000,94,320 F,0,97110,,1 S,0,97110,,0.008562895 MX,15,97110,98303,94,320 MY,16,97110,98303,261,466 F,0,128360,129560,1,0
Sprite,Foreground,Centre,"sb\dot.png",0,0 L,98303,7 MX,16,0,1250,320,546 MY,17,0,2500,466,14 MX,17,1250,3750,546,94 MY,17,2500,5000,14,466 MX,15,3750,5000,94,320 F,0,97110,,1 S,0,97110,,0.01808989 MX,15,97110,98303,94,320 MY,16,97110,98303,261,466 F,0,128360,129560,1,0
Sprite,Foreground,Centre,"sb\dot.png",0,0 L,98308,7 MX,16,0,1250,320,503 MY,17,0,2500,423,57 MX,17,1250,3750,503,137 MY,17,2500,5000,57,423 MX,15,3750,5000,137,320 F,0,97860,,1 S,0,97860,,0.02746273 MX,15,97860,98308,230,320 MY,16,97860,98308,400,423 F,0,128360,129560,1,0
Sprite,Foreground,Centre,"sb\dot.png",0,0 L,98308,7 MX,16,0,1250,320,503 MY,17,0,2500,423,57 MX,17,1250,3750,503,137 MY,17,2500,5000,57,423 MX,15,3750,5000,137,320 F,0,97860,,1 S,0,97860,,0.0149388 MX,15,97860,98308,230,320 MY,16,97860,98308,400,423 F,0,128360,129560,1,0
Sprite,Foreground,Centre,"sb\dot.png",0,0 L,99372,6 MY,16,0,1250,240,44 MX,17,0,2500,516,124 MY,17,1250,3750,44,436 MX,17,2500,5000,124,516 MY,15,3750,5000,436,240 F,0,98422,,1 S,0,98422,,0.02939384 MX,16,98422,99372,403,516 MY,15,98422,99372,418,240 F,0,128360,129560,1,0
Sprite,Foreground,Centre,"sb\dot.png",0,0 L,99372,6 MY,16,0,1250,240,44 MX,17,0,2500,516,124 MY,17,1250,3750,44,436 MX,17,2500,5000,124,516 MY,15,3750,5000,436,240 F,0,98422,,1 S,0,98422,,0.01039002 MX,16,98422,99372,403,516 MY,15,98422,99372,418,240 F,0,128360,129560,1,0
Sprite,Foreground,Centre,"sb\dot.png",0,0 L,99560,6 MY,16,0,1250,240,44 MX,17,0,2500,516,124 MY,17,1250,3750,44,436 MX,17,2500,5000,124,516 MY,15,3750,5000,436,240 F,0,98610,,1 S,0,98610,,0.01088147 MX,16,98610,99560,403,516 MY,15,98610,99560,418,240 F,0,128360,129560,1,0
Sprite,Foreground,Centre,"sb\dot.png",0,0 L,99560,6 MY,16,0,1250,240,44 MX,17,0,2500,516,124 MY,17,1250,3750,44,436 MX,17,2500,5000,124,516 MY,15,3750,5000,436,240 F,0,98610,,1 S,0,98610,,0.0156175 MX,16,98610,99560,403,516 MY,15,98610,99560,418,240 F,0,128360,129560,1,0
Sprite,Foreground,Centre,"sb\dot.png",0,0 L,99626,6 MY,16,0,1250,240,-48 MX,17,0,2500,608,32 MY,17,1250,3750,-48,528 MX,17,2500,5000,32,608 MY,15,3750,5000,528,240 F,0,98985,,1 S,0,98985,,0.0200818 MX,16,98985,99626,533,608 MY,15,98985,99626,435,240 F,0,128360,129560,1,0
Sprite,Foreground,Centre,"sb\dot.png",0,0 L,99626,6 MY,16,0,1250,240,-48 MX,17,0,2500,608,32 MY,17,1250,3750,-48,528 MX,17,2500,5000,32,608 MY,15,3750,5000,528,240 F,0,98985,,1 S,0,98985,,0.01567682 MX,16,98985,99626,533,608 MY,15,98985,99626,435,240 F,0,128360,129560,1,0
Sprite,Foreground,Centre,"sb\dot.png",0,0 L,99702,6 MY,16,0,1250,240,30 MX,17,0,2500,530,110 MY,17,1250,3750,30,450 MX,17,2500,5000,110,530 MY,15,3750,5000,450,240 F,0,99360,,1 S,0,99360,,0.02951808 MX,16,99360,99702,515,530 MY,15,99360,99702,320,240 F,0,128360,129560,1,0
Sprite,Foreground,Centre,"sb\dot.png",0,0 L,99702,6 MY,16,0,1250,240,30 MX,17,0,2500,530,110 MY,17,1250,3750,30,450 MX,17,2500,5000,110,530 MY,15,3750,5000,450,240 F,0,99360,,1 S,0,99360,,0.003819909 MX,16,99360,99702,515,530 MY,15,99360,99702,320,240 F,0,128360,129560,1,0
Sprite,Foreground,Centre,"sb\dot.png",0,0 L,100966,6 MX,16,0,1250,320,74 MY,17,0,2500,-6,486 MX,17,1250,3750,74,566 MY,17,2500,5000,486,-6 MX,15,3750,5000,566,320 F,0,99922,,1 S,0,99922,,0.02628399 MX,15,99922,100966,555,320 MY,16,99922,100966,165,-6 F,0,128360,129560,1,0
Sprite,Foreground,Centre,"sb\dot.png",0,0 L,100966,6 MX,16,0,1250,320,74 MY,17,0,2500,-6,486 MX,17,1250,3750,74,566 MY,17,2500,5000,486,-6 MX,15,3750,5000,566,320 F,0,99922,,1 S,0,99922,,0.02987437 MX,15,99922,100966,555,320 MY,16,99922,100966,165,-6 F,0,128360,129560,1,0
Sprite,Foreground,Centre,"sb\dot.png",0,0 L,101154,6 MX,16,0,1250,320,74 MY,17,0,2500,-6,486 MX,17,1250,3750,74,566 MY,17,2500,5000,486,-6 MX,15,3750,5000,566,320 F,0,100110,,1 S,0,100110,,0.02128389 MX,15,100110,101154,555,320 MY,16,100110,101154,165,-6 F,0,128360,129560,1,0
Sprite,Foreground,Centre,"sb\dot.png",0,0 L,101154,6 MX,16,0,1250,320,74 MY,17,0,2500,-6,486 MX,17,1250,3750,74,566 MY,17,2500,5000,486,-6 MX,15,3750,5000,566,320 F,0,100110,,1 S,0,100110,,0.01149398 MX,15,100110,101154,555,320 MY,16,100110,101154,165,-6 F,0,128360,129560,1,0
Sprite,Foreground,Centre,"sb\dot.png",0,0 L,101534,6 MX,16,0,1250,320,153 MY,17,0,2500,73,407 MX,17,1250,3750,153,487 MY,17,2500,5000,407,73 MX,15,3750,5000,487,320 F,0,100860,,1 S,0,100860,,0.02505651 MX,15,100860,101534,438,320 MY,16,100860,101534,121,73 F,0,128360,129560,1,0
Sprite,Foreground,Centre,"sb\dot.png",0,0 L,101534,6 MX,16,0,1250,320,153 MY,17,0,2500,73,407 MX,17,1250,3750,153,487 MY,17,2500,5000,407,73 MX,15,3750,5000,487,320 F,0,100860,,1 S,0,100860,,0.0258974 MX,15,100860,101534,438,320 MY,16,100860,101534,121,73 F,0,128360,129560,1,0
Sprite,Foreground,Centre,"sb\dot.png",0,0 L,102011,6 MY,16,0,1250,240,364 MX,17,0,2500,196,444 MY,17,1250,3750,364,116 MX,17,2500,5000,444,196 MY,15,3750,5000,116,240 F,0,101610,,1 S,0,101610,,0.02978136 MX,16,101610,102011,208,196 MY,15,101610,102011,185,240 F,0,128360,129560,1,0
Sprite,Foreground,Centre,"sb\dot.png",0,0 L,102011,6 MY,16,0,1250,240,364 MX,17,0,2500,196,444 MY,17,1250,3750,364,116 MX,17,2500,5000,444,196 MY,15,3750,5000,116,240 F,0,101610,,1 S,0,101610,,0.00388088 MX,16,101610,102011,208,196 MY,15,101610,102011,185,240 F,0,128360,129560,1,0
Sprite,Foreground,Centre,"sb\dot.png",0,0 L,103605,6 MX,16,0,1250,320,466 MY,17,0,2500,386,94 MX,17,1250,3750,466,174 MY,17,2500,5000,94,386 MX,15,3750,5000,174,320 F,0,102360,,1 S,0,102360,,0.02189843 MX,15,102360,103605,174,320 MY,16,102360,103605,241,386 F,0,128360,129560,1,0
Sprite,Foreground,Centre,"sb\dot.png",0,0 L,103605,6 MX,16,0,1250,320,466 MY,17,0,2500,386,94 MX,17,1250,3750,466,174 MY,17,2500,5000,94,386 MX,15,3750,5000,174,320 F,0,102360,,1 S,0,102360,,0.01720967 MX,15,102360,103605,174,320 MY,16,102360,103605,241,386 F,0,128360,129560,1,0
Sprite,Foreground,Centre,"sb\dot.png",0,0 L,103572,6 MX,16,0,1250,320,517 MY,17,0,2500,437,43 MX,17,1250,3750,517,123 MY,17,2500,5000,43,437 MX,15,3750,5000,123,320 F,0,102922,,1 S,0,102922,,0.0282185 MX,15,102922,103572,185,320 MY,16,102922,103572,384,437 F,0,128360,129560,1,0
Sprite,Foreground,Centre,"sb\dot.png",0,0 L,103572,6 MX,16,0,1250,320,517 MY,17,0,2500,437,43 MX,17,1250,3750,517,123 MY,17,2500,5000,43,437 MX,15,3750,5000,123,320 F,0,102922,,1 S,0,102922,,0.02156575 MX,15,102922,103572,185,320 MY,16,102922,103572,384,437 F,0,128360,129560,1,0
Sprite,Foreground,Centre,"sb\dot.png",0,0 L,103760,6 MX,16,0,1250,320,517 MY,17,0,2500,437,43 MX,17,1250,3750,517,123 MY,17,2500,5000,43,437 MX,15,3750,5000,123,320 F,0,103110,,1 S,0,103110,,0.01776402 MX,15,103110,103760,185,320 MY,16,103110,103760,384,437 F,0,128360,129560,1,0
Sprite,Foreground,Centre,"sb\dot.png",0,0 L,103760,6 MX,16,0,1250,320,517 MY,17,0,2500,437,43 MX,17,1250,3750,517,123 MY,17,2500,5000,43,437 MX,15,3750,5000,123,320 F,0,103110,,1 S,0,103110,,0.005189969 MX,15,103110,103760,185,320 MY,16,103110,103760,384,437 F,0,128360,129560,1,0
Sprite,Foreground,Centre,"sb\dot.png",0,0 L,104787,5 MY,16,0,1250,240,59 MX,17,0,2500,501,139 MY,17,1250,3750,59,421 MX,17,2500,5000,139,501 MY,15,3750,5000,421,240 F,0,103860,,1 S,0,103860,,0.008052363 MX,16,103860,104787,402,501 MY,15,103860,104787,402,240 F,0,128360,129560,1,0
Sprite,Foreground,Centre,"sb\dot.png",0,0 L,104787,5 MY,16,0,1250,240,59 MX,17,0,2500,501,139 MY,17,1250,3750,59,421 MX,17,2500,5000,139,501 MY,15,3750,5000,421,240 F,0,103860,,1 S,0,103860,,0.01523983 MX,16,103860,104787,402,501 MY,15,103860,104787,402,240 F,0,128360,129560,1,0
Sprite,Foreground,Centre,"sb\dot.png",0,0 L,105508,5 MX,16,0,1250,320,219 MY,17,0,2500,139,341 MX,17,1250,3750,219,421 MY,17,2500,5000,341,139 MX,15,3750,5000,421,320 F,0,104422,,1 S,0,104422,,0.01102364 MX,15,104422,105508,395,320 MY,16,104422,105508,238,139 F,0,128360,129560,1,0
Sprite,Foreground,Centre,"sb\dot.png",0,0 L,105508,5 MX,16,0,1250,320,219 MY,17,0,2500,139,341 MX,17,1250,3750,219,421 MY,17,2500,5000,341,139 MX,15,3750,5000,421,320 F,0,104422,,1 S,0,104422,,0.02969068 MX,15,104422,105508,395,320 MY,16,104422,105508,238,139 F,0,128360,129560,1,0
Sprite,Foreground,Centre,"sb\dot.png",0,0 L,105696,5 MX,16,0,1250,320,219 MY,17,0,2500,139,341 MX,17,1250,3750,219,421 MY,17,2500,5000,341,139 MX,15,3750,5000,421,320 F,0,104610,,1 S,0,104610,,0.02035283 MX,15,104610,105696,395,320 MY,16,104610,105696,238,139 F,0,128360,129560,1,0
Sprite,Foreground,Centre,"sb\dot.png",0,0 L,105696,5 MX,16,0,1250,320,219 MY,17,0,2500,139,341 MX,17,1250,3750,219,421 MY,17,2500,5000,341,139 MX,15,3750,5000,421,320 F,0,104610,,1 S,0,104610,,0.02360002 MX,15,104610,105696,395,320 MY,16,104610,105696,238,139 F,0,128360,129560,1,0
Sprite,Foreground,Centre,"sb\dot.png",0,0 L,106508,5 MY,16,0,1250,240,413 MX,17,0,2500,147,493 MY,17,1250,3750,413,67 MX,17,2500,5000,493,147 MY,15,3750,5000,67,240 F,0,105360,,1 S,0,105360,,0.003820646 MX,16,105360,106508,293,147 MY,15,105360,106508,69,240 F,0,128360,129560,1,0
Sprite,Foreground,Centre,"sb\dot.png",0,0 L,106508,5 MY,16,0,1250,240,413 MX,17,0,2500,147,493 MY,17,1250,3750,413,67 MX,17,2500,5000,493,147 MY,15,3750,5000,67,240 F,0,105360,,1 S,0,105360,,0.01328712 MX,16,105360,106508,293,147 MY,15,105360,106508,69,240 F,0,128360,129560,1,0
Sprite,Foreground,Centre,"sb\dot.png",0,0 L,106349,5 MY,16,0,1250,240,471 MX,17,0,2500,89,551 MY,17,1250,3750,471,9 MX,17,2500,5000,551,89 MY,15,3750,5000,9,240 F,0,106110,,1 S,0,106110,,0.01226483 MX,16,106110,106349,97,89 MY,15,106110,106349,178,240 F,0,128360,129560,1,0
Sprite,Foreground,Centre,"sb\dot.png",0,0 L,106349,5 MY,16,0,1250,240,471 MX,17,0,2500,89,551 MY,17,1250,3750,471,9 MX,17,2500,5000,551,89 MY,15,3750,5000,9,240 F,0,106110,,1 S,0,106110,,0.02885129 MX,16,106110,106349,97,89 MY,15,106110,106349,178,240 F,0,128360,129560,1,0
Sprite,Foreground,Centre,"sb\dot.png",0,0 L,106936,5 MY,16,0,1250,240,345 MX,17,0,2500,215,425 MY,17,1250,3750,345,135 MX,17,2500,5000,425,215 MY,15,3750,5000,135,240 F,0,106485,,1 S,0,106485,,0.01663849 MX,16,106485,106936,228,215 MY,15,106485,106936,188,240 F,0,128360,129560,1,0
Sprite,Foreground,Centre,"sb\dot.png",0,0 L,106936,5 MY,16,0,1250,240,345 MX,17,0,2500,215,425 MY,17,1250,3750,345,135 MX,17,2500,5000,425,215 MY,15,3750,5000,135,240 F,0,106485,,1 S,0,106485,,0.02233126 MX,16,106485,106936,228,215 MY,15,106485,106936,188,240 F,0,128360,129560,1,0
Sprite,Foreground,Centre,"sb\dot.png",0,0 L,107284,5 MX,16,0,1250,320,424 MY,17,0,2500,344,136 MX,17,1250,3750,424,216 MY,17,2500,5000,136,344 MX,15,3750,5000,216,320 F,0,106860,,1 S,0,106860,,0.006211859 MX,15,106860,107284,293,320 MY,16,106860,107284,302,344 F,0,128360,129560,1,0
Sprite,Foreground,Centre,"sb\dot.png",0,0 L,107284,5 MX,16,0,1250,320,424 MY,17,0,2500,344,136 MX,17,1250,3750,424,216 MY,17,2500,5000,136,344 MX,15,3750,5000,216,320 F,0,106860,,1 S,0,106860,,0.01038319 MX,15,106860,107284,293,320 MY,16,106860,107284,302,344 F,0,128360,129560,1,0
Sprite,Foreground,Centre,"sb\dot.png",0,0 L,108356,5 MX,16,0,1250,320,598 MY,17,0,2500,518,-38 MX,17,1250,3750,598,42 MY,17,2500,5000,-38,518 MX,15,3750,5000,42,320 F,0,107610,,1 S,0,107610,,0.02749164 MX,15,107610,108356,107,320 MY,16,107610,108356,419,518 F,0,128360,129560,1,0
Sprite,Foreground,Centre,"sb\dot.png",0,0 L,108356,5 MX,16,0,1250,320,598 MY,17,0,2500,518,-38 MX,17,1250,3750,598,42 MY,17,2500,5000,-38,518 MX,15,3750,5000,42,320 F,0,107610,,1 S,0,107610,,0.02445867 MX,15,107610,108356,107,320 MY,16,107610,108356,419,518 F,0,128360,129560,1,0
Sprite,Foreground,Centre,"sb\dot.png",0,0 L,108336,5 MX,16,0,1250,320,530 MY,17,0,2500,450,30 MX,17,1250,3750,530,110 MY,17,2500,5000,30,450 MX,15,3750,5000,110,320 F,0,107985,,1 S,0,107985,,0.01210333 MX,15,107985,108336,238,320 MY,16,107985,108336,434,450 F,0,128360,129560,1,0
Sprite,Foreground,Centre,"sb\dot.png",0,0 L,108336,5 MX,16,0,1250,320,530 MY,17,0,2500,450,30 MX,17,1250,3750,530,110 MY,17,2500,5000,30,450 MX,15,3750,5000,110,320 F,0,107985,,1 S,0,107985,,0.01534464 MX,15,107985,108336,238,320 MY,16,107985,108336,434,450 F,0,128360,129560,1,0
Sprite,Foreground,Centre,"sb\dot.png",0,0 L,109428,4 MY,16,0,1250,240,77 MX,17,0,2500,483,157 MY,17,1250,3750,77,403 MX,17,2500,5000,157,483 MY,15,3750,5000,403,240 F,0,108360,,1 S,0,108360,,0.006964276 MX,16,108360,109428,364,483 MY,15,108360,109428,397,240 F,0,128360,129560,1,0
Sprite,Foreground,Centre,"sb\dot.png",0,0 L,109428,4 MY,16,0,1250,240,77 MX,17,0,2500,483,157 MY,17,1250,3750,77,403 MX,17,2500,5000,157,483 MY,15,3750,5000,403,240 F,0,108360,,1 S,0,108360,,0.008975498 MX,16,108360,109428,364,483 MY,15,108360,109428,397,240 F,0,128360,129560,1,0
Sprite,Foreground,Centre,"sb\dot.png",0,0 L,109494,4 MY,16,0,1250,240,54 MX,17,0,2500,506,134 MY,17,1250,3750,54,426 MX,17,2500,5000,134,506 MY,15,3750,5000,426,240 F,0,109110,,1 S,0,109110,,0.01407198 MX,16,109110,109494,489,506 MY,15,109110,109494,319,240 F,0,128360,129560,1,0
Sprite,Foreground,Centre,"sb\dot.png",0,0 L,109494,4 MY,16,0,1250,240,54 MX,17,0,2500,506,134 MY,17,1250,3750,54,426 MX,17,2500,5000,134,506 MY,15,3750,5000,426,240 F,0,109110,,1 S,0,109110,,0.02240562 MX,16,109110,109494,489,506 MY,15,109110,109494,319,240 F,0,128360,129560,1,0
Sprite,Foreground,Centre,"sb\dot.png",0,0 L,110402,4 MY,16,0,1250,240,135 MX,17,0,2500,425,215 MY,17,1250,3750,135,345 MX,17,2500,5000,215,425 MY,15,3750,5000,345,240 F,0,109860,,1 S,0,109860,,0.01973542 MX,16,109860,110402,373,425 MY,15,109860,110402,278,240 F,0,128360,129560,1,0
Sprite,Foreground,Centre,"sb\dot.png",0,0 L,110402,4 MY,16,0,1250,240,135 MX,17,0,2500,425,215 MY,17,1250,3750,135,345 MX,17,2500,5000,215,425 MY,15,3750,5000,345,240 F,0,109860,,1 S,0,109860,,0.01617514 MX,16,109860,110402,373,425 MY,15,109860,110402,278,240 F,0,128360,129560,1,0
Sprite,Foreground,Centre,"sb\dot.png",0,0 L,111655,4 MX,16,0,1250,320,484 MY,17,0,2500,404,76 MX,17,1250,3750,484,156 MY,17,2500,5000,76,404 MX,15,3750,5000,156,320 F,0,110610,,1 S,0,110610,,0.008262663 MX,15,110610,111655,163,320 MY,16,110610,111655,290,404 F,0,128360,129560,1,0
Sprite,Foreground,Centre,"sb\dot.png",0,0 L,111655,4 MX,16,0,1250,320,484 MY,17,0,2500,404,76 MX,17,1250,3750,484,156 MY,17,2500,5000,76,404 MX,15,3750,5000,156,320 F,0,110610,,1 S,0,110610,,0.02671117 MX,15,110610,111655,163,320 MY,16,110610,111655,290,404 F,0,128360,129560,1,0
Sprite,Foreground,Centre,"sb\dot.png",0,0 L,111866,4 MY,16,0,1250,240,522 MX,17,0,2500,38,602 MY,17,1250,3750,522,-42 MX,17,2500,5000,602,38 MY,15,3750,5000,-42,240 F,0,111360,,1 S,0,111360,,0.02528643 MX,16,111360,111866,84,38 MY,15,111360,111866,85,240 F,0,128360,129560,1,0
Sprite,Foreground,Centre,"sb\dot.png",0,0 L,111866,4 MY,16,0,1250,240,522 MX,17,0,2500,38,602 MY,17,1250,3750,522,-42 MX,17,2500,5000,602,38 MY,15,3750,5000,-42,240 F,0,111360,,1 S,0,111360,,0.02285573 MX,16,111360,111866,84,38 MY,15,111360,111866,85,240 F,0,128360,129560,1,0
Sprite,Foreground,Centre,"sb\dot.png",0,0 L,112908,4 MY,16,0,1250,240,395 MX,17,0,2500,165,475 MY,17,1250,3750,395,85 MX,17,2500,5000,475,165 MY,15,3750,5000,85,240 F,0,111922,,1 S,0,111922,,0.02617192 MX,16,111922,112908,261,165 MY,15,111922,112908,96,240 F,0,128360,129560,1,0
Sprite,Foreground,Centre,"sb\dot.png",0,0 L,112908,4 MY,16,0,1250,240,395 MX,17,0,2500,165,475 MY,17,1250,3750,395,85 MX,17,2500,5000,475,165 MY,15,3750,5000,85,240 F,0,111922,,1 S,0,111922,,0.02135322 MX,16,111922,112908,261,165 MY,15,111922,112908,96,240 F,0,128360,129560,1,0
Sprite,Foreground,Centre,"sb\dot.png",0,0 L,113095,4 MY,16,0,1250,240,395 MX,17,0,2500,165,475 MY,17,1250,3750,395,85 MX,17,2500,5000,475,165 MY,15,3750,5000,85,240 F,0,112109,,1 S,0,112109,,0.01987139 MX,16,112109,113095,261,165 MY,15,112109,113095,96,240 F,0,128360,129560,1,0
Sprite,Foreground,Centre,"sb\dot.png",0,0 L,113095,4 MY,16,0,1250,240,395 MX,17,0,2500,165,475 MY,17,1250,3750,395,85 MX,17,2500,5000,475,165 MY,15,3750,5000,85,240 F,0,112109,,1 S,0,112109,,0.008896983 MX,16,112109,113095,261,165 MY,15,112109,113095,96,240 F,0,128360,129560,1,0
Sprite,Foreground,Centre,"sb\dot.png",0,0 L,113464,4 MY,16,0,1250,240,353 MX,17,0,2500,207,433 MY,17,1250,3750,353,127 MX,17,2500,5000,433,207 MY,15,3750,5000,127,240 F,0,112860,,1 S,0,112860,,0.02717479 MX,16,112860,113464,283,207 MY,15,112860,113464,226,240 F,0,128360,129560,1,0
Sprite,Foreground,Centre,"sb\dot.png",0,0 L,113464,4 MY,16,0,1250,240,353 MX,17,0,2500,207,433 MY,17,1250,3750,353,127 MX,17,2500,5000,433,207 MY,15,3750,5000,127,240 F,0,112860,,1 S,0,112860,,0.02720387 MX,16,112860,113464,283,207 MY,15,112860,113464,226,240 F,0,128360,129560,1,0
Sprite,Foreground,Centre,"sb\dot.png",0,0 L,113567,4 MX,16,0,1250,320,478 MY,17,0,2500,398,82 MX,17,1250,3750,478,162 MY,17,2500,5000,82,398 MX,15,3750,5000,162,320 F,0,113422,,1 S,0,113422,,0.005337657 MX,15,113422,113567,294,320 MY,16,113422,113567,396,398 F,0,128360,129560,1,0
Sprite,Foreground,Centre,"sb\dot.png",0,0 L,113567,4 MX,16,0,1250,320,478 MY,17,0,2500,398,82 MX,17,1250,3750,478,162 MY,17,2500,5000,82,398 MX,15,3750,5000,162,320 F,0,113422,,1 S,0,113422,,0.02564164 MX,15,113422,113567,294,320 MY,16,113422,113567,396,398 F,0,128360,129560,1,0
Sprite,Foreground,Centre,"sb\dot.png",0,0 L,113755,4 MX,16,0,1250,320,478 MY,17,0,2500,398,82 MX,17,1250,3750,478,162 MY,17,2500,5000,82,398 MX,15,3750,5000,162,320 F,0,113610,,1 S,0,113610,,0.007593857 MX,15,113610,113755,294,320 MY,16,113610,113755,396,398 F,0,128360,129560,1,0
Sprite,Foreground,Centre,"sb\dot.png",0,0 L,113755,4 MX,16,0,1250,320,478 MY,17,0,2500,398,82 MX,17,1250,3750,478,162 MY,17,2500,5000,82,398 MX,15,3750,5000,162,320 F,0,113610,,1 S,0,113610,,0.02039111 MX,15,113610,113755,294,320 MY,16,113610,113755,396,398 F,0,128360,129560,1,0
Sprite,Foreground,Centre,"sb\dot.png",0,0 L,114726,3 MY,16,0,1250,240,72 MX,17,0,2500,488,152 MY,17,1250,3750,72,408 MX,17,2500,5000,152,488 MY,15,3750,5000,408,240 F,0,113985,,1 S,0,113985,,0.02532399 MX,16,113985,114726,429,488 MY,15,113985,114726,368,240 F,0,128360,129560,1,0
Sprite,Foreground,Centre,"sb\dot.png",0,0 L,114726,3 MY,16,0,1250,240,72 MX,17,0,2500,488,152 MY,17,1250,3750,72,408 MX,17,2500,5000,152,488 MY,15,3750,5000,408,240 F,0,113985,,1 S,0,113985,,0.008918067 MX,16,113985,114726,429,488 MY,15,113985,114726,368,240 F,0,128360,129560,1,0
Sprite,Foreground,Centre,"sb\dot.png",0,0 L,114913,3 MY,16,0,1250,240,72 MX,17,0,2500,488,152 MY,17,1250,3750,72,408 MX,17,2500,5000,152,488 MY,15,3750,5000,408,240 F,0,114172,,1 S,0,114172,,0.02999926 MX,16,114172,114913,429,488 MY,15,114172,114913,368,240 F,0,128360,129560,1,0
Sprite,Foreground,Centre,"sb\dot.png",0,0 L,114913,3 MY,16,0,1250,240,72 MX,17,0,2500,488,152 MY,17,1250,3750,72,408 MX,17,2500,5000,152,488 MY,15,3750,5000,408,240 F,0,114172,,1 S,0,114172,,0.01599687 MX,16,114172,114913,429,488 MY,15,114172,114913,368,240 F,0,128360,129560,1,0
Sprite,Foreground,Centre,"sb\dot.png",0,0 L,115101,3 MY,16,0,1250,240,72 MX,17,0,2500,488,152 MY,17,1250,3750,72,408 MX,17,2500,5000,152,488 MY,15,3750,5000,408,240 F,0,114360,,1 S,0,114360,,0.02060954 MX,16,114360,115101,429,488 MY,15,114360,115101,368,240 F,0,128360,129560,1,0
Sprite,Foreground,Centre,"sb\dot.png",0,0 L,115101,3 MY,16,0,1250,240,72 MX,17,0,2500,488,152 MY,17,1250,3750,72,408 MX,17,2500,5000,152,488 MY,15,3750,5000,408,240 F,0,114360,,1 S,0,114360,,0.0224326 MX,16,114360,115101,429,488 MY,15,114360,115101,368,240 F,0,128360,129560,1,0
Sprite,Foreground,Centre,"sb\dot.png",0,0 L,115165,3 MY,16,0,1250,240,-9 MX,17,0,2500,569,71 MY,17,1250,3750,-9,489 MX,17,2500,5000,71,569 MY,15,3750,5000,489,240 F,0,114922,,1 S,0,114922,,0.02485549 MX,16,114922,115165,560,569 MY,15,114922,115165,308,240 F,0,128360,129560,1,0
Sprite,Foreground,Centre,"sb\dot.png",0,0 L,115165,3 MY,16,0,1250,240,-9 MX,17,0,2500,569,71 MY,17,1250,3750,-9,489 MX,17,2500,5000,71,569 MY,15,3750,5000,489,240 F,0,114922,,1 S,0,114922,,0.005725256 MX,16,114922,115165,560,569 MY,15,114922,115165,308,240 F,0,128360,129560,1,0
Sprite,Foreground,Centre,"sb\dot.png",0,0 L,115353,3 MY,16,0,1250,240,-9 MX,17,0,2500,569,71 MY,17,1250,3750,-9,489 MX,17,2500,5000,71,569 MY,15,3750,5000,489,240 F,0,115110,,1 S,0,115110,,0.02268554 MX,16,115110,115353,560,569 MY,15,115110,115353,308,240 F,0,128360,129560,1,0
Sprite,Foreground,Centre,"sb\dot.png",0,0 L,115353,3 MY,16,0,1250,240,-9 MX,17,0,2500,569,71 MY,17,1250,3750,-9,489 MX,17,2500,5000,71,569 MY,15,3750,5000,489,240 F,0,115110,,1 S,0,115110,,0.02239817 MX,16,115110,115353,560,569 MY,15,115110,115353,308,240 F,0,128360,129560,1,0
Sprite,Foreground,Centre,"sb\dot.png",0,0 L,115933,3 MY,16,0,1250,240,120 MX,17,0,2500,440,200 MY,17,1250,3750,120,360 MX,17,2500,5000,200,440 MY,15,3750,5000,360,240 F,0,115860,,1 S,0,115860,,0.006389236 MX,16,115860,115933,440 MY,15,115860,115933,250,240 F,0,128360,129560,1,0
Sprite,Foreground,Centre,"sb\dot.png",0,0 L,115933,3 MY,16,0,1250,240,120 MX,17,0,2500,440,200 MY,17,1250,3750,120,360 MX,17,2500,5000,200,440 MY,15,3750,5000,360,240 F,0,115860,,1 S,0,115860,,0.02743976 MX,16,115860,115933,440 MY,15,115860,115933,250,240 F,0,128360,129560,1,0
Sprite,Foreground,Centre,"sb\dot.png",0,0 L,117156,3 MX,16,0,1250,320,427 MY,17,0,2500,347,133 MX,17,1250,3750,427,213 MY,17,2500,5000,133,347 MX,15,3750,5000,213,320 F,0,116423,,1 S,0,116423,,0.008106343 MX,15,116423,117156,271,320 MY,16,116423,117156,273,347 F,0,128360,129560,1,0
Sprite,Foreground,Centre,"sb\dot.png",0,0 L,117156,3 MX,16,0,1250,320,427 MY,17,0,2500,347,133 MX,17,1250,3750,427,213 MY,17,2500,5000,133,347 MX,15,3750,5000,213,320 F,0,116423,,1 S,0,116423,,0.01587387 MX,15,116423,117156,271,320 MY,16,116423,117156,273,347 F,0,128360,129560,1,0
Sprite,Foreground,Centre,"sb\dot.png",0,0 L,117344,3 MX,16,0,1250,320,427 MY,17,0,2500,347,133 MX,17,1250,3750,427,213 MY,17,2500,5000,133,347 MX,15,3750,5000,213,320 F,0,116611,,1 S,0,116611,,0.01760147 MX,15,116611,117344,271,320 MY,16,116611,117344,273,347 F,0,128360,129560,1,0
Sprite,Foreground,Centre,"sb\dot.png",0,0 L,117344,3 MX,16,0,1250,320,427 MY,17,0,2500,347,133 MX,17,1250,3750,427,213 MY,17,2500,5000,133,347 MX,15,3750,5000,213,320 F,0,116611,,1 S,0,116611,,0.01178852 MX,15,116611,117344,271,320 MY,16,116611,117344,273,347 F,0,128360,129560,1,0
Sprite,Foreground,Centre,"sb\dot.png",0,0 L,118385,3 MX,16,0,1250,320,508 MY,17,0,2500,428,52 MX,17,1250,3750,508,132 MY,17,2500,5000,52,428 MX,15,3750,5000,132,320 F,0,117360,,1 S,0,117360,,0.02111799 MX,15,117360,118385,142,320 MY,16,117360,118385,302,428 F,0,128360,129560,1,0
Sprite,Foreground,Centre,"sb\dot.png",0,0 L,118385,3 MX,16,0,1250,320,508 MY,17,0,2500,428,52 MX,17,1250,3750,508,132 MY,17,2500,5000,52,428 MX,15,3750,5000,132,320 F,0,117360,,1 S,0,117360,,0.01564674 MX,15,117360,118385,142,320 MY,16,117360,118385,302,428 F,0,128360,129560,1,0
Sprite,Foreground,Centre,"sb\dot.png",0,0 L,118355,3 MY,16,0,1250,240,444 MX,17,0,2500,116,524 MY,17,1250,3750,444,36 MX,17,2500,5000,524,116 MY,15,3750,5000,36,240 F,0,117923,,1 S,0,117923,,0.02550442 MX,16,117923,118355,140,116 MY,15,117923,118355,143,240 F,0,128360,129560,1,0
Sprite,Foreground,Centre,"sb\dot.png",0,0 L,118355,3 MY,16,0,1250,240,444 MX,17,0,2500,116,524 MY,17,1250,3750,444,36 MX,17,2500,5000,524,116 MY,15,3750,5000,36,240 F,0,117923,,1 S,0,117923,,0.0248485 MX,16,117923,118355,140,116 MY,15,117923,118355,143,240 F,0,128360,129560,1,0
Sprite,Foreground,Centre,"sb\dot.png",0,0 L,118542,3 MY,16,0,1250,240,444 MX,17,0,2500,116,524 MY,17,1250,3750,444,36 MX,17,2500,5000,524,116 MY,15,3750,5000,36,240 F,0,118110,,1 S,0,118110,,0.02442802 MX,16,118110,118542,140,116 MY,15,118110,118542,143,240 F,0,128360,129560,1,0
Sprite,Foreground,Centre,"sb\dot.png",0,0 L,118542,3 MY,16,0,1250,240,444 MX,17,0,2500,116,524 MY,17,1250,3750,444,36 MX,17,2500,5000,524,116 MY,15,3750,5000,36,240 F,0,118110,,1 S,0,118110,,0.02364166 MX,16,118110,118542,140,116 MY,15,118110,118542,143,240 F,0,128360,129560,1,0
Sprite,Foreground,Centre,"sb\dot.png",0,0 L,119853,2 MY,16,0,1250,240,415 MX,17,0,2500,145,495 MY,17,1250,3750,415,65 MX,17,2500,5000,495,145 MY,15,3750,5000,65,240 F,0,118860,,1 S,0,118860,,0.02831359 MX,16,118860,119853,255,145 MY,15,118860,119853,77,240 F,0,128360,129560,1,0
Sprite,Foreground,Centre,"sb\dot.png",0,0 L,119853,2 MY,16,0,1250,240,415 MX,17,0,2500,145,495 MY,17,1250,3750,415,65 MX,17,2500,5000,495,145 MY,15,3750,5000,65,240 F,0,118860,,1 S,0,118860,,0.01096491 MX,16,118860,119853,255,145 MY,15,118860,119853,77,240 F,0,128360,129560,1,0
Sprite,Foreground,Centre,"sb\dot.png",0,0 L,120076,2 MX,16,0,1250,320,169 MY,17,0,2500,89,391 MX,17,1250,3750,169,471 MY,17,2500,5000,391,89 MX,15,3750,5000,471,320 F,0,119422,,1 S,0,119422,,0.0171152 MX,15,119422,120076,424,320 MY,16,119422,120076,130,89 F,0,128360,129560,1,0
Sprite,Foreground,Centre,"sb\dot.png",0,0 L,120076,2 MX,16,0,1250,320,169 MY,17,0,2500,89,391 MX,17,1250,3750,169,471 MY,17,2500,5000,391,89 MX,15,3750,5000,471,320 F,0,119422,,1 S,0,119422,,0.02091161 MX,15,119422,120076,424,320 MY,16,119422,120076,130,89 F,0,128360,129560,1,0
Sprite,Foreground,Centre,"sb\dot.png",0,0 L,120264,2 MX,16,0,1250,320,169 MY,17,0,2500,89,391 MX,17,1250,3750,169,471 MY,17,2500,5000,391,89 MX,15,3750,5000,471,320 F,0,119610,,1 S,0,119610,,0.0119799 MX,15,119610,120264,424,320 MY,16,119610,120264,130,89 F,0,128360,129560,1,0
Sprite,Foreground,Centre,"sb\dot.png",0,0 L,120264,2 MX,16,0,1250,320,169 MY,17,0,2500,89,391 MX,17,1250,3750,169,471 MY,17,2500,5000,391,89 MX,15,3750,5000,471,320 F,0,119610,,1 S,0,119610,,0.01074151 MX,15,119610,120264,424,320 MY,16,119610,120264,130,89 F,0,128360,129560,1,0
Sprite,Foreground,Centre,"sb\dot.png",0,0 L,120056,2 MY,16,0,1250,240,141 MX,17,0,2500,419,221 MY,17,1250,3750,141,339 MX,17,2500,5000,221,419 MY,15,3750,5000,339,240 F,0,119985,,1 S,0,119985,,0.02515647 MX,16,119985,120056,419 MY,15,119985,120056,248,240 F,0,128360,129560,1,0
Sprite,Foreground,Centre,"sb\dot.png",0,0 L,120056,2 MY,16,0,1250,240,141 MX,17,0,2500,419,221 MY,17,1250,3750,141,339 MX,17,2500,5000,221,419 MY,15,3750,5000,339,240 F,0,119985,,1 S,0,119985,,0.009007984 MX,16,119985,120056,419 MY,15,119985,120056,248,240 F,0,128360,129560,1,0
Sprite,Foreground,Centre,"sb\dot.png",0,0 L,121009,2 MY,16,0,1250,240,47 MX,17,0,2500,513,127 MY,17,1250,3750,47,433 MX,17,2500,5000,127,513 MY,15,3750,5000,433,240 F,0,120360,,1 S,0,120360,,0.008045533 MX,16,120360,121009,461,513 MY,15,120360,121009,372,240 F,0,128360,129560,1,0
Sprite,Foreground,Centre,"sb\dot.png",0,0 L,121009,2 MY,16,0,1250,240,47 MX,17,0,2500,513,127 MY,17,1250,3750,47,433 MX,17,2500,5000,127,513 MY,15,3750,5000,433,240 F,0,120360,,1 S,0,120360,,0.004850009 MX,16,120360,121009,461,513 MY,15,120360,121009,372,240 F,0,128360,129560,1,0
Sprite,Foreground,Centre,"sb\dot.png",0,0 L,121061,2 MX,16,0,1250,320,485 MY,17,0,2500,405,75 MX,17,1250,3750,485,155 MY,17,2500,5000,75,405 MX,15,3750,5000,155,320 F,0,120922,,1 S,0,120922,,0.01986481 MX,15,120922,121061,294,320 MY,16,120922,121061,403,405 F,0,128360,129560,1,0
Sprite,Foreground,Centre,"sb\dot.png",0,0 L,121061,2 MX,16,0,1250,320,485 MY,17,0,2500,405,75 MX,17,1250,3750,485,155 MY,17,2500,5000,75,405 MX,15,3750,5000,155,320 F,0,120922,,1 S,0,120922,,0.02171222 MX,15,120922,121061,294,320 MY,16,120922,121061,403,405 F,0,128360,129560,1,0
Sprite,Foreground,Centre,"sb\dot.png",0,0 L,121249,2 MX,16,0,1250,320,485 MY,17,0,2500,405,75 MX,17,1250,3750,485,155 MY,17,2500,5000,75,405 MX,15,3750,5000,155,320 F,0,121110,,1 S,0,121110,,0.02002065 MX,15,121110,121249,294,320 MY,16,121110,121249,403,405 F,0,128360,129560,1,0
Sprite,Foreground,Centre,"sb\dot.png",0,0 L,121249,2 MX,16,0,1250,320,485 MY,17,0,2500,405,75 MX,17,1250,3750,485,155 MY,17,2500,5000,75,405 MX,15,3750,5000,155,320 F,0,121110,,1 S,0,121110,,0.02804621 MX,15,121110,121249,294,320 MY,16,121110,121249,403,405 F,0,128360,129560,1,0
Sprite,Foreground,Centre,"sb\dot.png",0,0 L,122702,2 MX,16,0,1250,320,481 MY,17,0,2500,401,79 MX,17,1250,3750,481,159 MY,17,2500,5000,79,401 MX,15,3750,5000,159,320 F,0,121860,,1 S,0,121860,,0.008976235 MX,15,121860,122702,185,320 MY,16,121860,122702,328,401 F,0,128360,129560,1,0
Sprite,Foreground,Centre,"sb\dot.png",0,0 L,122702,2 MX,16,0,1250,320,481 MY,17,0,2500,401,79 MX,17,1250,3750,481,159 MY,17,2500,5000,79,401 MX,15,3750,5000,159,320 F,0,121860,,1 S,0,121860,,0.02807511 MX,15,121860,122702,185,320 MY,16,121860,122702,328,401 F,0,128360,129560,1,0
Sprite,Foreground,Centre,"sb\dot.png",0,0 L,122912,2 MY,16,0,1250,240,382 MX,17,0,2500,178,462 MY,17,1250,3750,382,98 MX,17,2500,5000,462,178 MY,15,3750,5000,98,240 F,0,122422,,1 S,0,122422,,0.004796083 MX,16,122422,122912,199,178 MY,15,122422,122912,164,240 F,0,128360,129560,1,0
Sprite,Foreground,Centre,"sb\dot.png",0,0 L,122912,2 MY,16,0,1250,240,382 MX,17,0,2500,178,462 MY,17,1250,3750,382,98 MX,17,2500,5000,462,178 MY,15,3750,5000,98,240 F,0,122422,,1 S,0,122422,,0.02730282 MX,16,122422,122912,199,178 MY,15,122422,122912,164,240 F,0,128360,129560,1,0
Sprite,Foreground,Centre,"sb\dot.png",0,0 L,123100,2 MY,16,0,1250,240,382 MX,17,0,2500,178,462 MY,17,1250,3750,382,98 MX,17,2500,5000,462,178 MY,15,3750,5000,98,240 F,0,122610,,1 S,0,122610,,0.02131965 MX,16,122610,123100,199,178 MY,15,122610,123100,164,240 F,0,128360,129560,1,0
Sprite,Foreground,Centre,"sb\dot.png",0,0 L,123100,2 MY,16,0,1250,240,382 MX,17,0,2500,178,462 MY,17,1250,3750,382,98 MX,17,2500,5000,462,178 MY,15,3750,5000,98,240 F,0,122610,,1 S,0,122610,,0.005537407 MX,16,122610,123100,199,178 MY,15,122610,123100,164,240 F,0,128360,129560,1,0
Sprite,Foreground,Centre,"sb\dot.png",0,0 L,123860,2 MY,16,0,1250,240,354 MX,17,0,2500,206,434 MY,17,1250,3750,354,126 MX,17,2500,5000,434,206 MY,15,3750,5000,126,240 F,0,122985,,1 S,0,122985,,0.007025631 MX,16,122985,123860,313,206 MY,15,122985,123860,204,240 F,0,128360,129560,1,0
Sprite,Foreground,Centre,"sb\dot.png",0,0 L,123860,2 MY,16,0,1250,240,354 MX,17,0,2500,206,434 MY,17,1250,3750,354,126 MX,17,2500,5000,434,206 MY,15,3750,5000,126,240 F,0,122985,,1 S,0,122985,,0.005888257 MX,16,122985,123860,313,206 MY,15,122985,123860,204,240 F,0,128360,129560,1,0
Sprite,Foreground,Centre,"sb\dot.png",0,0 L,123791,2 MX,16,0,1250,320,162 MY,17,0,2500,82,398 MX,17,1250,3750,162,478 MY,17,2500,5000,398,82 MX,15,3750,5000,478,320 F,0,123360,,1 S,0,123360,,0.0194665 MX,15,123360,123791,395,320 MY,16,123360,123791,100,82 F,0,128360,129560,1,0
Sprite,Foreground,Centre,"sb\dot.png",0,0 L,123791,2 MX,16,0,1250,320,162 MY,17,0,2500,82,398 MX,17,1250,3750,162,478 MY,17,2500,5000,398,82 MX,15,3750,5000,478,320 F,0,123360,,1 S,0,123360,,0.02873216 MX,15,123360,123791,395,320 MY,16,123360,123791,100,82 F,0,128360,129560,1,0
Sprite,Foreground,Centre,"sb\dot.png",0,0 L,124881,1 MX,16,0,1250,320,46 MY,17,0,2500,-34,514 MX,17,1250,3750,46,594 MY,17,2500,5000,514,-34 MX,15,3750,5000,594,320 F,0,123922,,1 S,0,123922,,0.01624688 MX,15,123922,124881,570,320 MY,16,123922,124881,127,-34 F,0,128360,129560,1,0
Sprite,Foreground,Centre,"sb\dot.png",0,0 L,124881,1 MX,16,0,1250,320,46 MY,17,0,2500,-34,514 MX,17,1250,3750,46,594 MY,17,2500,5000,514,-34 MX,15,3750,5000,594,320 F,0,123922,,1 S,0,123922,,0.006997519 MX,15,123922,124881,570,320 MY,16,123922,124881,127,-34 F,0,128360,129560,1,0
Sprite,Foreground,Centre,"sb\dot.png",0,0 L,125069,1 MX,16,0,1250,320,46 MY,17,0,2500,-34,514 MX,17,1250,3750,46,594 MY,17,2500,5000,514,-34 MX,15,3750,5000,594,320 F,0,124110,,1 S,0,124110,,0.02129551 MX,15,124110,125069,570,320 MY,16,124110,125069,127,-34 F,0,128360,129560,1,0
Sprite,Foreground,Centre,"sb\dot.png",0,0 L,125069,1 MX,16,0,1250,320,46 MY,17,0,2500,-34,514 MX,17,1250,3750,46,594 MY,17,2500,5000,514,-34 MX,15,3750,5000,594,320 F,0,124110,,1 S,0,124110,,0.01838627 MX,15,124110,125069,570,320 MY,16,124110,125069,127,-34 F,0,128360,129560,1,0
Sprite,Foreground,Centre,"sb\dot.png",0,0 L,124910,1 MY,16,0,1250,240,32 MX,17,0,2500,528,112 MY,17,1250,3750,32,448 MX,17,2500,5000,112,528 MY,15,3750,5000,448,240 F,0,124860,,1 S,0,124860,,0.009085884 MX,16,124860,124910,528 MY,15,124860,124910,252,240 F,0,128360,129560,1,0
Sprite,Foreground,Centre,"sb\dot.png",0,0 L,124910,1 MY,16,0,1250,240,32 MX,17,0,2500,528,112 MY,17,1250,3750,32,448 MX,17,2500,5000,112,528 MY,15,3750,5000,448,240 F,0,124860,,1 S,0,124860,,0.01969092 MX,16,124860,124910,528 MY,15,124860,124910,252,240 F,0,128360,129560,1,0
Sprite,Foreground,Centre,"sb\dot.png",0,0 L,126103,1 MY,16,0,1250,240,136 MX,17,0,2500,424,216 MY,17,1250,3750,136,344 MX,17,2500,5000,216,424 MY,15,3750,5000,344,240 F,0,125422,,1 S,0,125422,,0.003137219 MX,16,125422,126103,363,424 MY,15,125422,126103,292,240 F,0,128360,129560,1,0
Sprite,Foreground,Centre,"sb\dot.png",0,0 L,126103,1 MY,16,0,1250,240,136 MX,17,0,2500,424,216 MY,17,1250,3750,136,344 MX,17,2500,5000,216,424 MY,15,3750,5000,344,240 F,0,125422,,1 S,0,125422,,0.01274535 MX,16,125422,126103,363,424 MY,15,125422,126103,292,240 F,0,128360,129560,1,0
Sprite,Foreground,Centre,"sb\dot.png",0,0 L,126291,1 MY,16,0,1250,240,136 MX,17,0,2500,424,216 MY,17,1250,3750,136,344 MX,17,2500,5000,216,424 MY,15,3750,5000,344,240 F,0,125610,,1 S,0,125610,,0.02596309 MX,16,125610,126291,363,424 MY,15,125610,126291,292,240 F,0,128360,129560,1,0
Sprite,Foreground,Centre,"sb\dot.png",0,0 L,126291,1 MY,16,0,1250,240,136 MX,17,0,2500,424,216 MY,17,1250,3750,136,344 MX,17,2500,5000,216,424 MY,15,3750,5000,344,240 F,0,125610,,1 S,0,125610,,0.004682327 MX,16,125610,126291,363,424 MY,15,125610,126291,292,240 F,0,128360,129560,1,0
Sprite,Foreground,Centre,"sb\dot.png",0,0 L,127098,1 MY,16,0,1250,240,65 MX,17,0,2500,495,145 MY,17,1250,3750,65,415 MX,17,2500,5000,145,495 MY,15,3750,5000,415,240 F,0,125985,,1 S,0,125985,,0.01060448 MX,16,125985,127098,357,495 MY,15,125985,127098,412,240 F,0,128360,129560,1,0
Sprite,Foreground,Centre,"sb\dot.png",0,0 L,127098,1 MY,16,0,1250,240,65 MX,17,0,2500,495,145 MY,17,1250,3750,65,415 MX,17,2500,5000,145,495 MY,15,3750,5000,415,240 F,0,125985,,1 S,0,125985,,0.02203435 MX,16,125985,127098,357,495 MY,15,125985,127098,412,240 F,0,128360,129560,1,0
Sprite,Foreground,Centre,"sb\dot.png",0,0 L,126911,1 MX,16,0,1250,320,428 MY,17,0,2500,348,132 MX,17,1250,3750,428,212 MY,17,2500,5000,132,348 MX,15,3750,5000,212,320 F,0,126360,,1 S,0,126360,,0.02888167 MX,15,126360,126911,256,320 MY,16,126360,126911,327,348 F,0,128360,129560,1,0
Sprite,Foreground,Centre,"sb\dot.png",0,0 L,126911,1 MX,16,0,1250,320,428 MY,17,0,2500,348,132 MX,17,1250,3750,428,212 MY,17,2500,5000,132,348 MX,15,3750,5000,212,320 F,0,126360,,1 S,0,126360,,0.02969793 MX,15,126360,126911,256,320 MY,16,126360,126911,327,348 F,0,128360,129560,1,0
Sprite,Foreground,Centre,"sb\dot.png",0,0 L,127815,1 MX,16,0,1250,320,579 MY,17,0,2500,499,-19 MX,17,1250,3750,579,61 MY,17,2500,5000,-19,499 MX,15,3750,5000,61,320 F,0,126922,,1 S,0,126922,,0.0134527 MX,15,126922,127815,94,320 MY,16,126922,127815,367,499 F,0,128360,129560,1,0
Sprite,Foreground,Centre,"sb\dot.png",0,0 L,127815,1 MX,16,0,1250,320,579 MY,17,0,2500,499,-19 MX,17,1250,3750,579,61 MY,17,2500,5000,-19,499 MX,15,3750,5000,61,320 F,0,126922,,1 S,0,126922,,0.01711398 MX,15,126922,127815,94,320 MY,16,126922,127815,367,499 F,0,128360,129560,1,0
Sprite,Foreground,Centre,"sb\dot.png",0,0 L,128003,1 MX,16,0,1250,320,579 MY,17,0,2500,499,-19 MX,17,1250,3750,579,61 MY,17,2500,5000,-19,499 MX,15,3750,5000,61,320 F,0,127110,,1 S,0,127110,,0.01056878 MX,15,127110,128003,94,320 MY,16,127110,128003,367,499 F,0,128360,129560,1,0
Sprite,Foreground,Centre,"sb\dot.png",0,0 L,128003,1 MX,16,0,1250,320,579 MY,17,0,2500,499,-19 MX,17,1250,3750,579,61 MY,17,2500,5000,-19,499 MX,15,3750,5000,61,320 F,0,127110,,1 S,0,127110,,0.01667755 MX,15,127110,128003,94,320 MY,16,127110,128003,367,499 F,0,128360,129560,1,0
Sprite,Foreground,Centre,"sb\dot.png",0,0 L,128249,1 MY,16,0,1250,240,426 MX,17,0,2500,134,506 MY,17,1250,3750,426,54 MX,17,2500,5000,506,134 MY,15,3750,5000,54,240 F,0,127860,,1 S,0,127860,,0.01735264 MX,16,127860,128249,152,134 MY,15,127860,128249,160,240 F,0,128360,129560,1,0
Sprite,Foreground,Centre,"sb\dot.png",0,0 L,128249,1 MY,16,0,1250,240,426 MX,17,0,2500,134,506 MY,17,1250,3750,426,54 MX,17,2500,5000,506,134 MY,15,3750,5000,54,240 F,0,127860,,1 S,0,127860,,0.004539227 MX,16,127860,128249,152,134 MY,15,127860,128249,160,240 F,0,128360,129560,1,0
Sprite,Foreground,Centre,"sb\dot.png",0,0 L,129626,1 MY,16,0,1250,240,348 MX,17,0,2500,212,428 MY,17,1250,3750,348,132 MX,17,2500,5000,428,212 MY,15,3750,5000,132,240 F,0,128422,,1 S,0,128422,,0.01057495 F,0,128422,129560,0.4,0 MX,16,128422,129626,312,212 MY,15,128422,129626,132,240
Sprite,Foreground,Centre,"sb\dot.png",0,0 L,129626,1 MY,16,0,1250,240,348 MX,17,0,2500,212,428 MY,17,1250,3750,348,132 MX,17,2500,5000,428,212 MY,15,3750,5000,132,240 F,0,128422,,1 S,0,128422,,0.01639413 F,0,128422,129560,0.4,0 MX,16,128422,129626,312,212 MY,15,128422,129626,132,240
Sprite,Foreground,Centre,"sb\dot.png",0,0 L,129814,1 MY,16,0,1250,240,348 MX,17,0,2500,212,428 MY,17,1250,3750,348,132 MX,17,2500,5000,428,212 MY,15,3750,5000,132,240 F,0,128610,,1 S,0,128610,,0.02585322 F,0,128610,129560,0.4,0 MX,16,128610,129814,312,212 MY,15,128610,129814,132,240
Sprite,Foreground,Centre,"sb\dot.png",0,0 L,129814,1 MY,16,0,1250,240,348 MX,17,0,2500,212,428 MY,17,1250,3750,348,132 MX,17,2500,5000,428,212 MY,15,3750,5000,132,240 F,0,128610,,1 S,0,128610,,0.01955526 F,0,128610,129560,0.4,0 MX,16,128610,129814,312,212 MY,15,128610,129814,132,240
Sprite,Foreground,Centre,"sb\dot.png",0,0 L,130068,1 MX,16,0,1250,320,141 MY,17,0,2500,61,419 MX,17,1250,3750,141,499 MY,17,2500,5000,419,61 MX,15,3750,5000,499,320 F,0,129172,,1 S,0,129172,,0.005812284 F,0,129172,129560,0.4,0 MX,15,129172,130068,477,320 MY,16,129172,130068,152,61
Sprite,Foreground,Centre,"sb\dot.png",0,0 L,130068,1 MX,16,0,1250,320,141 MY,17,0,2500,61,419 MX,17,1250,3750,141,499 MY,17,2500,5000,419,61 MX,15,3750,5000,499,320 F,0,129172,,1 S,0,129172,,0.02304288 F,0,129172,129560,0.4,0 MX,15,129172,130068,477,320 MY,16,129172,130068,152,61
Sprite,Foreground,Centre,"sb\hl.png",567,154 S,0,12360,,0.6 C,0,12360,,80,141,135 F,2,12360,12935,0.4,0
Sprite,Foreground,Centre,"sb\hl.png",562,152 S,0,12378,,0.6 C,0,12378,,80,141,135 F,2,12378,12935,0.4,0
Sprite,Foreground,Centre,"sb\hl.png",557,150 S,0,12397,,0.6 C,0,12397,,80,141,135 F,2,12397,12935,0.4,0
Sprite,Foreground,Centre,"sb\hl.png",552,148 S,0,12416,,0.6 C,0,12416,,80,141,135 F,2,12416,12935,0.4,0
Sprite,Foreground,Centre,"sb\hl.png",547,146 S,0,12435,,0.6 C,0,12435,,80,141,135 F,2,12435,12935,0.4,0
Sprite,Foreground,Centre,"sb\hl.png",541,144 S,0,12453,,0.6 C,0,12453,,80,141,135 F,2,12453,12935,0.4,0
Sprite,Foreground,Centre,"sb\hl.png",536,143 S,0,12472,,0.6 C,0,12472,,80,141,135 F,2,12472,12935,0.4,0
Sprite,Foreground,Centre,"sb\hl.png",531,142 S,0,12491,,0.6 C,0,12491,,80,141,135 F,2,12491,12935,0.4,0
Sprite,Foreground,Centre,"sb\hl.png",525,141 S,0,12510,,0.6 C,0,12510,,80,141,135 F,2,12510,12935,0.4,0
Sprite,Foreground,Centre,"sb\hl.png",520,140 S,0,12528,,0.6 C,0,12528,,80,141,135 F,2,12528,12935,0.4,0
Sprite,Foreground,Centre,"sb\hl.png",514,140 S,0,12547,,0.6 C,0,12547,,80,141,135 F,2,12547,12935,0.4,0
Sprite,Foreground,Centre,"sb\hl.png",509,140 S,0,12566,,0.6 C,0,12566,,80,141,135 F,2,12566,12935,0.4,0
Sprite,Foreground,Centre,"sb\hl.png",503,140 S,0,12585,,0.6 C,0,12585,,80,141,135 F,2,12585,12935,0.4,0
Sprite,Foreground,Centre,"sb\hl.png",498,140 S,0,12603,,0.6 C,0,12603,,80,141,135 F,2,12603,12935,0.4,0
Sprite,Foreground,Centre,"sb\hl.png",492,140 S,0,12622,,0.6 C,0,12622,,80,141,135 F,2,12622,12935,0.4,0
Sprite,Foreground,Centre,"sb\hl.png",487,141 S,0,12641,,0.6 C,0,12641,,80,141,135 F,2,12641,12935,0.4,0
Sprite,Foreground,Centre,"sb\hl.png",481,142 S,0,12660,,0.6 C,0,12660,,80,141,135 F,2,12660,12935,0.4,0
Sprite,Foreground,Centre,"sb\hl.png",476,143 S,0,12678,,0.6 C,0,12678,,80,141,135 F,2,12678,12935,0.4,0
Sprite,Foreground,Centre,"sb\hl.png",471,144 S,0,12697,,0.6 C,0,12697,,80,141,135 F,2,12697,12935,0.4,0
Sprite,Foreground,Centre,"sb\hl.png",465,146 S,0,12716,,0.6 C,0,12716,,80,141,135 F,2,12716,12935,0.4,0
Sprite,Foreground,Centre,"sb\hl.png",408,188 S,0,12922,,0.6 C,0,12922,,80,141,135 F,2,12922,13497,0.4,0
Sprite,Foreground,Centre,"sb\hl.png",403,185 S,0,12940,,0.6 C,0,12940,,80,141,135 F,2,12940,13497,0.4,0
Sprite,Foreground,Centre,"sb\hl.png",399,182 S,0,12959,,0.6 C,0,12959,,80,141,135 F,2,12959,13497,0.4,0
Sprite,Foreground,Centre,"sb\hl.png",394,179 S,0,12978,,0.6 C,0,12978,,80,141,135 F,2,12978,13497,0.4,0
Sprite,Foreground,Centre,"sb\hl.png",389,176 S,0,12997,,0.6 C,0,12997,,80,141,135 F,2,12997,13497,0.4,0
Sprite,Foreground,Centre,"sb\hl.png",384,174 S,0,13015,,0.6 C,0,13015,,80,141,135 F,2,13015,13497,0.4,0
Sprite,Foreground,Centre,"sb\hl.png",379,172 S,0,13034,,0.6 C,0,13034,,80,141,135 F,2,13034,13497,0.4,0
Sprite,Foreground,Centre,"sb\hl.png",374,170 S,0,13053,,0.6 C,0,13053,,80,141,135 F,2,13053,13497,0.4,0
Sprite,Foreground,Centre,"sb\hl.png",369,169 S,0,13072,,0.6 C,0,13072,,80,141,135 F,2,13072,13497,0.4,0
Sprite,Foreground,Centre,"sb\hl.png",363,167 S,0,13090,,0.6 C,0,13090,,80,141,135 F,2,13090,13497,0.4,0
Sprite,Foreground,Centre,"sb\hl.png",358,166 S,0,13109,,0.6 C,0,13109,,80,141,135 F,2,13109,13497,0.4,0
Sprite,Foreground,Centre,"sb\hl.png",353,166 S,0,13128,,0.6 C,0,13128,,80,141,135 F,2,13128,13497,0.4,0
Sprite,Foreground,Centre,"sb\hl.png",347,165 S,0,13147,,0.6 C,0,13147,,80,141,135 F,2,13147,13497,0.4,0
Sprite,Foreground,Centre,"sb\hl.png",342,165 S,0,13165,,0.6 C,0,13165,,80,141,135 F,2,13165,13497,0.4,0
Sprite,Foreground,Centre,"sb\hl.png",336,165 S,0,13184,,0.6 C,0,13184,,80,141,135 F,2,13184,13497,0.4,0
Sprite,Foreground,Centre,"sb\hl.png",331,166 S,0,13203,,0.6 C,0,13203,,80,141,135 F,2,13203,13497,0.4,0
Sprite,Foreground,Centre,"sb\hl.png",325,166 S,0,13222,,0.6 C,0,13222,,80,141,135 F,2,13222,13497,0.4,0
Sprite,Foreground,Centre,"sb\hl.png",320,167 S,0,13240,,0.6 C,0,13240,,80,141,135 F,2,13240,13497,0.4,0
Sprite,Foreground,Centre,"sb\hl.png",315,168 S,0,13259,,0.6 C,0,13259,,80,141,135 F,2,13259,13497,0.4,0
Sprite,Foreground,Centre,"sb\hl.png",309,170 S,0,13278,,0.6 C,0,13278,,80,141,135 F,2,13278,13497,0.4,0
Sprite,Foreground,Centre,"sb\hl.png",240,154 S,0,13485,,0.6 C,0,13485,,80,141,135 F,2,13485,14060,0.4,0
Sprite,Foreground,Centre,"sb\hl.png",243,158 S,0,13503,,0.6 C,0,13503,,80,141,135 F,2,13503,14060,0.4,0
Sprite,Foreground,Centre,"sb\hl.png",247,163 S,0,13522,,0.6 C,0,13522,,80,141,135 F,2,13522,14060,0.4,0
Sprite,Foreground,Centre,"sb\hl.png",250,167 S,0,13541,,0.6 C,0,13541,,80,141,135 F,2,13541,14060,0.4,0
Sprite,Foreground,Centre,"sb\hl.png",254,171 S,0,13560,,0.6 C,0,13560,,80,141,135 F,2,13560,14060,0.4,0
Sprite,Foreground,Centre,"sb\hl.png",257,176 S,0,13578,,0.6 C,0,13578,,80,141,135 F,2,13578,14060,0.4,0
Sprite,Foreground,Centre,"sb\hl.png",260,180 S,0,13597,,0.6 C,0,13597,,80,141,135 F,2,13597,14060,0.4,0
Sprite,Foreground,Centre,"sb\hl.png",261,185 S,0,13616,,0.6 C,0,13616,,80,141,135 F,2,13616,14060,0.4,0
Sprite,Foreground,Centre,"sb\hl.png",260,190 S,0,13635,,0.6 C,0,13635,,80,141,135 F,2,13635,14060,0.4,0
Sprite,Foreground,Centre,"sb\hl.png",259,196 S,0,13653,,0.6 C,0,13653,,80,141,135 F,2,13653,14060,0.4,0
Sprite,Foreground,Centre,"sb\hl.png",258,201 S,0,13672,,0.6 C,0,13672,,80,141,135 F,2,13672,14060,0.4,0
Sprite,Foreground,Centre,"sb\hl.png",257,206 S,0,13691,,0.6 C,0,13691,,80,141,135 F,2,13691,14060,0.4,0
Sprite,Foreground,Centre,"sb\hl.png",256,212 S,0,13710,,0.6 C,0,13710,,80,141,135 F,2,13710,14060,0.4,0
Sprite,Foreground,Centre,"sb\hl.png",254,217 S,0,13728,,0.6 C,0,13728,,80,141,135 F,2,13728,14060,0.4,0
Sprite,Foreground,Centre,"sb\hl.png",253,222 S,0,13747,,0.6 C,0,13747,,80,141,135 F,2,13747,14060,0.4,0
Sprite,Foreground,Centre,"sb\hl.png",252,228 S,0,13766,,0.6 C,0,13766,,80,141,135 F,2,13766,14060,0.4,0
Sprite,Foreground,Centre,"sb\hl.png",251,233 S,0,13785,,0.6 C,0,13785,,80,141,135 F,2,13785,14060,0.4,0
Sprite,Foreground,Centre,"sb\hl.png",250,239 S,0,13803,,0.6 C,0,13803,,80,141,135 F,2,13803,14060,0.4,0
Sprite,Foreground,Centre,"sb\hl.png",249,244 S,0,13822,,0.6 C,0,13822,,80,141,135 F,2,13822,14060,0.4,0
Sprite,Foreground,Centre,"sb\hl.png",247,249 S,0,13841,,0.6 C,0,13841,,80,141,135 F,2,13841,14060,0.4,0
Sprite,Foreground,Centre,"sb\hl.png",229,318 S,0,14047,,0.6 C,0,14047,,80,141,135 F,2,14047,14247,1,0
Sprite,Foreground,Centre,"sb\hl.png",331,411 S,0,14422,,0.6 C,0,14422,,80,141,135 F,2,14422,14622,1,0
Sprite,Foreground,Centre,"sb\hl.png",331,411 S,0,14610,,0.6 C,0,14610,,80,141,135 F,2,14610,15372,0.4,0
Sprite,Foreground,Centre,"sb\hl.png",336,412 S,0,14628,,0.6 C,0,14628,,80,141,135 F,2,14628,15372,0.4,0
Sprite,Foreground,Centre,"sb\hl.png",342,413 S,0,14647,,0.6 C,0,14647,,80,141,135 F,2,14647,15372,0.4,0
Sprite,Foreground,Centre,"sb\hl.png",347,415 S,0,14666,,0.6 C,0,14666,,80,141,135 F,2,14666,15372,0.4,0
Sprite,Foreground,Centre,"sb\hl.png",352,416 S,0,14685,,0.6 C,0,14685,,80,141,135 F,2,14685,15372,0.4,0
Sprite,Foreground,Centre,"sb\hl.png",358,417 S,0,14703,,0.6 C,0,14703,,80,141,135 F,2,14703,15372,0.4,0
Sprite,Foreground,Centre,"sb\hl.png",363,418 S,0,14722,,0.6 C,0,14722,,80,141,135 F,2,14722,15372,0.4,0
Sprite,Foreground,Centre,"sb\hl.png",369,420 S,0,14741,,0.6 C,0,14741,,80,141,135 F,2,14741,15372,0.4,0
Sprite,Foreground,Centre,"sb\hl.png",374,419 S,0,14760,,0.6 C,0,14760,,80,141,135 F,2,14760,15372,0.4,0
Sprite,Foreground,Centre,"sb\hl.png",379,418 S,0,14778,,0.6 C,0,14778,,80,141,135 F,2,14778,15372,0.4,0
Sprite,Foreground,Centre,"sb\hl.png",385,416 S,0,14797,,0.6 C,0,14797,,80,141,135 F,2,14797,15372,0.4,0
Sprite,Foreground,Centre,"sb\hl.png",390,415 S,0,14816,,0.6 C,0,14816,,80,141,135 F,2,14816,15372,0.4,0
Sprite,Foreground,Centre,"sb\hl.png",395,414 S,0,14835,,0.6 C,0,14835,,80,141,135 F,2,14835,15372,0.4,0
Sprite,Foreground,Centre,"sb\hl.png",401,413 S,0,14853,,0.6 C,0,14853,,80,141,135 F,2,14853,15372,0.4,0
Sprite,Foreground,Centre,"sb\hl.png",406,411 S,0,14872,,0.6 C,0,14872,,80,141,135 F,2,14872,15372,0.4,0
Sprite,Foreground,Centre,"sb\hl.png",411,410 S,0,14891,,0.6 C,0,14891,,80,141,135 F,2,14891,15372,0.4,0
Sprite,Foreground,Centre,"sb\hl.png",406,411 S,0,14910,,0.6 C,0,14910,,80,141,135 F,2,14910,15372,0.4,0
Sprite,Foreground,Centre,"sb\hl.png",401,413 S,0,14928,,0.6 C,0,14928,,80,141,135 F,2,14928,15372,0.4,0
Sprite,Foreground,Centre,"sb\hl.png",395,414 S,0,14947,,0.6 C,0,14947,,80,141,135 F,2,14947,15372,0.4,0
Sprite,Foreground,Centre,"sb\hl.png",390,415 S,0,14966,,0.6 C,0,14966,,80,141,135 F,2,14966,15372,0.4,0
Sprite,Foreground,Centre,"sb\hl.png",385,416 S,0,14985,,0.6 C,0,14985,,80,141,135 F,2,14985,15372,0.4,0
Sprite,Foreground,Centre,"sb\hl.png",379,418 S,0,15003,,0.6 C,0,15003,,80,141,135 F,2,15003,15372,0.4,0
Sprite,Foreground,Centre,"sb\hl.png",374,419 S,0,15022,,0.6 C,0,15022,,80,141,135 F,2,15022,15372,0.4,0
Sprite,Foreground,Centre,"sb\hl.png",369,420 S,0,15041,,0.6 C,0,15041,,80,141,135 F,2,15041,15372,0.4,0
Sprite,Foreground,Centre,"sb\hl.png",363,418 S,0,15060,,0.6 C,0,15060,,80,141,135 F,2,15060,15372,0.4,0
Sprite,Foreground,Centre,"sb\hl.png",358,417 S,0,15078,,0.6 C,0,15078,,80,141,135 F,2,15078,15372,0.4,0
Sprite,Foreground,Centre,"sb\hl.png",352,416 S,0,15097,,0.6 C,0,15097,,80,141,135 F,2,15097,15372,0.4,0
Sprite,Foreground,Centre,"sb\hl.png",347,415 S,0,15116,,0.6 C,0,15116,,80,141,135 F,2,15116,15372,0.4,0
Sprite,Foreground,Centre,"sb\hl.png",342,413 S,0,15135,,0.6 C,0,15135,,80,141,135 F,2,15135,15372,0.4,0
Sprite,Foreground,Centre,"sb\hl.png",336,412 S,0,15153,,0.6 C,0,15153,,80,141,135 F,2,15153,15372,0.4,0
Sprite,Foreground,Centre,"sb\hl.png",268,431 S,0,15360,,0.6 C,0,15360,,80,141,135 F,2,15360,15935,0.4,0
Sprite,Foreground,Centre,"sb\hl.png",263,428 S,0,15378,,0.6 C,0,15378,,80,141,135 F,2,15378,15935,0.4,0
Sprite,Foreground,Centre,"sb\hl.png",259,425 S,0,15397,,0.6 C,0,15397,,80,141,135 F,2,15397,15935,0.4,0
Sprite,Foreground,Centre,"sb\hl.png",254,422 S,0,15416,,0.6 C,0,15416,,80,141,135 F,2,15416,15935,0.4,0
Sprite,Foreground,Centre,"sb\hl.png",249,420 S,0,15435,,0.6 C,0,15435,,80,141,135 F,2,15435,15935,0.4,0
Sprite,Foreground,Centre,"sb\hl.png",244,418 S,0,15453,,0.6 C,0,15453,,80,141,135 F,2,15453,15935,0.4,0
Sprite,Foreground,Centre,"sb\hl.png",239,415 S,0,15472,,0.6 C,0,15472,,80,141,135 F,2,15472,15935,0.4,0
Sprite,Foreground,Centre,"sb\hl.png",234,414 S,0,15491,,0.6 C,0,15491,,80,141,135 F,2,15491,15935,0.4,0
Sprite,Foreground,Centre,"sb\hl.png",229,412 S,0,15510,,0.6 C,0,15510,,80,141,135 F,2,15510,15935,0.4,0
Sprite,Foreground,Centre,"sb\hl.png",223,410 S,0,15528,,0.6 C,0,15528,,80,141,135 F,2,15528,15935,0.4,0
Sprite,Foreground,Centre,"sb\hl.png",218,409 S,0,15547,,0.6 C,0,15547,,80,141,135 F,2,15547,15935,0.4,0
Sprite,Foreground,Centre,"sb\hl.png",213,408 S,0,15566,,0.6 C,0,15566,,80,141,135 F,2,15566,15935,0.4,0
Sprite,Foreground,Centre,"sb\hl.png",207,407 S,0,15585,,0.6 C,0,15585,,80,141,135 F,2,15585,15935,0.4,0
Sprite,Foreground,Centre,"sb\hl.png",202,407 S,0,15603,,0.6 C,0,15603,,80,141,135 F,2,15603,15935,0.4,0
Sprite,Foreground,Centre,"sb\hl.png",196,407 S,0,15622,,0.6 C,0,15622,,80,141,135 F,2,15622,15935,0.4,0
Sprite,Foreground,Centre,"sb\hl.png",191,406 S,0,15641,,0.6 C,0,15641,,80,141,135 F,2,15641,15935,0.4,0
Sprite,Foreground,Centre,"sb\hl.png",185,407 S,0,15660,,0.6 C,0,15660,,80,141,135 F,2,15660,15935,0.4,0
Sprite,Foreground,Centre,"sb\hl.png",180,407 S,0,15678,,0.6 C,0,15678,,80,141,135 F,2,15678,15935,0.4,0
Sprite,Foreground,Centre,"sb\hl.png",174,407 S,0,15697,,0.6 C,0,15697,,80,141,135 F,2,15697,15935,0.4,0
Sprite,Foreground,Centre,"sb\hl.png",169,408 S,0,15716,,0.6 C,0,15716,,80,141,135 F,2,15716,15935,0.4,0
Sprite,Foreground,Centre,"sb\hl.png",97,414 S,0,15922,,0.6 C,0,15922,,80,141,135 F,2,15922,16497,0.4,0
Sprite,Foreground,Centre,"sb\hl.png",100,409 S,0,15940,,0.6 C,0,15940,,80,141,135 F,2,15940,16497,0.4,0
Sprite,Foreground,Centre,"sb\hl.png",103,405 S,0,15959,,0.6 C,0,15959,,80,141,135 F,2,15959,16497,0.4,0
Sprite,Foreground,Centre,"sb\hl.png",106,400 S,0,15978,,0.6 C,0,15978,,80,141,135 F,2,15978,16497,0.4,0
Sprite,Foreground,Centre,"sb\hl.png",108,395 S,0,15997,,0.6 C,0,15997,,80,141,135 F,2,15997,16497,0.4,0
Sprite,Foreground,Centre,"sb\hl.png",111,390 S,0,16015,,0.6 C,0,16015,,80,141,135 F,2,16015,16497,0.4,0
Sprite,Foreground,Centre,"sb\hl.png",113,385 S,0,16034,,0.6 C,0,16034,,80,141,135 F,2,16034,16497,0.4,0
Sprite,Foreground,Centre,"sb\hl.png",115,380 S,0,16053,,0.6 C,0,16053,,80,141,135 F,2,16053,16497,0.4,0
Sprite,Foreground,Centre,"sb\hl.png",117,375 S,0,16072,,0.6 C,0,16072,,80,141,135 F,2,16072,16497,0.4,0
Sprite,Foreground,Centre,"sb\hl.png",118,370 S,0,16090,,0.6 C,0,16090,,80,141,135 F,2,16090,16497,0.4,0
Sprite,Foreground,Centre,"sb\hl.png",120,364 S,0,16109,,0.6 C,0,16109,,80,141,135 F,2,16109,16497,0.4,0
Sprite,Foreground,Centre,"sb\hl.png",121,359 S,0,16128,,0.6 C,0,16128,,80,141,135 F,2,16128,16497,0.4,0
Sprite,Foreground,Centre,"sb\hl.png",122,354 S,0,16147,,0.6 C,0,16147,,80,141,135 F,2,16147,16497,0.4,0
Sprite,Foreground,Centre,"sb\hl.png",123,348 S,0,16165,,0.6 C,0,16165,,80,141,135 F,2,16165,16497,0.4,0
Sprite,Foreground,Centre,"sb\hl.png",123,343 S,0,16184,,0.6 C,0,16184,,80,141,135 F,2,16184,16497,0.4,0
Sprite,Foreground,Centre,"sb\hl.png",123,337 S,0,16203,,0.6 C,0,16203,,80,141,135 F,2,16203,16497,0.4,0
Sprite,Foreground,Centre,"sb\hl.png",124,332 S,0,16222,,0.6 C,0,16222,,80,141,135 F,2,16222,16497,0.4,0
Sprite,Foreground,Centre,"sb\hl.png",124,326 S,0,16240,,0.6 C,0,16240,,80,141,135 F,2,16240,16497,0.4,0
Sprite,Foreground,Centre,"sb\hl.png",123,321 S,0,16259,,0.6 C,0,16259,,80,141,135 F,2,16259,16497,0.4,0
Sprite,Foreground,Centre,"sb\hl.png",123,315 S,0,16278,,0.6 C,0,16278,,80,141,135 F,2,16278,16497,0.4,0
Sprite,Foreground,Centre,"sb\hl.png",92,251 S,0,16485,,0.6 C,0,16485,,80,141,135 F,2,16485,17060,0.4,0
Sprite,Foreground,Centre,"sb\hl.png",89,246 S,0,16503,,0.6 C,0,16503,,80,141,135 F,2,16503,17060,0.4,0
Sprite,Foreground,Centre,"sb\hl.png",86,242 S,0,16522,,0.6 C,0,16522,,80,141,135 F,2,16522,17060,0.4,0
Sprite,Foreground,Centre,"sb\hl.png",84,237 S,0,16541,,0.6 C,0,16541,,80,141,135 F,2,16541,17060,0.4,0
Sprite,Foreground,Centre,"sb\hl.png",81,232 S,0,16560,,0.6 C,0,16560,,80,141,135 F,2,16560,17060,0.4,0
Sprite,Foreground,Centre,"sb\hl.png",78,227 S,0,16578,,0.6 C,0,16578,,80,141,135 F,2,16578,17060,0.4,0
Sprite,Foreground,Centre,"sb\hl.png",75,223 S,0,16597,,0.6 C,0,16597,,80,141,135 F,2,16597,17060,0.4,0
Sprite,Foreground,Centre,"sb\hl.png",72,218 S,0,16616,,0.6 C,0,16616,,80,141,135 F,2,16616,17060,0.4,0
Sprite,Foreground,Centre,"sb\hl.png",71,213 S,0,16635,,0.6 C,0,16635,,80,141,135 F,2,16635,17060,0.4,0
Sprite,Foreground,Centre,"sb\hl.png",72,207 S,0,16653,,0.6 C,0,16653,,80,141,135 F,2,16653,17060,0.4,0
Sprite,Foreground,Centre,"sb\hl.png",73,202 S,0,16672,,0.6 C,0,16672,,80,141,135 F,2,16672,17060,0.4,0
Sprite,Foreground,Centre,"sb\hl.png",74,196 S,0,16691,,0.6 C,0,16691,,80,141,135 F,2,16691,17060,0.4,0
Sprite,Foreground,Centre,"sb\hl.png",74,191 S,0,16710,,0.6 C,0,16710,,80,141,135 F,2,16710,17060,0.4,0
Sprite,Foreground,Centre,"sb\hl.png",75,186 S,0,16728,,0.6 C,0,16728,,80,141,135 F,2,16728,17060,0.4,0
Sprite,Foreground,Centre,"sb\hl.png",76,180 S,0,16747,,0.6 C,0,16747,,80,141,135 F,2,16747,17060,0.4,0
Sprite,Foreground,Centre,"sb\hl.png",76,175 S,0,16766,,0.6 C,0,16766,,80,141,135 F,2,16766,17060,0.4,0
Sprite,Foreground,Centre,"sb\hl.png",77,169 S,0,16785,,0.6 C,0,16785,,80,141,135 F,2,16785,17060,0.4,0
Sprite,Foreground,Centre,"sb\hl.png",78,164 S,0,16803,,0.6 C,0,16803,,80,141,135 F,2,16803,17060,0.4,0
Sprite,Foreground,Centre,"sb\hl.png",78,158 S,0,16822,,0.6 C,0,16822,,80,141,135 F,2,16822,17060,0.4,0
Sprite,Foreground,Centre,"sb\hl.png",79,153 S,0,16841,,0.6 C,0,16841,,80,141,135 F,2,16841,17060,0.4,0
Sprite,Foreground,Centre,"sb\hl.png",90,82 S,0,17047,,0.6 C,0,17047,,80,141,135 F,2,17047,17247,1,0
Sprite,Foreground,Centre,"sb\hl.png",214,141 S,0,17422,,0.6 C,0,17422,,80,141,135 F,2,17422,17622,1,0
Sprite,Foreground,Centre,"sb\hl.png",214,141 S,0,17610,,0.6 C,0,17610,,80,141,135 F,2,17610,18372,0.4,0
Sprite,Foreground,Centre,"sb\hl.png",219,140 S,0,17628,,0.6 C,0,17628,,80,141,135 F,2,17628,18372,0.4,0
Sprite,Foreground,Centre,"sb\hl.png",225,138 S,0,17647,,0.6 C,0,17647,,80,141,135 F,2,17647,18372,0.4,0
Sprite,Foreground,Centre,"sb\hl.png",230,137 S,0,17666,,0.6 C,0,17666,,80,141,135 F,2,17666,18372,0.4,0
Sprite,Foreground,Centre,"sb\hl.png",235,135 S,0,17685,,0.6 C,0,17685,,80,141,135 F,2,17685,18372,0.4,0
Sprite,Foreground,Centre,"sb\hl.png",240,134 S,0,17703,,0.6 C,0,17703,,80,141,135 F,2,17703,18372,0.4,0
Sprite,Foreground,Centre,"sb\hl.png",246,132 S,0,17722,,0.6 C,0,17722,,80,141,135 F,2,17722,18372,0.4,0
Sprite,Foreground,Centre,"sb\hl.png",251,131 S,0,17741,,0.6 C,0,17741,,80,141,135 F,2,17741,18372,0.4,0
Sprite,Foreground,Centre,"sb\hl.png",256,131 S,0,17760,,0.6 C,0,17760,,80,141,135 F,2,17760,18372,0.4,0
Sprite,Foreground,Centre,"sb\hl.png",262,132 S,0,17778,,0.6 C,0,17778,,80,141,135 F,2,17778,18372,0.4,0
Sprite,Foreground,Centre,"sb\hl.png",267,133 S,0,17797,,0.6 C,0,17797,,80,141,135 F,2,17797,18372,0.4,0
Sprite,Foreground,Centre,"sb\hl.png",273,134 S,0,17816,,0.6 C,0,17816,,80,141,135 F,2,17816,18372,0.4,0
Sprite,Foreground,Centre,"sb\hl.png",278,135 S,0,17835,,0.6 C,0,17835,,80,141,135 F,2,17835,18372,0.4,0
Sprite,Foreground,Centre,"sb\hl.png",283,136 S,0,17853,,0.6 C,0,17853,,80,141,135 F,2,17853,18372,0.4,0
Sprite,Foreground,Centre,"sb\hl.png",289,137 S,0,17872,,0.6 C,0,17872,,80,141,135 F,2,17872,18372,0.4,0
Sprite,Foreground,Centre,"sb\hl.png",294,138 S,0,17891,,0.6 C,0,17891,,80,141,135 F,2,17891,18372,0.4,0
Sprite,Foreground,Centre,"sb\hl.png",289,137 S,0,17910,,0.6 C,0,17910,,80,141,135 F,2,17910,18372,0.4,0
Sprite,Foreground,Centre,"sb\hl.png",283,136 S,0,17928,,0.6 C,0,17928,,80,141,135 F,2,17928,18372,0.4,0
Sprite,Foreground,Centre,"sb\hl.png",278,135 S,0,17947,,0.6 C,0,17947,,80,141,135 F,2,17947,18372,0.4,0
Sprite,Foreground,Centre,"sb\hl.png",273,134 S,0,17966,,0.6 C,0,17966,,80,141,135 F,2,17966,18372,0.4,0
Sprite,Foreground,Centre,"sb\hl.png",267,133 S,0,17985,,0.6 C,0,17985,,80,141,135 F,2,17985,18372,0.4,0
Sprite,Foreground,Centre,"sb\hl.png",262,132 S,0,18003,,0.6 C,0,18003,,80,141,135 F,2,18003,18372,0.4,0
Sprite,Foreground,Centre,"sb\hl.png",256,131 S,0,18022,,0.6 C,0,18022,,80,141,135 F,2,18022,18372,0.4,0
Sprite,Foreground,Centre,"sb\hl.png",251,131 S,0,18041,,0.6 C,0,18041,,80,141,135 F,2,18041,18372,0.4,0
Sprite,Foreground,Centre,"sb\hl.png",246,132 S,0,18060,,0.6 C,0,18060,,80,141,135 F,2,18060,18372,0.4,0
Sprite,Foreground,Centre,"sb\hl.png",240,134 S,0,18078,,0.6 C,0,18078,,80,141,135 F,2,18078,18372,0.4,0
Sprite,Foreground,Centre,"sb\hl.png",235,135 S,0,18097,,0.6 C,0,18097,,80,141,135 F,2,18097,18372,0.4,0
Sprite,Foreground,Centre,"sb\hl.png",230,137 S,0,18116,,0.6 C,0,18116,,80,141,135 F,2,18116,18372,0.4,0
Sprite,Foreground,Centre,"sb\hl.png",225,138 S,0,18135,,0.6 C,0,18135,,80,141,135 F,2,18135,18372,0.4,0
Sprite,Foreground,Centre,"sb\hl.png",219,140 S,0,18153,,0.6 C,0,18153,,80,141,135 F,2,18153,18372,0.4,0
Sprite,Foreground,Centre,"sb\hl.png",200,206 S,0,18360,,0.6 C,0,18360,,80,141,135 F,2,18360,18935,0.4,0
Sprite,Foreground,Centre,"sb\hl.png",200,211 S,0,18378,,0.6 C,0,18378,,80,141,135 F,2,18378,18935,0.4,0
Sprite,Foreground,Centre,"sb\hl.png",201,217 S,0,18397,,0.6 C,0,18397,,80,141,135 F,2,18397,18935,0.4,0
Sprite,Foreground,Centre,"sb\hl.png",201,222 S,0,18416,,0.6 C,0,18416,,80,141,135 F,2,18416,18935,0.4,0
Sprite,Foreground,Centre,"sb\hl.png",201,228 S,0,18435,,0.6 C,0,18435,,80,141,135 F,2,18435,18935,0.4,0
Sprite,Foreground,Centre,"sb\hl.png",201,233 S,0,18453,,0.6 C,0,18453,,80,141,135 F,2,18453,18935,0.4,0
Sprite,Foreground,Centre,"sb\hl.png",202,239 S,0,18472,,0.6 C,0,18472,,80,141,135 F,2,18472,18935,0.4,0
Sprite,Foreground,Centre,"sb\hl.png",202,244 S,0,18491,,0.6 C,0,18491,,80,141,135 F,2,18491,18935,0.4,0
Sprite,Foreground,Centre,"sb\hl.png",202,250 S,0,18510,,0.6 C,0,18510,,80,141,135 F,2,18510,18935,0.4,0
Sprite,Foreground,Centre,"sb\hl.png",202,255 S,0,18528,,0.6 C,0,18528,,80,141,135 F,2,18528,18935,0.4,0
Sprite,Foreground,Centre,"sb\hl.png",203,261 S,0,18547,,0.6 C,0,18547,,80,141,135 F,2,18547,18935,0.4,0
Sprite,Foreground,Centre,"sb\hl.png",203,266 S,0,18566,,0.6 C,0,18566,,80,141,135 F,2,18566,18935,0.4,0
Sprite,Foreground,Centre,"sb\hl.png",203,272 S,0,18585,,0.6 C,0,18585,,80,141,135 F,2,18585,18935,0.4,0
Sprite,Foreground,Centre,"sb\hl.png",203,277 S,0,18603,,0.6 C,0,18603,,80,141,135 F,2,18603,18935,0.4,0
Sprite,Foreground,Centre,"sb\hl.png",204,283 S,0,18622,,0.6 C,0,18622,,80,141,135 F,2,18622,18935,0.4,0
Sprite,Foreground,Centre,"sb\hl.png",204,288 S,0,18641,,0.6 C,0,18641,,80,141,135 F,2,18641,18935,0.4,0
Sprite,Foreground,Centre,"sb\hl.png",204,294 S,0,18660,,0.6 C,0,18660,,80,141,135 F,2,18660,18935,0.4,0
Sprite,Foreground,Centre,"sb\hl.png",204,299 S,0,18678,,0.6 C,0,18678,,80,141,135 F,2,18678,18935,0.4,0
Sprite,Foreground,Centre,"sb\hl.png",205,305 S,0,18697,,0.6 C,0,18697,,80,141,135 F,2,18697,18935,0.4,0
Sprite,Foreground,Centre,"sb\hl.png",205,310 S,0,18716,,0.6 C,0,18716,,80,141,135 F,2,18716,18935,0.4,0
Sprite,Foreground,Centre,"sb\hl.png",282,423 S,0,19110,,0.6 C,0,19110,,80,141,135 F,2,19110,19310,1,0
Sprite,Foreground,Centre,"sb\hl.png",381,336 S,0,19485,,0.6 C,0,19485,,80,141,135 F,2,19485,20060,0.4,0
Sprite,Foreground,Centre,"sb\hl.png",385,332 S,0,19503,,0.6 C,0,19503,,80,141,135 F,2,19503,20060,0.4,0
Sprite,Foreground,Centre,"sb\hl.png",389,328 S,0,19522,,0.6 C,0,19522,,80,141,135 F,2,19522,20060,0.4,0
Sprite,Foreground,Centre,"sb\hl.png",393,325 S,0,19541,,0.6 C,0,19541,,80,141,135 F,2,19541,20060,0.4,0
Sprite,Foreground,Centre,"sb\hl.png",398,322 S,0,19560,,0.6 C,0,19560,,80,141,135 F,2,19560,20060,0.4,0
Sprite,Foreground,Centre,"sb\hl.png",402,319 S,0,19578,,0.6 C,0,19578,,80,141,135 F,2,19578,20060,0.4,0
Sprite,Foreground,Centre,"sb\hl.png",407,316 S,0,19597,,0.6 C,0,19597,,80,141,135 F,2,19597,20060,0.4,0
Sprite,Foreground,Centre,"sb\hl.png",412,313 S,0,19616,,0.6 C,0,19616,,80,141,135 F,2,19616,20060,0.4,0
Sprite,Foreground,Centre,"sb\hl.png",417,311 S,0,19635,,0.6 C,0,19635,,80,141,135 F,2,19635,20060,0.4,0
Sprite,Foreground,Centre,"sb\hl.png",422,309 S,0,19653,,0.6 C,0,19653,,80,141,135 F,2,19653,20060,0.4,0
Sprite,Foreground,Centre,"sb\hl.png",427,308 S,0,19672,,0.6 C,0,19672,,80,141,135 F,2,19672,20060,0.4,0
Sprite,Foreground,Centre,"sb\hl.png",432,306 S,0,19691,,0.6 C,0,19691,,80,141,135 F,2,19691,20060,0.4,0
Sprite,Foreground,Centre,"sb\hl.png",438,306 S,0,19710,,0.6 C,0,19710,,80,141,135 F,2,19710,20060,0.4,0
Sprite,Foreground,Centre,"sb\hl.png",443,305 S,0,19728,,0.6 C,0,19728,,80,141,135 F,2,19728,20060,0.4,0
Sprite,Foreground,Centre,"sb\hl.png",449,304 S,0,19747,,0.6 C,0,19747,,80,141,135 F,2,19747,20060,0.4,0
Sprite,Foreground,Centre,"sb\hl.png",454,305 S,0,19766,,0.6 C,0,19766,,80,141,135 F,2,19766,20060,0.4,0
Sprite,Foreground,Centre,"sb\hl.png",460,305 S,0,19785,,0.6 C,0,19785,,80,141,135 F,2,19785,20060,0.4,0
Sprite,Foreground,Centre,"sb\hl.png",465,305 S,0,19803,,0.6 C,0,19803,,80,141,135 F,2,19803,20060,0.4,0
Sprite,Foreground,Centre,"sb\hl.png",471,306 S,0,19822,,0.6 C,0,19822,,80,141,135 F,2,19822,20060,0.4,0
Sprite,Foreground,Centre,"sb\hl.png",476,307 S,0,19841,,0.6 C,0,19841,,80,141,135 F,2,19841,20060,0.4,0
Sprite,Foreground,Centre,"sb\hl.png",552,321 S,0,20047,,0.6 C,0,20047,,80,141,135 F,2,20047,20247,1,0
Sprite,Foreground,Centre,"sb\hl.png",552,321 S,0,20235,,0.6 C,0,20235,,80,141,135 F,2,20235,21185,0.4,0
Sprite,Foreground,Centre,"sb\hl.png",552,326 S,0,20253,,0.6 C,0,20253,,80,141,135 F,2,20253,21185,0.4,0
Sprite,Foreground,Centre,"sb\hl.png",552,332 S,0,20272,,0.6 C,0,20272,,80,141,135 F,2,20272,21185,0.4,0
Sprite,Foreground,Centre,"sb\hl.png",553,337 S,0,20291,,0.6 C,0,20291,,80,141,135 F,2,20291,21185,0.4,0
Sprite,Foreground,Centre,"sb\hl.png",553,343 S,0,20310,,0.6 C,0,20310,,80,141,135 F,2,20310,21185,0.4,0
Sprite,Foreground,Centre,"sb\hl.png",553,348 S,0,20328,,0.6 C,0,20328,,80,141,135 F,2,20328,21185,0.4,0
Sprite,Foreground,Centre,"sb\hl.png",553,354 S,0,20347,,0.6 C,0,20347,,80,141,135 F,2,20347,21185,0.4,0
Sprite,Foreground,Centre,"sb\hl.png",554,359 S,0,20366,,0.6 C,0,20366,,80,141,135 F,2,20366,21185,0.4,0
Sprite,Foreground,Centre,"sb\hl.png",554,365 S,0,20385,,0.6 C,0,20385,,80,141,135 F,2,20385,21185,0.4,0
Sprite,Foreground,Centre,"sb\hl.png",554,370 S,0,20403,,0.6 C,0,20403,,80,141,135 F,2,20403,21185,0.4,0
Sprite,Foreground,Centre,"sb\hl.png",554,376 S,0,20422,,0.6 C,0,20422,,80,141,135 F,2,20422,21185,0.4,0
Sprite,Foreground,Centre,"sb\hl.png",555,381 S,0,20441,,0.6 C,0,20441,,80,141,135 F,2,20441,21185,0.4,0
Sprite,Foreground,Centre,"sb\hl.png",555,387 S,0,20460,,0.6 C,0,20460,,80,141,135 F,2,20460,21185,0.4,0
Sprite,Foreground,Centre,"sb\hl.png",555,392 S,0,20478,,0.6 C,0,20478,,80,141,135 F,2,20478,21185,0.4,0
Sprite,Foreground,Centre,"sb\hl.png",555,398 S,0,20497,,0.6 C,0,20497,,80,141,135 F,2,20497,21185,0.4,0
Sprite,Foreground,Centre,"sb\hl.png",555,403 S,0,20516,,0.6 C,0,20516,,80,141,135 F,2,20516,21185,0.4,0
Sprite,Foreground,Centre,"sb\hl.png",556,409 S,0,20535,,0.6 C,0,20535,,80,141,135 F,2,20535,21185,0.4,0
Sprite,Foreground,Centre,"sb\hl.png",556,414 S,0,20553,,0.6 C,0,20553,,80,141,135 F,2,20553,21185,0.4,0
Sprite,Foreground,Centre,"sb\hl.png",556,420 S,0,20572,,0.6 C,0,20572,,80,141,135 F,2,20572,21185,0.4,0
Sprite,Foreground,Centre,"sb\hl.png",556,425 S,0,20591,,0.6 C,0,20591,,80,141,135 F,2,20591,21185,0.4,0
Sprite,Foreground,Centre,"sb\hl.png",557,431 S,0,20610,,0.6 C,0,20610,,80,141,135 F,2,20610,21185,0.4,0
Sprite,Foreground,Centre,"sb\hl.png",556,425 S,0,20628,,0.6 C,0,20628,,80,141,135 F,2,20628,21185,0.4,0
Sprite,Foreground,Centre,"sb\hl.png",556,420 S,0,20647,,0.6 C,0,20647,,80,141,135 F,2,20647,21185,0.4,0
Sprite,Foreground,Centre,"sb\hl.png",556,414 S,0,20666,,0.6 C,0,20666,,80,141,135 F,2,20666,21185,0.4,0
Sprite,Foreground,Centre,"sb\hl.png",556,409 S,0,20685,,0.6 C,0,20685,,80,141,135 F,2,20685,21185,0.4,0
Sprite,Foreground,Centre,"sb\hl.png",555,403 S,0,20703,,0.6 C,0,20703,,80,141,135 F,2,20703,21185,0.4,0
Sprite,Foreground,Centre,"sb\hl.png",555,398 S,0,20722,,0.6 C,0,20722,,80,141,135 F,2,20722,21185,0.4,0
Sprite,Foreground,Centre,"sb\hl.png",555,392 S,0,20741,,0.6 C,0,20741,,80,141,135 F,2,20741,21185,0.4,0
Sprite,Foreground,Centre,"sb\hl.png",555,387 S,0,20760,,0.6 C,0,20760,,80,141,135 F,2,20760,21185,0.4,0
Sprite,Foreground,Centre,"sb\hl.png",555,381 S,0,20778,,0.6 C,0,20778,,80,141,135 F,2,20778,21185,0.4,0
Sprite,Foreground,Centre,"sb\hl.png",554,376 S,0,20797,,0.6 C,0,20797,,80,141,135 F,2,20797,21185,0.4,0
Sprite,Foreground,Centre,"sb\hl.png",554,370 S,0,20816,,0.6 C,0,20816,,80,141,135 F,2,20816,21185,0.4,0
Sprite,Foreground,Centre,"sb\hl.png",554,365 S,0,20835,,0.6 C,0,20835,,80,141,135 F,2,20835,21185,0.4,0
Sprite,Foreground,Centre,"sb\hl.png",554,359 S,0,20853,,0.6 C,0,20853,,80,141,135 F,2,20853,21185,0.4,0
Sprite,Foreground,Centre,"sb\hl.png",553,354 S,0,20872,,0.6 C,0,20872,,80,141,135 F,2,20872,21185,0.4,0
Sprite,Foreground,Centre,"sb\hl.png",553,348 S,0,20891,,0.6 C,0,20891,,80,141,135 F,2,20891,21185,0.4,0
Sprite,Foreground,Centre,"sb\hl.png",553,343 S,0,20910,,0.6 C,0,20910,,80,141,135 F,2,20910,21185,0.4,0
Sprite,Foreground,Centre,"sb\hl.png",553,337 S,0,20928,,0.6 C,0,20928,,80,141,135 F,2,20928,21185,0.4,0
Sprite,Foreground,Centre,"sb\hl.png",552,332 S,0,20947,,0.6 C,0,20947,,80,141,135 F,2,20947,21185,0.4,0
Sprite,Foreground,Centre,"sb\hl.png",552,326 S,0,20966,,0.6 C,0,20966,,80,141,135 F,2,20966,21185,0.4,0
Sprite,Foreground,Centre,"sb\hl.png",506,197 S,0,21360,,0.6 C,0,21360,,80,141,135 F,2,21360,21935,0.4,0
Sprite,Foreground,Centre,"sb\hl.png",501,195 S,0,21378,,0.6 C,0,21378,,80,141,135 F,2,21378,21935,0.4,0
Sprite,Foreground,Centre,"sb\hl.png",496,192 S,0,21397,,0.6 C,0,21397,,80,141,135 F,2,21397,21935,0.4,0
Sprite,Foreground,Centre,"sb\hl.png",491,190 S,0,21416,,0.6 C,0,21416,,80,141,135 F,2,21416,21935,0.4,0
Sprite,Foreground,Centre,"sb\hl.png",486,188 S,0,21435,,0.6 C,0,21435,,80,141,135 F,2,21435,21935,0.4,0
Sprite,Foreground,Centre,"sb\hl.png",481,186 S,0,21453,,0.6 C,0,21453,,80,141,135 F,2,21453,21935,0.4,0
Sprite,Foreground,Centre,"sb\hl.png",476,185 S,0,21472,,0.6 C,0,21472,,80,141,135 F,2,21472,21935,0.4,0
Sprite,Foreground,Centre,"sb\hl.png",470,184 S,0,21491,,0.6 C,0,21491,,80,141,135 F,2,21491,21935,0.4,0
Sprite,Foreground,Centre,"sb\hl.png",465,183 S,0,21510,,0.6 C,0,21510,,80,141,135 F,2,21510,21935,0.4,0
Sprite,Foreground,Centre,"sb\hl.png",459,182 S,0,21528,,0.6 C,0,21528,,80,141,135 F,2,21528,21935,0.4,0
Sprite,Foreground,Centre,"sb\hl.png",454,182 S,0,21547,,0.6 C,0,21547,,80,141,135 F,2,21547,21935,0.4,0
Sprite,Foreground,Centre,"sb\hl.png",448,182 S,0,21566,,0.6 C,0,21566,,80,141,135 F,2,21566,21935,0.4,0
Sprite,Foreground,Centre,"sb\hl.png",443,182 S,0,21585,,0.6 C,0,21585,,80,141,135 F,2,21585,21935,0.4,0
Sprite,Foreground,Centre,"sb\hl.png",437,183 S,0,21603,,0.6 C,0,21603,,80,141,135 F,2,21603,21935,0.4,0
Sprite,Foreground,Centre,"sb\hl.png",432,184 S,0,21622,,0.6 C,0,21622,,80,141,135 F,2,21622,21935,0.4,0
Sprite,Foreground,Centre,"sb\hl.png",427,185 S,0,21641,,0.6 C,0,21641,,80,141,135 F,2,21641,21935,0.4,0
Sprite,Foreground,Centre,"sb\hl.png",421,187 S,0,21660,,0.6 C,0,21660,,80,141,135 F,2,21660,21935,0.4,0
Sprite,Foreground,Centre,"sb\hl.png",416,189 S,0,21678,,0.6 C,0,21678,,80,141,135 F,2,21678,21935,0.4,0
Sprite,Foreground,Centre,"sb\hl.png",411,190 S,0,21697,,0.6 C,0,21697,,80,141,135 F,2,21697,21935,0.4,0
Sprite,Foreground,Centre,"sb\hl.png",406,193 S,0,21716,,0.6 C,0,21716,,80,141,135 F,2,21716,21935,0.4,0
Sprite,Foreground,Centre,"sb\hl.png",352,239 S,0,21922,,0.6 C,0,21922,,80,141,135 F,2,21922,22122,1,0
Sprite,Foreground,Centre,"sb\hl.png",352,239 S,0,22110,,0.6 C,0,22110,,80,141,135 F,2,22110,22685,0.4,0
Sprite,Foreground,Centre,"sb\hl.png",347,240 S,0,22128,,0.6 C,0,22128,,80,141,135 F,2,22128,22685,0.4,0
Sprite,Foreground,Centre,"sb\hl.png",341,241 S,0,22147,,0.6 C,0,22147,,80,141,135 F,2,22147,22685,0.4,0
Sprite,Foreground,Centre,"sb\hl.png",336,241 S,0,22166,,0.6 C,0,22166,,80,141,135 F,2,22166,22685,0.4,0
Sprite,Foreground,Centre,"sb\hl.png",330,241 S,0,22185,,0.6 C,0,22185,,80,141,135 F,2,22185,22685,0.4,0
Sprite,Foreground,Centre,"sb\hl.png",325,241 S,0,22203,,0.6 C,0,22203,,80,141,135 F,2,22203,22685,0.4,0
Sprite,Foreground,Centre,"sb\hl.png",319,241 S,0,22222,,0.6 C,0,22222,,80,141,135 F,2,22222,22685,0.4,0
Sprite,Foreground,Centre,"sb\hl.png",314,240 S,0,22241,,0.6 C,0,22241,,80,141,135 F,2,22241,22685,0.4,0
Sprite,Foreground,Centre,"sb\hl.png",309,238 S,0,22260,,0.6 C,0,22260,,80,141,135 F,2,22260,22685,0.4,0
Sprite,Foreground,Centre,"sb\hl.png",303,237 S,0,22278,,0.6 C,0,22278,,80,141,135 F,2,22278,22685,0.4,0
Sprite,Foreground,Centre,"sb\hl.png",298,235 S,0,22297,,0.6 C,0,22297,,80,141,135 F,2,22297,22685,0.4,0
Sprite,Foreground,Centre,"sb\hl.png",293,233 S,0,22316,,0.6 C,0,22316,,80,141,135 F,2,22316,22685,0.4,0
Sprite,Foreground,Centre,"sb\hl.png",288,230 S,0,22335,,0.6 C,0,22335,,80,141,135 F,2,22335,22685,0.4,0
Sprite,Foreground,Centre,"sb\hl.png",284,227 S,0,22353,,0.6 C,0,22353,,80,141,135 F,2,22353,22685,0.4,0
Sprite,Foreground,Centre,"sb\hl.png",279,224 S,0,22372,,0.6 C,0,22372,,80,141,135 F,2,22372,22685,0.4,0
Sprite,Foreground,Centre,"sb\hl.png",274,221 S,0,22391,,0.6 C,0,22391,,80,141,135 F,2,22391,22685,0.4,0
Sprite,Foreground,Centre,"sb\hl.png",271,217 S,0,22410,,0.6 C,0,22410,,80,141,135 F,2,22410,22685,0.4,0
Sprite,Foreground,Centre,"sb\hl.png",267,213 S,0,22428,,0.6 C,0,22428,,80,141,135 F,2,22428,22685,0.4,0
Sprite,Foreground,Centre,"sb\hl.png",263,210 S,0,22447,,0.6 C,0,22447,,80,141,135 F,2,22447,22685,0.4,0
Sprite,Foreground,Centre,"sb\hl.png",260,205 S,0,22466,,0.6 C,0,22466,,80,141,135 F,2,22466,22685,0.4,0
//Storyboard Layer 4 (Overlay)
//Storyboard Sound Samples

[TimingPoints]
12360,375,4,2,1,50,1,0
22110,-100,4,2,1,50,0,0
22672,-100,4,2,1,50,0,0
22860,-100,4,1,7,40,0,0
24235,-100,4,1,1,50,0,0
24360,-100,4,1,5,60,0,0
24672,-100,4,1,5,5,0,0
24735,-100,4,1,5,60,0,0
25047,-100,4,1,5,5,0,0
25110,-100,4,1,5,60,0,0
29235,-100,4,1,5,60,0,0
29610,-100,4,1,5,60,0,0
29985,-100,4,1,5,5,0,0
30360,-100,4,1,5,60,0,0
35485,-100,4,1,5,60,0,0
35610,-100,4,1,3,60,0,0
36235,-100,4,1,3,5,0,0
36360,-100,4,1,5,50,0,0
37110,-100,4,1,5,60,0,0
37735,-100,4,1,5,5,0,0
37860,-100,4,1,5,60,0,0
38235,-100,4,1,5,5,0,0
38610,-100,4,1,5,60,0,0
41235,-100,4,1,5,60,0,0
41610,-100,4,1,5,60,0,0
41985,-100,4,1,5,60,0,0
46860,-100,4,2,1,35,0,0
47235,-100,4,2,1,35,0,0
47610,-100,4,2,1,35,0,0
47985,-100,4,2,1,35,0,0
48360,-100,4,1,3,45,0,0
50235,-100,4,1,3,60,0,0
50610,-100,4,1,3,60,0,0
51360,-100,4,1,3,60,0,0
53610,-100,4,1,5,60,0,0
53985,-100,4,1,5,5,0,0
54360,-100,4,1,3,60,0,0
59610,-100,4,1,5,60,0,0
60297,-100,4,1,5,5,0,0
60360,-100,4,1,3,60,0,0
60985,-100,4,1,3,5,0,0
61110,-100,4,1,3,60,0,0
70860,-100,4,1,7,40,0,0
72360,-100,4,2,3,45,0,0
78360,-100,4,2,7,60,0,0
82860,-100,4,1,7,50,0,0
83141,-100,4,2,5,50,0,0
83985,-100,4,2,5,50,0,0
84360,-100,4,1,9,35,0,0
87172,-100,4,1,9,35,0,0
89985,-100,4,1,9,5,0,0
90078,-100,4,1,9,35,0,0
96360,-100,4,1,9,45,0,0
97860,-100,4,1,9,40,0,0
99360,-100,4,1,9,35,0,0
103860,-100,4,1,9,40,0,0
105360,-100,4,1,9,45,0,0
106860,-100,4,1,9,50,0,0
108360,-100,4,1,1,50,0,0
110422,-100,4,1,1,40,0,0
111360,-100,4,1,1,60,0,0
119610,-100,4,1,1,60,0,0
120360,-100,4,1,1,60,0,0
127110,-100,4,1,1,55,0,0
127860,-100,4,1,1,45,0,0
128610,-100,4,1,1,35,0,0
129360,-100,4,2,1,30,0,0
130110,-100,4,2,1,35,0,0
130485,-100,4,2,1,40,0,0
130860,-100,4,2,1,45,0,0
131235,-100,4,2,1,50,0,0
131610,-100,4,2,1,55,0,0
132360,-100,4,1,1,60,0,0
142860,-100,4,1,7,60,0,0
143985,-100,4,1,1,60,0,0
144360,-100,4,1,1,60,0,0
154860,-100,4,2,3,45,0,0
155235,-100,4,2,7,35,0,0
155610,-100,4,2,1,40,0,0
155985,-100,4,2,1,50,0,0
156360,-100,4,1,1,70,0,1
166860,-100,4,1,7,70,0,1
167985,-100,4,1,1,70,0,1
168360,-100,4,1,1,80,0,1
172860,-100,4,1,1,80,0,1
174360,-100,4,1,1,80,0,1
177360,-100,4,2,1,80,0,1
177547,-100,4,2,1,80,0,1
177735,-100,4,2,1,80,0,1
177922,-100,4,2,1,80,0,1
178110,-100,4,2,1,75,0,1
178297,-100,4,2,1,75,0,1
178485,-100,4,2,1,75,0,1
178672,-100,4,2,1,75,0,1
178860,-100,4,2,1,70,0,1
179047,-100,4,2,1,70,0,1
179235,-100,4,2,1,70,0,1
179422,-100,4,2,1,70,0,1
179610,-100,4,2,1,60,0,1
179797,-100,4,2,1,60,0,1
179985,-100,4,2,1,60,0,1
180172,-100,4,2,1,60,0,1
180360,-100,4,2,1,50,0,0
181110,-100,4,2,1,40,0,0
181860,-100,4,2,1,35,0,0
182610,-100,4,2,1,30,0,0
183360,-100,4,2,1,25,0,0
184110,-100,4,2,1,20,0,0
184860,-100,4,2,1,15,0,0
185610,-100,4,2,1,10,0,0
186360,-100,4,2,1,5,0,0

[Colours]
Combo1 : 186,31,31
Combo2 : 82,120,190
Combo3 : 37,185,239
Combo4 : 14,126,70
Combo5 : 65,99,109
Combo6 : 128,0,255
Combo7 : 164,32,240
Combo8 : 191,148,15

[HitObjects]
503,98,12360,6,0,P|453:84|384:96,1,110,2|8,3:2|0:0,0:0:0:0:
344,132,12922,2,0,P|293:110|220:125,1,110,2|8,3:2|0:0,0:0:0:0:
176,98,13485,2,0,B|198:126|198:126|181:204,1,110,2|8,3:2|0:0,0:0:0:0:
165,262,14047,1,2,3:2:0:0:
267,355,14422,1,8,0:0:0:0:
267,355,14610,2,0,B|306:364|306:364|355:352,2,82.4999999999999,2|2|2,3:2|3:2|3:2,0:0:0:0:
204,375,15360,6,0,P|165:356|94:354,1,110,2|8,3:2|0:0,0:0:0:0:
33,358,15922,2,0,P|53:319|57:248,1,110,2|8,3:2|0:0,0:0:0:0:
28,195,16485,2,0,B|7:160|7:160|17:83,1,110,2|8,3:2|0:0,0:0:0:0:
26,26,17047,1,2,3:2:0:0:
150,85,17422,1,8,0:0:0:0:
150,85,17610,2,0,B|189:74|189:74|237:83,2,82.5,2|2|2,3:2|3:2|3:2,0:0:0:0:
136,150,18360,6,0,B|141:258,1,110,2|8,3:2|0:0,0:0:0:0:
218,367,19110,1,2,0:0:0:0:
317,280,19485,2,0,P|348:257|426:256,1,110,2|8,3:2|0:0,0:0:0:0:
488,265,20047,1,2,3:2:0:0:
488,265,20235,2,0,B|493:383,2,110,2|2|8,0:0|3:2|0:0,0:0:0:0:
442,141,21360,6,0,P|393:126|334:141,1,110,2|8,3:2|0:0,0:0:0:0:
288,183,21922,1,2,3:2:0:0:
288,183,22110,2,0,P|239:181|183:125,1,110,2|2,0:0|3:2,0:0:0:0:
62,122,22860,1,4,0:0:0:0:
80,253,23235,2,0,B|64:291|64:291|77:317|77:317|63:363,2,110,8|8|8,0:3|0:3|0:3,0:0:0:0:
201,305,24360,69,4,0:0:0:0:
311,232,24735,1,2,0:0:0:0:
422,304,25110,2,0,P|441:253|438:198,1,110,8|0,0:0|0:0,0:0:0:0:
369,85,25860,1,0,3:0:0:0:
241,120,26235,2,0,L|147:124,1,73.3333333333333,0|0,0:0|3:0,0:0:0:0:
129,102,26610,2,0,P|145:160|134:220,1,110,8|0,0:0|0:0,0:0:0:0:
79,327,27360,5,0,3:0:0:0:
209,344,27735,2,0,L|304:355,1,73.3333333333333,0|0,0:0|3:0,0:0:0:0:
318,327,28110,2,0,P|378:350|452:337,2,110,8|0|0,0:0|0:0|3:0,0:0:0:0:
394,219,29235,2,0,L|415:116,1,73.3333333333333
419,103,29610,1,8,0:0:0:0:
178,211,30360,6,0,B|146:212|123:197|123:197|107:225|82:240,1,110
31,356,31110,2,0,P|83:369|137:357,2,110,8|0|0,0:0|0:0|3:0,0:0:0:0:
12,225,32235,2,0,L|24:142,1,73.3333333333333,0|0,0:0|3:0,0:0:0:0:
43,113,32610,2,0,B|47:72|27:32|27:32|49:23|65:47,1,110,8|0,0:0|0:0,0:0:0:0:
175,79,33360,5,0,3:0:0:0:
306,68,33735,2,0,L|400:56,1,73.3333333333333,0|0,0:0|3:0,0:0:0:0:
418,39,34110,2,0,B|402:79|402:79|418:160,1,110,8|0,0:0|0:0,0:0:0:0:
497,247,34860,1,0,3:0:0:0:
368,277,35235,2,0,P|318:305|303:333,1,73.3333333333333,0|0,0:0|3:0,0:0:0:0:
297,360,35610,1,8,0:0:0:0:
43,285,36360,70,0,P|36:230|38:175,1,110
0,49,37110,2,0,B|56:26|119:53|77:54|141:79|216:54,1,220,8|0,0:0|3:0,0:0:0:0:
391,250,38610,6,0,P|432:240|504:263,2,110,8|0|0,0:0|0:0|3:0,0:0:0:0:
301,347,39735,2,0,L|213:346,1,73.3333333333333,0|0,0:0|3:0,0:0:0:0:
190,370,40110,2,0,P|148:379|76:356,1,110,8|0,0:0|0:0,0:0:0:0:
8,253,40860,1,0,3:0:0:0:
88,148,41235,2,0,P|124:138|160:143,1,73.3333333333333,0|0,0:0|3:0,0:0:0:0:
198,165,41610,1,8,0:0:0:0:
283,64,41985,1,0,0:0:0:0:
414,61,42360,6,0,L|432:180,1,110
393,296,43110,2,0,P|444:312|498:303,2,110,8|0|0,0:0|0:0|3:0,0:0:0:0:
290,213,44235,2,0,L|297:129,1,73.3333333333333,0|0,0:0|3:0,0:0:0:0:
320,102,44610,1,8,0:0:0:0:
192,66,44985,1,0,0:0:0:0:
94,153,45360,6,0,P|108:203|103:269,1,110,0|0,3:0|0:0,0:0:0:0:
219,327,46110,2,0,P|203:275|208:209,1,110,8|0,0:0|0:0,0:0:0:0:
291,118,46860,2,0,B|349:97|349:97|415:131|415:131|464:162|441:240|383:263|330:213,1,330,0|8,3:2|0:0,0:0:0:0:
278,338,48360,70,0,P|383:361|491:336,2,220
147,360,50235,5,4,3:0:0:0:
70,252,50610,1,8,0:0:0:0:
140,140,50985,2,0,L|246:141,1,73.3333333333333,0|0,3:0|0:0,0:0:0:0:
249,166,51360,2,0,P|238:111|249:57,1,110,0|0,3:0|3:0,0:0:0:0:
369,113,52110,1,8,0:0:0:0:
434,227,52485,2,0,L|423:308,1,73.3333333333333
440,340,52860,2,0,P|376:322|303:330,1,110,0|0,0:0|3:0,0:0:0:0:
213,379,53610,1,8,0:0:0:0:
23,194,54360,6,0,P|17:139|21:77,1,110
122,1,55110,1,8,0:0:0:0:
161,126,55485,1,0,3:0:0:0:
274,58,55860,2,0,L|391:62,1,110,0|0,3:0|3:0,0:0:0:0:
449,176,56610,1,8,0:0:0:0:
394,296,56985,1,0,3:0:0:0:
282,367,57360,6,0,P|261:301|271:246,1,110,0|0,3:0|3:0,0:0:0:0:
352,161,58110,2,0,B|294:162|294:162|235:130,2,110,8|0|0,0:0|0:0|3:0,0:0:0:0:
434,57,59235,2,0,L|349:60,1,73.3333333333333,0|0,0:0|3:0,0:0:0:0:
316,62,59610,1,8,0:0:0:0:
89,196,60360,69,0,0:0:0:0:
292,363,61110,2,0,P|319:312|326:246,1,110,0|0,3:0|3:0,0:0:0:0:
428,175,61860,2,0,P|398:144|354:124,1,73.3333333333333,0|0,3:0|0:0,0:0:0:0:
332,109,62235,2,0,P|291:120|243:115,1,73.3333333333333,0|0,3:0|0:0,0:0:0:0:
221,98,62610,1,8,0:0:0:0:
107,31,62985,1,0,3:0:0:0:
45,147,63360,6,0,P|72:194|82:264,1,110,0|0,3:0|3:0,0:0:0:0:
41,373,64110,1,8,0:0:0:0:
169,344,64485,2,0,B|222:330|222:330|275:345,2,110,0|0|0,3:0|3:0|0:0,0:0:0:0:
223,223,65610,1,8,0:0:0:0:
223,223,67110,5,8,0:0:0:0:
185,96,67485,1,0,3:0:0:0:
305,149,67860,2,0,P|340:159|388:155,1,73.3333333333333,0|0,3:0|0:0,0:0:0:0:
407,126,68235,2,0,P|443:124|478:135,1,73.3333333333333,0|0,3:0|0:0,0:0:0:0:
510,166,68610,1,8,0:0:0:0:
421,263,68985,6,0,L|427:380,1,110,0|0,3:0|3:0,0:0:0:0:
303,325,69735,2,0,P|263:313|213:321,1,73.3333333333333,0|0,3:0|3:0,0:0:0:0:
192,334,70110,1,8,0:0:0:0:
243,212,70485,1,0,3:0:0:0:
189,91,70860,69,4,0:0:0:0:
105,193,71235,2,0,B|91:235|91:235|106:260|106:260|92:310,2,110,8|8|8,0:3|0:3|0:3,0:0:0:0:
3,119,72360,6,0,P|58:79|208:100,1,220,10|10,0:0|0:0,0:0:0:0:
274,206,73485,1,10,0:0:0:0:
392,263,73860,2,0,P|379:200|384:135,1,110,10|10,0:0|0:0,0:0:0:0:
463,51,74610,1,10,0:0:0:0:
339,5,74985,1,10,0:0:0:0:
237,89,75360,6,0,B|161:103|161:103|95:67|95:67|24:80,1,220,10|10,0:0|0:0,0:0:0:0:
1,208,76485,1,10,0:0:0:0:
36,335,76860,2,0,P|106:349|160:337,1,110,10|10,0:0|0:0,0:0:0:0:
246,260,77610,1,10,0:0:0:0:
338,354,77985,1,10,0:0:0:0:
440,270,78360,6,0,B|470:210|470:210|452:91,1,165,8|8,0:0|0:0,0:0:0:0:
408,66,79110,2,0,L|296:84,1,110,8|0,0:0|0:0,0:0:0:0:
182,21,79860,2,0,B|160:79|160:79|174:131|174:131|152:190,1,165,8|8,0:0|0:0,0:0:0:0:
126,235,80610,2,0,L|233:264,1,110,8|0,0:0|0:0,0:0:0:0:
316,365,81360,70,0,B|372:343|440:360|440:360|421:338|419:313,1,165,8|8,0:0|0:0,0:0:0:0:
446,265,82110,2,0,B|463:219|441:168|441:203|420:150|441:91,1,165,8|8,0:0|0:0,0:0:0:0:
459,41,82860,1,6,0:0:0:0:
459,41,84360,6,0,L|332:46,1,110,0|0,3:0|3:1,0:0:0:0:
306,170,85110,2,0,L|421:175,1,110,0|0,3:0|3:0,0:0:0:0:
468,295,85860,2,0,L|353:300,1,110,0|0,3:0|3:0,0:0:0:0:
243,365,86610,1,0,3:0:0:0:
153,268,86985,2,0,L|146:213,1,55,0|0,3:0|0:0,0:0:0:0:
151,147,87360,6,0,P|98:158|33:143,1,110,0|0,3:0|3:0,0:0:0:0:
98,27,88110,2,0,P|150:16|215:30,1,110,0|0,3:0|3:0,0:0:0:0:
323,86,88860,1,0,3:0:0:0:
435,16,89235,1,0,3:0:0:0:
456,146,89610,2,0,L|470:242,2,82.5,0|0|0,3:0|3:0|3:0,0:0:0:0:
409,193,90360,6,0,B|372:211|372:211|288:202,1,110,0|0,3:0|3:0,0:0:0:0:
196,127,91110,2,0,B|165:99|165:99|80:87,1,110,0|0,3:0|3:0,0:0:0:0:
3,182,91860,2,0,B|32:208|32:208|117:220,1,110,0|0,3:0|3:0,0:0:0:0:
233,238,92610,1,0,3:0:0:0:
316,340,92985,2,0,L|390:349,1,55,0|0,3:0|0:0,0:0:0:0:
433,367,93360,70,0,P|445:319|442:256,1,110,0|0,3:0|3:0,0:0:0:0:
493,137,94110,2,0,P|438:142|384:132,1,110,0|0,3:0|3:0,0:0:0:0:
283,47,94860,1,0,3:0:0:0:
260,177,95235,1,0,3:0:0:0:
130,151,95610,1,0,3:0:0:0:
152,20,95985,2,0,L|85:23,1,55,0|0,3:0|0:0,0:0:0:0:
31,31,96360,6,0,B|49:73|49:73|39:139,1,110,2|2,3:1|3:1,0:0:0:0:
30,205,96922,1,2,0:1:0:0:
30,205,97110,2,0,B|20:266|20:266|38:309,1,110,2|2,3:1|3:1,0:0:0:0:
166,344,97860,6,0,P|212:330|277:334,1,110,2|0,3:1|3:0,0:0:0:0:
339,362,98422,1,8,0:2:0:0:
339,362,98610,1,0,3:0:0:0:
469,379,98985,2,0,L|479:325,1,55,0|8,3:0|0:2,0:0:0:0:
451,264,99360,6,0,P|434:217|451:158,1,110,0|0,3:0|3:0,0:0:0:0:
491,109,99922,1,8,0:2:0:0:
491,109,100110,2,0,P|506:56|491:4,1,110,0|0,3:0|3:0,0:0:0:0:
374,65,100860,70,0,L|261:74,1,110,0|0,3:0|3:0,0:0:0:0:
144,129,101610,2,0,B|153:86|153:86|136:52,2,82.5,0|0|8,3:0|3:0|3:2,0:0:0:0:
110,185,102360,6,0,P|137:207|160:286,1,110,0|0,3:0|3:0,0:0:0:0:
121,328,102922,1,8,0:2:0:0:
121,328,103110,2,0,P|156:332|214:389,1,110,0|0,3:0|3:0,0:0:0:0:
338,346,103860,6,0,L|355:234,1,110,0|0,3:0|3:0,0:0:0:0:
331,182,104422,1,8,0:2:0:0:
331,182,104610,2,0,L|348:70,1,110,0|0,3:0|3:0,0:0:0:0:
229,13,105360,6,0,L|112:23,1,110,0|0,3:0|3:0,0:0:0:0:
33,122,106110,1,0,3:0:0:0:
164,132,106485,1,0,3:0:0:0:
229,246,106860,2,0,L|112:256,1,110,0|0,3:0|3:0,0:0:0:0:
43,363,107610,1,0,3:0:0:0:
174,378,107985,1,0,3:0:0:0:
300,341,108360,70,0,B|357:337|404:369|404:369|385:335|388:302,1,165,2|2,0:0|0:0,0:0:0:0:
425,263,109110,2,0,P|443:230|355:180,1,165,2|2,0:0|0:0,0:0:0:0:
309,222,109860,2,0,B|247:217|247:217|211:193|211:193|147:194,1,165,2|2,0:0|0:0,0:0:0:0:
99,234,110610,1,2,0:0:0:0:
20,29,111360,6,0,B|73:17|73:17|128:25,1,110,2|8,3:1|3:0,0:0:0:0:
197,40,111922,1,2,0:0:0:0:
197,40,112109,2,0,L|252:49,2,55,2|0|8,3:1|0:0|3:0,0:0:0:0:
219,170,112860,6,0,P|242:214|246:286,1,110,2|8,3:1|3:0,0:0:0:0:
230,340,113422,1,2,0:0:0:0:
230,340,113610,1,2,3:1:0:0:
365,312,113985,1,10,3:1:0:0:
365,312,114172,1,2,0:0:0:0:
365,312,114360,6,0,P|419:323|474:314,1,110,2|8,3:1|3:0,0:0:0:0:
496,252,114922,1,2,0:0:0:0:
496,252,115110,2,0,L|489:178,2,55,2|0|8,3:1|0:0|3:0,0:0:0:0:
376,194,115860,70,0,P|321:188|266:193,1,110,2|8,3:1|3:0,0:0:0:0:
207,217,116423,1,2,0:0:0:0:
207,217,116611,2,0,L|197:162,2,55,2|0|8,3:1|0:0|3:0,0:0:0:0:
78,246,117360,6,0,P|52:200|46:141,1,110,2|8,3:1|3:0,0:0:0:0:
76,87,117923,1,2,0:0:0:0:
76,87,118110,2,0,L|130:96,2,55,2|0|8,3:1|0:0|3:0,0:0:0:0:
191,21,118860,6,0,L|309:35,1,110,2|8,3:1|3:0,0:0:0:0:
360,74,119422,1,2,0:0:0:0:
360,74,119610,2,0,P|348:103|348:140,1,55,2|2,3:1|0:0,0:0:0:0:
355,192,119985,1,10,3:0:0:0:
397,316,120360,6,0,B|356:307|356:307|263:322,1,110,2|8,3:1|3:0,0:0:0:0:
230,347,120922,1,2,0:0:0:0:
230,347,121110,2,0,B|155:359,2,55,2|0|8,3:1|0:0|3:0,0:0:0:0:
121,272,121860,70,0,P|104:217|110:157,1,110,2|8,3:1|3:0,0:0:0:0:
135,108,122422,1,2,0:0:0:0:
135,108,122610,2,0,L|198:126,1,55,2|0,3:1|0:0,0:0:0:0:
249,148,122985,1,8,3:0:0:0:
331,44,123360,6,0,B|355:35|390:45|369:46|404:57|439:46,1,110,2|8,3:1|3:0,0:0:0:0:
506,71,123922,1,2,0:0:0:0:
506,71,124110,2,0,L|504:-7,2,55,2|0|8,3:1|0:0|3:0,0:0:0:0:
464,196,124860,6,0,L|339:203,1,110,2|8,3:1|3:0,0:0:0:0:
299,236,125422,1,2,0:0:0:0:
299,236,125610,2,0,P|290:266|289:297,1,55,2|2,3:1|0:0,0:0:0:0:
293,356,125985,1,10,3:1:0:0:
192,271,126360,6,0,P|132:265|78:277,1,110,10|8,3:1|3:0,0:0:0:0:
30,311,126922,1,2,0:0:0:0:
30,311,127110,2,0,P|6:254|7:192,1,110,10|8,3:1|3:0,0:0:0:0:
88,104,127860,70,0,P|137:119|212:112,1,110,10|8,3:1|3:0,0:0:0:0:
248,76,128422,1,2,0:0:0:0:
248,76,128610,2,0,P|307:61|365:64,1,110,10|8,3:1|3:0,0:0:0:0:
413,96,129172,1,2,0:0:0:0:
256,192,129360,12,2,130860,0:0:0:0:
424,123,132360,6,0,L|300:109,1,110,0|8,3:1|3:1,0:0:0:0:
257,137,132922,1,0,0:0:0:0:
257,137,133110,2,0,L|195:130,1,55,0|0,3:0|0:0,0:0:0:0:
146,95,133485,1,8,3:1:0:0:
34,167,133860,6,0,P|49:213|46:257,1,73.3333333333333,0|0,3:0|0:0,0:0:0:0:
45,281,134235,1,8,3:1:0:0:
153,356,134610,2,0,P|150:307|164:265,1,73.3333333333333,0|0,3:0|0:0,0:0:0:0:
174,243,134985,1,8,3:1:0:0:
274,328,135360,6,0,B|310:332|310:332|352:324|352:324|393:330,1,110,0|8,3:0|3:1,0:0:0:0:
451,347,135922,1,0,0:0:0:0:
451,347,136110,2,0,L|462:292,1,55,0|0,3:0|0:0,0:0:0:0:
469,227,136485,1,8,3:1:0:0:
498,98,136860,70,0,P|447:114|402:99,1,73.3333333333333,0|0,3:0|0:0,0:0:0:0:
386,95,137235,1,8,3:1:0:0:
254,96,137610,2,0,P|292:129|302:176,1,73.3333333333333,0|0,3:0|0:0,0:0:0:0:
306,193,137985,1,8,3:1:0:0:
358,314,138360,6,0,B|320:305|320:305|224:319,1,110,0|8,3:0|3:1,0:0:0:0:
204,362,138922,1,0,0:0:0:0:
204,362,139110,2,0,L|144:346,1,55,0|0,3:0|0:0,0:0:0:0:
86,364,139485,1,8,3:1:0:0:
13,253,139860,6,0,P|33:214|27:153,1,73.3333333333333,0|0,3:0|0:0,0:0:0:0:
24,142,140235,1,8,3:1:0:0:
18,10,140610,2,0,P|55:30|117:24,1,73.3333333333333,0|0,3:0|0:0,0:0:0:0:
129,23,140985,1,8,3:1:0:0:
245,84,141360,6,0,B|330:74|330:74|354:108,1,110,0|8,3:0|3:1,0:0:0:0:
358,163,141922,1,0,0:0:0:0:
358,163,142110,2,0,B|341:234,1,55,0|0,3:0|0:0,0:0:0:0:
331,281,142485,1,8,3:1:0:0:
202,261,142860,70,0,P|155:233|87:247,2,110,8|8|8,3:0|3:0|3:0,0:0:0:0:
125,368,143985,1,8,3:1:0:0:
11,301,144360,6,0,P|-8:242|5:189,1,110,2|8,3:1|3:1,0:0:0:0:
35,141,144922,1,2,0:0:0:0:
35,141,145110,2,0,L|20:70,1,55,2|0,3:1|0:0,0:0:0:0:
10,22,145485,1,8,3:1:0:0:
135,63,145860,6,0,B|186:78|186:78|232:68,1,73.3333333333333,0|0,3:1|0:0,0:0:0:0:
247,58,146235,1,8,3:1:0:0:
372,17,146610,2,0,B|358:64|358:64|370:117,1,73.3333333333333,0|0,3:1|0:0,0:0:0:0:
377,129,146985,1,8,3:1:0:0:
431,241,147360,6,0,P|380:232|323:255,1,110,2|8,3:1|3:1,0:0:0:0:
287,306,147922,1,2,0:0:0:0:
287,306,148110,2,0,L|216:320,1,55,2|0,3:1|0:0,0:0:0:0:
167,325,148485,1,8,3:1:0:0:
183,194,148860,70,0,B|191:166|191:166|183:138|183:138|190:113,1,73.3333333333333,0|0,3:1|0:0,0:0:0:0:
197,80,149235,1,8,3:1:0:0:
66,57,149610,2,0,B|74:83|74:83|66:111|66:111|73:137,1,73.3333333333333,0|0,3:1|0:0,0:0:0:0:
81,171,149985,1,8,3:1:0:0:
3,277,150360,6,0,P|44:299|109:301,1,110,2|8,3:1|3:1,0:0:0:0:
167,271,150922,1,2,0:0:0:0:
167,271,151110,2,0,L|196:338,1,55,2|0,3:1|0:0,0:0:0:0:
245,355,151485,1,8,3:1:0:0:
315,243,151860,6,0,L|405:238,1,73.3333333333333,0|0,3:1|0:0,0:0:0:0:
432,236,152235,1,8,3:1:0:0:
512,138,152610,2,0,L|421:133,1,73.3333333333333,0|0,3:1|0:0,0:0:0:0:
394,133,152985,1,8,3:1:0:0:
256,192,153360,12,8,154860,0:1:0:0:
55,78,156360,6,0,P|109:88|160:127,1,110,2|8,3:1|3:1,0:0:0:0:
188,182,156922,1,0,0:0:0:0:
188,182,157110,2,0,L|259:182,1,55,2|0,3:1|0:0,0:0:0:0:
305,204,157485,2,0,L|359:158,1,55,8|0,3:1|0:0,0:0:0:0:
370,106,157860,70,0,P|411:89|485:112,1,110,2|8,3:1|3:1,0:0:0:0:
495,171,158422,1,0,0:0:0:0:
495,171,158610,2,0,L|504:239,2,55,2|0|8,3:1|0:0|3:1,0:0:0:0:
404,267,159360,6,0,P|366:306|306:324,1,110,2|8,3:1|3:1,0:0:0:0:
255,344,159922,1,0,0:0:0:0:
255,344,160110,2,0,L|199:328,1,55,2|0,3:1|0:0,0:0:0:0:
155,283,160485,2,0,L|99:299,1,55,8|0,3:1|0:0,0:0:0:0:
48,336,160860,6,0,P|62:281|64:224,1,110,2|8,3:1|3:1,0:0:0:0:
58,167,161422,1,0,0:0:0:0:
58,167,161610,2,0,L|-2:175,2,55,2|0|8,3:1|0:0|3:1,0:0:0:0:
11,44,162360,6,0,B|52:28|52:28|132:38,1,110,2|8,3:1|3:1,0:0:0:0:
176,80,162922,1,0,0:0:0:0:
176,80,163110,2,0,B|236:88,1,55,2|0,3:1|0:0,0:0:0:0:
289,56,163485,2,0,B|330:101,1,55,8|0,3:1|0:0,0:0:0:0:
320,162,163860,70,0,B|303:215|303:215|318:266,1,110,2|8,3:1|3:1,0:0:0:0:
385,294,164422,1,0,0:0:0:0:
385,294,164610,2,0,L|444:299,2,55,2|0|8,3:1|0:0|3:1,0:0:0:0:
269,369,165360,6,0,P|217:352|156:353,1,110,0|8,3:1|3:1,0:0:0:0:
31,333,166110,2,0,P|81:300|118:255,1,110,0|8,3:1|3:1,0:0:0:0:
191,156,166860,5,8,3:0:0:0:
83,79,167235,1,8,3:0:0:0:
6,186,167610,1,8,3:0:0:0:
113,263,167985,1,8,3:1:0:0:
177,148,168360,6,0,B|246:132|246:132|290:122,1,110,2|8,3:1|3:1,0:0:0:0:
351,107,168922,1,2,0:0:0:0:
351,107,169110,2,0,B|329:175,1,55,2|0,3:1|0:0,0:0:0:0:
339,225,169485,2,0,B|317:293,1,55,8|2,3:1|0:0,0:0:0:0:
332,342,169860,70,0,P|372:367|438:354,1,110,2|8,3:1|3:1,0:0:0:0:
474,308,170422,1,2,0:0:0:0:
474,308,170610,2,0,B|488:262|488:262|488:196,1,110,2|8,3:1|3:1,0:0:0:0:
494,68,171360,6,0,B|452:75|452:75|426:60|426:60|382:68,1,110,2|8,3:1|3:1,0:0:0:0:
334,100,171922,1,2,0:0:0:0:
334,100,172110,2,0,L|261:112,1,55,2|0,3:1|0:0,0:0:0:0:
217,85,172485,2,0,L|168:141,1,55,8|2,3:1|0:0,0:0:0:0:
168,191,172860,6,0,P|134:145|76:120,2,110,8|8|8,3:1|3:1|3:1,0:0:0:0:
49,248,173985,2,0,L|13:297,1,55,8|8,3:1|0:0,0:0:0:0:
17,358,174360,6,0,P|52:355|127:381,1,110,2|8,3:1|3:1,0:0:0:0:
192,374,174922,1,2,0:0:0:0:
192,374,175110,2,0,L|261:370,1,55,2|0,3:1|0:0,0:0:0:0:
301,333,175485,1,8,3:1:0:0:
427,370,175860,70,0,P|447:334|456:265,1,110,2|8,3:1|3:1,0:0:0:0:
417,220,176422,1,2,0:0:0:0:
417,220,176610,2,0,L|349:233,1,55,2|0,3:1|0:0,0:0:0:0:
306,197,176985,2,0,L|238:210,1,55,8|2,3:1|0:0,0:0:0:0:
200,249,177360,6,0,P|140:265|80:230,1,110,2|2,3:2|3:2,0:0:0:0:
63,119,178110,1,2,3:2:0:0:
150,20,178485,1,2,3:2:0:0:
232,123,178860,6,0,L|343:136,1,110,2|2,3:2|3:2,0:0:0:0:
452,64,179610,1,2,3:2:0:0:
489,190,179985,1,2,3:2:0:0:
418,301,180360,5,6,3:3:0:0:
256,192,180453,12,0,186360,0:0:0:0:
