osu file format v14

[General]
AudioFilename: audio.mp3
AudioLeadIn: 0
PreviewTime: 55239
Countdown: 0
SampleSet: Soft
StackLeniency: 0.6
Mode: 0
LetterboxInBreaks: 0
EpilepsyWarning: 1
WidescreenStoryboard: 1

[Editor]
Bookmarks: 216210,262153
DistanceSpacing: 2.6
BeatDivisor: 4
GridSize: 16
TimelineZoom: 4.000004

[Metadata]
Title:Empyrean
TitleUnicode:Empyrean
Artist:meganeko
ArtistUnicode:meganeko
Creator:DTM9 Nowa
Version:Heaven
Source:
Tags:Featured Artist fa osu! mappers' guild mpg Instrumental Electronic Drum and bass dnb Technokinesis
BeatmapID:2526538
BeatmapSetID:1213896

[Difficulty]
HPDrainRate:5
CircleSize:4
OverallDifficulty:8.5
ApproachRate:9
SliderMultiplier:1.6
SliderTickRate:1

[Events]
//Background and Video events
0,0,"Empyreanbg.jpg",0,0
//Break Periods
2,146124,148410
//Storyboard Layer 0 (Background)
//Storyboard Layer 1 (Fail)
//Storyboard Layer 2 (Pass)
//Storyboard Layer 3 (Foreground)
//Storyboard Layer 4 (Overlay)
//Storyboard Sound Samples

[TimingPoints]
896,342.857142857143,4,2,1,40,1,0
896,-200,4,2,1,40,0,0
9124,-133.333333333333,4,2,1,50,0,0
10153,-133.333333333333,4,2,1,50,0,0
10838,-133.333333333333,4,2,1,60,0,0
11867,-100,4,2,1,70,0,0
12124,-100,4,2,1,70,0,0
12210,-100,4,2,1,60,0,0
33810,-76.9230769230769,4,2,1,70,0,0
34153,-100,4,2,1,70,0,0
50096,-100,4,2,1,70,0,0
50267,-62.5,4,2,1,70,0,0
50353,-62.5,4,2,1,70,0,0
51638,-250,4,2,1,50,0,0
51981,-250,4,2,1,10,0,0
52324,-250,4,2,1,50,0,0
52667,-250,4,2,1,10,0,0
53010,-250,4,2,1,50,0,0
54896,-133.333333333333,4,2,1,50,0,0
55238,-200,4,2,1,60,0,0
55581,-66.6666666666667,4,2,1,50,0,0
55753,-66.6666666666667,4,2,1,70,0,0
56267,-100,4,2,1,70,0,0
59867,-133.333333333333,4,2,1,70,0,0
61238,-66.6666666666667,4,2,1,70,0,0
61752,-100,4,2,1,70,0,0
65352,-133.333333333333,4,2,1,70,0,0
66038,-100,4,2,1,60,0,0
66724,-66.6666666666667,4,2,1,70,0,0
67238,-100,4,2,1,70,0,0
71867,-133.333333333333,4,2,1,70,0,0
72209,-66.6666666666667,4,2,1,70,0,0
72723,-100,4,2,1,70,0,0
75296,-66.6666666666667,4,2,1,70,0,0
75981,-100,4,2,1,70,0,0
76323,-133.333333333333,4,2,1,70,0,0
77009,-100,4,2,1,70,0,0
77353,-66.6666666666667,4,2,1,60,0,0
77696,-66.6666666666667,4,2,1,80,0,1
78210,-100,4,2,1,80,0,1
83181,-66.6666666666667,4,2,1,80,0,1
83695,-100,4,2,1,80,0,1
87981,-100,4,2,1,65,0,1
88667,-66.6666666666667,4,2,1,80,0,1
89181,-100,4,2,1,80,0,1
94153,-66.6666666666667,4,2,1,80,0,1
94667,-100,4,2,1,80,0,1
98096,-66.6666666666667,4,2,1,80,0,1
98267,-100,4,2,1,60,0,0
99638,-100,4,2,1,70,0,0
140781,-133.333333333333,4,2,1,70,0,0
149010,-133.333333333333,4,2,1,40,0,0
149867,-222.222222222221,4,2,1,40,0,0
150381,-133.333333333333,4,2,1,40,0,0
164096,-285.714285714284,4,2,1,40,0,0
165467,-100,4,2,1,50,0,0
166667,-133.333333333333,4,2,1,50,0,0
168038,-100,4,2,1,50,0,0
168553,-142.857142857143,4,2,1,50,0,0
173696,-500.000000000003,4,2,1,50,0,0
176438,-100,4,2,1,50,0,0
177638,-142.857142857143,4,2,1,50,0,0
179010,-100,4,2,1,50,0,0
179524,-166.666666666667,4,2,1,50,0,0
183124,-500.000000000003,4,2,1,50,0,0
184667,-142.857142857143,4,2,1,50,0,0
185353,-142.857142857143,4,2,1,55,0,0
186038,-142.857142857143,4,2,1,60,0,0
186724,-142.857142857143,4,2,1,65,0,0
187410,-83.3333333333333,4,2,1,70,0,0
187753,-100,4,2,1,70,0,0
203181,-100,4,2,1,60,0,0
203524,-100,4,2,1,50,0,0
203696,-100,4,2,1,45,0,0
203867,-100,4,2,1,45,0,0
208153,-100,4,2,1,50,0,0
209181,-66.6666666666667,4,2,1,85,0,0
209353,-55.5555555555556,4,2,1,85,0,0
209696,-100,4,2,1,70,0,0
214496,-133.333333333333,4,2,1,70,0,0
214838,-66.6666666666667,4,2,1,70,0,0
215352,-100,4,2,1,70,0,0
218952,-133.333333333333,4,2,1,70,0,0
219638,-100,4,2,1,60,0,0
220324,-66.6666666666667,4,2,1,70,0,0
220838,-100,4,2,1,70,0,0
225467,-133.333333333333,4,2,1,70,0,0
225809,-66.6666666666667,4,2,1,70,0,0
226323,-100,4,2,1,70,0,0
228896,-66.6666666666667,4,2,1,70,0,0
229581,-100,4,2,1,70,0,0
229923,-133.333333333333,4,2,1,70,0,0
230609,-100,4,2,1,70,0,0
230953,-66.6666666666667,4,2,1,60,0,0
231296,-66.6666666666667,4,2,1,80,0,1
231810,-100,4,2,1,80,0,1
236781,-66.6666666666667,4,2,1,80,0,1
237295,-100,4,2,1,80,0,1
242267,-66.6666666666667,4,2,1,80,0,1
242781,-100,4,2,1,80,0,1
247753,-66.6666666666667,4,2,1,80,0,1
248267,-100,4,2,1,80,0,1
251696,-66.6666666666667,4,2,1,80,0,1
251867,-100,4,2,1,60,0,0
253238,-66.6666666666667,4,2,1,70,0,0
253581,-166.666666666667,4,2,1,70,0,0
254096,-83.3333333333333,4,2,1,70,0,0
255124,-133.333333333333,4,2,1,70,0,0
255639,-83.3333333333333,4,2,1,70,0,0
256324,-100,4,2,1,70,0,0
257181,-83.3333333333333,4,2,1,70,0,0
259067,-133.333333333333,4,2,1,70,0,0
259581,-83.3333333333333,4,2,1,70,0,0
261810,-166.666666666667,4,2,1,70,0,0
262324,-83.3333333333333,4,2,1,70,0,0
264553,-166.666666666667,4,2,1,70,0,0
265067,-100,4,2,1,70,0,0
266095,-133.333333333333,4,2,1,70,0,0
266610,-100,4,2,1,70,0,0
267295,-100,4,2,1,70,0,0
268152,-100,4,2,1,70,0,0
270038,-133.333333333333,4,2,1,70,0,0
270552,-100,4,2,1,70,0,0
272438,-100,4,2,1,60,0,0
272781,-125,4,2,1,60,0,0
273295,-100,4,2,1,60,0,0
275181,-153.846153846153,4,2,1,60,0,0
279296,-100,4,2,1,60,0,0
280324,-200,4,2,1,70,0,0
280667,-100,4,2,1,70,0,0
317696,-100,4,2,1,50,0,0
318553,-100,4,2,1,70,0,0
319410,-76.9230769230769,4,2,1,85,0,1
325410,-66.6666666666667,4,2,1,85,0,1
325753,-76.9230769230769,4,2,1,85,0,1
331924,-68.9655172413793,4,2,1,85,0,1
332267,-76.9230769230769,4,2,1,85,0,1
333124,-100,4,2,1,85,0,1
333981,-76.9230769230769,4,2,1,85,0,1
337410,-100,4,2,1,85,0,1
338267,-76.9230769230769,4,2,1,85,0,1
339296,-100,4,2,1,85,0,1
340324,-133.333333333333,4,2,1,85,0,0
340496,-133.333333333333,4,2,1,70,0,0
341010,-133.333333333333,4,2,1,70,0,1
343410,-117.647058823529,4,2,1,70,0,1
349581,-100,4,2,1,70,0,1
357467,-100,4,2,1,80,0,1
361581,-76.9230769230769,4,2,1,80,0,1
361924,-100,4,2,1,80,0,1
362438,-66.6666666666667,4,2,1,90,0,1
362781,-66.6666666666667,4,2,1,90,0,1
362953,-66.6666666666667,4,2,1,70,0,0
363638,-66.6666666666667,4,2,1,60,0,0
364324,-66.6666666666667,4,2,1,50,0,0
365010,-66.6666666666667,4,2,1,40,0,0
365696,-66.6666666666667,4,2,1,30,0,0
391110,-66.6666666666667,4,2,1,70,0,0

[Colours]
Combo1 : 151,207,253
Combo2 : 102,125,219
Combo3 : 255,210,55
Combo4 : 226,225,194

[HitObjects]
122,102,896,6,0,P|142:108|161:119,3,40,2|0|0|0,0:2|0:2|0:2|0:2,0:0:0:0:
112,183,1582,1,0,0:2:0:0:
178,233,1753,6,0,P|162:247|143:258,3,40,2|0|0|0,0:2|0:2|0:2|0:2,0:0:0:0:
112,183,2439,1,0,0:2:0:0:
36,216,2610,6,0,P|31:195|31:173,3,40,2|0|0|0,0:2|0:2|0:2|0:2,0:0:0:0:
112,183,3296,1,0,0:2:0:0:
76,283,3467,6,0,L|66:322,3,40,2|0|0|0,0:2|0:2|0:2|0:2,0:0:0:0:
109,177,4153,1,0,0:2:0:0:
211,246,4324,6,0,L|201:285,3,40,2|0|0|0,0:2|0:2|0:2|0:2,0:0:0:0:
244,140,5010,1,0,0:2:0:0:
346,209,5181,6,0,L|336:248,3,40,2|0|0|0,0:2|0:2|0:2|0:2,0:0:0:0:
388,102,5867,1,2,0:2:0:0:
477,130,6038,1,0,0:2:0:0:
379,107,6210,1,0,0:2:0:0:
486,125,6381,6,0,L|496:171,3,40,2|0|0|0,0:2|0:2|0:2|0:2,0:0:0:0:
512,248,7067,1,0,0:2:0:0:
402,174,7238,6,0,L|419:217,3,40,2|0|0|0,0:2|0:2|0:2|0:2,0:0:0:0:
448,289,7924,1,0,0:2:0:0:
320,242,8096,6,0,L|348:279,3,40,2|0|0|0,0:2|0:2|0:2|0:2,0:0:0:0:
327,374,8781,2,0,L|302:342,1,40,0|0,0:2|0:2,0:0:0:0:
162,273,9124,6,0,P|199:272|229:283,3,60.0000022888184,2|0|0|0,0:2|0:2|0:2|0:2,0:0:0:0:
292,344,9810,1,0,0:2:0:0:
386,225,9981,6,0,P|356:223|328:231,3,60.0000022888184,2|0|0|0,0:2|0:2|0:2|0:2,0:0:0:0:
280,351,10667,1,0,0:2:0:0:
113,215,10838,6,0,P|138:200|168:194,3,60.0000022888184,2|0|0|0,0:2|0:2|0:2|0:2,0:0:0:0:
51,308,11525,5,2,0:2:0:0:
8,160,11697,1,2,0:2:0:0:
158,308,11867,6,0,P|202:295|283:293,1,120,6|0,3:2|0:2,0:0:0:0:
286,303,12210,2,0,P|319:336|357:348,1,80,8|0,0:2|0:2,0:0:0:0:
475,289,12553,6,0,P|484:267|485:230,2,40,0|0|0,0:2|0:2|3:2,0:0:0:0:
345,351,12896,2,0,P|308:336|281:306,1,80,8|0,0:2|0:2,0:0:0:0:
342,202,13238,2,0,P|378:216|405:246,1,80,0|0,3:2|0:2,0:0:0:0:
211,359,13581,2,0,P|195:322|197:282,1,80,8|0,0:2|0:2,0:0:0:0:
232,164,13924,5,0,3:2:0:0:
232,164,14010,1,0,3:2:0:0:
232,164,14096,2,0,L|241:108,2,40,0|0|0,3:2|0:2|0:2,0:0:0:0:
196,283,14438,2,0,L|90:269,2,80,8|0|0,0:2|0:2|3:2,0:0:0:0:
244,168,14953,6,0,L|246:148,4,20,8|0|0|0|0,0:2|0:2|0:2|0:2|0:2,0:0:0:0:
342,309,15296,6,0,L|349:361,3,40,0|0|0|0,0:2|0:2|3:2|0:2,0:0:0:0:
397,247,15638,2,0,L|503:233,2,80,8|0|0,0:2|0:2|3:2,0:0:0:0:
326,172,16153,5,2,0:2:0:0:
326,172,16238,1,2,0:2:0:0:
326,172,16324,2,0,L|246:161,1,80,10|0,0:2|0:2,0:0:0:0:
326,53,16667,1,2,0:2:0:0:
326,53,16752,1,2,0:2:0:0:
326,53,16838,2,0,L|246:63,2,80,2|0|8,3:2|0:2|0:2,0:0:0:0:
247,162,17353,6,0,L|167:171,1,80,2|0,0:2|0:2,0:0:0:0:
167,54,17696,2,0,L|246:63,1,80,8|0,0:2|0:2,0:0:0:0:
76,94,18038,2,0,P|64:62|64:35,2,40,0|0|0,0:2|0:0|3:2,0:0:0:0:
163,179,18381,6,0,L|158:211,12,20,0|0|0|0|0|0|0|0|0|0|0|0|0,0:2|0:2|0:2|0:2|0:2|0:2|0:2|0:2|0:2|0:2|0:2|0:2|0:2,0:0:0:0:
29,157,19067,1,8,0:2:0:0:
312,215,19410,5,0,0:2:0:0:
312,215,19581,2,0,L|406:198,1,80,2|0,3:2|0:2,0:0:0:0:
411,311,19924,2,0,L|332:325,2,80,8|2|0,0:2|0:2|0:2,0:0:0:0:
479,186,20438,1,8,0:2:0:0:
427,317,20610,6,0,L|358:329,3,40,0|0|0|0,0:2|0:2|0:2|0:2,0:0:0:0:
317,339,20953,2,0,L|216:323,2,80,0|8|0,3:2|0:2|0:2,0:0:0:0:
274,214,21467,2,0,L|336:223,4,40,0|2|2|2|10,0:2|0:2|0:2|0:2|0:2,0:0:0:0:
187,125,21981,2,0,L|12:149,1,160,2|0,0:2|3:2,0:0:0:0:
106,304,22667,1,8,0:2:0:0:
106,304,22753,1,8,0:2:0:0:
106,304,22838,6,0,L|123:212,1,80,2|0,3:2|0:2,0:0:0:0:
263,207,23181,2,0,L|248:285,1,80,8|0,0:2|0:2,0:0:0:0:
332,360,23524,2,0,L|388:348,2,40,0|0|0,0:2|0:2|3:2,0:0:0:0:
236,289,23867,2,0,L|251:211,1,80,8|0,0:2|0:2,0:0:0:0:
325,126,24210,6,0,L|421:110,1,80,0|0,3:2|0:2,0:0:0:0:
384,2,24553,2,0,L|305:15,2,80,8|0|0,0:2|0:2|0:2,0:0:0:0:
469,79,25067,6,0,P|477:102|476:127,3,40,0|0|0|0,3:2|0:2|0:2|0:2,0:0:0:0:
433,180,25410,2,0,P|422:201|404:218,3,40,8|0|0|0,0:2|0:2|0:2|0:2,0:0:0:0:
333,201,25753,1,0,3:2:0:0:
435,291,25924,6,0,P|446:334|446:375,2,80,8|0|0,0:2|0:2|0:2,0:0:0:0:
333,201,26438,1,0,3:2:0:0:
240,302,26610,2,0,P|195:318|146:310,2,80,8|0|0,0:2|0:2|3:2,0:0:0:0:
333,201,27125,5,2,0:2:0:0:
333,201,27210,1,2,0:2:0:0:
333,201,27296,2,0,L|318:108,1,80,10|0,0:2|0:2,0:0:0:0:
201,150,27638,1,2,0:2:0:0:
201,150,27723,1,2,0:2:0:0:
201,150,27810,2,0,L|186:57,1,80,2|2,3:2|3:2,0:0:0:0:
61,185,28153,5,8,0:2:0:0:
61,185,28324,2,0,P|95:206|141:206,1,80,2|0,0:2|0:2,0:0:0:0:
188,71,28667,2,0,P|154:50|108:50,1,80,8|0,0:2|0:2,0:0:0:0:
47,173,29010,6,0,P|53:188|79:213,2,40,0|0|0,0:2|0:2|3:2,0:0:0:0:
114,48,29353,2,0,P|154:50|188:71,1,80,8|0,0:2|0:2,0:0:0:0:
286,174,29696,6,0,L|293:126,4,40,0|0|0|0|8,3:2|0:0|0:2|0:2|0:2,0:0:0:0:
383,226,30210,1,0,0:2:0:0:
383,226,30296,1,8,0:2:0:0:
383,226,30381,2,0,L|388:186,1,40,0|0,0:2|0:2,0:0:0:0:
269,292,30553,6,0,P|222:282|192:246,1,80,2|0,3:2|0:2,0:0:0:0:
98,137,30896,1,10,0:2:0:0:
98,137,31067,2,0,L|110:216,1,80,2|0,0:2|3:2,0:0:0:0:
38,302,31410,5,8,0:2:0:0:
38,302,31496,1,8,0:2:0:0:
38,302,31581,2,0,L|45:251,4,40,0|0|0|0|0,3:2|0:2|0:2|0:2|3:2,0:0:0:0:
166,349,32096,2,0,L|180:254,2,80,8|0|0,0:2|0:2|3:2,0:0:0:0:
322,363,32610,5,2,0:2:0:0:
321,351,32696,1,2,0:2:0:0:
317,340,32781,1,10,0:2:0:0:
178,269,32953,2,0,P|260:267|352:221,1,160,2|0,0:2|3:2,0:0:0:0:
366,164,33467,1,2,0:2:0:0:
368,149,33638,1,2,0:2:0:0:
259,370,33810,6,0,L|93:350,1,155.999992858887,4|0,3:2|0:2,0:0:0:0:
91,364,34153,2,0,L|77:277,1,80,8|0,3:2|0:2,0:0:0:0:
174,209,34496,1,0,3:2:0:0:
172,218,34581,1,0,3:2:0:0:
168,226,34667,1,0,3:2:0:0:
6,235,34838,2,0,P|40:205|88:198,1,80,8|0,3:2|0:2,0:0:0:0:
173,306,35181,6,0,P|211:295|239:268,1,80,0|0,3:2|0:2,0:0:0:0:
255,117,35524,2,0,P|245:155|254:193,1,80,8|0,3:2|0:2,0:0:0:0:
367,251,35867,5,0,3:2:0:0:
385,247,35953,1,0,3:2:0:0:
403,243,36038,2,0,L|444:233,3,40,0|0|0|0,3:2|0:2|3:2|0:2,0:0:0:0:
512,298,36381,2,0,L|473:307,3,40,8|0|0|0,0:2|0:2|3:2|0:2,0:0:0:0:
396,238,36724,5,0,0:2:0:0:
449,323,36896,2,0,L|446:353,3,26.6666666666667,8|0|0|0,3:2|0:2|0:2|0:2,0:0:0:0:
300,207,37239,6,0,L|293:259,3,40,0|0|0|0,3:2|0:2|3:2|0:2,0:0:0:0:
205,292,37581,2,0,L|215:212,1,80,8|0,3:2|0:2,0:0:0:0:
227,137,37924,5,0,3:2:0:0:
124,210,38096,1,2,0:2:0:0:
97,200,38181,1,2,0:2:0:0:
78,177,38267,2,0,L|91:90,1,80,10|0,3:2|0:2,0:0:0:0:
160,33,38610,5,2,3:2:0:0:
152,37,38695,1,2,0:2:0:0:
143,39,38781,2,0,L|136:0,1,40,2|0,0:2|0:2,0:0:0:0:
228,66,38953,2,0,L|241:144,1,80,0|8,3:2|0:2,0:0:0:0:
337,215,39296,6,0,P|360:170|356:131,1,80,2|0,3:2|0:2,0:0:0:0:
234,153,39639,1,8,3:2:0:0:
341,227,39810,1,0,0:2:0:0:
449,144,39981,2,0,P|438:96|402:58,1,80,0|0,3:2|3:2,0:0:0:0:
300,6,40324,6,0,L|330:10,12,20,0|0|0|0|0|0|0|0|0|0|0|0|0,3:2|0:2|0:2|0:2|0:2|0:2|0:2|0:2|0:2|0:2|0:2|0:0|0:0,0:0:0:0:
497,51,41010,6,0,L|503:120,2,53.3333333333333,0|0|0,3:2|3:2|3:2,0:0:0:0:
417,66,41353,5,0,3:2:0:0:
417,66,41438,1,0,3:2:0:0:
417,66,41524,2,0,L|426:159,1,80,2|0,3:2|0:0,0:0:0:0:
288,238,41867,2,0,L|368:228,2,80,10|2|0,0:2|3:2|0:2,0:0:0:0:
110,102,42381,5,8,3:2:0:0:
166,251,42553,1,0,0:2:0:0:
253,123,42724,1,0,3:2:0:0:
253,123,42810,1,0,3:2:0:0:
253,123,42896,1,0,3:2:0:0:
166,251,43067,2,0,P|156:297|152:346,1,80,8|0,3:2|0:2,0:0:0:0:
280,377,43410,5,0,3:2:0:0:
280,377,43496,1,0,0:2:0:0:
280,377,43581,2,0,P|274:349|273:322,2,40,2|2|10,0:2|0:2|3:2,0:0:0:0:
354,263,43924,2,0,L|448:272,2,80,2|0|0,0:2|3:2|3:2,0:0:0:0:
169,242,44439,1,2,3:2:0:0:
274,103,44610,1,10,0:2:0:0:
274,103,44696,1,8,0:2:0:0:
274,103,44781,6,0,L|265:197,2,80,10|0|0,3:2|3:2|3:2,0:0:0:0:
370,274,45296,2,0,L|361:180,2,80,8|0|0,3:2|3:2|3:2,0:0:0:0:
477,93,45810,2,0,L|468:187,2,80,8|0|0,3:2|3:2|3:2,0:0:0:0:
365,281,46324,6,0,L|356:187,1,80,8|0,3:2|3:2,0:0:0:0:
235,83,46667,2,0,L|226:177,1,80,0|0,3:2|3:2,0:0:0:0:
106,276,47010,2,0,L|97:182,1,80,0|0,3:2|3:2,0:0:0:0:
8,49,47353,1,8,3:2:0:0:
155,29,47524,5,8,0:2:0:0:
168,26,47609,1,0,3:2:0:0:
181,23,47695,1,0,3:2:0:0:
194,21,47781,1,0,3:2:0:0:
207,18,47866,1,0,3:2:0:0:
220,15,47952,1,0,3:2:0:0:
233,13,48038,2,0,L|227:72,1,40,8|0,3:2|0:2,0:0:0:0:
311,74,48210,2,0,L|307:114,3,40,0|0|0|0,3:2|3:2|3:2|3:2,0:0:0:0:
392,155,48553,5,8,3:2:0:0:
378,181,48638,1,8,3:2:0:0:
366,209,48724,1,0,3:2:0:0:
357,237,48810,1,0,3:2:0:0:
350,267,48895,5,0,3:2:0:0:
359,279,48981,2,0,P|388:270|403:246,1,40,8|0,3:2|0:2,0:0:0:0:
276,321,49153,5,0,3:2:0:0:
275,335,49239,2,0,P|303:344|329:333,1,40,8|0,3:2|0:2,0:0:0:0:
179,310,49410,5,0,3:2:0:0:
170,321,49496,2,0,P|188:345|216:351,1,40,8|0,3:2|0:2,0:0:0:0:
54,367,49667,6,0,P|48:357|34:348,12,20,0|0|0|0|0|0|0|0|0|0|0|0|0,0:2|0:2|0:2|0:2|0:2|0:2|0:2|0:2|0:2|0:2|0:2|0:2|0:2,0:0:0:0:
21,345,50268,6,0,B|114:312|117:226|117:226|104:265|58:281|58:281|143:240|201:321,1,384,4|0,0:2|0:2,0:0:0:0:
178,309,51639,6,0,P|172:288|180:246,1,64,2|0,0:2|0:2,0:0:0:0:
335,148,52324,2,0,P|319:163|279:177,1,64,2|0,0:2|0:2,0:0:0:0:
129,17,53010,1,2,0:2:0:0:
129,17,53524,5,0,0:0:0:0:
133,29,53610,1,0,0:0:0:0:
125,43,53696,1,0,0:0:0:0:
129,54,53782,1,0,0:0:0:0:
122,69,53867,1,0,0:0:0:0:
127,80,53953,1,0,0:0:0:0:
119,95,54039,1,0,0:0:0:0:
124,106,54124,1,0,0:0:0:0:
116,120,54210,1,0,0:0:0:0:
121,133,54296,1,0,0:0:0:0:
112,146,54382,1,0,0:0:0:0:
118,158,54467,1,0,0:0:0:0:
109,172,54553,1,0,0:0:0:0:
116,184,54639,1,0,0:0:0:0:
106,198,54724,1,0,0:0:0:0:
113,210,54810,1,0,0:0:0:0:
103,224,54896,6,0,P|97:255|97:284,1,60.0000022888184,2|2,0:2|0:2,0:0:0:0:
263,336,55238,6,0,P|278:310|297:287,1,60.0000022888184,2|0,0:2|0:2,0:0:0:0:
307,292,55581,6,0,P|292:318|273:341,1,60.0000022888184,2|0,0:2|0:2,0:0:0:0:
191,147,55753,6,0,P|245:176|322:172,1,120.000004577637,6|2,3:2|0:2,0:0:0:0:
425,70,56097,1,8,3:2:0:0:
259,3,56267,2,0,P|256:42|270:79,1,80,2|0,0:2|3:2,0:0:0:0:
386,196,56610,5,0,0:2:0:0:
502,70,56781,1,8,3:2:0:0:
502,70,56953,2,0,P|456:62|406:79,1,80,0|0,0:2|3:2,0:0:0:0:
386,196,57296,1,0,0:2:0:0:
241,15,57467,6,0,L|254:98,1,80,10|2,3:2|0:2,0:0:0:0:
284,245,57810,1,0,3:2:0:0:
169,103,57981,1,2,0:2:0:0:
206,287,58153,1,8,3:2:0:0:
409,285,58324,5,2,0:2:0:0:
389,281,58409,1,2,0:2:0:0:
369,276,58496,2,0,L|284:256,1,80,2|2,3:2|0:2,0:0:0:0:
81,209,58838,1,8,3:2:0:0:
214,295,59010,1,2,0:2:0:0:
270,117,59181,2,0,L|285:67,2,40,0|0|0,3:2|0:2|0:2,0:0:0:0:
126,282,59524,6,0,L|35:297,1,80,8|0,3:2|0:2,0:0:0:0:
278,187,59867,2,0,L|342:177,1,60.0000022888184,0|0,3:2|0:2,0:0:0:0:
23,140,60210,5,10,3:2:0:0:
190,40,60381,1,2,0:2:0:0:
56,5,60553,1,10,3:2:0:0:
153,175,60724,1,2,0:2:0:0:
265,2,60896,2,0,P|221:8|191:40,1,90.0000034332277,10|0,3:2|0:2,0:0:0:0:
193,62,61238,6,0,P|251:100|315:84,1,120.000004577637,2|2,3:2|0:2,0:0:0:0:
427,6,61581,1,8,3:2:0:0:
502,165,61753,6,0,P|505:117|483:69,1,80,2|0,0:2|3:2,0:0:0:0:
427,6,62096,1,0,0:2:0:0:
380,172,62267,2,0,P|368:133|373:94,1,80,8|0,3:2|0:2,0:0:0:0:
497,268,62610,6,0,L|400:282,1,80,0|0,3:2|0:2,0:0:0:0:
211,314,62953,1,10,3:2:0:0:
310,384,63124,2,0,P|333:340|336:285,1,80,2|0,0:2|3:2,0:0:0:0:
238,143,63467,5,2,0:2:0:0:
211,314,63638,1,8,3:2:0:0:
126,190,63810,1,2,0:2:0:0:
131,210,63896,1,2,0:2:0:0:
127,230,63981,5,2,3:2:0:0:
37,211,64153,1,2,0:2:0:0:
219,300,64324,1,10,3:2:0:0:
129,319,64496,1,2,0:2:0:0:
287,195,64667,5,2,3:2:0:0:
288,204,64753,1,2,0:2:0:0:
289,214,64838,1,2,0:2:0:0:
371,220,65010,5,10,3:2:0:0:
370,229,65096,1,2,0:2:0:0:
369,239,65181,1,2,0:2:0:0:
447,261,65353,5,2,3:2:0:0:
445,270,65439,1,2,0:2:0:0:
442,280,65524,1,2,0:2:0:0:
289,214,65696,5,10,3:2:0:0:
454,179,65867,1,2,0:2:0:0:
290,224,66038,5,2,3:2:0:0:
269,228,66124,2,0,P|237:225|223:216,1,40,2|0,3:2|3:2,0:0:0:0:
193,84,66296,1,2,0:2:0:0:
215,83,66381,1,10,0:2:0:0:
250,101,66467,1,2,0:2:0:0:
268,137,66553,1,2,0:2:0:0:
11,322,66724,6,0,P|8:259|30:172,1,120.000004577637,6|2,3:2|0:2,0:0:0:0:
99,26,67068,1,8,3:2:0:0:
135,183,67238,2,0,P|98:150|82:99,1,80,2|0,0:2|3:2,0:0:0:0:
99,26,67581,1,0,0:2:0:0:
288,67,67752,5,8,3:2:0:0:
288,67,67924,2,0,P|269:31|238:6,1,80,0|0,0:2|3:2,0:0:0:0:
99,26,68267,1,0,0:2:0:0:
261,160,68438,6,0,P|310:162|357:142,1,80,10|2,3:2|0:2,0:0:0:0:
420,38,68781,1,0,3:2:0:0:
289,80,68953,1,2,0:2:0:0:
480,189,69124,1,8,3:2:0:0:
364,239,69295,5,2,0:2:0:0:
364,239,69380,1,2,0:2:0:0:
364,239,69467,2,0,P|324:257|287:265,1,80,2|2,3:2|0:2,0:0:0:0:
122,155,69809,1,8,3:2:0:0:
215,300,69981,1,2,0:2:0:0:
275,135,70152,2,0,P|280:112|281:92,2,40,0|0|0,3:2|0:2|0:2,0:0:0:0:
428,295,70495,6,0,L|440:207,1,80,8|0,3:2|0:2,0:0:0:0:
230,374,70838,2,0,L|219:294,1,80,0|0,3:2|0:2,0:0:0:0:
32,204,71181,5,10,3:2:0:0:
97,329,71352,1,2,0:2:0:0:
133,142,71524,1,10,3:2:0:0:
87,334,71695,1,2,0:2:0:0:
0,139,71867,2,0,P|6:93|45:55,1,90.0000034332277,10|0,3:2|0:2,0:0:0:0:
54,60,72209,6,0,P|110:74|182:68,1,120.000004577637,2|2,3:2|0:2,0:0:0:0:
336,3,72552,1,8,3:2:0:0:
290,195,72724,2,0,P|268:150|278:99,1,80,2|0,0:2|3:2,0:0:0:0:
336,3,73067,5,0,0:2:0:0:
456,160,73238,2,0,P|406:156|366:122,1,80,8|0,3:2|0:2,0:0:0:0:
453,1,73581,6,0,L|431:86,1,80,0|0,3:2|0:2,0:0:0:0:
290,195,73924,1,10,3:2:0:0:
248,43,74096,2,0,L|269:120,1,80,2|0,0:2|3:2,0:0:0:0:
403,268,74438,1,2,0:2:0:0:
436,95,74609,1,8,3:2:0:0:
411,276,74781,1,2,0:2:0:0:
411,276,74867,1,2,0:2:0:0:
411,276,74953,6,0,P|451:261|487:219,1,80,2|0,3:2|0:2,0:0:0:0:
283,106,75296,2,0,P|203:136|174:184,1,120.000004577637,10|2,3:2|0:2,0:0:0:0:
228,339,75638,5,2,3:2:0:0:
212,323,75723,1,2,0:2:0:0:
192,311,75809,1,2,0:2:0:0:
171,305,75895,1,0,0:2:0:0:
148,304,75981,2,0,L|155:357,1,40,10|2,3:2|0:2,0:0:0:0:
271,247,76153,2,0,L|278:194,1,40,2|2,0:2|0:2,0:0:0:0:
367,337,76324,5,2,3:2:0:0:
392,347,76409,1,2,0:2:0:0:
420,350,76495,1,2,0:2:0:0:
448,344,76581,1,2,0:2:0:0:
472,331,76666,1,10,3:2:0:0:
491,310,76752,1,2,0:2:0:0:
504,285,76838,1,2,0:2:0:0:
508,258,76924,1,2,0:2:0:0:
504,230,77010,5,2,3:2:0:0:
494,234,77096,1,2,0:2:0:0:
487,245,77181,1,2,0:2:0:0:
512,121,77353,6,0,P|478:122|443:141,1,60.0000022888184,10|0,3:2|0:2,0:0:0:0:
400,196,77524,1,2,0:2:0:0:
299,12,77696,6,0,P|343:53|374:129,1,120.000004577637,6|2,3:2|0:2,0:0:0:0:
274,270,78038,1,8,3:2:0:0:
277,113,78210,2,0,P|291:152|294:198,1,80,2|0,0:2|3:2,0:0:0:0:
202,303,78553,1,0,0:2:0:0:
107,134,78724,5,10,3:2:0:0:
135,124,78809,1,2,0:2:0:0:
165,127,78895,1,2,0:2:0:0:
190,143,78981,1,2,0:2:0:0:
204,170,79067,2,0,L|209:211,2,40,2|2|2,3:2|0:2|0:2,0:0:0:0:
42,28,79410,5,10,3:2:0:0:
18,226,79581,2,0,L|28:137,1,80,2|0,0:2|3:2,0:0:0:0:
42,28,79924,1,2,0:2:0:0:
204,170,80096,1,10,3:2:0:0:
226,167,80181,1,2,0:2:0:0:
248,164,80266,1,2,0:2:0:0:
271,162,80352,1,2,0:2:0:0:
294,160,80438,2,0,L|386:150,1,80,2|2,3:2|0:2,0:0:0:0:
512,252,80781,5,10,3:2:0:0:
484,247,80866,1,2,0:2:0:0:
456,245,80952,1,2,0:2:0:0:
428,242,81038,1,2,0:2:0:0:
401,239,81124,2,0,P|373:286|372:341,1,80,2|0,3:2|0:2,0:0:0:0:
441,65,81467,5,10,3:2:0:0:
404,53,81552,1,2,0:2:0:0:
367,52,81638,1,2,0:2:0:0:
331,63,81724,1,2,0:2:0:0:
300,84,81810,2,0,P|264:99|212:96,1,80,2|0,3:2|0:2,0:0:0:0:
58,0,82153,5,10,3:2:0:0:
108,184,82324,1,2,0:2:0:0:
224,99,82496,1,10,3:2:0:0:
26,161,82667,1,2,0:2:0:0:
228,90,82838,2,0,P|248:117|255:172,1,80,10|0,3:2|0:2,0:0:0:0:
91,359,83181,6,0,P|119:318|203:289,1,120.000004577637,2|2,3:2|0:2,0:0:0:0:
383,345,83523,1,8,3:2:0:0:
383,345,83695,2,0,P|339:344|289:312,1,80,2|0,0:2|3:2,0:0:0:0:
268,179,84038,1,0,0:2:0:0:
91,359,84210,5,10,3:2:0:0:
61,357,84295,1,2,0:2:0:0:
34,344,84381,1,2,0:2:0:0:
15,321,84467,1,2,0:2:0:0:
6,293,84552,2,0,L|11:253,2,40,2|2|2,3:2|0:2|0:2,0:0:0:0:
104,120,84895,5,10,3:2:0:0:
85,285,85066,2,0,L|95:205,1,80,2|0,0:2|3:2,0:0:0:0:
158,62,85410,1,2,0:2:0:0:
231,221,85581,1,10,3:2:0:0:
246,184,85666,1,2,0:2:0:0:
274,156,85752,1,2,0:2:0:0:
312,144,85838,1,2,0:2:0:0:
353,148,85924,6,0,L|450:164,1,80,2|0,3:2|0:2,0:0:0:0:
503,271,86267,2,0,L|513:335,1,40,10|0,3:2|0:2,0:0:0:0:
430,323,86438,2,0,L|423:283,1,40,2|0,0:2|0:2,0:0:0:0:
432,162,86610,5,2,3:2:0:0:
414,152,86695,1,2,0:2:0:0:
395,147,86781,1,2,0:2:0:0:
375,146,86867,1,2,0:2:0:0:
355,151,86953,1,10,3:2:0:0:
335,155,87038,1,2,0:2:0:0:
315,155,87124,1,2,0:2:0:0:
296,149,87210,1,2,0:2:0:0:
279,136,87296,6,0,P|248:100|196:89,1,80,2|0,3:2|0:2,0:0:0:0:
44,151,87638,1,10,3:2:0:0:
198,172,87809,1,2,0:2:0:0:
38,160,87981,1,10,3:2:0:0:
218,89,88153,1,10,3:2:0:0:
50,234,88324,2,0,P|36:267|27:331,1,80,10|2,3:2|0:2,0:0:0:0:
218,89,88667,6,0,L|372:66,1,120.000004577637,6|2,3:2|0:2,0:0:0:0:
512,127,89010,1,8,3:2:0:0:
393,0,89181,1,2,0:2:0:0:
512,134,89353,5,2,3:2:0:0:
494,158,89438,1,2,0:2:0:0:
469,174,89524,1,2,0:2:0:0:
440,182,89610,1,2,0:2:0:0:
411,180,89696,1,10,3:2:0:0:
381,178,89781,1,2,0:2:0:0:
352,185,89867,1,2,0:2:0:0:
327,202,89953,1,2,0:2:0:0:
310,226,90038,2,0,P|303:248|302:288,2,40,2|2|2,3:2|0:2|0:2,0:0:0:0:
129,367,90381,6,0,P|123:320|110:278,1,80,10|2,3:2|0:2,0:0:0:0:
44,174,90724,1,0,3:2:0:0:
15,343,90896,1,2,0:2:0:0:
125,182,91067,1,10,3:2:0:0:
132,163,91152,1,2,0:2:0:0:
139,144,91238,1,2,0:2:0:0:
146,125,91324,1,2,0:2:0:0:
153,106,91410,6,0,L|242:85,1,80,2|2,3:2|0:2,0:0:0:0:
383,18,91753,1,8,3:2:0:0:
267,158,91924,1,2,0:2:0:0:
403,99,92096,5,2,3:2:0:0:
427,98,92181,1,2,0:2:0:0:
452,105,92267,1,2,0:2:0:0:
473,117,92353,1,2,0:2:0:0:
491,135,92438,1,10,3:2:0:0:
504,156,92524,1,2,0:2:0:0:
510,180,92610,1,2,0:2:0:0:
511,205,92696,1,2,0:2:0:0:
504,229,92781,2,0,P|483:240|456:247,2,40,2|2|2,3:2|0:2|0:2,0:0:0:0:
358,321,93124,5,10,3:2:0:0:
328,190,93296,1,2,0:2:0:0:
290,356,93467,1,10,3:2:0:0:
255,180,93638,1,2,0:2:0:0:
152,298,93810,2,0,P|113:314|64:312,1,80,10|0,3:2|0:2,0:0:0:0:
28,163,94153,6,0,P|82:140|151:143,1,120.000004577637,2|2,3:2|0:2,0:0:0:0:
295,268,94496,1,8,3:2:0:0:
97,223,94667,1,2,0:2:0:0:
283,72,94838,5,2,3:2:0:0:
309,64,94923,1,2,0:2:0:0:
336,63,95009,1,2,0:2:0:0:
363,67,95095,1,2,0:2:0:0:
389,77,95180,1,10,3:2:0:0:
413,92,95266,1,2,0:2:0:0:
432,111,95352,1,2,0:2:0:0:
448,133,95438,1,2,0:2:0:0:
460,158,95524,2,0,L|453:207,2,40,2|2|2,3:2|0:2|0:2,0:0:0:0:
317,355,95867,6,0,P|314:314|306:276,1,80,10|2,3:2|0:2,0:0:0:0:
261,155,96210,1,0,3:2:0:0:
384,199,96381,1,2,0:2:0:0:
211,306,96553,1,10,3:2:0:0:
181,301,96638,1,2,0:2:0:0:
151,297,96724,1,2,0:2:0:0:
122,292,96810,1,2,0:2:0:0:
92,288,96896,6,0,L|0:273,1,80,2|2,3:2|0:2,0:0:0:0:
261,155,97238,2,0,L|353:140,1,80,10|2,3:2|0:2,0:0:0:0:
86,8,97581,5,2,3:2:0:0:
111,13,97666,1,2,3:2:0:0:
133,28,97752,1,2,3:2:0:0:
147,50,97838,1,2,3:2:0:0:
152,76,97923,1,10,3:2:0:0:
145,102,98009,1,2,3:2:0:0:
129,123,98096,2,0,L|90:128,2,30.0000011444092,2|0|0,3:2|0:2|0:2,0:0:0:0:
199,175,98267,5,0,3:2:0:0:
196,189,98352,1,0,3:2:0:0:
194,204,98438,1,0,3:2:0:0:
192,219,98524,1,0,3:2:0:0:
189,234,98610,2,0,L|180:280,1,40,0|0,3:2|0:2,0:0:0:0:
278,213,98781,5,0,3:2:0:0:
275,227,98866,1,0,3:2:0:0:
273,242,98952,1,0,3:2:0:0:
271,257,99038,1,0,3:2:0:0:
268,272,99124,2,0,L|251:356,2,80,2|2|2,3:2|3:2|0:2,0:0:0:0:
378,190,99638,6,0,P|416:175|462:173,1,80,4|0,3:2|0:2,0:0:0:0:
274,95,99981,2,0,P|236:81|196:80,1,80,8|0,0:2|0:2,0:0:0:0:
123,141,100324,1,0,3:2:0:0:
123,141,100410,1,0,3:2:0:0:
123,141,100496,2,0,L|132:205,1,40,2|0,3:2|0:2,0:0:0:0:
33,237,100667,2,0,L|38:197,1,40,10|0,0:2|0:2,0:0:0:0:
169,259,100838,6,0,L|183:364,2,80,2|0|0,0:2|3:2|0:2,0:0:0:0:
300,139,101353,2,0,L|289:218,1,80,8|0,0:2|0:2,0:0:0:0:
156,269,101696,1,0,3:2:0:0:
158,255,101781,1,0,3:2:0:0:
166,246,101867,1,2,3:2:0:0:
286,363,102038,1,8,0:2:0:0:
378,243,102210,6,0,L|474:228,2,80,2|0|2,0:2|3:2|0:2,0:0:0:0:
291,369,102724,2,0,L|128:343,1,160,10|0,3:2|0:2,0:0:0:0:
0,382,103238,1,0,3:2:0:0:
35,228,103410,2,0,P|46:276|51:321,1,80,8|0,0:2|0:2,0:0:0:0:
0,382,103753,5,0,3:2:0:0:
253,196,104096,2,0,P|291:182|352:178,1,80,8|0,0:2|0:2,0:0:0:0:
440,255,104438,1,0,3:2:0:0:
430,250,104524,1,0,3:2:0:0:
424,239,104610,1,2,3:2:0:0:
409,130,104781,1,10,0:2:0:0:
499,200,104953,1,2,0:2:0:0:
345,269,105124,6,0,L|334:178,1,80,2|0,3:2|0:2,0:0:0:0:
196,65,105467,2,0,P|251:79|280:111,2,80,8|0|0,0:2|0:2|0:2,0:0:0:0:
109,109,105981,1,0,3:2:0:0:
209,234,106153,2,0,P|212:194|197:157,1,80,10|2,0:2|0:2,0:0:0:0:
49,223,106496,6,0,L|157:203,1,80,0|0,3:2|0:2,0:0:0:0:
262,324,106838,2,0,L|154:304,1,80,8|0,0:2|0:2,0:0:0:0:
316,229,107181,5,0,3:2:0:0:
316,229,107266,1,0,3:2:0:0:
316,229,107352,1,2,3:2:0:0:
376,337,107524,1,10,0:2:0:0:
484,274,107695,1,2,0:2:0:0:
421,169,107867,6,0,P|407:204|395:261,1,80,0|0,3:2|0:2,0:0:0:0:
279,319,108210,2,0,P|200:278|93:282,1,160,10|0,0:2|0:2,0:0:0:0:
123,283,108638,1,2,3:2:0:0:
122,294,108724,2,0,L|112:234,1,40,2|0,3:2|0:2,0:0:0:0:
19,250,108896,2,0,L|32:328,1,80,8|0,0:2|0:2,0:0:0:0:
279,319,109238,6,0,L|256:186,1,120,2|0,3:2|0:2,0:0:0:0:
256,185,109581,1,8,0:2:0:0:
393,310,109753,2,0,L|378:227,1,80,2|0,0:2|0:2,0:0:0:0:
377,219,110010,1,0,3:2:0:0:
375,207,110096,1,0,3:2:0:0:
475,321,110267,5,10,0:2:0:0:
498,142,110438,1,2,0:2:0:0:
378,231,110610,6,0,L|281:250,1,80,4|0,3:2|0:2,0:0:0:0:
81,288,110953,2,0,L|159:272,1,80,8|0,0:2|0:2,0:0:0:0:
255,350,111296,1,0,3:2:0:0:
253,360,111382,1,0,3:2:0:0:
251,370,111467,2,0,L|239:309,1,40,2|0,3:2|0:2,0:0:0:0:
313,238,111638,2,0,L|324:298,1,40,10|0,0:2|0:2,0:0:0:0:
219,172,111810,6,0,P|256:140|320:121,2,80,2|0|0,0:2|3:2|0:2,0:0:0:0:
82,291,112324,2,0,P|85:242|117:183,1,80,8|0,0:2|0:2,0:0:0:0:
219,172,112668,1,0,3:2:0:0:
217,183,112753,1,0,3:2:0:0:
211,192,112838,1,2,3:2:0:0:
92,130,113010,1,8,0:2:0:0:
168,261,113182,6,0,L|180:348,2,80,2|0|2,0:2|3:2|0:2,0:0:0:0:
221,99,113696,2,0,P|295:59|384:73,1,160,10|0,3:2|0:2,0:0:0:0:
378,76,114124,1,0,3:2:0:0:
385,87,114210,1,0,3:2:0:0:
467,219,114382,2,0,L|476:139,1,80,8|0,0:2|0:2,0:0:0:0:
492,28,114725,5,0,3:2:0:0:
329,293,115067,2,0,L|319:213,1,80,8|0,0:2|0:2,0:0:0:0:
217,122,115410,1,0,3:2:0:0:
227,124,115496,1,0,3:2:0:0:
237,127,115581,1,2,3:2:0:0:
316,202,115753,1,10,0:2:0:0:
365,105,115924,1,2,0:2:0:0:
233,206,116096,6,0,L|143:188,1,80,2|0,3:2|0:2,0:0:0:0:
32,308,116438,2,0,L|110:292,1,80,8|0,0:2|0:2,0:0:0:0:
232,358,116781,1,0,3:2:0:0:
219,356,116867,1,0,3:2:0:0:
208,349,116953,1,0,3:2:0:0:
233,206,117125,2,0,P|247:231|249:296,1,80,10|2,0:2|0:2,0:0:0:0:
110,307,117467,6,0,P|96:282|94:217,1,80,0|0,3:2|0:2,0:0:0:0:
240,368,117810,2,0,P|287:362|326:334,1,80,8|0,0:2|0:2,0:0:0:0:
358,245,118153,5,0,3:2:0:0:
358,245,118238,1,0,3:2:0:0:
358,245,118324,1,2,3:2:0:0:
394,349,118496,1,10,0:2:0:0:
252,281,118667,1,2,0:2:0:0:
358,245,118839,6,0,P|377:210|384:153,1,80,0|0,3:2|0:2,0:0:0:0:
323,43,119181,2,0,L|154:73,1,160,10|0,0:2|0:2,0:0:0:0:
163,80,119610,1,2,3:2:0:0:
161,89,119696,2,0,P|160:63|151:42,1,40,2|0,3:2|0:2,0:0:0:0:
54,50,119867,2,0,P|53:93|70:129,1,80,8|0,0:2|0:2,0:0:0:0:
177,222,120210,6,0,L|54:242,1,120,2|0,3:2|0:2,0:0:0:0:
47,244,120553,1,8,0:2:0:0:
169,321,120725,2,0,L|252:306,1,80,2|0,0:2|0:2,0:0:0:0:
260,305,120982,1,0,3:2:0:0:
271,303,121068,1,2,3:2:0:0:
410,276,121238,1,10,0:2:0:0:
354,343,121410,1,2,0:2:0:0:
319,192,121581,6,0,P|298:143|272:112,1,80,4|0,3:2|0:2,0:0:0:0:
125,73,121924,2,0,P|167:104|205:118,1,80,8|0,0:2|0:2,0:0:0:0:
234,24,122267,1,0,3:2:0:0:
219,26,122352,1,0,3:2:0:0:
206,31,122438,2,0,P|229:40|260:40,1,40,2|0,3:2|0:2,0:0:0:0:
288,110,122610,2,0,P|310:100|332:78,1,40,10|0,0:2|0:2,0:0:0:0:
402,11,122781,6,0,P|418:42|429:107,2,80,2|0|0,0:2|3:2|0:2,0:0:0:0:
485,175,123296,2,0,P|501:144|512:79,1,80,8|0,0:2|0:2,0:0:0:0:
393,202,123638,1,0,3:2:0:0:
393,202,123724,1,0,3:2:0:0:
393,202,123810,1,2,3:2:0:0:
511,258,123981,1,8,0:2:0:0:
366,279,124153,6,0,L|378:369,2,80,2|0|2,0:2|3:2|0:2,0:0:0:0:
266,173,124667,2,0,B|222:163|189:187|189:187|150:213|108:202,1,160,10|0,0:0|0:2,0:0:0:0:
130,119,125181,1,0,3:2:0:0:
11,243,125353,2,0,P|1:202|14:156,1,80,8|2,0:2|0:2,0:0:0:0:
123,123,125696,6,0,P|133:164|120:210,1,80,0|2,3:2|0:2,0:0:0:0:
40,336,126038,2,0,P|80:318|110:285,1,80,8|2,0:2|0:2,0:0:0:0:
227,211,126381,1,0,3:2:0:0:
230,220,126466,1,0,3:2:0:0:
233,230,126552,1,2,3:2:0:0:
117,204,126724,1,10,0:2:0:0:
236,240,126896,1,2,0:2:0:0:
333,157,127067,6,0,P|346:173|370:244,1,80,2|0,3:2|0:2,0:0:0:0:
433,359,127410,2,0,L|458:180,1,160,8|0,0:2|0:2,0:0:0:0:
487,96,127924,1,0,3:2:0:0:
333,157,128096,1,10,0:2:0:0:
441,191,128267,1,2,0:2:0:0:
365,71,128438,6,0,P|321:67|285:81,1,80,0|0,3:2|0:2,0:0:0:0:
174,179,128781,2,0,P|130:183|94:169,1,80,8|0,0:2|0:2,0:0:0:0:
142,80,129124,1,0,3:2:0:0:
143,87,129209,1,0,3:2:0:0:
143,95,129296,1,2,3:2:0:0:
248,233,129467,2,0,L|261:154,1,80,10|2,0:2|0:2,0:0:0:0:
405,183,129810,6,0,L|392:262,1,80,0|0,3:2|0:2,0:0:0:0:
287,364,130153,2,0,P|185:338|113:337,1,160,10|0,0:2|0:2,0:0:0:0:
122,342,130581,1,2,3:2:0:0:
113,347,130667,2,0,P|134:354|156:353,1,40,2|0,3:2|0:2,0:0:0:0:
149,244,130838,2,0,P|123:244|73:269,1,80,8|0,0:2|0:2,0:0:0:0:
238,201,131181,6,0,P|213:170|129:147,1,120,2|0,3:2|0:2,0:0:0:0:
129,158,131524,1,8,0:2:0:0:
233,292,131696,2,0,P|276:286|312:261,1,80,2|0,0:2|0:2,0:0:0:0:
314,255,131953,1,0,3:2:0:0:
317,242,132038,1,0,3:2:0:0:
431,317,132210,1,10,0:2:0:0:
412,186,132381,1,2,0:2:0:0:
306,266,132553,6,0,P|261:273|219:257,1,80,4|0,3:2|0:2,0:0:0:0:
111,178,132896,2,0,P|156:171|198:187,1,80,8|0,0:2|0:2,0:0:0:0:
153,289,133239,1,0,3:2:0:0:
147,276,133324,1,0,3:2:0:0:
146,261,133410,2,0,L|137:315,1,40,2|0,3:2|0:2,0:0:0:0:
65,369,133581,2,0,L|56:315,1,40,10|0,0:2|0:2,0:0:0:0:
13,202,133753,6,0,P|-5:240|-12:284,2,80,2|0|0,0:2|3:2|0:2,0:0:0:0:
129,104,134267,2,0,L|244:85,1,80,8|0,0:2|0:2,0:0:0:0:
291,178,134610,1,0,3:2:0:0:
279,176,134695,1,0,3:2:0:0:
269,168,134781,1,2,3:2:0:0:
298,45,134953,1,8,0:2:0:0:
414,158,135125,6,0,P|408:115|393:79,2,80,2|0|2,0:2|3:2|0:2,0:0:0:0:
315,289,135638,2,0,P|241:258|128:270,1,160,10|0,3:2|0:2,0:0:0:0:
40,339,136153,1,0,3:2:0:0:
166,267,136324,1,8,0:2:0:0:
54,167,136496,6,0,P|69:195|77:244,1,80,2|0,0:2|3:2,0:0:0:0:
225,330,136838,2,0,P|243:294|249:255,1,80,2|8,0:2|0:2,0:0:0:0:
240,79,137181,6,0,P|222:114|216:154,1,80,2|0,0:2|3:2,0:0:0:0:
222,168,137438,1,0,3:2:0:0:
228,178,137524,1,2,3:2:0:0:
333,89,137696,1,10,0:2:0:0:
170,39,137867,1,2,0:2:0:0:
341,177,138038,5,2,3:2:0:0:
395,32,138210,2,0,P|360:60|341:98,1,80,0|8,0:2|0:2,0:0:0:0:
456,208,138553,2,0,P|449:163|425:128,1,80,0|0,0:2|0:2,0:0:0:0:
242,98,138896,5,0,3:2:0:0:
196,260,139068,1,10,0:2:0:0:
87,149,139238,2,0,P|128:157|175:193,1,80,2|0,0:2|3:2,0:0:0:0:
208,346,139581,5,0,0:2:0:0:
100,231,139753,1,8,0:2:0:0:
259,217,139924,2,0,P|231:248|176:271,1,80,0|0,0:2|3:2,0:0:0:0:
32,272,140267,5,2,3:2:0:0:
173,186,140438,1,10,0:2:0:0:
22,269,140610,1,2,0:2:0:0:
116,353,140781,5,2,3:2:0:0:
118,343,140867,1,2,0:2:0:0:
119,334,140952,1,2,0:2:0:0:
219,361,141124,2,0,L|208:282,1,60.0000022888184,8|0,0:2|0:2,0:0:0:0:
280,223,141467,1,0,3:2:0:0:
283,231,141552,1,0,3:2:0:0:
288,239,141638,5,2,3:2:0:0:
395,335,141810,1,2,0:2:0:0:
430,162,141981,1,10,0:2:0:0:
112,273,142324,5,0,3:2:0:0:
277,216,142496,2,0,L|195:244,1,60.0000022888184,8|0,0:2|0:2,0:0:0:0:
81,158,142838,5,8,0:2:0:0:
110,167,142923,1,8,0:2:0:0:
139,177,143009,1,10,0:2:0:0:
290,219,143181,1,2,3:2:0:0:
103,280,143353,1,12,3:2:0:0:
256,192,143438,12,0,145924,0:2:0:0:
59,63,149010,6,0,P|117:57|212:204,1,240.000009155274,2|0,3:2|0:2,0:0:0:0:
137,260,149867,6,0,L|140:235,5,17.9999994506836,0|0|0|0|0|0,0:2|0:2|0:2|0:2|0:2|0:2,0:0:0:0:
83,188,150381,2,0,L|225:201,1,120.000004577637,0|0,3:2|0:2,0:0:0:0:
409,346,151753,6,0,P|325:340|332:204,1,240.000009155274,2|0,3:2|0:2,0:0:0:0:
412,179,152610,6,0,L|451:185,5,30.0000011444092,0|0|0|0|0|0,0:2|0:2|0:2|0:2|0:2|0:2,0:0:0:0:
322,203,153124,1,0,3:2:0:0:
322,203,153810,6,0,L|262:193,1,60.0000022888184,2|2,0:2|0:2,0:0:0:0:
157,250,154153,1,2,0:2:0:0:
190,183,154324,1,2,0:2:0:0:
168,111,154496,6,0,L|45:96,2,120.000004577637,2|2|0,3:2|0:2|0:2,0:0:0:0:
262,193,155353,2,0,L|298:187,5,30.0000011444092,0|0|0|0|0|0,0:2|0:2|0:2|0:2|0:2|0:2,0:0:0:0:
369,175,155867,1,0,3:2:0:0:
496,170,157410,5,0,3:2:0:0:
500,157,157753,1,0,3:2:0:0:
369,175,158267,2,0,L|333:181,3,30.0000011444092,0|0|0|0,0:2|0:2|0:2|0:2,0:0:0:0:
262,193,158610,1,0,3:2:0:0:
262,193,159467,5,0,3:2:0:0:
262,193,159981,6,0,P|194:158|91:261,1,240.000009155274,2|0,3:2|0:2,0:0:0:0:
135,347,160838,6,0,P|140:331|139:312,5,30.0000011444092,0|0|0|0|0|0,0:2|0:2|0:2|0:2|0:2|0:2,0:0:0:0:
90,257,161353,1,0,3:2:0:0:
217,299,161696,1,0,3:2:0:0:
268,128,162724,6,0,P|434:81|321:216,1,450.000017166138,2|0,3:2|0:2,0:0:0:0:
323,216,164096,6,0,L|329:249,3,27.9999991455078,0|0|0|0,0:2|0:2|0:2|0:2,0:0:0:0:
251,242,164781,2,0,L|257:275,3,27.9999991455078,2|0|0|0,0:2|0:2|0:2|0:2,0:0:0:0:
178,298,165467,6,0,B|259:270|317:327|317:327|393:393|484:345,1,320,6|0,3:2|0:2,0:0:0:0:
505,237,166324,5,2,0:2:0:0:
411,263,166496,1,2,0:2:0:0:
512,243,166667,2,0,P|526:108|452:22,1,240.000009155274,2|0,0:2|0:2,0:0:0:0:
250,112,167696,6,0,P|280:104|320:107,1,60.0000022888184,2|0,0:2|0:2,0:0:0:0:
288,11,168038,2,0,P|328:14|366:28,1,80,2|0,0:2|0:2,0:0:0:0:
240,122,168381,1,2,0:2:0:0:
120,39,168553,2,0,B|64:-10|-24:9|-24:9|14:12|42:38,1,223.999993164063,2|0,0:2|0:2,0:0:0:0:
189,197,169581,5,2,0:2:0:0:
185,203,170438,5,2,0:2:0:0:
260,128,170610,1,2,0:2:0:0:
229,276,170781,1,2,0:2:0:0:
339,168,170953,6,0,P|388:162|488:289,1,223.999993164063,0|0,0:2|0:2,0:0:0:0:
381,330,171981,5,2,0:2:0:0:
497,292,172153,1,2,0:2:0:0:
456,364,172324,1,2,0:2:0:0:
326,28,173010,5,2,0:2:0:0:
228,86,173181,1,2,0:2:0:0:
306,106,173353,1,2,0:2:0:0:
326,28,173524,1,2,0:2:0:0:
209,166,173696,5,0,0:2:0:0:
483,260,176096,1,0,0:2:0:0:
409,316,176267,1,0,0:2:0:0:
294,200,176438,6,0,P|331:207|373:237,1,80,2|0,0:2|0:2,0:0:0:0:
409,316,176781,1,0,0:2:0:0:
275,361,177296,5,2,0:2:0:0:
366,236,177467,1,2,0:2:0:0:
280,369,177638,2,0,P|216:279|52:303,1,279.999991455078,2|0,0:2|0:2,0:0:0:0:
45,377,178667,1,2,0:2:0:0:
45,377,179010,6,0,P|63:339|63:278,1,80,2|0,0:2|0:2,0:0:0:0:
5,172,179353,1,2,0:2:0:0:
135,250,179524,2,0,B|241:285|304:197|304:197|281:306|395:365,1,383.99998828125,2|0,0:2|0:2,0:0:0:0:
482,345,181410,5,2,0:2:0:0:
512,231,181581,1,2,0:2:0:0:
377,362,181753,1,2,0:2:0:0:
325,198,181924,2,0,P|299:115|253:15,1,191.999994140625,0|0,0:2|0:2,0:0:0:0:
213,126,182953,5,2,0:2:0:0:
367,63,183124,2,0,P|352:28|338:4,1,64,2|0,0:2|0:2,0:0:0:0:
213,126,184153,5,2,0:2:0:0:
182,232,184324,1,2,0:2:0:0:
204,119,184496,1,2,0:2:0:0:
93,77,184667,6,0,P|106:91|118:116,5,37.3333321940105,2|2|2|2|2|2,0:2|0:2|0:2|0:2|0:2|0:2,0:0:0:0:
193,119,185353,2,0,P|193:137|188:155,5,37.3333321940105,2|2|2|2|2|2,0:2|0:2|0:2|0:2|0:2|0:2,0:0:0:0:
162,240,186038,5,2,3:2:0:0:
176,232,186123,1,2,0:2:0:0:
192,229,186209,1,2,0:2:0:0:
209,229,186295,1,2,0:2:0:0:
225,231,186380,1,2,3:2:0:0:
240,238,186466,1,2,0:2:0:0:
254,248,186552,1,2,0:2:0:0:
265,260,186638,1,2,0:2:0:0:
273,274,186724,5,2,3:2:0:0:
282,301,186809,1,2,0:2:0:0:
298,326,186895,1,2,3:2:0:0:
319,345,186981,1,2,0:2:0:0:
345,359,187066,1,2,3:2:0:0:
373,365,187152,1,2,0:2:0:0:
402,364,187238,1,2,3:2:0:0:
430,356,187324,1,2,0:2:0:0:
454,340,187410,6,0,L|468:232,1,95.9999970703126,6|0,3:2|0:2,0:0:0:0:
335,110,187753,1,8,0:2:0:0:
371,261,187924,1,0,0:2:0:0:
429,159,188096,1,0,3:2:0:0:
440,152,188181,1,0,3:2:0:0:
452,147,188267,1,0,3:2:0:0:
363,264,188438,2,0,P|357:284|344:306,2,40,10|2|2,0:2|0:2|0:0,0:0:0:0:
324,103,188781,2,0,P|322:140|310:190,1,80,2|2,3:2|0:2,0:0:0:0:
168,133,189124,5,10,0:2:0:0:
178,134,189209,1,2,0:2:0:0:
188,134,189295,1,2,0:2:0:0:
198,135,189381,1,0,0:2:0:0:
208,136,189467,2,0,P|219:153|227:186,3,40,2|2|2|2,3:2|0:2|0:2|0:2,0:0:0:0:
162,229,189810,5,2,3:2:0:0:
125,219,189895,1,2,0:2:0:0:
89,227,189981,1,10,0:2:0:0:
60,249,190067,1,0,0:2:0:0:
45,283,190154,1,2,3:2:0:0:
81,297,190239,1,2,0:2:0:0:
118,292,190325,1,2,3:2:0:0:
149,273,190411,1,2,0:2:0:0:
169,240,190496,2,0,L|182:293,2,40,10|0|0,0:2|0:2|3:2,0:0:0:0:
296,349,190838,5,2,3:2:0:0:
297,329,190923,1,2,0:2:0:0:
299,309,191009,1,2,0:2:0:0:
301,289,191095,1,2,0:2:0:0:
303,269,191181,2,0,L|310:218,3,40,10|2|2|0,0:2|0:2|0:2|0:2,0:0:0:0:
383,192,191524,5,2,3:2:0:0:
391,207,191609,1,2,0:2:0:0:
404,217,191695,1,2,0:2:0:0:
420,222,191781,1,2,0:2:0:0:
437,219,191867,2,0,L|487:204,4,40,10|0|0|0|0,0:2|0:2|0:2|0:2|3:2,0:0:0:0:
309,261,192381,5,2,3:2:0:0:
401,320,192553,2,0,L|397:349,4,20,2|2|2|2|10,3:2|0:2|0:2|0:2|0:2,0:0:0:0:
309,261,192896,6,0,L|224:277,1,80,2|0,3:2|0:2,0:0:0:0:
54,344,193238,2,0,L|139:360,1,80,8|2,0:2|0:2,0:0:0:0:
9,231,193581,1,2,3:2:0:0:
4,241,193666,1,2,3:2:0:0:
2,252,193752,1,2,3:2:0:0:
61,353,193924,6,0,P|72:330|76:300,4,40,10|2|2|2|2,0:2|0:2|0:2|0:2|3:2,0:0:0:0:
146,218,194438,1,2,3:2:0:0:
146,218,194610,2,0,L|151:268,3,40,10|2|2|2,0:2|0:2|0:2|0:2,0:0:0:0:
220,280,194953,2,0,L|225:330,3,40,2|2|2|0,3:2|0:2|0:2|0:2,0:0:0:0:
284,371,195296,5,2,3:2:0:0:
299,345,195381,1,2,0:2:0:0:
324,328,195467,1,10,0:2:0:0:
353,323,195553,1,0,0:2:0:0:
380,329,195638,1,2,3:2:0:0:
400,356,195723,1,2,0:2:0:0:
431,373,195809,1,2,3:2:0:0:
465,376,195895,1,2,0:2:0:0:
498,365,195981,2,0,L|487:285,1,80,10|0,0:2|3:2,0:0:0:0:
454,139,196324,5,2,3:2:0:0:
424,136,196409,1,2,0:2:0:0:
395,145,196495,1,2,0:2:0:0:
372,163,196581,1,2,0:2:0:0:
357,189,196667,2,0,L|351:254,3,40,10|2|2|0,0:2|0:2|0:2|0:2,0:0:0:0:
278,266,197010,5,2,3:2:0:0:
256,271,197095,1,2,0:2:0:0:
235,266,197181,1,2,0:2:0:0:
218,252,197267,1,2,0:2:0:0:
210,232,197352,1,10,3:2:0:0:
76,150,197524,6,0,P|54:188|57:253,2,80,2|0|0,0:2|3:2|0:2,0:0:0:0:
199,78,198038,1,2,3:2:0:0:
135,209,198210,1,8,0:2:0:0:
199,78,198381,6,0,L|341:63,1,120,2|0,3:2|0:2,0:0:0:0:
334,55,198724,2,0,L|328:94,3,40,10|2|2|0,0:2|0:2|0:2|0:2,0:0:0:0:
404,152,199067,6,0,L|410:112,1,40,2|2,3:2|0:2,0:0:0:0:
433,11,199238,1,2,0:0:0:0:
495,163,199410,5,10,0:2:0:0:
498,182,199495,1,2,0:2:0:0:
502,202,199581,1,2,0:2:0:0:
505,222,199667,1,2,0:2:0:0:
509,241,199752,1,2,3:2:0:0:
429,307,199924,1,2,3:2:0:0:
266,213,200096,5,10,0:2:0:0:
290,187,200181,1,2,0:2:0:0:
323,177,200267,1,2,0:2:0:0:
357,183,200353,1,2,0:2:0:0:
378,200,200438,2,0,P|389:213|397:236,3,40,0|2|2|2,3:2|0:2|0:2|0:2,0:0:0:0:
422,299,200781,5,2,3:2:0:0:
411,334,200866,1,2,0:0:0:0:
386,362,200952,1,10,0:0:0:0:
353,378,201038,1,0,0:0:0:0:
316,380,201123,1,0,3:2:0:0:
298,349,201209,1,2,0:0:0:0:
294,315,201295,1,2,3:2:0:0:
304,281,201381,1,2,0:0:0:0:
327,255,201467,2,0,P|303:263|277:264,3,40,10|2|2|0,0:2|0:2|3:2|0:2,0:0:0:0:
215,211,201810,5,2,3:2:0:0:
186,202,201895,1,2,0:2:0:0:
156,204,201981,1,2,3:2:0:0:
129,216,202067,1,2,0:2:0:0:
108,237,202152,1,10,0:2:0:0:
87,258,202238,1,2,0:2:0:0:
60,270,202324,1,2,3:2:0:0:
30,272,202410,1,2,0:2:0:0:
2,264,202496,6,0,L|12:335,2,53.3333333333333,2|0|0,3:2|3:2|3:2,0:0:0:0:
46,186,202838,2,0,L|38:133,2,53.3333333333333,8|0|0,3:2|3:2|3:2,0:0:0:0:
120,234,203181,6,0,L|130:305,2,53.3333333333333,0|0|0,3:2|3:2|3:2,0:0:0:0:
162,159,203524,2,0,L|157:129,7,20,0|0|0|0|8|0|0|0,3:2|3:2|3:2|3:2|3:2|3:2|3:2|3:2,0:0:0:0:
256,192,203867,12,0,206438,0:2:0:0:
222,91,206610,5,0,0:2:0:0:
222,91,206696,2,0,L|228:128,18,20,0|0|0|0|0|0|0|0|0|0|0|0|0|0|0|0|0|0|0,0:2|0:2|0:2|0:2|0:2|0:2|0:2|0:2|0:2|0:2|0:2|0:2|0:2|0:2|0:2|0:2|0:2|0:2|0:2,0:0:0:0:
375,83,207638,6,0,L|368:122,3,40,0|0|0|0,0:2|0:2|0:2|0:2,0:0:0:0:
446,125,207981,5,0,0:2:0:0:
324,183,208153,2,0,L|276:174,2,40,2|2|2,0:2|0:2|0:2,0:0:0:0:
432,268,208496,2,0,L|522:251,1,80,2|0,0:2|0:2,0:0:0:0:
398,347,208838,5,2,0:2:0:0:
375,344,208924,1,2,0:2:0:0:
353,341,209010,1,2,0:2:0:0:
331,338,209096,1,2,0:2:0:0:
309,335,209181,2,0,L|246:328,1,60.0000022888184,8|0,0:2|0:2,0:0:0:0:
102,228,209353,6,0,B|51:254|51:254|222:225,1,215.999993408203,2|0,3:2|0:2,0:0:0:0:
323,207,209697,1,8,0:2:0:0:
139,156,209867,1,6,3:2:0:0:
402,344,210210,5,2,0:0:0:0:
500,179,210381,2,0,P|513:213|510:262,1,80,8|0,3:2|0:2,0:0:0:0:
395,343,210724,2,0,P|382:309|385:260,1,80,0|0,3:2|0:2,0:0:0:0:
239,141,211067,6,0,P|202:159|155:164,1,80,10|2,3:2|0:2,0:0:0:0:
63,92,211410,1,0,3:2:0:0:
117,266,211581,2,0,P|82:242|55:204,1,80,2|8,0:2|3:2,0:0:0:0:
175,85,211924,5,2,0:2:0:0:
175,85,212009,1,2,0:2:0:0:
175,85,212096,2,0,L|162:171,1,80,2|2,3:2|0:2,0:0:0:0:
141,355,212438,1,8,3:2:0:0:
270,253,212610,2,0,L|191:267,2,80,2|0|0,0:2|3:2|0:2,0:0:0:0:
409,353,213124,6,0,P|373:354|327:327,1,80,8|0,3:2|0:2,0:0:0:0:
362,198,213467,2,0,P|398:197|444:224,1,80,0|0,3:2|0:2,0:0:0:0:
324,340,213810,5,10,3:2:0:0:
502,304,213981,1,2,0:2:0:0:
352,202,214153,1,10,3:2:0:0:
512,310,214324,1,2,0:2:0:0:
313,347,214496,2,0,P|269:341|239:309,1,90.0000034332277,10|0,3:2|0:2,0:0:0:0:
232,298,214838,6,0,P|218:235|162:185,1,120.000004577637,2|2,3:2|0:2,0:0:0:0:
36,311,215181,1,8,3:2:0:0:
130,325,215353,2,0,P|125:277|106:245,1,80,2|0,0:2|3:2,0:0:0:0:
36,311,215696,1,0,0:2:0:0:
221,349,215867,2,0,P|227:301|214:245,1,80,8|0,3:2|0:2,0:0:0:0:
133,129,216210,6,0,P|143:167|165:201,1,80,0|0,3:2|0:2,0:0:0:0:
384,92,216553,1,10,3:2:0:0:
304,25,216724,2,0,P|282:58|271:116,1,80,2|0,0:2|3:2,0:0:0:0:
261,211,217067,5,2,0:2:0:0:
189,38,217238,1,8,3:2:0:0:
128,140,217410,1,2,0:2:0:0:
137,138,217496,1,2,0:2:0:0:
146,136,217581,5,2,3:2:0:0:
189,38,217753,1,2,0:2:0:0:
261,211,217924,1,10,3:2:0:0:
304,113,218096,1,2,0:2:0:0:
179,205,218267,5,2,3:2:0:0:
180,214,218353,1,2,0:2:0:0:
181,224,218438,1,2,0:2:0:0:
257,296,218610,5,10,3:2:0:0:
248,292,218696,1,2,0:2:0:0:
239,288,218781,1,2,0:2:0:0:
139,318,218953,5,2,3:2:0:0:
147,312,219039,1,2,0:2:0:0:
155,306,219124,1,2,0:2:0:0:
306,172,219296,2,0,L|244:227,1,60.0000022888184,10|2,3:2|0:2,0:0:0:0:
170,74,219638,5,2,3:2:0:0:
170,74,219724,2,0,P|196:78|222:96,1,40,2|0,3:2|0:2,0:0:0:0:
261,211,219896,1,2,0:2:0:0:
235,217,219981,1,10,3:2:0:0:
192,199,220067,1,2,0:2:0:0:
170,157,220153,1,2,0:2:0:0:
403,3,220324,6,0,L|392:126,1,120.000004577637,6|2,3:2|0:2,0:0:0:0:
383,301,220668,1,8,3:2:0:0:
500,169,220838,2,0,P|456:174|421:200,1,80,2|0,0:2|3:2,0:0:0:0:
383,301,221181,1,0,0:2:0:0:
262,153,221353,2,0,P|306:158|341:184,1,80,8|0,3:2|0:2,0:0:0:0:
383,301,221696,2,0,L|388:353,2,40,0|0|0,3:2|0:0|0:0,3:2:0:0:
250,160,222038,6,0,L|236:265,1,80,10|2,3:2|0:2,0:0:0:0:
223,367,222381,1,0,3:2:0:0:
164,226,222553,1,2,0:2:0:0:
297,342,222724,1,8,0:2:0:0:
108,368,222895,5,2,0:2:0:0:
108,368,222980,1,2,0:2:0:0:
108,368,223067,2,0,L|127:274,1,80,2|2,3:2|0:2,0:0:0:0:
167,74,223409,1,8,3:2:0:0:
251,187,223581,1,2,0:2:0:0:
77,153,223752,2,0,L|28:140,2,40,0|0|0,3:2|0:2|0:2,0:0:0:0:
247,198,224095,6,0,L|328:182,1,80,8|0,3:2|0:2,0:0:0:0:
118,295,224438,2,0,L|37:279,1,80,0|0,3:2|0:2,0:0:0:0:
310,365,224781,5,10,3:2:0:0:
454,312,224952,1,2,0:2:0:0:
323,193,225124,1,10,3:2:0:0:
394,382,225295,1,2,0:2:0:0:
414,191,225467,2,0,P|435:148|470:122,1,90.0000034332277,10|0,3:2|0:2,0:0:0:0:
479,123,225809,6,0,L|352:111,1,120.000004577637,2|2,3:2|0:2,0:0:0:0:
161,98,226152,1,8,3:2:0:0:
200,0,226324,2,0,P|234:19|254:53,1,80,2|0,0:2|3:2,0:0:0:0:
254,199,226667,5,0,0:2:0:0:
87,118,226838,2,0,P|121:97|160:97,1,80,8|0,3:2|0:2,0:0:0:0:
254,199,227181,2,0,P|293:198|327:178,1,80,0|0,3:2|0:2,0:0:0:0:
424,11,227524,5,10,3:2:0:0:
427,164,227696,2,0,P|449:113|445:65,1,80,2|0,0:2|3:2,0:0:0:0:
266,110,228038,5,2,0:2:0:0:
438,180,228209,1,8,3:2:0:0:
317,257,228381,1,2,0:2:0:0:
317,257,228467,1,2,0:2:0:0:
317,257,228553,6,0,P|308:290|331:346,1,80,2|0,3:2|0:2,0:0:0:0:
511,280,228896,2,0,P|456:276|382:289,1,120.000004577637,10|2,3:2|0:2,0:0:0:0:
167,355,229238,5,2,3:2:0:0:
167,355,229324,1,2,0:2:0:0:
167,355,229410,1,2,0:2:0:0:
167,355,229496,1,0,0:2:0:0:
167,355,229581,2,0,P|154:327|151:302,1,40,10|2,3:2|0:2,0:0:0:0:
62,307,229753,2,0,P|64:276|74:253,1,40,2|2,0:2|0:2,0:0:0:0:
112,184,229924,5,2,3:2:0:0:
134,169,230009,1,2,0:2:0:0:
161,160,230095,1,2,0:2:0:0:
189,160,230181,1,2,0:2:0:0:
215,168,230266,1,10,3:2:0:0:
238,184,230352,1,2,0:2:0:0:
256,206,230438,1,2,0:2:0:0:
266,231,230524,1,2,0:2:0:0:
269,255,230610,5,2,3:2:0:0:
273,243,230696,1,2,0:2:0:0:
277,231,230781,2,0,L|292:180,1,40,2|0,0:2|0:2,0:0:0:0:
383,342,230953,6,0,L|408:263,1,60.0000022888184,10|0,3:2|0:2,0:0:0:0:
436,184,231124,1,2,0:2:0:0:
269,255,231296,6,0,P|206:272|129:252,1,120.000004577637,6|2,3:2|0:2,0:0:0:0:
24,136,231638,1,8,3:2:0:0:
25,315,231810,2,0,P|43:272|43:231,1,80,2|0,0:2|3:2,0:0:0:0:
15,130,232153,1,0,0:2:0:0:
140,268,232324,5,10,3:2:0:0:
142,238,232409,1,2,0:2:0:0:
151,209,232495,1,2,0:2:0:0:
166,183,232581,1,2,0:2:0:0:
187,162,232667,2,0,P|210:155|231:154,3,40,2|2|2|0,3:2|0:2|0:2|0:2,0:0:0:0:
320,182,233010,5,10,3:2:0:0:
343,54,233181,2,0,P|363:73|379:130,1,80,2|0,0:2|3:2,0:0:0:0:
343,258,233524,1,2,0:2:0:0:
445,156,233696,1,10,3:2:0:0:
458,140,233781,1,2,0:2:0:0:
474,129,233867,1,2,0:2:0:0:
492,122,233953,1,2,0:2:0:0:
512,119,234038,2,0,P|519:160|497:209,1,80,2|2,3:2|0:2,0:0:0:0:
343,258,234381,5,10,3:2:0:0:
323,254,234466,1,2,0:2:0:0:
305,245,234552,1,2,0:2:0:0:
289,233,234638,1,2,0:2:0:0:
277,217,234724,2,0,P|308:191|362:185,1,80,2|0,3:2|0:2,0:0:0:0:
496,352,235067,5,10,3:2:0:0:
456,348,235152,1,2,0:2:0:0:
416,345,235238,1,2,0:2:0:0:
376,342,235324,1,2,0:2:0:0:
336,339,235410,2,0,L|252:330,1,80,2|0,3:2|0:2,0:0:0:0:
144,229,235753,5,10,3:2:0:0:
186,384,235924,1,2,0:2:0:0:
58,261,236096,1,10,3:2:0:0:
256,330,236267,1,2,0:2:0:0:
56,275,236438,1,10,3:2:0:0:
383,215,236781,6,0,P|443:201|487:158,1,120.000004577637,2|2,3:2|0:2,0:0:0:0:
341,42,237123,1,8,3:2:0:0:
391,125,237295,2,0,P|425:92|438:50,1,80,2|0,0:2|3:2,0:0:0:0:
341,42,237638,1,0,0:2:0:0:
254,249,237810,5,10,3:2:0:0:
224,247,237895,1,2,0:2:0:0:
197,234,237981,1,2,0:2:0:0:
178,211,238067,1,2,0:2:0:0:
169,183,238152,2,0,L|174:143,2,40,2|2|2,3:2|0:2|0:2,0:0:0:0:
73,323,238495,5,10,3:2:0:0:
0,192,238666,2,0,L|10:272,1,80,2|0,0:2|3:2,0:0:0:0:
25,383,239010,1,2,0:2:0:0:
182,186,239181,1,10,3:2:0:0:
178,215,239266,1,2,0:2:0:0:
174,245,239352,1,2,0:2:0:0:
170,275,239438,1,2,0:2:0:0:
167,305,239524,6,0,P|205:289|249:280,1,80,2|0,3:2|0:2,0:0:0:0:
415,314,239867,1,10,3:2:0:0:
290,359,240038,1,2,0:2:0:0:
405,202,240210,1,2,3:2:0:0:
422,212,240295,1,2,0:2:0:0:
438,223,240381,1,2,0:2:0:0:
453,237,240467,1,2,0:2:0:0:
466,252,240552,1,10,3:2:0:0:
478,268,240638,1,2,0:2:0:0:
488,285,240724,1,2,0:2:0:0:
496,303,240810,1,2,0:2:0:0:
502,322,240896,6,0,P|506:280|486:220,1,80,2|0,3:2|0:2,0:0:0:0:
384,115,241238,1,10,3:2:0:0:
501,166,241409,1,2,0:2:0:0:
332,171,241581,1,10,3:2:0:0:
497,243,241753,1,10,3:2:0:0:
321,176,241924,2,0,P|283:158|237:157,1,80,10|2,3:2|0:2,0:0:0:0:
138,305,242267,6,0,P|198:309|265:281,1,120.000004577637,6|2,3:2|0:2,0:0:0:0:
329,79,242610,1,8,3:2:0:0:
240,161,242781,1,2,0:2:0:0:
417,101,242953,5,2,3:2:0:0:
436,102,243038,1,2,0:2:0:0:
455,108,243124,1,2,0:2:0:0:
473,118,243210,1,2,0:2:0:0:
488,131,243296,1,10,3:2:0:0:
500,147,243381,1,2,0:2:0:0:
507,166,243467,1,2,0:2:0:0:
512,185,243553,1,2,0:2:0:0:
511,205,243638,6,0,P|498:243|451:274,1,80,2|2,3:2|0:2,0:0:0:0:
260,286,243981,2,0,P|296:258|346:256,1,80,10|2,3:2|0:2,0:0:0:0:
468,279,244324,1,0,3:2:0:0:
337,373,244496,1,2,0:2:0:0:
165,245,244667,5,10,3:2:0:0:
168,225,244752,1,2,0:2:0:0:
171,205,244838,1,2,0:2:0:0:
174,185,244924,1,2,0:2:0:0:
177,165,245010,2,0,L|190:80,1,80,2|2,3:2|0:2,0:0:0:0:
50,207,245353,5,10,3:2:0:0:
46,187,245438,1,2,0:2:0:0:
43,167,245524,1,2,0:2:0:0:
40,147,245610,1,2,0:2:0:0:
37,127,245696,2,0,L|26:77,3,40,2|2|2|2,3:2|0:2|0:2|0:2,0:0:0:0:
69,15,246038,5,10,3:2:0:0:
107,6,246123,1,2,0:2:0:0:
146,14,246209,1,2,0:2:0:0:
178,38,246295,1,2,0:2:0:0:
196,73,246381,2,0,L|185:123,2,40,2|2|2,3:2|0:2|0:2,0:0:0:0:
350,0,246724,5,10,3:2:0:0:
374,186,246896,1,2,0:2:0:0:
450,28,247067,1,10,3:2:0:0:
358,201,247239,1,2,0:2:0:0:
512,107,247410,2,0,P|472:108|435:123,1,80,10|0,3:2|0:2,0:0:0:0:
465,310,247753,6,0,L|494:184,1,120.000004577637,2|2,3:2|0:2,0:0:0:0:
368,368,248096,1,8,3:2:0:0:
341,214,248267,1,2,0:2:0:0:
228,362,248438,5,2,3:2:0:0:
198,367,248523,1,2,0:2:0:0:
168,366,248609,1,2,0:2:0:0:
140,356,248695,1,2,0:2:0:0:
116,338,248780,1,10,3:2:0:0:
92,321,248866,1,2,0:2:0:0:
64,310,248952,1,2,0:2:0:0:
34,309,249038,1,2,0:2:0:0:
5,315,249124,2,0,L|-2:364,2,40,2|2|2,3:2|0:2|0:2,0:0:0:0:
175,196,249467,6,0,L|186:275,2,80,10|2|0,3:2|0:2|3:2,0:0:0:0:
155,72,249981,1,2,0:2:0:0:
278,211,250153,2,0,L|289:132,1,80,10|2,3:2|0:2,0:0:0:0:
419,8,250496,5,10,3:2:0:0:
420,22,250581,1,2,3:2:0:0:
422,37,250667,1,2,3:2:0:0:
424,52,250753,1,0,3:2:0:0:
426,67,250838,1,10,3:2:0:0:
428,82,250924,1,2,3:2:0:0:
430,97,251010,1,2,3:2:0:0:
432,112,251096,1,0,3:2:0:0:
434,127,251181,5,10,3:2:0:0:
435,168,251266,1,2,3:2:0:0:
423,209,251352,1,2,3:2:0:0:
401,245,251438,1,2,3:2:0:0:
370,273,251523,1,10,3:2:0:0:
330,288,251609,1,2,3:2:0:0:
289,291,251695,1,2,3:2:0:0:
248,282,251781,1,2,3:2:0:0:
215,255,251867,6,0,P|204:229|203:205,5,40,10|0|0|0|0|0,3:2|3:2|3:2|0:2|3:2|3:2,0:0:0:0:
118,168,252381,5,8,3:2:0:0:
118,168,252467,1,0,3:2:0:0:
118,168,252553,2,0,P|107:195|106:221,1,40,0|0,3:2|3:2,0:0:0:0:
215,255,252724,6,0,P|223:236|227:217,5,40,8|0|0|0|0|0,3:2|3:2|3:2|3:2|3:2|3:2,0:0:0:0:
238,200,253238,6,0,L|247:324,1,120.000004577637,4|0,3:2|0:2,0:0:0:0:
57,371,253581,2,0,L|67:312,1,47.9999985351563,10|0,0:2|0:2,0:0:0:0:
20,244,253924,5,0,3:2:0:0:
12,250,254010,1,0,3:2:0:0:
3,250,254096,2,0,P|18:233|77:229,1,47.9999985351563,2|0,3:2|0:2,0:0:0:0:
152,356,254267,2,0,P|104:349|64:323,1,95.9999970703126,8|0,0:2|0:2,0:0:0:0:
124,179,254610,6,0,P|171:185|211:211,1,95.9999970703126,2|0,3:2|0:2,0:0:0:0:
299,383,254953,1,8,0:2:0:0:
384,231,255124,2,0,P|389:252|391:274,1,30.0000011444092,2|0,0:2|0:2,0:0:0:0:
299,383,255296,5,0,3:2:0:0:
288,372,255381,1,0,3:2:0:0:
281,357,255467,1,2,3:2:0:0:
228,206,255638,1,8,0:2:0:0:
384,231,255810,1,2,0:2:0:0:
182,293,255981,6,0,P|133:307|80:308,1,95.9999970703126,0|0,3:2|0:2,0:0:0:0:
389,224,256324,2,0,P|436:226|469:241,1,80,10|0,3:2|0:2,0:0:0:0:
511,326,256667,1,0,3:2:0:0:
508,316,256752,1,0,3:2:0:0:
505,307,256838,1,2,3:2:0:0:
463,158,257010,1,8,0:2:0:0:
413,316,257181,6,0,L|388:220,1,95.9999970703126,2|0,0:2|3:2,0:0:0:0:
356,87,257524,1,2,0:2:0:0:
228,269,257696,1,8,0:2:0:0:
150,131,257867,6,0,P|196:141|231:173,1,95.9999970703126,2|0,0:2|3:2,0:0:0:0:
232,186,258125,1,0,3:2:0:0:
225,195,258210,1,0,3:2:0:0:
73,189,258381,1,10,0:2:0:0:
228,269,258553,1,2,0:2:0:0:
299,114,258724,6,0,P|336:81|389:74,1,95.9999970703126,0|0,3:2|0:2,0:0:0:0:
510,228,259067,2,0,P|478:221|455:200,1,60.0000022888184,10|0,0:2|0:2,0:0:0:0:
361,157,259410,5,0,3:2:0:0:
374,152,259496,1,0,3:2:0:0:
388,153,259581,2,0,L|380:207,1,47.9999985351563,2|0,3:2|0:2,0:0:0:0:
228,279,259753,2,0,L|242:184,1,95.9999970703126,8|0,0:2|0:2,0:0:0:0:
394,382,260096,6,0,L|380:287,1,95.9999970703126,2|0,3:2|0:2,0:0:0:0:
143,323,260438,1,8,0:2:0:0:
294,354,260610,1,2,0:2:0:0:
228,279,260781,1,0,3:2:0:0:
228,279,260867,1,0,3:2:0:0:
228,279,260953,1,0,3:2:0:0:
79,377,261124,2,0,P|60:336|69:284,1,95.9999970703126,10|2,0:2|0:2,0:0:0:0:
242,185,261467,6,0,L|139:203,1,95.9999970703126,0|0,3:2|0:2,0:0:0:0:
9,93,261810,2,0,L|60:101,1,47.9999985351563,10|0,0:2|0:2,0:0:0:0:
159,20,262153,5,0,3:2:0:0:
147,22,262238,1,0,3:2:0:0:
135,24,262324,2,0,L|126:75,1,47.9999985351563,2|0,3:2|0:2,0:0:0:0:
248,189,262496,2,0,L|264:94,1,95.9999970703126,8|0,0:2|0:2,0:0:0:0:
392,17,262838,6,0,P|435:19|492:54,1,95.9999970703126,2|0,3:2|0:2,0:0:0:0:
451,211,263181,1,8,0:2:0:0:
356,138,263353,1,2,3:2:0:0:
367,124,263438,1,2,3:2:0:0:
381,113,263524,1,2,3:2:0:0:
397,106,263610,1,10,3:2:0:0:
414,102,263695,1,2,3:2:0:0:
256,202,263867,2,0,P|194:197|163:177,1,95.9999970703126,10|2,0:2|0:2,0:0:0:0:
212,17,264210,6,0,L|229:116,1,95.9999970703126,4|0,3:2|0:2,0:0:0:0:
62,199,264553,2,0,L|73:134,1,47.9999985351563,10|0,0:2|0:2,0:0:0:0:
166,179,264896,5,0,3:2:0:0:
166,179,264981,1,0,3:2:0:0:
166,179,265067,2,0,L|157:226,1,40,2|0,3:2|0:2,0:0:0:0:
211,314,265238,2,0,P|239:280|276:260,1,80,8|0,0:2|0:2,0:0:0:0:
374,384,265581,6,0,P|330:376|294:354,1,80,2|0,3:2|0:2,0:0:0:0:
370,218,265924,1,8,0:2:0:0:
449,309,266096,1,2,0:2:0:0:
364,303,266267,5,0,3:2:0:0:
364,303,266353,1,0,3:2:0:0:
364,303,266438,1,0,3:2:0:0:
485,196,266610,2,0,P|496:148|481:94,1,80,10|2,0:2|0:2,0:0:0:0:
395,64,266953,6,0,P|384:112|399:166,1,80,0|0,3:2|0:2,0:0:0:0:
364,303,267296,2,0,P|375:255|360:201,1,80,10|0,3:2|0:2,0:0:0:0:
281,155,267638,5,0,3:2:0:0:
268,152,267723,1,0,3:2:0:0:
255,150,267809,1,2,3:2:0:0:
177,278,267981,2,0,L|274:262,1,80,8|0,0:2|0:2,0:0:0:0:
255,150,268324,6,0,L|176:163,1,80,2|0,3:2|0:2,0:0:0:0:
61,295,268667,2,0,P|64:253|108:205,1,80,8|2,0:2|0:2,0:0:0:0:
177,278,269010,1,0,3:2:0:0:
161,281,269095,1,0,3:2:0:0:
145,280,269181,1,2,3:2:0:0:
243,165,269353,1,8,0:2:0:0:
263,282,269524,6,0,L|278:372,2,80,2|0|0,0:2|3:2|0:2,0:0:0:0:
382,161,270038,2,0,L|369:238,1,60.0000022888184,10|0,0:2|0:2,0:0:0:0:
263,282,270381,5,0,3:2:0:0:
278,279,270466,1,0,3:2:0:0:
291,271,270553,2,0,P|291:241|276:216,1,40,2|0,3:2|0:2,0:0:0:0:
168,253,270724,2,0,P|164:290|180:331,1,80,8|0,0:2|0:2,0:0:0:0:
305,371,271067,6,0,L|403:352,1,80,2|0,3:2|0:2,0:0:0:0:
505,256,271410,1,8,0:2:0:0:
474,338,271581,1,2,0:2:0:0:
418,270,271753,5,0,3:2:0:0:
418,270,271838,1,0,3:2:0:0:
418,270,271924,1,0,3:2:0:0:
305,371,272096,2,0,L|213:355,1,80,10|2,0:2|0:2,0:0:0:0:
165,281,272438,6,0,P|204:259|257:265,1,80,0|0,3:2|0:2,0:0:0:0:
115,381,272781,2,0,P|82:361|65:321,1,64,10|0,0:2|0:2,0:0:0:0:
107,229,273124,5,0,3:2:0:0:
107,229,273210,1,0,3:2:0:0:
107,229,273296,1,2,3:2:0:0:
224,345,273467,2,0,P|263:343|297:322,1,80,8|0,0:2|0:2,0:0:0:0:
325,217,273810,6,0,L|310:123,1,80,2|0,3:2|0:2,0:0:0:0:
448,23,274153,1,8,0:2:0:0:
432,133,274324,1,2,0:2:0:0:
330,64,274496,5,0,3:2:0:0:
339,65,274581,1,0,3:2:0:0:
348,69,274667,1,0,3:2:0:0:
325,217,274838,2,0,P|277:216|237:196,1,80,10|2,0:2|0:2,0:0:0:0:
123,102,275181,6,0,L|115:132,2,25.9999988098145,0|0|0,3:2|0:2|0:2,0:0:0:0:
197,139,275524,2,0,L|177:163,2,25.9999988098145,0|0|0,3:2|0:2|0:2,0:0:0:0:
248,203,275867,1,0,3:2:0:0:
154,245,276038,2,0,L|144:300,2,51.999997619629,2|2|2,0:2|3:2|0:2,0:0:0:0:
248,203,276553,6,0,L|252:175,2,25.9999988098145,0|0|0,3:2|0:2|0:2,0:0:0:0:
320,231,276896,2,0,L|335:207,2,25.9999988098145,0|0|0,3:2|0:2|0:2,0:0:0:0:
373,287,277238,1,0,3:2:0:0:
468,246,277410,2,0,P|476:267|479:300,1,51.999997619629,2|0,0:2|3:2,0:0:0:0:
373,287,277753,1,2,0:2:0:0:
416,185,277924,6,0,P|436:172|447:168,2,25.9999988098145,0|0|2,3:2|0:2|0:2,0:0:0:0:
356,136,278267,2,0,P|368:115|376:107,2,25.9999988098145,2|0|0,3:2|0:2|0:2,0:0:0:0:
280,116,278610,2,0,P|282:92|286:81,2,25.9999988098145,0|0|0,3:2|0:2|0:2,0:0:0:0:
202,129,278953,2,0,P|194:106|193:94,2,25.9999988098145,0|0|0,3:2|0:2|0:2,0:0:0:0:
133,212,279296,6,0,L|51:197,1,80,0|0,3:2|3:2,0:0:0:0:
272,299,279638,2,0,L|354:284,1,80,0|0,3:2|3:2,0:0:0:0:
99,353,279981,5,0,3:2:0:0:
177,377,280153,1,0,3:2:0:0:
133,212,280324,2,0,P|128:191|126:170,1,40,8|2,0:2|0:2,0:0:0:0:
253,80,280667,6,0,P|243:110|242:171,1,80,6|0,3:2|0:2,0:0:0:0:
423,268,281010,2,0,L|518:253,2,80,8|0|0,0:2|0:2|0:2,0:0:0:0:
259,297,281524,1,0,3:2:0:0:
401,384,281696,2,0,L|321:371,1,80,10|2,0:2|0:2,0:0:0:0:
281,210,282039,6,0,P|319:226|347:277,1,80,0|0,3:2|0:2,0:0:0:0:
172,321,282381,2,0,P|166:280|197:230,1,80,8|0,0:2|0:2,0:0:0:0:
243,145,282724,5,0,3:2:0:0:
243,145,282809,1,0,3:2:0:0:
243,145,282895,1,2,3:2:0:0:
259,297,283067,1,10,0:2:0:0:
165,173,283238,1,2,0:2:0:0:
267,305,283410,6,0,L|355:295,1,80,0|0,3:2|0:2,0:0:0:0:
511,360,283753,2,0,P|459:330|463:216,1,160,10|0,0:2|0:2,0:0:0:0:
458,226,284181,1,2,3:2:0:0:
467,221,284267,2,0,L|411:207,1,40,2|0,3:2|0:2,0:0:0:0:
382,116,284438,2,0,L|459:135,1,80,8|0,0:2|0:2,0:0:0:0:
367,269,284781,6,0,L|246:239,1,120,2|0,3:2|0:2,0:0:0:0:
234,236,285124,1,8,0:2:0:0:
137,356,285296,2,0,L|152:273,1,80,2|0,0:2|0:2,0:0:0:0:
153,265,285553,1,0,3:2:0:0:
155,253,285639,1,0,3:2:0:0:
188,99,285810,1,10,0:2:0:0:
234,236,285981,1,2,0:2:0:0:
120,130,286153,6,0,P|87:115|34:110,1,80,0|0,3:2|0:2,0:0:0:0:
234,236,286496,2,0,P|273:231|310:215,1,80,8|0,0:2|0:2,0:0:0:0:
362,93,286839,1,0,3:2:0:0:
360,103,286925,1,0,3:2:0:0:
358,113,287010,2,0,L|346:52,1,40,2|0,3:2|0:2,0:0:0:0:
442,58,287181,2,0,L|453:118,1,40,10|0,0:2|0:2,0:0:0:0:
423,204,287353,6,0,P|484:224|511:258,2,80,2|0|0,0:2|3:2|0:2,0:0:0:0:
327,344,287867,2,0,P|359:321|398:314,1,80,8|0,0:2|0:2,0:0:0:0:
481,348,288211,1,0,3:2:0:0:
479,359,288296,1,0,3:2:0:0:
473,368,288381,1,2,3:2:0:0:
417,211,288553,1,8,0:2:0:0:
327,344,288724,6,0,P|366:337|398:314,2,80,2|0|2,0:2|3:2|0:2,0:0:0:0:
196,167,289239,2,0,P|274:179|325:239,1,160,10|0,3:2|3:2,0:0:0:0:
325,250,289667,1,0,3:2:0:0:
324,260,289753,1,0,3:2:0:0:
155,284,289925,2,0,P|201:261|237:263,1,80,8|0,0:2|0:2,0:0:0:0:
341,346,290268,5,2,3:2:0:0:
223,384,290438,1,2,0:2:0:0:
325,239,290610,2,0,P|343:192|340:140,1,80,10|0,0:2|0:2,0:0:0:0:
293,70,290953,5,0,3:2:0:0:
296,80,291038,1,0,3:2:0:0:
298,90,291124,1,2,3:2:0:0:
439,162,291296,1,10,0:2:0:0:
475,74,291467,1,2,0:2:0:0:
344,162,291638,6,0,P|326:209|329:261,1,80,2|0,3:2|0:2,0:0:0:0:
177,327,291981,2,0,P|159:280|162:228,1,80,8|0,0:2|0:2,0:0:0:0:
232,169,292324,1,0,3:2:0:0:
221,176,292410,1,0,3:2:0:0:
208,178,292496,1,0,3:2:0:0:
28,132,292667,1,10,0:2:0:0:
184,94,292838,1,2,0:2:0:0:
84,200,293010,6,0,L|71:296,1,80,0|0,3:2|0:2,0:0:0:0:
192,87,293353,2,0,L|179:-9,1,80,8|0,0:2|0:2,0:0:0:0:
306,140,293696,5,0,3:2:0:0:
306,140,293781,1,0,3:2:0:0:
306,140,293867,1,2,3:2:0:0:
449,73,294039,1,10,0:2:0:0:
359,52,294210,1,2,0:2:0:0:
487,182,294381,6,0,L|498:270,1,80,0|0,3:2|0:2,0:0:0:0:
422,352,294724,2,0,P|361:296|263:302,1,160,10|0,0:2|0:2,0:0:0:0:
279,299,295153,1,2,3:2:0:0:
277,308,295239,2,0,L|271:259,1,40,2|0,3:2|0:2,0:0:0:0:
165,256,295410,2,0,L|175:340,1,80,8|0,0:2|0:2,0:0:0:0:
251,177,295753,6,0,P|193:138|113:150,1,120,2|0,3:2|0:2,0:0:0:0:
129,149,296096,1,8,0:2:0:0:
50,34,296268,2,0,P|18:66|8:109,1,80,2|0,0:2|0:2,0:0:0:0:
8,114,296525,1,0,3:2:0:0:
10,125,296611,1,2,3:2:0:0:
175,53,296781,1,10,0:2:0:0:
129,149,296953,1,2,0:2:0:0:
285,89,297124,6,0,L|383:100,1,80,4|0,3:2|0:2,0:0:0:0:
490,242,297467,2,0,L|392:231,1,80,8|0,0:2|0:2,0:0:0:0:
294,275,297810,5,0,3:2:0:0:
304,271,297895,1,0,3:2:0:0:
314,267,297981,2,0,L|306:328,1,40,2|0,3:2|0:2,0:0:0:0:
216,384,298153,2,0,L|221:344,1,40,10|0,0:2|0:2,0:0:0:0:
234,161,298324,1,2,0:2:0:0:
99,247,298496,6,0,P|145:246|180:229,1,80,2|0,3:2|0:2,0:0:0:0:
225,73,298838,1,8,0:2:0:0:
319,187,299010,2,0,P|317:134|299:105,1,80,2|0,0:2|0:2,0:0:0:0:
225,73,299353,1,2,3:2:0:0:
281,263,299524,1,8,0:2:0:0:
402,183,299696,1,2,0:2:0:0:
402,183,299867,6,0,P|447:163|504:164,1,80,0|2,3:2|0:2,0:0:0:0:
488,370,300210,2,0,P|448:364|412:347,1,80,10|0,0:2|0:2,0:0:0:0:
471,259,300553,1,0,3:2:0:0:
471,268,300638,1,0,3:2:0:0:
470,276,300724,1,0,3:2:0:0:
331,351,300896,1,8,0:2:0:0:
262,236,301067,6,0,P|233:216|185:203,1,80,2|0,0:2|3:2,0:0:0:0:
110,264,301410,1,2,0:2:0:0:
151,92,301581,1,8,0:2:0:0:
70,152,301753,1,2,0:2:0:0:
190,203,301924,5,0,3:2:0:0:
200,200,302010,1,0,3:2:0:0:
210,197,302096,2,0,P|233:192|261:197,1,40,2|0,3:2|0:2,0:0:0:0:
309,132,302267,2,0,P|324:149|334:176,1,40,10|0,0:2|0:2,0:0:0:0:
349,249,302438,1,2,0:2:0:0:
464,139,302610,6,0,P|467:172|444:246,1,80,2|0,3:2|0:2,0:0:0:0:
302,342,302953,2,0,L|380:354,2,80,8|0|0,0:2|0:2|0:2,0:0:0:0:
168,381,303467,5,0,3:2:0:0:
112,213,303638,1,10,0:2:0:0:
194,280,303810,1,2,0:2:0:0:
19,250,303981,6,0,P|13:201|33:147,1,80,0|0,3:2|0:2,0:0:0:0:
149,66,304324,1,8,0:2:0:0:
47,36,304496,1,0,0:2:0:0:
171,151,304667,1,0,3:2:0:0:
171,151,304753,1,0,3:2:0:0:
171,151,304838,2,0,P|202:142|216:133,1,40,2|0,3:2|0:2,0:0:0:0:
266,0,305010,2,0,P|257:34|260:93,1,80,10|2,0:2|0:2,0:0:0:0:
378,142,305353,6,0,P|387:108|384:49,1,80,0|0,3:2|0:2,0:0:0:0:
275,249,305696,2,0,L|443:219,1,160,10|0,0:2|0:2,0:0:0:0:
440,224,306125,1,2,3:2:0:0:
448,227,306211,2,0,L|442:274,1,40,2|0,3:2|0:2,0:0:0:0:
497,371,306381,2,0,L|511:292,1,80,8|0,0:2|0:2,0:0:0:0:
378,341,306724,6,0,L|256:362,1,120,2|0,3:2|0:2,0:0:0:0:
247,368,307068,1,8,0:2:0:0:
116,265,307238,2,0,L|208:281,1,80,2|0,0:2|0:2,0:0:0:0:
201,287,307497,1,0,3:2:0:0:
207,294,307581,1,0,3:2:0:0:
17,264,307753,1,10,0:2:0:0:
95,352,307925,1,2,0:2:0:0:
72,184,308096,6,0,L|57:94,1,80,4|0,3:2|0:2,0:0:0:0:
207,294,308438,2,0,L|192:384,1,80,8|0,0:2|0:2,0:0:0:0:
304,211,308781,1,0,3:2:0:0:
306,220,308866,1,0,3:2:0:0:
308,230,308952,1,2,3:2:0:0:
430,384,309124,1,10,0:2:0:0:
446,267,309296,1,2,0:2:0:0:
299,376,309467,6,0,L|285:297,1,80,2|0,3:2|0:2,0:0:0:0:
174,97,309810,1,8,0:2:0:0:
258,161,309981,1,2,0:2:0:0:
308,77,310153,1,0,3:2:0:0:
308,77,310238,1,0,3:2:0:0:
308,77,310324,2,0,L|312:25,1,40,2|0,3:2|0:2,0:0:0:0:
457,169,310496,5,8,0:2:0:0:
457,169,310667,2,0,P|397:181|351:164,1,80,2|0,0:2|3:2,0:0:0:0:
308,77,311010,1,2,0:2:0:0:
299,234,311181,2,0,P|224:188|130:199,1,160,10|0,3:2|0:2,0:0:0:0:
182,327,311696,1,0,3:2:0:0:
42,217,311867,2,0,P|53:254|82:282,1,80,8|2,0:2|0:2,0:0:0:0:
168,194,312210,6,0,P|156:156|127:128,1,80,0|2,3:2|0:2,0:0:0:0:
191,324,312553,1,8,0:2:0:0:
299,234,312724,1,2,0:2:0:0:
306,218,312809,1,0,0:2:0:0:
310,201,312895,1,0,3:2:0:0:
313,184,312981,1,0,3:2:0:0:
313,167,313066,5,2,3:2:0:0:
175,212,313238,1,10,0:2:0:0:
327,325,313410,1,2,0:2:0:0:
436,181,313581,6,0,P|415:222|408:278,1,80,2|0,3:2|0:2,0:0:0:0:
254,384,313924,2,0,P|233:343|226:287,1,80,8|0,0:2|0:2,0:0:0:0:
175,212,314267,1,0,3:2:0:0:
173,224,314352,1,0,3:2:0:0:
172,236,314438,1,0,3:2:0:0:
45,384,314610,2,0,L|28:283,1,80,10|2,0:2|0:2,0:0:0:0:
0,133,314953,6,0,L|13:211,1,80,0|0,3:2|0:2,0:0:0:0:
160,384,315296,1,8,0:2:0:0:
180,240,315467,2,0,L|193:162,1,80,2|0,0:2|3:2,0:0:0:0:
271,150,315724,5,0,3:2:0:0:
271,150,315810,2,0,L|261:204,1,40,2|0,3:2|0:2,0:0:0:0:
172,245,315981,1,10,0:2:0:0:
322,280,316153,1,2,0:2:0:0:
350,123,316324,6,0,L|337:201,1,80,0|0,3:2|0:2,0:0:0:0:
179,334,316667,2,0,L|166:256,1,80,10|0,0:2|0:2,0:0:0:0:
35,311,317010,5,0,3:2:0:0:
35,311,317096,1,0,3:2:0:0:
35,311,317181,1,2,3:2:0:0:
179,247,317353,1,8,0:2:0:0:
31,199,317524,1,2,3:2:0:0:
31,199,317610,1,2,3:2:0:0:
31,199,317696,6,0,L|26:159,9,40,2|2|2|2|2|2|2|2|2|2,0:2|0:2|0:2|0:2|0:2|0:2|0:2|0:2|0:2|0:2,0:0:0:0:
74,95,318553,5,10,0:2:0:0:
120,78,318638,1,10,0:2:0:0:
169,87,318724,1,10,0:2:0:0:
206,118,318810,1,10,0:2:0:0:
223,165,318896,1,10,0:2:0:0:
239,211,318981,1,10,0:2:0:0:
277,243,319067,1,10,0:2:0:0:
326,252,319153,1,10,0:2:0:0:
372,235,319238,2,0,L|380:175,1,40,10|0,3:2|3:2,0:0:0:0:
474,82,319410,6,0,L|457:203,1,103.999995239258,14|2,0:2|0:2,0:0:0:0:
443,303,319753,1,2,3:2:0:0:
374,179,319924,1,2,3:2:0:0:
259,332,320096,1,10,0:2:0:0:
259,332,320181,1,2,0:2:0:0:
259,332,320267,6,0,L|384:309,2,103.999995239258,2|0|0,0:2|3:2|0:2,0:0:0:0:
98,217,320781,1,8,0:2:0:0:
198,161,320953,2,0,P|214:207|204:265,1,103.999995239258,0|0,0:2|3:2,0:0:0:0:
201,270,321210,1,0,3:2:0:0:
195,277,321296,1,2,3:2:0:0:
111,123,321467,1,8,0:2:0:0:
215,60,321638,1,2,0:2:0:0:
285,172,321810,6,0,P|335:163|388:160,1,103.999995239258,0|2,3:2|0:2,0:0:0:0:
190,282,322153,1,10,0:2:0:0:
108,206,322325,2,0,P|53:197|5:194,1,103.999995239258,2|0,0:2|0:2,0:0:0:0:
107,118,322667,1,0,3:2:0:0:
186,288,322838,1,8,0:2:0:0:
265,155,323010,1,2,0:2:0:0:
198,197,323181,5,0,3:2:0:0:
278,317,323353,1,2,0:2:0:0:
418,217,323524,1,8,0:2:0:0:
268,314,323696,1,2,0:2:0:0:
409,308,323867,5,0,3:2:0:0:
409,308,323953,1,0,3:2:0:0:
409,308,324038,1,2,3:2:0:0:
279,163,324210,1,10,0:2:0:0:
418,217,324381,1,2,0:2:0:0:
268,314,324553,6,0,P|221:337|149:326,1,103.999995239258,0|2,3:2|0:2,0:0:0:0:
44,187,324896,1,10,0:2:0:0:
18,383,325067,2,0,L|33:270,1,103.999995239258,2|0,0:2|3:2,0:0:0:0:
175,40,325410,6,0,L|189:118,1,60.0000022888184,2|0,3:2|0:2,0:0:0:0:
288,81,325581,2,0,L|276:22,1,60.0000022888184,10|0,0:2|0:2,0:0:0:0:
165,31,325753,2,0,L|191:167,1,103.999995239258,2|0,0:2|3:2,0:0:0:0:
209,259,326096,5,2,0:2:0:0:
378,163,326267,1,10,0:2:0:0:
239,190,326438,1,2,0:2:0:0:
409,286,326610,5,0,3:2:0:0:
409,286,326696,1,0,3:2:0:0:
409,286,326781,2,0,P|408:248|399:217,1,51.999997619629,2|0,3:2|0:2,0:0:0:0:
377,156,326953,1,8,0:2:0:0:
330,318,327124,1,2,0:2:0:0:
294,129,327296,5,0,3:2:0:0:
108,198,327467,1,2,0:2:0:0:
108,198,327553,1,2,0:2:0:0:
108,198,327638,1,10,0:2:0:0:
145,188,327723,1,2,0:2:0:0:
183,195,327809,1,2,0:2:0:0:
216,216,327895,1,0,0:2:0:0:
237,249,327981,1,2,0:2:0:0:
258,281,328066,1,2,0:2:0:0:
290,302,328152,1,2,3:2:0:0:
328,309,328238,1,0,0:2:0:0:
366,299,328324,5,10,0:2:0:0:
369,254,328409,1,2,0:2:0:0:
398,220,328495,1,2,0:2:0:0:
442,211,328581,1,2,0:2:0:0:
482,229,328667,5,2,3:2:0:0:
441,248,328752,1,2,0:2:0:0:
397,240,328838,1,2,0:2:0:0:
367,207,328924,1,2,0:2:0:0:
363,163,329009,5,10,0:2:0:0:
399,189,329096,1,2,0:2:0:0:
415,231,329182,1,2,0:2:0:0:
401,273,329268,1,2,0:2:0:0:
365,299,329353,1,2,0:2:0:0:
320,297,329439,1,2,0:2:0:0:
284,271,329524,1,2,3:2:0:0:
473,170,329696,2,0,P|492:212|488:279,1,103.999995239258,10|2,0:2|0:2,0:0:0:0:
110,319,330038,6,0,P|81:273|82:202,1,103.999995239258,4|0,3:2|0:2,0:0:0:0:
293,267,330381,2,0,P|267:315|205:349,1,103.999995239258,8|0,0:2|0:2,0:0:0:0:
192,241,330724,5,2,3:2:0:0:
192,241,330810,1,0,3:2:0:0:
192,241,330896,1,0,3:2:0:0:
342,159,331067,1,8,0:2:0:0:
293,267,331238,1,2,0:2:0:0:
224,112,331410,5,0,3:2:0:0:
302,269,331581,1,2,0:2:0:0:
149,105,331753,2,0,P|157:77|173:56,1,51.999997619629,8|2,0:2|0:2,0:0:0:0:
309,89,331924,2,0,P|304:135|255:197,1,116.000003540039,2|0,0:0|3:2,0:0:0:0:
252,195,332181,1,2,3:2:0:0:
240,197,332267,5,0,3:2:0:0:
377,328,332438,1,8,0:2:0:0:
395,247,332610,1,2,0:2:0:0:
229,318,332781,2,0,P|173:319|116:297,1,103.999995239258,0|0,3:2|0:2,0:0:0:0:
60,131,333124,2,0,L|70:221,1,80,8|0,0:2|0:2,0:0:0:0:
88,378,333467,5,2,0:2:0:0:
180,233,333638,1,0,3:2:0:0:
0,314,333810,1,10,0:2:0:0:
187,223,333981,2,0,P|243:222|300:244,1,103.999995239258,2|0,0:2|3:2,0:0:0:0:
357,374,334324,5,2,0:2:0:0:
423,210,334496,1,10,0:2:0:0:
352,294,334667,1,2,0:2:0:0:
500,196,334838,1,2,3:2:0:0:
334,111,335010,1,2,3:2:0:0:
334,111,335096,1,2,3:2:0:0:
334,111,335181,1,10,0:0:0:0:
423,210,335353,1,2,0:0:0:0:
253,256,335524,6,0,P|202:253|154:234,1,103.999995239258,0|2,3:2|0:2,0:0:0:0:
177,22,335867,1,10,0:2:0:0:
219,166,336038,1,2,0:2:0:0:
130,113,336210,1,0,3:2:0:0:
130,113,336296,1,0,3:2:0:0:
130,113,336381,5,2,3:2:0:0:
310,79,336553,1,10,0:2:0:0:
341,230,336724,1,2,0:2:0:0:
292,68,336896,1,0,3:2:0:0:
354,240,337067,6,0,L|367:166,1,51.999997619629,2|0,0:2|0:2,0:0:0:0:
393,14,337238,1,10,0:2:0:0:
512,141,337410,2,0,P|464:152|412:151,1,80,2|0,0:2|0:2,0:0:0:0:
292,68,337753,5,2,3:2:0:0:
443,165,337924,1,10,0:2:0:0:
362,269,338096,1,2,0:2:0:0:
431,355,338267,6,0,P|453:323|469:257,1,103.999995239258,0|2,3:2|3:2,0:0:0:0:
463,252,338524,1,0,3:2:0:0:
457,245,338610,1,10,0:2:0:0:
248,234,338781,1,2,0:2:0:0:
362,271,338953,1,0,3:2:0:0:
362,271,339038,1,0,3:2:0:0:
362,271,339124,1,2,3:2:0:0:
244,119,339296,5,10,0:2:0:0:
341,74,339468,1,2,3:2:0:0:
341,74,339553,1,0,3:2:0:0:
341,74,339638,2,0,L|355:163,1,80,0|2,3:2|0:2,0:0:0:0:
171,293,339981,1,10,0:2:0:0:
173,273,340066,1,2,0:2:0:0:
176,253,340152,1,2,0:2:0:0:
10,176,340324,6,0,L|18:248,1,60.0000022888184,0|2,0:2|3:2,0:0:0:0:
83,359,340667,2,0,L|91:287,1,60.0000022888184,10|0,0:2|0:2,0:0:0:0:
288,142,341010,5,6,3:2:0:0:
289,149,341096,1,0,0:2:0:0:
290,156,341181,1,2,0:2:0:0:
375,170,341353,5,0,3:2:0:0:
371,176,341438,1,0,0:2:0:0:
368,182,341524,1,2,0:2:0:0:
444,230,341696,6,0,P|405:262|379:271,1,60.0000022888184,0|0,3:2|0:2,0:0:0:0:
256,283,342038,1,2,3:2:0:0:
408,357,342210,1,2,0:2:0:0:
304,228,342381,5,0,3:2:0:0:
313,233,342467,1,0,0:2:0:0:
319,242,342553,1,2,0:2:0:0:
279,352,342724,5,0,3:2:0:0:
270,357,342810,1,0,0:2:0:0:
260,358,342896,1,2,0:2:0:0:
184,268,343066,5,0,3:2:0:0:
184,258,343152,1,0,0:2:0:0:
189,248,343238,1,2,0:2:0:0:
304,228,343410,5,0,3:2:0:0:
313,233,343496,1,0,0:2:0:0:
319,242,343581,2,0,P|295:267|261:287,1,68.0000012969971,2|0,0:2|3:2,0:0:0:0:
163,173,343924,1,2,0:2:0:0:
87,217,344096,5,2,3:2:0:0:
85,225,344181,1,0,0:2:0:0:
84,233,344267,1,2,0:2:0:0:
166,157,344438,5,0,3:2:0:0:
164,165,344524,1,0,0:2:0:0:
163,173,344609,1,2,0:2:0:0:
245,97,344781,5,0,3:2:0:0:
243,105,344866,1,0,0:2:0:0:
242,113,344952,1,2,0:2:0:0:
332,204,345124,6,0,L|322:126,1,68.0000012969971,2|0,3:2|0:2,0:0:0:0:
428,246,345467,2,0,L|418:168,1,68.0000012969971,2|0,3:2|0:2,0:0:0:0:
512,299,345810,1,2,3:2:0:0:
512,299,345981,1,2,0:2:0:0:
388,331,346153,5,2,3:2:0:0:
419,178,346324,1,2,0:2:0:0:
283,259,346496,5,0,3:2:0:0:
295,270,346581,1,0,0:2:0:0:
310,277,346667,1,2,0:2:0:0:
279,150,346838,5,0,3:2:0:0:
279,166,346923,1,0,0:2:0:0:
285,181,347009,1,2,0:2:0:0:
353,70,347182,5,0,3:2:0:0:
341,81,347267,1,0,0:2:0:0:
335,96,347353,1,2,0:2:0:0:
467,63,347524,5,2,3:2:0:0:
451,64,347609,1,0,0:2:0:0:
436,71,347695,1,2,0:2:0:0:
335,96,347867,2,0,P|296:83|271:50,1,68.0000012969971,0|0,3:2|0:2,0:0:0:0:
176,88,348210,1,2,3:2:0:0:
176,88,348381,2,0,P|167:47|183:9,1,68.0000012969971,2|0,0:2|3:2,0:0:0:0:
206,187,348724,5,2,0:2:0:0:
124,188,348896,1,2,3:2:0:0:
82,117,349067,1,2,0:2:0:0:
22,233,349238,6,0,L|14:282,2,34.0000006484985,0|0|2,3:2|0:2|0:2,0:0:0:0:
106,324,349581,2,0,L|123:184,1,120,2|0,3:2|0:2,0:0:0:0:
124,188,349924,1,0,3:2:0:0:
215,311,350096,2,0,L|221:257,1,40,2|0,0:2|0:2,0:0:0:0:
280,226,350267,2,0,L|375:214,1,80,0|0,3:2|0:2,0:0:0:0:
463,310,350610,6,0,L|310:328,1,120,2|0,3:2|0:2,0:0:0:0:
333,326,350953,1,0,3:2:0:0:
399,210,351124,2,0,L|337:217,1,40,2|0,0:2|0:2,0:0:0:0:
280,226,351296,2,0,L|186:237,1,80,0|0,3:2|0:2,0:0:0:0:
75,107,351638,6,0,L|137:114,1,40,2|0,3:2|0:2,0:0:0:0:
106,187,351810,2,0,L|66:182,1,40,2|0,0:2|0:2,0:0:0:0:
217,74,351981,5,2,3:2:0:0:
380,108,352153,1,2,0:2:0:0:
272,231,352324,1,2,3:2:0:0:
308,44,352496,1,2,0:2:0:0:
363,201,352667,1,0,3:2:0:0:
198,159,352839,5,2,0:2:0:0:
380,108,353010,1,2,3:2:0:0:
217,74,353181,1,2,0:2:0:0:
272,231,353353,6,0,L|252:335,1,80,2|0,3:2|0:2,0:0:0:0:
58,140,353696,2,0,L|78:244,1,80,2|0,3:2|0:2,0:0:0:0:
214,0,354038,5,2,3:2:0:0:
147,167,354210,1,2,0:2:0:0:
26,43,354381,1,0,3:2:0:0:
197,100,354553,1,2,0:2:0:0:
197,100,354724,6,0,L|304:84,1,80,2|2,3:2|0:2,0:0:0:0:
438,5,355067,2,0,P|383:42|379:108,1,120,2|0,3:2|0:2,0:0:0:0:
379,112,355410,6,0,L|486:96,1,80,2|2,3:2|0:2,0:0:0:0:
281,232,355753,1,2,3:2:0:0:
383,247,355924,1,2,0:2:0:0:
203,128,356096,6,0,L|310:112,1,80,2|2,3:2|0:2,0:0:0:0:
112,272,356439,1,2,3:2:0:0:
214,287,356610,1,2,0:2:0:0:
66,212,356781,5,0,3:2:0:0:
151,370,356953,1,2,0:2:0:0:
264,232,357124,1,2,3:2:0:0:
157,373,357296,1,2,0:2:0:0:
142,142,357467,5,0,3:2:0:0:
240,350,357638,1,0,3:2:0:0:
225,157,357810,1,0,3:2:0:0:
163,379,357981,1,0,3:2:0:0:
306,118,358153,5,0,3:2:0:0:
430,353,358324,1,0,3:2:0:0:
394,125,358496,1,2,3:2:0:0:
348,383,358667,1,2,3:2:0:0:
306,118,358838,5,0,3:2:0:0:
305,111,358923,1,0,3:2:0:0:
304,104,359009,1,0,3:2:0:0:
303,96,359095,1,0,3:2:0:0:
302,89,359180,1,0,3:2:0:0:
301,81,359266,1,0,3:2:0:0:
300,74,359352,1,0,3:2:0:0:
299,66,359437,1,0,3:2:0:0:
298,59,359523,1,0,3:2:0:0:
297,52,359609,1,0,3:2:0:0:
296,44,359695,1,2,3:2:0:0:
295,37,359780,1,0,3:2:0:0:
294,29,359866,1,2,3:2:0:0:
293,22,359952,1,0,3:2:0:0:
292,14,360037,1,2,3:2:0:0:
291,7,360123,1,0,3:2:0:0:
290,0,360209,5,2,3:2:0:0:
316,20,360295,1,2,3:2:0:0:
331,53,360381,1,2,3:2:0:0:
330,87,360467,1,0,3:2:0:0:
313,119,360552,1,2,3:2:0:0:
282,138,360638,1,2,3:2:0:0:
248,143,360724,1,2,3:2:0:0:
214,131,360809,1,2,3:2:0:0:
190,102,360896,5,2,3:2:0:0:
157,67,360982,1,2,3:2:0:0:
110,50,361067,1,2,3:2:0:0:
64,57,361153,1,2,3:2:0:0:
24,83,361239,1,2,3:2:0:0:
0,125,361324,1,2,3:2:0:0:
0,172,361410,1,2,3:2:0:0:
22,215,361496,1,0,3:2:0:0:
65,238,361581,6,0,P|97:227|129:234,3,51.999997619629,10|2|2|2,3:2|3:2|3:2|0:2,0:0:0:0:
102,313,361924,2,0,P|123:320|141:337,3,40,2|2|2|2,3:2|3:2|3:2|3:2,0:0:0:0:
229,384,362267,5,2,3:2:0:0:
236,376,362353,1,2,3:2:0:0:
241,365,362438,2,0,P|246:327|234:285,1,60.0000022888184,14|0,3:2|0:2,0:0:0:0:
318,144,362781,6,0,P|335:175|343:204,1,60.0000022888184,2|0,3:2|0:2,0:0:0:0:
251,300,362953,1,4,3:2:0:0:
256,192,363038,12,0,365696,0:2:0:0:
