osu file format v14

[General]
AudioFilename: audio.mp3
AudioLeadIn: 0
PreviewTime: 20829
Countdown: 1
SampleSet: Normal
StackLeniency: 0.7
Mode: 1
LetterboxInBreaks: 0
WidescreenStoryboard: 1

[Editor]
Bookmarks: 134,10401,20989,41522,51469,61736,72004,82271,92538,102806,113073,123340,133608,143875,154463,164731,174998,184945,195052,205800,220881,231148,241415,251683,261950,272217,282485,292752,303020
DistanceSpacing: 1.2
BeatDivisor: 4
GridSize: 32
TimelineZoom: 2.3

[Metadata]
Title:Delete
TitleUnicode:Delete
Artist:meganeko
ArtistUnicode:meganeko
Creator:gaston_2199
Version:Megafan's Oni
Source:
Tags:Technokinesis featured artist fa newgrounds ng instrumental 8bit edm electronic dance music breakbeat chipstep cyberpunk dubstep complextro Hyperwave Records Megafan
BeatmapID:2652358
BeatmapSetID:1009840

[Difficulty]
HPDrainRate:6
CircleSize:2
OverallDifficulty:5
ApproachRate:10
SliderMultiplier:1.4
SliderTickRate:1

[Events]
//Background and Video events
0,0,"BG.jpg",0,60
//Break Periods
//Storyboard Layer 0 (Background)
//Storyboard Layer 1 (Fail)
//Storyboard Layer 2 (Pass)
//Storyboard Layer 3 (Foreground)
//Storyboard Layer 4 (Overlay)
//Storyboard Sound Samples

[TimingPoints]
134,320.855614973262,4,1,0,60,1,0
134,-133.333333333333,4,1,0,60,0,0
15522,-131.528046421663,4,1,0,60,0,0
15842,-129.770992366412,4,1,0,60,0,0
16163,-128.060263653484,4,1,0,60,0,0
16484,-126.39405204461,4,1,0,60,0,0
16805,-124.770642201835,4,1,0,60,0,0
17126,-123.188405797101,4,1,0,60,0,0
17447,-121.645796064401,4,1,0,60,0,0
17768,-120.141342756184,4,1,0,60,0,0
18088,-118.673647469459,4,1,0,60,0,0
18409,-115.843270868825,4,1,0,60,0,0
18489,-114.478114478114,4,1,0,60,0,0
18570,-113.144758735441,4,1,0,60,0,0
18730,-110.569105691057,4,1,0,60,0,0
18891,-109.324758842444,4,1,0,60,0,0
19051,-108.108108108108,4,1,0,60,0,0
19131,-106.918238993711,4,1,0,60,0,0
19211,-105.754276827372,4,1,0,60,0,0
19372,-103.500761035008,4,1,0,60,0,0
19532,-102.409638554217,4,1,0,60,0,0
19612,-101.341281669151,4,1,0,60,0,0
19693,-100.294985250737,4,1,0,60,0,0
20014,-97.2818311874106,4,1,0,60,0,0
20094,-96.3172804532578,4,1,0,60,0,0
20174,-95.3716690042076,4,1,0,60,0,0
20334,-93.53507565337,4,1,0,60,0,0
20415,-92.6430517711172,4,1,0,60,0,0
20495,-91.7678812415654,4,1,0,60,0,0
20575,-90.9090909090909,4,1,0,60,0,0
20976,-100,4,1,0,80,0,0
40388,-98.0550775370526,4,1,0,80,0,0
40548,-96.184458707531,4,1,0,80,0,0
40629,-95.2755702957449,4,1,0,80,0,0
40709,-94.3837871305819,4,1,0,80,0,0
40789,-93.5085434080685,4,1,0,80,0,0
40869,-92.6492973940532,4,1,0,80,0,0
41030,-90.9774066708274,4,1,0,80,0,0
50094,-90.9090909090909,4,1,0,80,0,0
50174,-91.3978199791979,4,1,0,80,0,0
50334,-92.3912993265598,4,1,0,80,0,0
50495,-93.4066139355195,4,1,0,80,0,0
50655,-94.4444024691545,4,1,0,80,0,0
50735,-94.972082956215,4,1,0,80,0,0
50816,-95.5056018810783,4,1,0,80,0,0
50896,-96.0452411503915,4,1,0,80,0,0
50976,-96.59092006715,4,1,0,80,0,0
51137,-97.7011887303633,4,1,0,80,0,0
51217,-98.2659016338671,4,1,0,80,0,0
51297,-98.837180570587,4,1,0,80,0,0
51618,-90.9090909090909,4,1,0,80,0,0
61404,-100,4,1,0,80,0,0
62046,-125,4,1,0,60,0,0
72473,-123.990100630366,4,1,0,60,0,0
72554,-123.491245705592,4,1,0,60,0,0
72634,-122.996388826024,4,1,0,60,0,0
72794,-122.018478478381,4,1,0,60,0,0
72955,-121.056142207071,4,1,0,60,0,0
73115,-120.108722415531,4,1,0,60,0,0
73195,-119.640551925794,4,1,0,60,0,0
73276,-119.176017018335,4,1,0,60,0,0
73436,-118.257685862648,4,1,0,60,0,0
73516,-117.803807183441,4,1,0,60,0,0
73596,-117.353399199885,4,1,0,60,0,0
73757,-116.462837290935,4,1,0,60,0,0
73837,-116.02274045713,4,1,0,60,0,0
73917,-115.585823629903,4,1,0,60,0,0
74078,-114.721788191457,4,1,0,60,0,0
74238,-113.870574704791,4,1,0,60,0,0
74318,-113.449687332662,4,1,0,60,0,0
74399,-113.031899862779,4,1,0,60,0,0
74479,-112.61717817389,4,1,0,60,0,0
74559,-112.205488643683,4,1,0,60,0,0
74880,-110.588518921143,4,1,0,60,0,0
75040,-109.797325117565,4,1,0,60,0,0
75120,-109.40595846731,4,1,0,60,0,0
75201,-109.017371918215,4,1,0,60,0,0
75361,-108.248421467394,4,1,0,60,0,0
75441,-107.86799977132,4,1,0,60,0,0
75522,-107.49024257323,4,1,0,60,0,0
75682,-106.742610475933,4,1,0,60,0,0
75842,-106.005418997019,4,1,0,60,0,0
76003,-105.278229304406,4,1,0,60,0,0
76083,-104.918363021733,4,1,0,60,0,0
76163,-104.560948576925,4,1,0,60,0,0
76324,-103.853375650122,4,1,0,60,0,0
76404,-103.50316823198,4,1,0,60,0,0
76484,-103.155314768127,4,1,0,60,0,0
76645,-102.466575403104,4,1,0,60,0,0
76805,-101.787075687852,4,1,0,60,0,0
76965,-101.116426464596,4,1,0,60,0,0
77046,-100.784405024304,4,1,0,60,0,0
77126,-100.454556869836,4,1,0,60,0,0
77366,-99.4778408135696,4,1,0,60,0,0
77607,-98.5199350162509,4,1,0,60,0,0
77848,-97.580396488667,4,1,0,60,0,0
78088,-96.6585151318905,4,1,0,60,0,0
78409,-95.4560987856075,4,1,0,60,0,0
78489,-95.160154540091,4,1,0,60,0,0
78570,-94.8660396653885,4,1,0,60,0,0
78650,-94.5737372514602,4,1,0,60,0,0
78730,-94.2833194893993,4,1,0,60,0,0
78891,-93.7076265826047,4,1,0,60,0,0
78971,-93.4224084857442,4,1,0,60,0,0
79051,-93.1389213581517,4,1,0,60,0,0
79211,-92.5770773601832,4,1,0,60,0,0
79292,-92.2986896355032,4,1,0,60,0,0
79372,-92.0219711658356,4,1,0,60,0,0
79452,-91.7469069823984,4,1,0,60,0,0
79532,-91.4734822948501,4,1,0,60,0,0
79612,-91.2016824886386,4,1,0,60,0,0
79693,-90.9314931223965,4,1,0,60,0,0
80976,-100,4,1,0,60,0,0
81056,-102.564102564103,4,1,0,60,0,0
81137,-105.263157894737,4,1,0,60,0,0
81297,-111.111111111111,4,1,0,60,0,0
81457,-114.285714285714,4,1,0,60,0,0
81778,-117.647058823529,4,1,0,60,0,0
81939,-121.212121212121,4,1,0,60,0,0
82099,-125,4,1,0,60,0,0
82273,-100,4,1,0,90,0,1
85147,-111.111111111111,4,1,0,90,0,1
85308,-106.382978723404,4,1,0,90,0,1
85468,-102.040816326531,4,1,0,90,0,1
85629,-98.0392156862745,4,1,0,90,0,1
85789,-94.3396226415094,4,1,0,90,0,1
85949,-90.9090909090909,4,1,0,90,0,1
86270,-100,4,1,0,90,0,1
88677,-97.0873786407767,4,1,0,90,0,1
88757,-100,4,1,0,90,0,1
88837,-103.092783505155,4,1,0,90,0,1
89158,-111.111111111111,4,1,0,90,0,1
89238,-107.142895408177,4,1,0,90,0,1
89318,-103.448240190262,4,1,0,90,0,1
89479,-96.774224765879,4,1,0,90,0,1
89559,-93.7499707031342,4,1,0,90,0,1
89639,-90.9090909090909,4,1,0,90,0,1
89960,-100,4,1,0,90,0,1
93810,-111.111111111111,4,1,0,90,0,1
93971,-109.89010989011,4,1,0,90,0,1
94051,-109.090869421502,4,1,0,90,0,1
94131,-107.142895408177,4,1,0,90,0,1
94211,-105.263157894737,4,1,0,90,0,1
94292,-103.448240190262,4,1,0,90,0,1
94452,-100,4,1,0,90,0,1
94612,-96.774224765879,4,1,0,90,0,1
94693,-95.2380952380952,4,1,0,90,0,1
94773,-93.7499707031342,4,1,0,90,0,1
94933,-90.9090909090909,4,1,0,90,0,1
95094,-100,4,1,0,90,0,1
95415,-111.111111111111,4,1,0,90,0,1
95575,-107.142895408177,4,1,0,90,0,1
95735,-103.448240190262,4,1,0,90,0,1
95896,-100,4,1,0,90,0,1
96056,-96.774224765879,4,1,0,90,0,1
96217,-93.7499707031342,4,1,0,90,0,1
96297,-92.3077207100679,4,1,0,90,0,1
96377,-90.9090909090909,4,1,0,90,0,1
96538,-93.3185765557606,4,1,0,90,0,1
96698,-95.8593551541179,4,1,0,90,0,1
96778,-97.182296495412,4,1,0,90,0,1
96858,-98.5422642844403,4,1,0,90,0,1
97019,-101.379676010831,4,1,0,90,0,1
97179,-104.385441153751,4,1,0,90,0,1
97340,-107.57476984378,4,1,0,90,0,1
97500,-110.965253450187,4,1,0,90,0,1
97661,-100,4,1,0,90,0,1
98944,-97.0873786407767,4,1,0,90,0,1
99024,-100,4,1,0,90,0,1
99104,-103.092783505155,4,1,0,90,0,1
99425,-111.111111111111,4,1,0,90,0,1
99586,-103.546144821709,4,1,0,90,0,1
99666,-100.137187947488,4,1,0,90,0,1
99746,-96.9455369667874,4,1,0,90,0,1
99826,-93.9510552582527,4,1,0,90,0,1
99907,-91.136102655706,4,1,0,90,0,1
100227,-100,4,1,0,90,0,1
101190,-117.647058823529,4,1,0,90,0,1
101524,-142.857142857143,4,1,0,90,0,0
101832,-100,4,1,0,90,0,0
102807,-100,4,1,0,90,0,1
103596,-92.5925925925926,4,1,0,90,0,1
103757,-100,4,1,0,90,0,1
103917,-108.695652173913,4,1,0,90,0,1
104238,-92.5925925925926,4,1,0,90,0,1
104399,-100,4,1,0,90,0,1
104559,-108.695652173913,4,1,0,90,0,1
104880,-92.5925925925926,4,1,0,90,0,1
105041,-100,4,1,0,90,0,1
105201,-108.695652173913,4,1,0,90,0,1
105361,-100,4,1,0,90,0,1
105682,-90.9090909090909,4,1,0,90,0,1
105842,-93.3185765557606,4,1,0,90,0,1
105923,-94.5719484469395,4,1,0,90,0,1
106003,-95.8593551541179,4,1,0,90,0,1
106163,-98.5422642844403,4,1,0,90,0,1
106324,-101.379676010831,4,1,0,90,0,1
106484,-104.385441153751,4,1,0,90,0,1
106645,-107.57476984378,4,1,0,90,0,1
106805,-110.965253450187,4,1,0,90,0,1
107126,-111.111111111111,4,1,0,90,0,1
107286,-105.320252557966,4,1,0,90,0,1
107447,-100.103206405804,4,1,0,90,0,1
107527,-97.6838189684393,4,1,0,90,0,1
107607,-95.3785287671181,4,1,0,90,0,1
107768,-91.0798241795074,4,1,0,90,0,1
108409,-100,4,1,0,90,0,1
113864,-92.5925925925926,4,1,0,90,0,1
114025,-100,4,1,0,90,0,1
114185,-108.695652173913,4,1,0,90,0,1
114506,-92.5925925925926,4,1,0,90,0,1
114667,-100,4,1,0,90,0,1
114827,-108.695652173913,4,1,0,90,0,1
115148,-92.5925925925926,4,1,0,90,0,1
115309,-100,4,1,0,90,0,1
115469,-108.695652173913,4,1,0,90,0,1
115629,-100,4,1,0,90,0,1
115949,-90.9090909090909,4,1,0,90,0,1
116110,-94.3101729554262,4,1,0,90,0,1
116190,-96.1080100259876,4,1,0,90,0,1
116270,-97.9757235752125,4,1,0,90,0,1
116431,-101.937630480167,4,1,0,90,0,1
116591,-106.233573633677,4,1,0,90,0,1
116752,-110.907411165936,4,1,0,90,0,1
117072,-111.111111111111,4,1,0,90,0,1
117233,-107.16930499634,4,1,0,90,0,1
117393,-103.497490703338,4,1,0,90,0,1
117554,-100.069047642874,4,1,0,90,0,1
117714,-96.8603680306544,4,1,0,90,0,1
117875,-93.8511539468633,4,1,0,90,0,1
118035,-91.0232009036783,4,1,0,90,0,1
118677,-100,4,1,0,90,0,1
122700,-100,4,1,0,90,0,0
123342,-100,4,1,0,90,0,1
124131,-92.5925925925926,4,1,0,90,0,1
124292,-100,4,1,0,90,0,1
124452,-108.695652173913,4,1,0,90,0,1
124773,-92.5925925925926,4,1,0,90,0,1
124934,-100,4,1,0,90,0,1
125094,-108.695652173913,4,1,0,90,0,1
125415,-92.5925925925926,4,1,0,90,0,1
125576,-100,4,1,0,90,0,1
125736,-108.695652173913,4,1,0,90,0,1
125896,-100,4,1,0,90,0,1
126217,-90.9090909090909,4,1,0,90,0,1
126377,-93.3185765557606,4,1,0,90,0,1
126538,-95.8593551541179,4,1,0,90,0,1
126698,-98.5422642844403,4,1,0,90,0,1
126858,-101.379676010831,4,1,0,90,0,1
127019,-104.385441153751,4,1,0,90,0,1
127099,-105.95611085976,4,1,0,90,0,1
127179,-107.57476984378,4,1,0,90,0,1
127340,-110.965253450187,4,1,0,90,0,1
127661,-111.111111111111,4,1,0,90,0,1
127741,-108.108108108108,4,1,0,90,0,1
127821,-105.263157894737,4,1,0,90,0,1
127981,-100,4,1,0,90,0,1
128142,-95.2380952380952,4,1,0,90,0,1
128302,-90.9090909090909,4,1,0,90,0,1
128944,-100,4,1,0,90,0,1
134399,-92.5925925925926,4,1,0,90,0,1
134560,-100,4,1,0,90,0,1
134720,-108.695652173913,4,1,0,90,0,1
135041,-92.5925925925926,4,1,0,90,0,1
135202,-100,4,1,0,90,0,1
135362,-108.695652173913,4,1,0,90,0,1
135683,-92.5925925925926,4,1,0,90,0,1
135844,-100,4,1,0,90,0,1
136004,-108.695652173913,4,1,0,90,0,1
136164,-100,4,1,0,90,0,1
136484,-90.9090909090909,4,1,0,90,0,1
136645,-94.3396226415094,4,1,0,90,0,1
136725,-96.1538461538461,4,1,0,90,0,1
136805,-98.0392156862745,4,1,0,90,0,1
136965,-102.040816326531,4,1,0,90,0,1
137126,-106.382978723404,4,1,0,90,0,1
137206,-108.695652173913,4,1,0,90,0,1
137286,-111.111111111111,4,1,0,90,0,1
137768,-107.16930499634,4,1,0,90,0,1
137848,-105.301398929085,4,1,0,90,0,1
137928,-103.497490703338,4,1,0,90,0,1
138088,-100.069047642874,4,1,0,90,0,1
138249,-96.8603680306544,4,1,0,90,0,1
138409,-93.8511539468633,4,1,0,90,0,1
138570,-91.0232009036783,4,1,0,90,0,1
139211,-100,4,1,0,90,0,1
143877,-90.9090909090909,4,1,0,80,0,0
144188,-125,4,1,0,60,0,0
151567,-90.9090909090909,4,1,0,80,0,0
153011,-93.1051883797276,4,1,0,70,0,0
153172,-95.4100149984544,4,1,0,70,0,0
153332,-97.8318505285855,4,1,0,70,0,0
153412,-99.0894668887592,4,1,0,70,0,0
153492,-100.37983730436,4,1,0,70,0,0
153653,-103.064095561029,4,1,0,60,0,0
153813,-105.895857777627,4,1,0,60,0,0
153894,-107.370905276314,4,1,0,60,0,0
153974,-108.88762579243,4,1,0,60,0,0
154027,-109.9227243248,4,1,0,60,0,0
154081,-111.111111111111,4,1,0,60,0,0
154465,-90.9090909090909,4,1,0,90,0,1
163118,-84.1584158415842,4,1,0,90,0,1
163279,-85.8585858585859,4,1,0,90,0,1
163439,-87.6288659793814,4,1,0,90,0,1
163519,-88.5416666666667,4,1,0,90,0,1
163599,-89.4736842105263,4,1,0,90,0,1
163760,-91.3978494623656,4,1,0,90,0,1
163840,-92.3913043478261,4,1,0,90,0,1
163920,-93.4065934065934,4,1,0,90,0,1
164081,-95.5056179775281,4,1,0,90,0,1
164161,-96.5909090909091,4,1,0,90,0,1
164241,-97.7011494252874,4,1,0,90,0,1
164412,-100,4,1,0,80,0,0
175311,-99.667807198607,4,1,0,80,0,0
175471,-99.5024875621891,4,1,0,80,0,0
175551,-99.4200826578567,4,1,0,80,0,0
175632,-99.3377154510876,4,1,0,80,0,0
175792,-99.173586503665,4,1,0,80,0,0
175952,-99.009900990099,4,1,0,80,0,0
176113,-98.8467549104597,4,1,0,80,0,0
176273,-98.6842429882378,4,1,0,80,0,0
176434,-98.5221674876847,4,1,0,80,0,0
176594,-98.3606234883202,4,1,0,80,0,0
176755,-98.1997048116873,4,1,0,80,0,0
176835,-98.1193464859047,4,1,0,80,0,0
176915,-98.0392156862745,4,1,0,80,0,0
177075,-97.8792502840945,4,1,0,80,0,0
177396,-97.5609756097561,4,1,0,80,0,0
177476,-97.4817538527226,4,1,0,80,0,0
177557,-97.4025657783877,4,1,0,80,0,0
177878,-97.0873786407767,4,1,0,80,0,0
178038,-96.9305017995148,4,1,0,80,0,0
178198,-96.774224765879,4,1,0,80,0,0
178279,-96.6961815644862,4,1,0,80,0,0
178359,-96.6183574879227,4,1,0,80,0,0
178519,-96.4629914909995,4,1,0,80,0,0
178680,-96.3082171133923,4,1,0,80,0,0
178840,-96.1538461538461,4,1,0,80,0,0
179001,-95.9999692800098,4,1,0,80,0,0
179161,-95.8466759893533,4,1,0,80,0,0
179321,-95.6937799043062,4,1,0,80,0,0
179402,-95.6175603561945,4,1,0,80,0,0
179482,-95.5413708466972,4,1,0,80,0,0
179642,-95.3895374847496,4,1,0,80,0,0
179963,-95.0871330944111,4,1,0,80,0,0
180123,-94.9367389040313,4,1,0,80,0,0
180444,-94.6371941207589,4,1,0,80,0,0
180605,-94.4882187364469,4,1,0,80,0,0
180765,-94.3396226415094,4,1,0,80,0,0
180845,-94.2655441525669,4,1,0,80,0,0
180926,-94.1914931894841,4,1,0,80,0,0
181086,-94.043916628187,4,1,0,80,0,0
181246,-93.8967136150235,4,1,0,80,0,0
181407,-93.7499707031342,4,1,0,80,0,0
181487,-93.6768149882904,4,1,0,80,0,0
181567,-93.6037733553115,4,1,0,80,0,0
181648,-93.530758057441,4,1,0,80,0,0
181728,-93.4579439252336,4,1,0,80,0,0
181888,-93.3125681764951,4,1,0,80,0,0
182049,-93.1677307974319,4,1,0,80,0,0
182209,-93.0232558139535,4,1,0,80,0,0
182530,-92.7357319121273,4,1,0,80,0,0
182690,-92.5925925925926,4,1,0,80,0,0
182851,-92.4498944684455,4,1,0,80,0,0
183011,-92.3077207100679,4,1,0,80,0,0
183172,-92.1658986175115,4,1,0,80,0,0
183252,-92.0951932755774,4,1,0,80,0,0
183332,-92.0245116489228,4,1,0,80,0,0
183492,-91.8836422308246,4,1,0,80,0,0
183813,-91.6030254647251,4,1,0,80,0,0
183974,-91.4634425193422,4,1,0,80,0,0
184134,-91.324200913242,4,1,0,80,0,0
184295,-91.1853826184247,4,1,0,80,0,0
184375,-91.1161731207289,4,1,0,80,0,0
184455,-91.0470686030557,4,1,0,80,0,0
184615,-90.9090909090909,4,1,0,80,0,0
184936,-100,4,1,0,80,0,0
192797,-99.3377154510876,4,1,0,80,0,0
192958,-98.6842429882378,4,1,0,80,0,0
193038,-98.3606234883202,4,1,0,80,0,0
193118,-98.0392156862745,4,1,0,80,0,0
193279,-97.4025657783877,4,1,0,80,0,0
193439,-96.774224765879,4,1,0,80,0,0
193519,-96.4629914909995,4,1,0,80,0,0
193599,-96.1538461538461,4,1,0,80,0,0
193760,-95.5413708466972,4,1,0,80,0,0
193920,-94.9367389040313,4,1,0,80,0,0
194081,-94.3396226415094,4,1,0,80,0,0
194241,-93.7499707031342,4,1,0,80,0,0
194402,-93.1677307974319,4,1,0,80,0,0
194482,-92.8792282107653,4,1,0,80,0,0
194562,-92.5925925925926,4,1,0,80,0,0
194722,-92.0245116489228,4,1,0,80,0,0
194803,-91.743119266055,4,1,0,80,0,0
194883,-91.4634425193422,4,1,0,80,0,0
195043,-90.9090909090909,4,1,0,80,0,0
195204,-100,4,1,0,80,0,0
204188,-99.3820424599838,4,1,0,80,0,0
204348,-98.1688563230069,4,1,0,80,0,0
204509,-96.9849324208991,4,1,0,80,0,0
204589,-96.4035684744906,4,1,0,80,0,0
204669,-95.8292246553262,4,1,0,80,0,0
204829,-94.7006465213138,4,1,0,80,0,0
204910,-94.1463561594312,4,1,0,80,0,0
204990,-93.5984290439669,4,1,0,80,0,0
205150,-92.5215737179517,4,1,0,80,0,0
205230,-91.9923425574055,4,1,0,80,0,0
205311,-91.4692151209589,4,1,0,80,0,0
205391,-90.9519209955233,4,1,0,80,0,0
205792,-100,4,1,0,80,0,0
221193,-125,4,1,0,60,0,0
223439,-111.111111111111,4,1,0,60,0,0
223760,-125,4,1,0,60,0,0
226006,-111.111111111111,4,1,0,80,0,0
226327,-125,4,1,0,60,0,0
228573,-111.111111111111,4,1,0,80,0,0
228894,-125,4,1,0,60,0,0
231140,-111.111111111111,4,1,0,70,0,0
231460,-122.137404580153,4,1,0,70,0,0
231621,-120.754716981132,4,1,0,70,0,0
231701,-120.074974814274,4,1,0,70,0,0
231781,-119.402985074627,4,1,0,70,0,0
231942,-118.081180811808,4,1,0,70,0,0
232102,-116.788321167883,4,1,0,70,0,0
232182,-116.152382633825,4,1,0,70,0,0
232263,-115.523465703971,4,1,0,70,0,0
232423,-114.285714285714,4,1,0,70,0,0
232583,-113.074204946996,4,1,0,70,0,0
232664,-112.477968377944,4,1,0,70,0,0
232744,-111.888111888112,4,1,0,70,0,0
233065,-109.58904109589,4,1,0,70,0,0
233225,-108.474576271186,4,1,0,70,0,0
233386,-107.38255033557,4,1,0,70,0,0
233466,-106.844684156429,4,1,0,70,0,0
233546,-106.312292358804,4,1,0,70,0,0
233706,-90.9090909090909,4,1,0,70,0,0
234027,-103.225806451613,4,1,0,70,0,0
234188,-102.23642172524,4,1,0,70,0,0
234348,-101.26582278481,4,1,0,70,0,0
234428,-100.787350784327,4,1,0,70,0,0
234509,-100.313479623824,4,1,0,70,0,0
234669,-99.3788819875776,4,1,0,70,0,0
234749,-98.918034538221,4,1,0,70,0,0
234829,-98.4615384615385,4,1,0,70,0,0
234990,-97.5609756097561,4,1,0,70,0,0
235150,-96.6767371601208,4,1,0,70,0,0
235311,-95.8083832335329,4,1,0,70,0,0
235632,-94.1176470588235,4,1,0,70,0,0
235792,-93.2944606413994,4,1,0,70,0,0
235872,-92.8882869727893,4,1,0,70,0,0
235952,-92.485549132948,4,1,0,70,0,0
236033,-92.0862885358096,4,1,0,70,0,0
236113,-91.6905444126075,4,1,0,70,0,0
236193,-91.2981038296816,4,1,0,70,0,0
236273,-90.9090909090909,4,1,0,70,0,0
240123,-100,4,1,0,60,0,0
240203,-102.564102564103,4,1,0,60,0,0
240284,-105.263157894737,4,1,0,60,0,0
240364,-108.108108108108,4,1,0,60,0,0
240444,-111.111111111111,4,1,0,60,0,0
240604,-114.285714285714,4,1,0,60,0,0
240925,-117.647058823529,4,1,0,60,0,0
241086,-121.212121212121,4,1,0,60,0,0
241246,-125,4,1,0,60,0,0
241417,-100,4,1,0,90,0,1
242366,-90.9090909090909,4,1,0,90,0,1
242527,-92.7747059041823,4,1,0,90,0,1
242607,-93.7365253744774,4,1,0,90,0,1
242687,-94.7184966280215,4,1,0,90,0,1
242848,-96.745388389199,4,1,0,90,0,1
243008,-98.8610221636526,4,1,0,90,0,1
243169,-101.071254223515,4,1,0,90,0,1
243249,-102.213849772216,4,1,0,90,0,1
243329,-103.382574453546,4,1,0,90,0,1
243489,-105.802080280502,4,1,0,90,0,1
243650,-108.337549469634,4,1,0,90,0,1
243810,-110.997400440882,4,1,0,90,0,1
243971,-100,4,1,0,90,0,1
244292,-111.111111111111,4,1,0,90,0,1
244452,-107.142895408177,4,1,0,90,0,1
244612,-103.448240190262,4,1,0,90,0,1
244693,-101.694949727102,4,1,0,90,0,1
244773,-100,4,1,0,90,0,1
244933,-96.774224765879,4,1,0,90,0,1
245094,-93.7499707031342,4,1,0,90,0,1
245174,-92.3077207100679,4,1,0,90,0,1
245254,-90.9090909090909,4,1,0,90,0,1
245415,-93.3185765557606,4,1,0,90,0,1
245495,-94.5719484469395,4,1,0,90,0,1
245575,-95.8593551541179,4,1,0,90,0,1
245655,-97.182296495412,4,1,0,90,0,1
245735,-98.5422642844403,4,1,0,90,0,1
245896,-101.379676010831,4,1,0,90,0,1
246056,-104.385441153751,4,1,0,90,0,1
246137,-105.95611085976,4,1,0,90,0,1
246217,-107.57476984378,4,1,0,90,0,1
246377,-110.965253450187,4,1,0,90,0,1
246538,-100,4,1,0,90,0,1
247500,-86.9565217391304,4,1,0,90,0,1
247661,-89.5399437689153,4,1,0,90,0,1
247741,-90.8900866182525,4,1,0,90,0,1
247821,-92.2814843661323,4,1,0,90,0,1
247981,-95.1962995294447,4,1,0,90,0,1
248062,-96.7238659368529,4,1,0,90,0,1
248142,-98.3012559951478,4,1,0,90,0,1
248302,-101.615586205074,4,1,0,90,0,1
248383,-103.357891168275,4,1,0,90,0,1
248463,-105.161096283397,4,1,0,90,0,1
248623,-108.963085485899,4,1,0,90,0,1
248784,-113.050300600749,4,1,0,90,0,1
248944,-117.456089041112,4,1,0,90,0,1
249104,-100,4,1,0,90,0,1
252634,-90.9090909090909,4,1,0,90,0,1
252794,-92.7747059041823,4,1,0,90,0,1
252875,-93.7365253744774,4,1,0,90,0,1
252955,-94.7184966280215,4,1,0,90,0,1
253115,-96.745388389199,4,1,0,90,0,1
253276,-98.8610221636526,4,1,0,90,0,1
253436,-101.071254223515,4,1,0,90,0,1
253516,-102.213849772216,4,1,0,90,0,1
253596,-103.382574453546,4,1,0,90,0,1
253757,-105.802080280502,4,1,0,90,0,1
253917,-108.337549469634,4,1,0,90,0,1
254078,-110.997400440882,4,1,0,90,0,1
254238,-100,4,1,0,90,0,1
254559,-111.111111111111,4,1,0,90,0,1
254719,-107.16930499634,4,1,0,90,0,1
254880,-103.497490703338,4,1,0,90,0,1
254960,-101.754346691305,4,1,0,90,0,1
255040,-100.069047642874,4,1,0,90,0,1
255201,-96.8603680306544,4,1,0,90,0,1
255361,-93.8511539468633,4,1,0,90,0,1
255441,-92.4155483615185,4,1,0,90,0,1
255522,-90.9090909090909,4,1,0,90,0,1
255682,-93.3185765557606,4,1,0,90,0,1
255842,-95.8593551541179,4,1,0,90,0,1
255923,-97.182296495412,4,1,0,90,0,1
256003,-98.5422642844403,4,1,0,90,0,1
256163,-101.379676010831,4,1,0,90,0,1
256324,-104.385441153751,4,1,0,90,0,1
256404,-105.95611085976,4,1,0,90,0,1
256484,-107.57476984378,4,1,0,90,0,1
256564,-109.243651578298,4,1,0,90,0,1
256645,-110.965253450187,4,1,0,90,0,1
256805,-100,4,1,0,90,0,1
257768,-86.9565217391304,4,1,0,90,0,1
257928,-89.5522120739665,4,1,0,90,0,1
258008,-90.9090909090909,4,1,0,90,0,1
258088,-92.3077207100679,4,1,0,90,0,1
258249,-95.2380952380952,4,1,0,90,0,1
258329,-96.774224765879,4,1,0,90,0,1
258409,-98.3606234883202,4,1,0,90,0,1
258570,-101.694949727102,4,1,0,90,0,1
258650,-103.448240190262,4,1,0,90,0,1
258730,-105.263157894737,4,1,0,90,0,1
258891,-109.090869421502,4,1,0,90,0,1
259051,-113.207589889657,4,1,0,90,0,1
259211,-117.647058823529,4,1,0,90,0,1
259372,-100,4,1,0,90,0,1
260668,-142.857142857143,4,1,0,90,0,0
261300,-101.26582278481,4,1,0,90,0,0
261460,-103.896103896104,4,1,0,90,0,0
261620,-106.666666666667,4,1,0,90,0,0
261781,-109.58904109589,4,1,0,90,0,0
261952,-83.3333333333333,4,1,0,90,0,1
262741,-92.5925925925926,4,1,0,90,0,1
262902,-100,4,1,0,90,0,1
263062,-108.695652173913,4,1,0,90,0,1
263383,-92.5925925925926,4,1,0,90,0,1
263544,-100,4,1,0,90,0,1
263704,-108.695652173913,4,1,0,90,0,1
264025,-92.5925925925926,4,1,0,90,0,1
264186,-100,4,1,0,90,0,1
264346,-108.695652173913,4,1,0,90,0,1
264506,-100,4,1,0,90,0,1
264827,-90.9090909090909,4,1,0,90,0,1
264987,-93.3185765557606,4,1,0,90,0,1
265068,-94.5719484469395,4,1,0,90,0,1
265148,-95.8593551541179,4,1,0,90,0,1
265308,-98.5422642844403,4,1,0,90,0,1
265469,-101.379676010831,4,1,0,90,0,1
265629,-104.385441153751,4,1,0,90,0,1
265790,-107.57476984378,4,1,0,90,0,1
265950,-110.965253450187,4,1,0,90,0,1
266271,-111.111111111111,4,1,0,90,0,1
266431,-105.320252557966,4,1,0,90,0,1
266592,-100.103206405804,4,1,0,90,0,1
266672,-97.6838189684393,4,1,0,90,0,1
266752,-95.3785287671181,4,1,0,90,0,1
266913,-91.0798241795074,4,1,0,90,0,1
267554,-100,4,1,0,90,0,1
273009,-92.5925925925926,4,1,0,90,0,1
273170,-100,4,1,0,90,0,1
273330,-108.695652173913,4,1,0,90,0,1
273651,-92.5925925925926,4,1,0,90,0,1
273812,-100,4,1,0,90,0,1
273972,-108.695652173913,4,1,0,90,0,1
274293,-92.5925925925926,4,1,0,90,0,1
274454,-100,4,1,0,90,0,1
274614,-108.695652173913,4,1,0,90,0,1
274774,-100,4,1,0,90,0,1
275094,-90.9090909090909,4,1,0,90,0,1
275255,-94.3101729554262,4,1,0,90,0,1
275335,-96.1080100259876,4,1,0,90,0,1
275415,-97.9757235752125,4,1,0,90,0,1
275576,-101.937630480167,4,1,0,90,0,1
275736,-106.233573633677,4,1,0,90,0,1
275897,-110.907411165936,4,1,0,90,0,1
276217,-111.111111111111,4,1,0,90,0,1
276378,-107.16930499634,4,1,0,90,0,1
276538,-103.497490703338,4,1,0,90,0,1
276699,-100.069047642874,4,1,0,90,0,1
276859,-96.8603680306544,4,1,0,90,0,1
277020,-93.8511539468633,4,1,0,90,0,1
277180,-91.0232009036783,4,1,0,90,0,1
277822,-100,4,1,0,90,0,1
281845,-100,4,1,0,90,0,0
282486,-100,4,1,0,90,0,1
283276,-92.5925925925926,4,1,0,90,0,1
283437,-100,4,1,0,90,0,1
283597,-108.695652173913,4,1,0,90,0,1
283918,-92.5925925925926,4,1,0,90,0,1
284079,-100,4,1,0,90,0,1
284239,-108.695652173913,4,1,0,90,0,1
284560,-92.5925925925926,4,1,0,90,0,1
284721,-100,4,1,0,90,0,1
284881,-108.695652173913,4,1,0,90,0,1
285041,-100,4,1,0,90,0,1
285362,-90.9090909090909,4,1,0,90,0,1
285522,-93.3185765557606,4,1,0,90,0,1
285683,-95.8593551541179,4,1,0,90,0,1
285843,-98.5422642844403,4,1,0,90,0,1
286003,-101.379676010831,4,1,0,90,0,1
286164,-104.385441153751,4,1,0,90,0,1
286244,-105.95611085976,4,1,0,90,0,1
286324,-107.57476984378,4,1,0,90,0,1
286485,-110.965253450187,4,1,0,90,0,1
286806,-111.111111111111,4,1,0,90,0,1
286886,-108.108108108108,4,1,0,90,0,1
286966,-105.263157894737,4,1,0,90,0,1
287126,-100,4,1,0,90,0,1
287287,-95.2380952380952,4,1,0,90,0,1
287447,-90.9090909090909,4,1,0,90,0,1
288089,-100,4,1,0,90,0,1
293544,-92.5925925925926,4,1,0,90,0,1
293705,-100,4,1,0,90,0,1
293865,-108.695652173913,4,1,0,90,0,1
294186,-92.5925925925926,4,1,0,90,0,1
294347,-100,4,1,0,90,0,1
294507,-108.695652173913,4,1,0,90,0,1
294828,-92.5925925925926,4,1,0,90,0,1
294989,-100,4,1,0,90,0,1
295149,-108.695652173913,4,1,0,90,0,1
295309,-100,4,1,0,90,0,1
295629,-90.9090909090909,4,1,0,90,0,1
295790,-94.3396226415094,4,1,0,90,0,1
295870,-96.1538461538461,4,1,0,90,0,1
295950,-98.0392156862745,4,1,0,90,0,1
296110,-102.040816326531,4,1,0,90,0,1
296271,-106.382978723404,4,1,0,90,0,1
296351,-108.695652173913,4,1,0,90,0,1
296431,-111.111111111111,4,1,0,90,0,1
296913,-107.16930499634,4,1,0,90,0,1
296993,-105.301398929085,4,1,0,90,0,1
297073,-103.497490703338,4,1,0,90,0,1
297233,-100.069047642874,4,1,0,90,0,1
297394,-96.8603680306544,4,1,0,90,0,1
297554,-93.8511539468633,4,1,0,90,0,1
297715,-91.0232009036783,4,1,0,90,0,1
298356,-100,4,1,0,90,0,1
303021,-90.9090909090909,4,1,0,80,0,0

[HitObjects]
256,192,10401,5,0,0:0:0:0:
256,192,12968,1,8,0:0:0:0:
256,192,14893,1,8,0:0:0:0:
256,192,15535,1,8,0:0:0:0:
256,192,15855,1,0,0:0:0:0:
256,192,16176,1,8,0:0:0:0:
256,192,16497,1,8,0:0:0:0:
256,192,16818,1,0,0:0:0:0:
256,192,17139,1,8,0:0:0:0:
256,192,17460,1,8,0:0:0:0:
256,192,17781,1,0,0:0:0:0:
256,192,18101,1,0,0:0:0:0:
255,192,18422,1,0,0:0:0:0:
255,192,18502,1,8,0:0:0:0:
256,192,18583,1,0,0:0:0:0:
255,192,18743,1,0,0:0:0:0:
256,192,18904,1,0,0:0:0:0:
256,192,19064,1,8,0:0:0:0:
255,192,19144,1,8,0:0:0:0:
255,192,19224,1,0,0:0:0:0:
256,192,19385,1,0,0:0:0:0:
256,192,19545,1,0,0:0:0:0:
255,192,19625,1,0,0:0:0:0:
255,192,19706,1,8,0:0:0:0:
255,192,20027,1,8,0:0:0:0:
255,192,20107,1,8,0:0:0:0:
255,192,20187,1,0,0:0:0:0:
255,192,20347,1,8,0:0:0:0:
255,192,20428,1,8,0:0:0:0:
255,192,20508,1,8,0:0:0:0:
255,192,20588,1,0,0:0:0:0:
256,96,20989,5,12,0:0:0:0:
255,192,21310,1,0,0:0:0:0:
255,192,21470,1,0,0:0:0:0:
255,192,21631,1,8,0:0:0:0:
255,192,21791,1,0,0:0:0:0:
255,192,22112,1,0,0:0:0:0:
255,192,22273,1,8,0:0:0:0:
255,192,22433,1,0,0:0:0:0:
255,192,22754,1,8,0:0:0:0:
255,192,22914,1,8,0:0:0:0:
255,192,23075,1,0,0:0:0:0:
255,192,23396,1,0,0:0:0:0:
255,192,23476,1,0,0:0:0:0:
255,192,23556,1,8,0:0:0:0:
255,192,23877,1,0,0:0:0:0:
255,192,24037,1,0,0:0:0:0:
255,192,24198,1,8,0:0:0:0:
255,192,24358,1,0,0:0:0:0:
255,192,24679,1,8,0:0:0:0:
255,192,24839,1,8,0:0:0:0:
255,192,25000,1,0,0:0:0:0:
255,192,25160,1,8,0:0:0:0:
255,192,25321,1,0,0:0:0:0:
255,192,25481,1,8,0:0:0:0:
255,192,25642,1,0,0:0:0:0:
255,192,25962,1,0,0:0:0:0:
255,192,26123,1,8,0:0:0:0:
255,192,26444,1,0,0:0:0:0:
255,192,26604,1,8,0:0:0:0:
255,192,26684,1,0,0:0:0:0:
255,192,26765,1,8,0:0:0:0:
255,192,26925,1,0,0:0:0:0:
255,192,27246,1,0,0:0:0:0:
255,192,27406,1,8,0:0:0:0:
255,192,27567,1,0,0:0:0:0:
255,192,27888,1,0,0:0:0:0:
255,192,28048,1,8,0:0:0:0:
255,192,28208,1,8,0:0:0:0:
255,192,28529,1,0,0:0:0:0:
255,192,28690,1,8,0:0:0:0:
255,192,28850,1,0,0:0:0:0:
255,192,29011,1,8,0:0:0:0:
255,192,29091,1,8,0:0:0:0:
255,192,29171,1,0,0:0:0:0:
255,192,29251,1,0,0:0:0:0:
255,192,29331,1,8,0:0:0:0:
255,192,29492,1,8,0:0:0:0:
255,192,29813,1,0,0:0:0:0:
255,192,29973,1,8,0:0:0:0:
255,192,30133,1,0,0:0:0:0:
255,192,30454,1,8,0:0:0:0:
255,192,30615,1,8,0:0:0:0:
255,192,30775,1,0,0:0:0:0:
255,192,31096,1,0,0:0:0:0:
255,192,31256,1,8,0:0:0:0:
255,192,31577,1,0,0:0:0:0:
255,192,31738,1,0,0:0:0:0:
255,192,31898,1,8,0:0:0:0:
255,192,32059,1,0,0:0:0:0:
255,192,32379,1,0,0:0:0:0:
255,192,32540,1,8,0:0:0:0:
256,192,32700,1,8,0:0:0:0:
256,192,32861,1,8,0:0:0:0:
255,192,33021,1,0,0:0:0:0:
255,192,33182,1,0,0:0:0:0:
256,192,33342,1,8,0:0:0:0:
256,192,33663,1,0,0:0:0:0:
256,192,33743,1,0,0:0:0:0:
256,192,33823,1,8,0:0:0:0:
256,192,34144,1,0,0:0:0:0:
256,192,34305,1,0,0:0:0:0:
256,192,34465,1,8,0:0:0:0:
256,192,34625,1,0,0:0:0:0:
256,192,34946,1,0,0:0:0:0:
256,192,35107,1,8,0:0:0:0:
256,192,35267,1,8,0:0:0:0:
256,192,35428,1,0,0:0:0:0:
256,192,35588,1,0,0:0:0:0:
256,192,35748,1,8,0:0:0:0:
256,192,35909,1,8,0:0:0:0:
256,191,36230,1,0,0:0:0:0:
256,191,36390,1,8,0:0:0:0:
256,191,36711,1,0,0:0:0:0:
256,191,36871,1,0,0:0:0:0:
256,191,37032,1,8,0:0:0:0:
256,191,37192,1,0,0:0:0:0:
256,191,37513,1,0,0:0:0:0:
256,191,37674,1,8,0:0:0:0:
256,191,37754,1,8,0:0:0:0:
256,191,37834,1,0,0:0:0:0:
256,191,37914,1,0,0:0:0:0:
256,191,37994,1,8,0:0:0:0:
256,191,38155,1,0,0:0:0:0:
256,191,38315,1,8,0:0:0:0:
256,191,38476,1,8,0:0:0:0:
256,191,38797,1,0,0:0:0:0:
256,191,38957,1,8,0:0:0:0:
256,191,39117,1,0,0:0:0:0:
256,191,39438,1,0,0:0:0:0:
256,191,39519,1,0,0:0:0:0:
256,191,39599,1,8,0:0:0:0:
256,191,39759,1,8,0:0:0:0:
256,191,39920,1,0,0:0:0:0:
256,191,40080,1,0,0:0:0:0:
256,191,40240,1,8,0:0:0:0:
255,191,40401,1,0,0:0:0:0:
256,191,40561,1,8,0:0:0:0:
256,191,40642,1,0,0:0:0:0:
256,191,40722,1,8,0:0:0:0:
256,191,40802,1,0,0:0:0:0:
256,191,40882,1,8,0:0:0:0:
256,96,41043,5,4,0:0:0:0:
255,191,41363,1,0,0:0:0:0:
255,191,41444,1,0,0:0:0:0:
255,191,41524,1,8,0:0:0:0:
255,191,41684,1,0,0:0:0:0:
255,191,41845,1,8,0:0:0:0:
255,191,41925,1,8,0:0:0:0:
255,191,42005,1,0,0:0:0:0:
255,191,42085,1,0,0:0:0:0:
255,191,42166,1,8,0:0:0:0:
255,191,42486,1,8,0:0:0:0:
255,191,42647,1,0,0:0:0:0:
255,191,42807,1,8,0:0:0:0:
255,191,42968,1,8,0:0:0:0:
255,191,43048,1,0,0:0:0:0:
255,191,43128,1,8,0:0:0:0:
255,191,43208,1,8,0:0:0:0:
255,191,43289,1,0,0:0:0:0:
255,191,43449,1,8,0:0:0:0:
255,191,43609,1,8,0:0:0:0:
255,191,43930,1,0,0:0:0:0:
255,191,44011,1,0,0:0:0:0:
255,191,44091,1,8,0:0:0:0:
255,191,44412,1,8,0:0:0:0:
255,191,44492,1,8,0:0:0:0:
255,191,44572,1,0,0:0:0:0:
255,191,44652,1,0,0:0:0:0:
255,191,44732,1,8,0:0:0:0:
255,191,44893,1,0,0:0:0:0:
255,191,45053,1,8,0:0:0:0:
255,191,45133,1,8,0:0:0:0:
255,191,45214,1,0,0:0:0:0:
255,191,45374,1,8,0:0:0:0:
255,191,45695,1,8,0:0:0:0:
255,191,45775,1,8,0:0:0:0:
255,191,45855,1,0,0:0:0:0:
255,191,46016,1,8,0:0:0:0:
255,191,46176,1,8,0:0:0:0:
255,191,46497,1,0,0:0:0:0:
255,191,46577,1,0,0:0:0:0:
255,191,46658,1,8,0:0:0:0:
255,191,46978,1,8,0:0:0:0:
255,191,47059,1,0,0:0:0:0:
255,191,47139,1,0,0:0:0:0:
255,191,47219,1,0,0:0:0:0:
255,191,47299,1,8,0:0:0:0:
255,191,47460,1,0,0:0:0:0:
255,191,47540,1,0,0:0:0:0:
255,191,47620,1,8,0:0:0:0:
255,191,47781,1,0,0:0:0:0:
255,191,47941,1,8,0:0:0:0:
255,191,48262,1,8,0:0:0:0:
256,192,48342,1,8,0:0:0:0:
255,191,48422,1,8,0:0:0:0:
255,191,48583,1,0,0:0:0:0:
255,191,48743,1,8,0:0:0:0:
255,191,49064,1,0,0:0:0:0:
255,191,49144,1,0,0:0:0:0:
255,191,49224,1,8,0:0:0:0:
255,191,49385,1,0,0:0:0:0:
255,191,49545,1,8,0:0:0:0:
255,191,49625,1,0,0:0:0:0:
255,191,49706,1,0,0:0:0:0:
255,191,49786,1,0,0:0:0:0:
255,191,49866,1,8,0:0:0:0:
255,191,50027,1,0,0:0:0:0:
255,191,50107,1,0,0:0:0:0:
255,191,50187,1,8,0:0:0:0:
255,191,50347,1,8,0:0:0:0:
255,191,50508,1,8,0:0:0:0:
255,191,50668,1,8,0:0:0:0:
255,191,50748,1,0,0:0:0:0:
255,191,50829,1,8,0:0:0:0:
255,191,50909,1,8,0:0:0:0:
255,191,50989,1,0,0:0:0:0:
255,191,51150,1,8,0:0:0:0:
255,191,51230,1,8,0:0:0:0:
255,191,51310,1,0,0:0:0:0:
255,191,51631,1,0,0:0:0:0:
255,191,51711,1,0,0:0:0:0:
255,191,51791,1,8,0:0:0:0:
255,191,51871,1,8,0:0:0:0:
255,191,51952,1,0,0:0:0:0:
255,191,52112,1,8,0:0:0:0:
255,191,52273,1,8,0:0:0:0:
255,191,52353,1,8,0:0:0:0:
255,191,52433,1,0,0:0:0:0:
255,191,52754,1,8,0:0:0:0:
255,191,52834,1,8,0:0:0:0:
255,191,52914,1,0,0:0:0:0:
255,191,53075,1,8,0:0:0:0:
255,191,53235,1,0,0:0:0:0:
255,191,53315,1,0,0:0:0:0:
255,191,53396,1,8,0:0:0:0:
255,191,53476,1,8,0:0:0:0:
255,191,53556,1,0,0:0:0:0:
255,191,53716,1,8,0:0:0:0:
255,191,53877,1,8,0:0:0:0:
255,191,54198,1,0,0:0:0:0:
255,191,54278,1,0,0:0:0:0:
255,191,54358,1,8,0:0:0:0:
255,191,54519,1,0,0:0:0:0:
255,191,54599,1,0,0:0:0:0:
255,191,54679,1,8,0:0:0:0:
255,191,54759,1,8,0:0:0:0:
255,191,54839,1,0,0:0:0:0:
255,191,55000,1,8,0:0:0:0:
255,191,55321,1,0,0:0:0:0:
255,191,55481,1,8,0:0:0:0:
255,191,55561,1,0,0:0:0:0:
255,191,55642,1,8,0:0:0:0:
255,191,55802,1,0,0:0:0:0:
255,191,55962,1,8,0:0:0:0:
255,191,56043,1,8,0:0:0:0:
255,191,56123,1,0,0:0:0:0:
255,191,56203,1,0,0:0:0:0:
255,191,56283,1,8,0:0:0:0:
255,191,56444,1,0,0:0:0:0:
255,191,56765,1,0,0:0:0:0:
255,191,56845,1,0,0:0:0:0:
255,191,56925,1,8,0:0:0:0:
255,191,57246,1,8,0:0:0:0:
255,191,57326,1,8,0:0:0:0:
255,191,57406,1,0,0:0:0:0:
255,191,57567,1,8,0:0:0:0:
255,191,57727,1,0,0:0:0:0:
255,191,57807,1,8,0:0:0:0:
255,191,57888,1,0,0:0:0:0:
255,191,58208,1,8,0:0:0:0:
255,191,58289,1,8,0:0:0:0:
255,191,58369,1,0,0:0:0:0:
255,191,58449,1,0,0:0:0:0:
255,191,58529,1,8,0:0:0:0:
255,191,58690,1,8,0:0:0:0:
255,191,58850,1,8,0:0:0:0:
255,191,58930,1,8,0:0:0:0:
255,191,59011,1,0,0:0:0:0:
255,191,59331,1,8,0:0:0:0:
255,191,59412,1,0,0:0:0:0:
255,191,59492,1,8,0:0:0:0:
255,191,59652,1,0,0:0:0:0:
255,191,59973,1,0,0:0:0:0:
255,191,60053,1,0,0:0:0:0:
255,191,60133,1,8,0:0:0:0:
255,191,60294,1,0,0:0:0:0:
256,96,60454,5,12,0:0:0:0:
255,191,61417,5,0,0:0:0:0:
255,191,61497,1,0,0:0:0:0:
255,191,61577,1,8,0:0:0:0:
256,96,61738,5,4,0:0:0:0:
255,191,62059,1,0,0:0:0:0:
255,191,62861,1,8,0:0:0:0:
255,191,63342,1,8,0:0:0:0:
255,191,63823,1,0,0:0:0:0:
255,191,63984,1,8,0:0:0:0:
255,191,64144,1,8,0:0:0:0:
255,191,64305,1,0,0:0:0:0:
255,191,64625,1,0,0:0:0:0:
255,191,65428,1,8,0:0:0:0:
255,191,65909,1,8,0:0:0:0:
255,191,66230,1,8,0:0:0:0:
255,191,66390,1,0,0:0:0:0:
255,191,66551,1,8,0:0:0:0:
255,191,66711,1,8,0:0:0:0:
255,191,66871,1,0,0:0:0:0:
255,191,67192,1,0,0:0:0:0:
255,191,67994,1,8,0:0:0:0:
255,191,68476,1,8,0:0:0:0:
255,191,68797,1,0,0:0:0:0:
255,191,68877,1,0,0:0:0:0:
255,191,68957,1,8,0:0:0:0:
255,191,69117,1,0,0:0:0:0:
255,191,69278,1,8,0:0:0:0:
255,191,69438,1,0,0:0:0:0:
255,191,69759,1,0,0:0:0:0:
255,191,70080,1,8,0:0:0:0:
255,191,70240,1,0,0:0:0:0:
255,191,70561,1,8,0:0:0:0:
255,191,71043,1,8,0:0:0:0:
255,191,71203,1,8,0:0:0:0:
255,191,71283,1,8,0:0:0:0:
255,191,71363,1,0,0:0:0:0:
255,191,71524,1,0,0:0:0:0:
255,191,71684,1,8,0:0:0:0:
255,191,71845,1,8,0:0:0:0:
256,96,72005,5,4,0:0:0:0:
255,191,72326,1,8,0:0:0:0:
255,191,72486,1,0,0:0:0:0:
255,191,72567,1,0,0:0:0:0:
255,191,72647,1,0,0:0:0:0:
255,191,72807,1,8,0:0:0:0:
255,191,72968,1,8,0:0:0:0:
255,191,73128,1,0,0:0:0:0:
255,191,73208,1,0,0:0:0:0:
255,191,73289,1,0,0:0:0:0:
255,191,73609,1,8,0:0:0:0:
255,191,73770,1,0,0:0:0:0:
255,191,73850,1,0,0:0:0:0:
255,191,73930,1,0,0:0:0:0:
255,191,74091,1,8,0:0:0:0:
255,191,74251,1,0,0:0:0:0:
255,191,74331,1,0,0:0:0:0:
255,191,74412,1,0,0:0:0:0:
255,191,74492,1,0,0:0:0:0:
255,191,74572,1,0,0:0:0:0:
255,191,74893,1,8,0:0:0:0:
255,191,75053,1,8,0:0:0:0:
255,191,75133,1,8,0:0:0:0:
255,191,75214,1,8,0:0:0:0:
255,191,75374,1,0,0:0:0:0:
255,191,75454,1,0,0:0:0:0:
255,191,75535,1,0,0:0:0:0:
255,191,75855,1,0,0:0:0:0:
255,191,76016,1,0,0:0:0:0:
255,191,76096,1,0,0:0:0:0:
255,191,76176,1,0,0:0:0:0:
255,191,76337,1,8,0:0:0:0:
255,191,76417,1,8,0:0:0:0:
255,191,76497,1,8,0:0:0:0:
255,191,76658,1,8,0:0:0:0:
255,191,76818,1,8,0:0:0:0:
255,191,76978,1,8,0:0:0:0:
255,191,77059,1,8,0:0:0:0:
255,191,77139,1,8,0:0:0:0:
255,191,77379,1,8,0:0:0:0:
255,191,77620,1,8,0:0:0:0:
255,191,77861,1,8,0:0:0:0:
255,191,78101,1,8,0:0:0:0:
255,191,78422,1,8,0:0:0:0:
256,192,78502,1,8,0:0:0:0:
255,191,78583,1,0,0:0:0:0:
255,191,78743,1,8,0:0:0:0:
255,191,78904,1,0,0:0:0:0:
255,191,78984,1,0,0:0:0:0:
255,191,79064,1,8,0:0:0:0:
255,191,79224,1,8,0:0:0:0:
255,192,79305,1,8,0:0:0:0:
255,191,79385,1,8,0:0:0:0:
255,191,79465,1,8,0:0:0:0:
255,191,79545,1,8,0:0:0:0:
255,191,79625,1,8,0:0:0:0:
255,191,79706,1,8,0:0:0:0:
255,191,80989,5,0,0:0:0:0:
255,191,81069,1,8,0:0:0:0:
255,191,81150,1,0,0:0:0:0:
255,191,81310,1,8,0:0:0:0:
255,191,81470,1,0,0:0:0:0:
255,191,81791,1,8,0:0:0:0:
255,191,81952,1,8,0:0:0:0:
255,191,82112,1,8,0:0:0:0:
256,96,82273,5,4,0:0:0:0:
255,191,82754,1,0,0:0:0:0:
256,96,82914,5,12,0:0:0:0:
256,96,83396,5,12,0:0:0:0:
255,191,83716,1,0,0:0:0:0:
256,96,83877,5,12,0:0:0:0:
255,191,84198,1,0,0:0:0:0:
256,96,84358,5,12,0:0:0:0:
255,191,84679,1,8,0:0:0:0:
256,96,84839,5,4,0:0:0:0:
256,96,85160,5,4,0:0:0:0:
256,96,85321,5,4,0:0:0:0:
256,96,85481,5,12,0:0:0:0:
256,96,85642,5,12,0:0:0:0:
256,96,85802,5,12,0:0:0:0:
256,96,85962,5,12,0:0:0:0:
255,191,86283,1,0,0:0:0:0:
256,96,86444,5,12,0:0:0:0:
255,191,86604,1,0,0:0:0:0:
255,191,86765,1,8,0:0:0:0:
256,96,86925,5,12,0:0:0:0:
255,191,87246,1,8,0:0:0:0:
256,96,87406,5,4,0:0:0:0:
255,191,87888,1,0,0:0:0:0:
256,96,88048,5,12,0:0:0:0:
256,96,88529,5,12,0:0:0:0:
255,191,88690,1,0,0:0:0:0:
255,191,88770,1,0,0:0:0:0:
255,191,88850,1,0,0:0:0:0:
256,96,89011,5,12,0:0:0:0:
255,191,89171,1,0,0:0:0:0:
255,191,89251,1,0,0:0:0:0:
255,191,89331,1,8,0:0:0:0:
255,191,89492,1,8,0:0:0:0:
255,191,89572,1,8,0:0:0:0:
255,191,89652,1,0,0:0:0:0:
256,96,89973,5,4,0:0:0:0:
256,191,90294,1,0,0:0:0:0:
256,191,90401,1,0,0:0:0:0:
256,192,90508,1,0,0:0:0:0:
256,192,90615,1,8,0:0:0:0:
256,191,90936,1,0,0:0:0:0:
256,96,91096,5,12,0:0:0:0:
256,192,91417,1,8,0:0:0:0:
256,192,91577,1,0,0:0:0:0:
256,192,91738,1,8,0:0:0:0:
255,191,91818,1,8,0:0:0:0:
255,191,91898,1,8,0:0:0:0:
256,191,92059,1,0,0:0:0:0:
256,191,92219,1,0,0:0:0:0:
256,192,92379,1,8,0:0:0:0:
256,96,92540,5,4,0:0:0:0:
255,191,93021,1,0,0:0:0:0:
256,96,93182,5,12,0:0:0:0:
256,96,93663,5,12,0:0:0:0:
255,191,93984,1,0,0:0:0:0:
255,192,94064,1,0,0:0:0:0:
255,191,94144,1,8,0:0:0:0:
255,191,94224,1,8,0:0:0:0:
255,191,94305,1,0,0:0:0:0:
255,191,94465,1,0,0:0:0:0:
255,191,94625,1,8,0:0:0:0:
255,191,94706,1,8,0:0:0:0:
255,191,94786,1,0,0:0:0:0:
255,191,94946,1,8,0:0:0:0:
256,96,95107,5,0,0:0:0:0:
256,96,95428,5,4,0:0:0:0:
256,96,95588,5,4,0:0:0:0:
256,96,95748,5,12,0:0:0:0:
256,96,95909,5,12,0:0:0:0:
256,96,96069,5,12,0:0:0:0:
255,191,96230,1,8,0:0:0:0:
255,191,96310,1,8,0:0:0:0:
255,191,96390,1,0,0:0:0:0:
255,191,96551,1,0,0:0:0:0:
255,191,96711,1,8,0:0:0:0:
255,191,96791,1,8,0:0:0:0:
255,191,96871,1,0,0:0:0:0:
255,191,97032,1,8,0:0:0:0:
255,191,97192,1,0,0:0:0:0:
255,191,97353,1,8,0:0:0:0:
255,191,97513,1,8,0:0:0:0:
256,96,97674,5,4,0:0:0:0:
255,191,98155,1,0,0:0:0:0:
256,96,98315,5,12,0:0:0:0:
256,96,98797,5,12,0:0:0:0:
255,191,98957,1,0,0:0:0:0:
255,191,99037,1,0,0:0:0:0:
255,191,99117,1,0,0:0:0:0:
256,96,99278,5,12,0:0:0:0:
255,191,99438,1,0,0:0:0:0:
255,191,99599,1,8,0:0:0:0:
255,191,99679,1,0,0:0:0:0:
255,191,99759,1,8,0:0:0:0:
255,191,99839,1,0,0:0:0:0:
255,191,99920,1,8,0:0:0:0:
256,96,100240,5,4,0:0:0:0:
256,191,100561,1,8,0:0:0:0:
255,191,100668,1,0,0:0:0:0:
256,191,100775,1,0,0:0:0:0:
256,191,100882,1,8,0:0:0:0:
256,191,101203,1,8,0:0:0:0:
256,191,101524,1,0,0:0:0:0:
256,192,101845,1,8,0:0:0:0:
255,191,102166,1,8,0:0:0:0:
256,191,102326,1,0,0:0:0:0:
256,191,102486,1,0,0:0:0:0:
256,192,102647,1,8,0:0:0:0:
256,96,102807,5,4,0:0:0:0:
255,191,103289,1,0,0:0:0:0:
255,191,103609,1,8,0:0:0:0:
255,191,103770,1,0,0:0:0:0:
255,191,103930,1,8,0:0:0:0:
255,191,104251,1,0,0:0:0:0:
255,191,104412,1,8,0:0:0:0:
255,191,104572,1,0,0:0:0:0:
255,191,104893,1,8,0:0:0:0:
255,191,105053,1,0,0:0:0:0:
255,191,105214,1,8,0:0:0:0:
256,96,105374,5,4,0:0:0:0:
255,191,105695,1,0,0:0:0:0:
255,191,105855,1,8,0:0:0:0:
255,191,105936,1,8,0:0:0:0:
255,191,106016,1,0,0:0:0:0:
255,191,106176,1,8,0:0:0:0:
255,191,106337,1,8,0:0:0:0:
255,191,106497,1,0,0:0:0:0:
255,191,106658,1,0,0:0:0:0:
255,191,106818,1,8,0:0:0:0:
255,191,107139,1,8,0:0:0:0:
255,191,107299,1,8,0:0:0:0:
255,191,107460,1,0,0:0:0:0:
255,191,107540,1,0,0:0:0:0:
255,191,107620,1,8,0:0:0:0:
255,191,107781,1,8,0:0:0:0:
256,96,107941,5,4,0:0:0:0:
255,191,108422,1,0,0:0:0:0:
256,96,108583,5,12,0:0:0:0:
255,191,108904,1,0,0:0:0:0:
255,191,109064,1,8,0:0:0:0:
255,191,109224,1,0,0:0:0:0:
255,191,109545,1,8,0:0:0:0:
256,191,109706,1,0,0:0:0:0:
255,191,109866,1,8,0:0:0:0:
255,191,110027,1,0,0:0:0:0:
255,191,110187,1,8,0:0:0:0:
255,191,110267,1,8,0:0:0:0:
255,191,110347,1,8,0:0:0:0:
256,96,110508,5,4,0:0:0:0:
256,191,110829,1,8,0:0:0:0:
256,191,110989,1,0,0:0:0:0:
256,96,111150,5,12,0:0:0:0:
255,191,111470,1,0,0:0:0:0:
255,191,111631,1,8,0:0:0:0:
255,191,111791,1,0,0:0:0:0:
255,191,112112,1,8,0:0:0:0:
255,191,112273,1,8,0:0:0:0:
255,191,112353,1,8,0:0:0:0:
255,191,112433,1,8,0:0:0:0:
256,191,112754,1,8,0:0:0:0:
256,96,113075,5,4,0:0:0:0:
255,191,113556,1,0,0:0:0:0:
255,191,113877,1,0,0:0:0:0:
255,191,114037,1,8,0:0:0:0:
255,191,114198,1,8,0:0:0:0:
255,191,114519,1,8,0:0:0:0:
255,191,114679,1,0,0:0:0:0:
255,191,114839,1,0,0:0:0:0:
255,191,115160,1,0,0:0:0:0:
255,191,115321,1,8,0:0:0:0:
255,191,115481,1,8,0:0:0:0:
256,96,115642,5,4,0:0:0:0:
255,191,115962,1,0,0:0:0:0:
255,191,116123,1,8,0:0:0:0:
256,191,116203,1,0,0:0:0:0:
255,191,116283,1,8,0:0:0:0:
255,191,116444,1,0,0:0:0:0:
255,191,116604,1,8,0:0:0:0:
255,191,116765,1,8,0:0:0:0:
255,191,117085,1,0,0:0:0:0:
255,191,117246,1,8,0:0:0:0:
255,191,117406,1,0,0:0:0:0:
255,191,117567,1,8,0:0:0:0:
255,191,117727,1,0,0:0:0:0:
255,191,117888,1,8,0:0:0:0:
255,191,118048,1,8,0:0:0:0:
256,96,118208,5,4,0:0:0:0:
255,191,118690,1,0,0:0:0:0:
256,96,118850,5,12,0:0:0:0:
255,191,119171,1,0,0:0:0:0:
255,191,119331,1,8,0:0:0:0:
255,191,119492,1,0,0:0:0:0:
255,191,119813,1,8,0:0:0:0:
256,191,119973,1,0,0:0:0:0:
255,191,120133,1,8,0:0:0:0:
255,191,120294,1,0,0:0:0:0:
255,191,120454,1,8,0:0:0:0:
255,191,120535,1,8,0:0:0:0:
255,191,120615,1,8,0:0:0:0:
256,96,120775,5,4,0:0:0:0:
256,191,121096,1,8,0:0:0:0:
256,191,121256,1,0,0:0:0:0:
256,96,121417,5,12,0:0:0:0:
255,191,121738,1,0,0:0:0:0:
255,191,121898,1,8,0:0:0:0:
256,191,122219,1,0,0:0:0:0:
255,191,122379,1,8,0:0:0:0:
255,191,122540,1,0,0:0:0:0:
255,191,122700,1,8,0:0:0:0:
256,191,122781,1,8,0:0:0:0:
256,191,122861,1,0,0:0:0:0:
256,191,122941,1,0,0:0:0:0:
256,191,123021,1,8,0:0:0:0:
256,96,123342,5,4,0:0:0:0:
255,191,123823,1,8,0:0:0:0:
255,191,124144,1,0,0:0:0:0:
255,191,124305,1,0,0:0:0:0:
255,191,124465,1,8,0:0:0:0:
255,191,124786,1,8,0:0:0:0:
255,191,124946,1,8,0:0:0:0:
255,191,125107,1,0,0:0:0:0:
255,191,125428,1,0,0:0:0:0:
255,191,125588,1,0,0:0:0:0:
255,191,125748,1,8,0:0:0:0:
256,96,125909,5,4,0:0:0:0:
255,191,126230,1,0,0:0:0:0:
255,191,126390,1,8,0:0:0:0:
255,191,126551,1,0,0:0:0:0:
255,191,126711,1,8,0:0:0:0:
255,191,126871,1,0,0:0:0:0:
255,191,127032,1,8,0:0:0:0:
255,191,127112,1,0,0:0:0:0:
255,191,127192,1,8,0:0:0:0:
255,191,127353,1,0,0:0:0:0:
255,191,127674,1,8,0:0:0:0:
255,191,127754,1,0,0:0:0:0:
255,191,127834,1,8,0:0:0:0:
255,191,127994,1,0,0:0:0:0:
255,191,128155,1,8,0:0:0:0:
255,191,128315,1,8,0:0:0:0:
256,96,128476,5,4,0:0:0:0:
255,191,128957,1,0,0:0:0:0:
255,191,129117,1,12,0:0:0:0:
255,191,129438,1,8,0:0:0:0:
255,191,129759,1,0,0:0:0:0:
255,191,130080,1,8,0:0:0:0:
256,191,130240,1,0,0:0:0:0:
255,191,130401,1,8,0:0:0:0:
255,191,130561,1,0,0:0:0:0:
255,191,130722,1,8,0:0:0:0:
255,191,130802,1,8,0:0:0:0:
255,191,130882,1,8,0:0:0:0:
256,96,131043,5,4,0:0:0:0:
256,191,131363,1,8,0:0:0:0:
256,191,131524,1,0,0:0:0:0:
257,96,131684,5,12,0:0:0:0:
255,191,132005,1,0,0:0:0:0:
255,191,132166,1,8,0:0:0:0:
255,191,132326,1,0,0:0:0:0:
256,191,132406,1,0,0:0:0:0:
256,191,132486,1,8,0:0:0:0:
255,191,132647,1,0,0:0:0:0:
255,191,132968,1,8,0:0:0:0:
256,191,133289,1,8,0:0:0:0:
256,96,133609,5,4,0:0:0:0:
255,191,134091,1,8,0:0:0:0:
255,191,134412,1,8,0:0:0:0:
255,191,134572,1,8,0:0:0:0:
255,191,134732,1,8,0:0:0:0:
255,191,135053,1,0,0:0:0:0:
255,191,135214,1,0,0:0:0:0:
255,191,135374,1,0,0:0:0:0:
255,191,135695,1,8,0:0:0:0:
255,191,135855,1,8,0:0:0:0:
255,191,136016,1,8,0:0:0:0:
256,96,136176,5,4,0:0:0:0:
255,191,136497,1,8,0:0:0:0:
255,191,136658,1,8,0:0:0:0:
255,191,136738,1,0,0:0:0:0:
256,192,136818,1,8,0:0:0:0:
255,191,136978,1,0,0:0:0:0:
255,191,137139,1,8,0:0:0:0:
256,191,137219,1,0,0:0:0:0:
255,191,137299,1,8,0:0:0:0:
255,191,137620,1,0,0:0:0:0:
255,191,137781,1,8,0:0:0:0:
255,191,137861,1,0,0:0:0:0:
255,191,137941,1,8,0:0:0:0:
255,191,138101,1,8,0:0:0:0:
255,191,138262,1,8,0:0:0:0:
255,191,138422,1,0,0:0:0:0:
255,191,138583,1,8,0:0:0:0:
256,96,138743,5,4,0:0:0:0:
255,191,139224,1,0,0:0:0:0:
256,96,139385,5,12,0:0:0:0:
255,191,139706,1,0,0:0:0:0:
255,191,139866,1,8,0:0:0:0:
255,191,140027,1,0,0:0:0:0:
255,191,140347,1,8,0:0:0:0:
256,191,140508,1,0,0:0:0:0:
255,191,140668,1,8,0:0:0:0:
255,191,140829,1,0,0:0:0:0:
255,191,140989,1,8,0:0:0:0:
255,191,141069,1,8,0:0:0:0:
255,191,141150,1,8,0:0:0:0:
256,96,141310,5,4,0:0:0:0:
256,191,141631,1,8,0:0:0:0:
256,191,141791,1,0,0:0:0:0:
257,96,141952,5,12,0:0:0:0:
255,191,142273,1,0,0:0:0:0:
255,191,142433,1,8,0:0:0:0:
255,191,142593,1,0,0:0:0:0:
256,191,142674,1,8,0:0:0:0:
256,191,142754,1,0,0:0:0:0:
255,191,142914,1,8,0:0:0:0:
255,191,143075,1,0,0:0:0:0:
255,191,143235,1,8,0:0:0:0:
256,191,143396,1,0,0:0:0:0:
256,191,143556,1,8,0:0:0:0:
256,191,143636,1,8,0:0:0:0:
256,191,143716,1,8,0:0:0:0:
256,96,143877,5,4,0:0:0:0:
256,191,144198,1,8,0:0:0:0:
256,191,145000,1,0,0:0:0:0:
256,191,145481,1,0,0:0:0:0:
256,191,146123,1,8,0:0:0:0:
256,191,146283,1,8,0:0:0:0:
256,191,146444,1,0,0:0:0:0:
256,191,146765,1,8,0:0:0:0:
256,191,147567,1,0,0:0:0:0:
256,191,148048,1,0,0:0:0:0:
256,191,148690,1,8,0:0:0:0:
256,191,148850,1,8,0:0:0:0:
256,191,149011,1,0,0:0:0:0:
256,191,149331,1,8,0:0:0:0:
256,191,150133,1,0,0:0:0:0:
256,191,150615,1,0,0:0:0:0:
256,191,151577,1,8,0:0:0:0:
256,191,151658,1,8,0:0:0:0:
256,191,151738,1,8,0:0:0:0:
256,191,151898,1,0,0:0:0:0:
256,191,152059,1,8,0:0:0:0:
256,191,152139,1,8,0:0:0:0:
256,191,152219,1,0,0:0:0:0:
256,191,152540,1,8,0:0:0:0:
256,191,152620,1,8,0:0:0:0:
256,191,152700,1,0,0:0:0:0:
256,191,152781,1,0,0:0:0:0:
256,191,152861,1,8,0:0:0:0:
256,191,153021,1,0,0:0:0:0:
256,191,153182,1,8,0:0:0:0:
256,191,153342,1,0,0:0:0:0:
256,191,153422,1,0,0:0:0:0:
256,191,153502,1,8,0:0:0:0:
256,191,153663,1,8,0:0:0:0:
256,191,153823,1,8,0:0:0:0:
256,191,153904,1,8,0:0:0:0:
256,191,153984,1,0,0:0:0:0:
256,192,154064,1,0,0:0:0:0:
256,96,154465,5,12,0:0:0:0:
256,191,154625,1,0,0:0:0:0:
256,191,154706,1,0,0:0:0:0:
256,191,154786,1,8,0:0:0:0:
256,191,154946,1,0,0:0:0:0:
256,191,155027,1,0,0:0:0:0:
256,191,155107,1,8,0:0:0:0:
256,191,155267,1,0,0:0:0:0:
256,191,155347,1,0,0:0:0:0:
256,191,155428,1,8,0:0:0:0:
256,191,155748,1,8,0:0:0:0:
256,191,155829,1,0,0:0:0:0:
256,191,155909,1,8,0:0:0:0:
256,191,155989,1,8,0:0:0:0:
256,191,156069,1,0,0:0:0:0:
256,191,156230,1,0,0:0:0:0:
256,191,156310,1,0,0:0:0:0:
256,191,156390,1,8,0:0:0:0:
256,191,156551,1,0,0:0:0:0:
256,191,156871,1,0,0:0:0:0:
256,192,156952,1,0,0:0:0:0:
256,191,157032,1,8,0:0:0:0:
256,191,157192,1,0,0:0:0:0:
256,191,157273,1,0,0:0:0:0:
256,191,157353,1,8,0:0:0:0:
256,191,157513,1,0,0:0:0:0:
256,191,157593,1,0,0:0:0:0:
256,191,157674,1,8,0:0:0:0:
256,191,157994,1,8,0:0:0:0:
256,191,158155,1,0,0:0:0:0:
256,191,158235,1,0,0:0:0:0:
256,191,158315,1,8,0:0:0:0:
256,192,158396,1,0,0:0:0:0:
256,191,158476,1,8,0:0:0:0:
256,191,158636,1,8,0:0:0:0:
256,192,158716,1,8,0:0:0:0:
256,191,158797,1,0,0:0:0:0:
256,192,158957,1,8,0:0:0:0:
256,191,159117,1,0,0:0:0:0:
256,191,159438,1,0,0:0:0:0:
256,191,159519,1,0,0:0:0:0:
256,191,159599,1,8,0:0:0:0:
256,191,159759,1,0,0:0:0:0:
256,191,159839,1,0,0:0:0:0:
256,191,159920,1,8,0:0:0:0:
256,191,160080,1,0,0:0:0:0:
256,191,160160,1,0,0:0:0:0:
256,191,160240,1,8,0:0:0:0:
256,191,160561,1,8,0:0:0:0:
256,191,160722,1,0,0:0:0:0:
256,192,160802,1,0,0:0:0:0:
256,191,160882,1,8,0:0:0:0:
256,191,161043,1,0,0:0:0:0:
256,191,161203,1,8,0:0:0:0:
256,192,161283,1,0,0:0:0:0:
256,191,161363,1,8,0:0:0:0:
256,192,161444,1,8,0:0:0:0:
256,192,161524,1,0,0:0:0:0:
256,192,161684,1,0,0:0:0:0:
255,191,161765,1,0,0:0:0:0:
256,191,161845,1,8,0:0:0:0:
256,191,162166,1,8,0:0:0:0:
256,191,162326,1,8,0:0:0:0:
256,191,162406,1,0,0:0:0:0:
256,191,162486,1,8,0:0:0:0:
256,191,162567,1,8,0:0:0:0:
256,191,162647,1,0,0:0:0:0:
256,191,162807,1,0,0:0:0:0:
256,191,163128,1,8,0:0:0:0:
256,191,163289,1,0,0:0:0:0:
256,191,163449,1,8,0:0:0:0:
256,191,163529,1,0,0:0:0:0:
256,191,163609,1,8,0:0:0:0:
256,191,163770,1,8,0:0:0:0:
256,191,163850,1,8,0:0:0:0:
256,191,163930,1,8,0:0:0:0:
256,191,164091,1,8,0:0:0:0:
256,191,164171,1,0,0:0:0:0:
256,191,164251,1,8,0:0:0:0:
256,191,164412,1,0,0:0:0:0:
256,191,164572,1,0,0:0:0:0:
256,96,164732,5,12,0:0:0:0:
255,192,165053,1,8,0:0:0:0:
255,192,165214,1,0,0:0:0:0:
255,192,165294,1,0,0:0:0:0:
255,192,165374,1,8,0:0:0:0:
255,192,165535,1,0,0:0:0:0:
255,192,165695,1,8,0:0:0:0:
255,192,165855,1,8,0:0:0:0:
255,192,166016,1,8,0:0:0:0:
255,192,166176,1,0,0:0:0:0:
255,192,166256,1,0,0:0:0:0:
255,192,166337,1,8,0:0:0:0:
255,192,166497,1,8,0:0:0:0:
255,192,166658,1,0,0:0:0:0:
255,192,166818,1,0,0:0:0:0:
255,192,167139,1,0,0:0:0:0:
255,192,167219,1,0,0:0:0:0:
255,192,167299,1,8,0:0:0:0:
255,192,167620,1,8,0:0:0:0:
255,192,167781,1,0,0:0:0:0:
255,192,167861,1,0,0:0:0:0:
255,192,167941,1,8,0:0:0:0:
255,192,168101,1,0,0:0:0:0:
255,191,168262,1,8,0:0:0:0:
255,192,168422,1,8,0:0:0:0:
255,192,168583,1,0,0:0:0:0:
255,192,168743,1,0,0:0:0:0:
255,192,168904,1,8,0:0:0:0:
255,192,168984,1,0,0:0:0:0:
255,192,169064,1,8,0:0:0:0:
255,192,169224,1,8,0:0:0:0:
255,192,169385,1,0,0:0:0:0:
255,192,169706,1,0,0:0:0:0:
255,192,169866,1,8,0:0:0:0:
255,192,170187,1,8,0:0:0:0:
255,192,170347,1,0,0:0:0:0:
255,192,170428,1,0,0:0:0:0:
255,192,170508,1,8,0:0:0:0:
255,192,170668,1,0,0:0:0:0:
255,192,170829,1,8,0:0:0:0:
255,192,170989,1,8,0:0:0:0:
255,192,171150,1,8,0:0:0:0:
255,192,171310,1,0,0:0:0:0:
255,191,171390,1,0,0:0:0:0:
255,192,171470,1,8,0:0:0:0:
255,192,171631,1,8,0:0:0:0:
255,192,171791,1,0,0:0:0:0:
255,192,171952,1,8,0:0:0:0:
255,192,172273,1,0,0:0:0:0:
255,192,172433,1,8,0:0:0:0:
255,192,172593,1,0,0:0:0:0:
255,192,172754,1,8,0:0:0:0:
255,192,172834,1,8,0:0:0:0:
255,192,172914,1,0,0:0:0:0:
255,192,172994,1,0,0:0:0:0:
255,192,173075,1,8,0:0:0:0:
255,192,173235,1,0,0:0:0:0:
255,192,173556,1,0,0:0:0:0:
255,192,173716,1,8,0:0:0:0:
255,192,173877,1,8,0:0:0:0:
255,192,174198,1,0,0:0:0:0:
255,192,174358,1,8,0:0:0:0:
255,192,174519,1,0,0:0:0:0:
255,192,174839,1,0,0:0:0:0:
255,192,175000,1,8,0:0:0:0:
255,192,175321,1,8,0:0:0:0:
255,192,175481,1,0,0:0:0:0:
255,191,175561,1,0,0:0:0:0:
255,192,175642,1,8,0:0:0:0:
255,192,175802,1,0,0:0:0:0:
255,192,175962,1,8,0:0:0:0:
255,192,176123,1,8,0:0:0:0:
255,192,176283,1,0,0:0:0:0:
256,192,176444,1,0,0:0:0:0:
255,191,176604,1,8,0:0:0:0:
255,192,176765,1,8,0:0:0:0:
255,191,176845,1,0,0:0:0:0:
255,192,176925,1,8,0:0:0:0:
256,192,177085,1,0,0:0:0:0:
256,192,177406,1,0,0:0:0:0:
256,192,177486,1,0,0:0:0:0:
256,192,177567,1,8,0:0:0:0:
256,192,177888,1,8,0:0:0:0:
256,192,178048,1,0,0:0:0:0:
256,192,178208,1,8,0:0:0:0:
256,191,178289,1,8,0:0:0:0:
256,192,178369,1,0,0:0:0:0:
255,191,178529,1,8,0:0:0:0:
256,192,178690,1,0,0:0:0:0:
256,192,178850,1,8,0:0:0:0:
256,192,179011,1,8,0:0:0:0:
256,192,179171,1,0,0:0:0:0:
256,192,179331,1,0,0:0:0:0:
255,191,179412,1,0,0:0:0:0:
256,192,179492,1,8,0:0:0:0:
256,192,179652,1,0,0:0:0:0:
256,191,179973,1,0,0:0:0:0:
256,192,180133,1,8,0:0:0:0:
256,191,180454,1,8,0:0:0:0:
256,191,180615,1,0,0:0:0:0:
256,191,180775,1,8,0:0:0:0:
256,191,180855,1,8,0:0:0:0:
256,191,180936,1,0,0:0:0:0:
256,191,181096,1,8,0:0:0:0:
256,191,181256,1,0,0:0:0:0:
256,191,181417,1,8,0:0:0:0:
256,191,181497,1,8,0:0:0:0:
256,191,181577,1,0,0:0:0:0:
256,191,181658,1,0,0:0:0:0:
256,191,181738,1,8,0:0:0:0:
256,191,181898,1,0,0:0:0:0:
256,191,182059,1,0,0:0:0:0:
256,191,182219,1,8,0:0:0:0:
256,191,182540,1,0,0:0:0:0:
256,191,182700,1,8,0:0:0:0:
256,191,182861,1,8,0:0:0:0:
256,191,183021,1,0,0:0:0:0:
256,191,183182,1,0,0:0:0:0:
256,191,183262,1,0,0:0:0:0:
256,191,183342,1,8,0:0:0:0:
256,191,183502,1,8,0:0:0:0:
256,191,183823,1,0,0:0:0:0:
256,191,183984,1,8,0:0:0:0:
256,191,184144,1,0,0:0:0:0:
256,191,184305,1,8,0:0:0:0:
256,191,184385,1,0,0:0:0:0:
256,191,184465,1,8,0:0:0:0:
256,191,184625,1,8,0:0:0:0:
256,96,184946,5,4,0:0:0:0:
256,191,185267,1,8,0:0:0:0:
256,191,185428,1,0,0:0:0:0:
256,191,185748,1,0,0:0:0:0:
256,191,185909,1,8,0:0:0:0:
256,191,186069,1,8,0:0:0:0:
256,191,186150,1,8,0:0:0:0:
256,191,186230,1,8,0:0:0:0:
256,191,186390,1,0,0:0:0:0:
256,191,186551,1,8,0:0:0:0:
256,191,186711,1,0,0:0:0:0:
256,191,186871,1,8,0:0:0:0:
256,191,187032,1,8,0:0:0:0:
256,191,187192,1,0,0:0:0:0:
256,191,187353,1,8,0:0:0:0:
256,191,187674,1,0,0:0:0:0:
256,191,187754,1,0,0:0:0:0:
256,191,187834,1,8,0:0:0:0:
256,191,187994,1,8,0:0:0:0:
256,191,188315,1,8,0:0:0:0:
256,191,188476,1,0,0:0:0:0:
256,191,188636,1,8,0:0:0:0:
256,191,188716,1,0,0:0:0:0:
256,191,188797,1,8,0:0:0:0:
256,191,188957,1,0,0:0:0:0:
256,191,189117,1,8,0:0:0:0:
256,191,189278,1,0,0:0:0:0:
256,191,189358,1,8,0:0:0:0:
256,191,189438,1,0,0:0:0:0:
256,191,189599,1,8,0:0:0:0:
256,191,189759,1,0,0:0:0:0:
256,191,189920,1,8,0:0:0:0:
256,191,190240,1,0,0:0:0:0:
256,191,190401,1,8,0:0:0:0:
256,191,190561,1,0,0:0:0:0:
256,191,190882,1,0,0:0:0:0:
256,191,191043,1,8,0:0:0:0:
256,191,191203,1,0,0:0:0:0:
256,191,191283,1,8,0:0:0:0:
256,191,191363,1,0,0:0:0:0:
256,191,191524,1,0,0:0:0:0:
256,191,191684,1,8,0:0:0:0:
256,191,191845,1,0,0:0:0:0:
256,191,192005,1,0,0:0:0:0:
256,191,192326,1,8,0:0:0:0:
256,191,192486,1,0,0:0:0:0:
256,191,192567,1,0,0:0:0:0:
256,191,192647,1,0,0:0:0:0:
256,191,192807,1,8,0:0:0:0:
256,191,192968,1,0,0:0:0:0:
256,191,193048,1,8,0:0:0:0:
256,191,193128,1,0,0:0:0:0:
256,191,193289,1,8,0:0:0:0:
256,191,193449,1,0,0:0:0:0:
256,191,193529,1,0,0:0:0:0:
256,191,193609,1,0,0:0:0:0:
256,191,193770,1,8,0:0:0:0:
256,191,194091,1,0,0:0:0:0:
256,191,194251,1,8,0:0:0:0:
256,191,194412,1,0,0:0:0:0:
256,191,194492,1,0,0:0:0:0:
256,191,194572,1,8,0:0:0:0:
256,191,194732,1,8,0:0:0:0:
256,191,194813,1,0,0:0:0:0:
256,191,194893,1,8,0:0:0:0:
256,96,195053,5,4,0:0:0:0:
256,191,195374,1,0,0:0:0:0:
256,191,195535,1,8,0:0:0:0:
256,191,195695,1,0,0:0:0:0:
256,191,196016,1,0,0:0:0:0:
256,191,196176,1,8,0:0:0:0:
256,191,196337,1,8,0:0:0:0:
256,191,196417,1,8,0:0:0:0:
256,191,196497,1,8,0:0:0:0:
256,191,196658,1,0,0:0:0:0:
256,191,196818,1,8,0:0:0:0:
256,191,196978,1,8,0:0:0:0:
256,191,197139,1,0,0:0:0:0:
256,191,197299,1,8,0:0:0:0:
256,191,197460,1,0,0:0:0:0:
256,191,197620,1,8,0:0:0:0:
256,191,197941,1,0,0:0:0:0:
256,191,198021,1,0,0:0:0:0:
256,191,198101,1,8,0:0:0:0:
256,191,198262,1,8,0:0:0:0:
256,191,198583,1,0,0:0:0:0:
256,191,198743,1,8,0:0:0:0:
256,191,198904,1,8,0:0:0:0:
256,191,198984,1,8,0:0:0:0:
256,191,199064,1,0,0:0:0:0:
256,191,199224,1,0,0:0:0:0:
256,191,199385,1,8,0:0:0:0:
256,191,199545,1,0,0:0:0:0:
256,191,199866,1,0,0:0:0:0:
256,191,200027,1,8,0:0:0:0:
256,191,200187,1,8,0:0:0:0:
256,191,200508,1,0,0:0:0:0:
256,191,200668,1,8,0:0:0:0:
256,191,200829,1,0,0:0:0:0:
256,191,201150,1,0,0:0:0:0:
256,191,201310,1,8,0:0:0:0:
256,191,201390,1,0,0:0:0:0:
256,191,201470,1,8,0:0:0:0:
256,191,201631,1,0,0:0:0:0:
256,191,201791,1,0,0:0:0:0:
256,191,201952,1,8,0:0:0:0:
256,191,202032,1,8,0:0:0:0:
256,191,202112,1,0,0:0:0:0:
256,191,202192,1,0,0:0:0:0:
256,191,202273,1,8,0:0:0:0:
256,191,202433,1,0,0:0:0:0:
256,191,202593,1,8,0:0:0:0:
256,191,202674,1,0,0:0:0:0:
256,191,202754,1,8,0:0:0:0:
256,191,203075,1,0,0:0:0:0:
256,191,203235,1,8,0:0:0:0:
256,191,203396,1,0,0:0:0:0:
256,191,203476,1,0,0:0:0:0:
256,191,203556,1,0,0:0:0:0:
256,191,203636,1,0,0:0:0:0:
256,191,203716,1,0,0:0:0:0:
256,191,203877,1,8,0:0:0:0:
256,191,204198,1,0,0:0:0:0:
256,191,204358,1,8,0:0:0:0:
256,191,204519,1,8,0:0:0:0:
256,191,204599,1,8,0:0:0:0:
256,191,204679,1,0,0:0:0:0:
256,191,204839,1,8,0:0:0:0:
256,191,204920,1,8,0:0:0:0:
256,191,205000,1,0,0:0:0:0:
256,191,205160,1,8,0:0:0:0:
256,191,205240,1,8,0:0:0:0:
256,191,205321,1,8,0:0:0:0:
256,191,205401,1,8,0:0:0:0:
256,96,205802,5,4,0:0:0:0:
256,191,206123,1,8,0:0:0:0:
256,191,206283,1,0,0:0:0:0:
256,191,206363,1,0,0:0:0:0:
256,191,206444,1,8,0:0:0:0:
256,191,206604,1,8,0:0:0:0:
256,191,206765,1,0,0:0:0:0:
256,191,207085,1,8,0:0:0:0:
256,191,207246,1,0,0:0:0:0:
256,191,207406,1,8,0:0:0:0:
256,191,207567,1,0,0:0:0:0:
256,191,207647,1,0,0:0:0:0:
256,191,207727,1,8,0:0:0:0:
256,191,207888,1,0,0:0:0:0:
256,191,208208,1,0,0:0:0:0:
256,191,208289,1,0,0:0:0:0:
256,191,208369,1,8,0:0:0:0:
256,191,208529,1,8,0:0:0:0:
256,191,208690,1,0,0:0:0:0:
256,191,208850,1,0,0:0:0:0:
256,191,209011,1,8,0:0:0:0:
256,191,209171,1,0,0:0:0:0:
256,191,209492,1,0,0:0:0:0:
256,191,209652,1,8,0:0:0:0:
256,191,209732,1,8,0:0:0:0:
256,191,209813,1,0,0:0:0:0:
256,191,209973,1,8,0:0:0:0:
256,191,210133,1,0,0:0:0:0:
256,191,210214,1,0,0:0:0:0:
256,191,210294,1,8,0:0:0:0:
256,191,210454,1,0,0:0:0:0:
256,191,210775,1,0,0:0:0:0:
256,191,210936,1,8,0:0:0:0:
256,191,211096,1,0,0:0:0:0:
256,191,211176,1,0,0:0:0:0:
256,191,211256,1,0,0:0:0:0:
256,191,211417,1,8,0:0:0:0:
256,191,211577,1,8,0:0:0:0:
256,191,211658,1,0,0:0:0:0:
256,191,211738,1,0,0:0:0:0:
256,191,211818,1,0,0:0:0:0:
256,191,211898,1,8,0:0:0:0:
256,191,212219,1,8,0:0:0:0:
256,191,212379,1,8,0:0:0:0:
256,191,212460,1,0,0:0:0:0:
256,191,212540,1,0,0:0:0:0:
256,191,212700,1,8,0:0:0:0:
256,191,212781,1,8,0:0:0:0:
256,191,212861,1,8,0:0:0:0:
256,191,213021,1,0,0:0:0:0:
256,191,213342,1,0,0:0:0:0:
256,191,213502,1,8,0:0:0:0:
256,191,213583,1,0,0:0:0:0:
256,191,213663,1,0,0:0:0:0:
256,191,213823,1,8,0:0:0:0:
255,191,213984,1,0,0:0:0:0:
256,191,214064,1,0,0:0:0:0:
256,191,214144,1,8,0:0:0:0:
256,191,214305,1,8,0:0:0:0:
256,191,214385,1,8,0:0:0:0:
256,191,214465,1,0,0:0:0:0:
256,191,214786,1,8,0:0:0:0:
256,191,214866,1,8,0:0:0:0:
256,191,214946,1,0,0:0:0:0:
256,191,215027,1,0,0:0:0:0:
256,191,215107,1,8,0:0:0:0:
256,191,215267,1,0,0:0:0:0:
256,191,215347,1,0,0:0:0:0:
256,191,215428,1,8,0:0:0:0:
256,191,215588,1,0,0:0:0:0:
256,191,215909,1,8,0:0:0:0:
256,191,216069,1,4,0:0:0:0:
256,191,216390,1,8,0:0:0:0:
256,191,216551,1,0,0:0:0:0:
256,191,216631,1,0,0:0:0:0:
256,191,216711,1,8,0:0:0:0:
256,191,217032,1,0,0:0:0:0:
256,191,217112,1,8,0:0:0:0:
256,191,217192,1,0,0:0:0:0:
256,191,217273,1,0,0:0:0:0:
256,191,217353,1,8,0:0:0:0:
256,191,217513,1,0,0:0:0:0:
256,191,217674,1,8,0:0:0:0:
256,191,217834,1,0,0:0:0:0:
256,191,217914,1,0,0:0:0:0:
256,191,217994,1,8,0:0:0:0:
256,191,218155,1,0,0:0:0:0:
256,191,218476,1,0,0:0:0:0:
256,191,218556,1,0,0:0:0:0:
256,191,218636,1,8,0:0:0:0:
256,191,218797,1,0,0:0:0:0:
256,191,219117,1,0,0:0:0:0:
256,191,219198,1,0,0:0:0:0:
256,191,219278,1,8,0:0:0:0:
256,191,219358,1,0,0:0:0:0:
256,191,219438,1,8,0:0:0:0:
256,191,219599,1,0,0:0:0:0:
256,191,219759,1,8,0:0:0:0:
256,191,219920,1,8,0:0:0:0:
256,191,220000,1,8,0:0:0:0:
256,191,220080,1,0,0:0:0:0:
256,191,220240,1,8,0:0:0:0:
256,191,220401,1,0,0:0:0:0:
256,191,220561,1,8,0:0:0:0:
256,191,220642,1,0,0:0:0:0:
256,191,220722,1,8,0:0:0:0:
256,128,220882,5,4,0:0:0:0:
256,192,221203,1,8,0:0:0:0:
256,192,221524,1,8,0:0:0:0:
256,192,221604,1,8,0:0:0:0:
256,192,221684,1,8,0:0:0:0:
256,192,221765,1,8,0:0:0:0:
255,191,221845,1,0,0:0:0:0:
256,192,222486,1,0,0:0:0:0:
255,191,222647,1,8,0:0:0:0:
256,191,222727,1,8,0:0:0:0:
256,192,222807,1,0,0:0:0:0:
256,192,222968,1,0,0:0:0:0:
256,192,223128,1,8,0:0:0:0:
256,96,223449,5,4,0:0:0:0:
256,191,223770,1,8,0:0:0:0:
256,191,224091,1,0,0:0:0:0:
256,191,224251,1,8,0:0:0:0:
256,191,224572,1,0,0:0:0:0:
256,191,224893,1,0,0:0:0:0:
256,191,225053,1,8,0:0:0:0:
255,191,225374,1,0,0:0:0:0:
255,191,225535,1,8,0:0:0:0:
255,191,225695,1,0,0:0:0:0:
256,96,226016,5,4,0:0:0:0:
256,192,226337,1,8,0:0:0:0:
256,192,226658,1,8,0:0:0:0:
256,192,226818,1,0,0:0:0:0:
256,192,226978,1,0,0:0:0:0:
256,192,227059,1,0,0:0:0:0:
256,192,227139,1,8,0:0:0:0:
256,192,227460,1,0,0:0:0:0:
256,192,227620,1,8,0:0:0:0:
256,192,227941,1,0,0:0:0:0:
256,192,228101,1,8,0:0:0:0:
255,191,228262,1,8,0:0:0:0:
255,191,228342,1,8,0:0:0:0:
255,191,228422,1,8,0:0:0:0:
256,96,228583,5,4,0:0:0:0:
255,191,228904,1,8,0:0:0:0:
255,191,229224,1,0,0:0:0:0:
255,191,229305,1,0,0:0:0:0:
255,191,229385,1,0,0:0:0:0:
255,191,229545,1,8,0:0:0:0:
255,191,229706,1,0,0:0:0:0:
255,191,229786,1,0,0:0:0:0:
255,191,229866,1,0,0:0:0:0:
255,191,230027,1,0,0:0:0:0:
255,191,230187,1,8,0:0:0:0:
255,191,230508,1,0,0:0:0:0:
255,191,230668,1,8,0:0:0:0:
255,191,230829,1,8,0:0:0:0:
255,191,230909,1,8,0:0:0:0:
255,191,230989,1,8,0:0:0:0:
256,96,231150,5,4,0:0:0:0:
255,191,231470,1,8,0:0:0:0:
255,191,231631,1,0,0:0:0:0:
255,191,231711,1,0,0:0:0:0:
255,191,231791,1,0,0:0:0:0:
255,191,231952,1,8,0:0:0:0:
255,191,232112,1,0,0:0:0:0:
255,191,232192,1,0,0:0:0:0:
255,191,232273,1,0,0:0:0:0:
255,191,232433,1,8,0:0:0:0:
255,191,232593,1,0,0:0:0:0:
255,191,232754,1,8,0:0:0:0:
255,191,233075,1,0,0:0:0:0:
255,191,233235,1,0,0:0:0:0:
255,191,233396,1,8,0:0:0:0:
255,191,233476,1,8,0:0:0:0:
255,191,233556,1,8,0:0:0:0:
256,96,233716,5,4,0:0:0:0:
255,191,234037,1,8,0:0:0:0:
255,191,234198,1,0,0:0:0:0:
255,191,234358,1,0,0:0:0:0:
255,191,234438,1,0,0:0:0:0:
255,191,234519,1,0,0:0:0:0:
255,191,234679,1,8,0:0:0:0:
255,191,234759,1,8,0:0:0:0:
255,191,234839,1,8,0:0:0:0:
255,191,235000,1,0,0:0:0:0:
255,191,235160,1,0,0:0:0:0:
255,191,235321,1,8,0:0:0:0:
255,191,235642,1,0,0:0:0:0:
255,191,235802,1,8,0:0:0:0:
255,192,235882,1,8,0:0:0:0:
255,191,235962,1,8,0:0:0:0:
255,191,236043,1,8,0:0:0:0:
255,191,236123,1,0,0:0:0:0:
256,191,236203,1,0,0:0:0:0:
255,191,236283,1,0,0:0:0:0:
255,191,240133,5,0,0:0:0:0:
255,191,240214,1,8,0:0:0:0:
255,191,240294,1,0,0:0:0:0:
255,191,240374,1,0,0:0:0:0:
255,191,240454,1,8,0:0:0:0:
255,191,240615,1,0,0:0:0:0:
255,191,240936,1,8,0:0:0:0:
255,191,241096,1,8,0:0:0:0:
255,191,241256,1,8,0:0:0:0:
256,96,241417,5,4,0:0:0:0:
256,192,241738,1,8,0:0:0:0:
255,191,241898,1,0,0:0:0:0:
256,96,242059,5,12,0:0:0:0:
256,192,242379,1,0,0:0:0:0:
256,192,242540,1,8,0:0:0:0:
255,191,242620,1,8,0:0:0:0:
255,191,242700,1,0,0:0:0:0:
255,191,242861,1,0,0:0:0:0:
255,191,243021,1,8,0:0:0:0:
256,192,243182,1,8,0:0:0:0:
256,192,243262,1,8,0:0:0:0:
255,191,243342,1,8,0:0:0:0:
255,191,243502,1,0,0:0:0:0:
255,191,243663,1,0,0:0:0:0:
255,191,243823,1,8,0:0:0:0:
256,96,243984,5,4,0:0:0:0:
255,191,244305,1,0,0:0:0:0:
255,191,244465,1,0,0:0:0:0:
255,191,244625,1,8,0:0:0:0:
255,191,244706,1,0,0:0:0:0:
255,191,244786,1,8,0:0:0:0:
255,191,244946,1,0,0:0:0:0:
255,191,245107,1,8,0:0:0:0:
255,191,245187,1,0,0:0:0:0:
255,191,245267,1,0,0:0:0:0:
255,191,245428,1,0,0:0:0:0:
255,191,245508,1,0,0:0:0:0:
255,191,245588,1,8,0:0:0:0:
256,191,245668,1,8,0:0:0:0:
255,191,245748,1,0,0:0:0:0:
255,191,245909,1,8,0:0:0:0:
255,191,246069,1,0,0:0:0:0:
255,191,246150,1,0,0:0:0:0:
255,191,246230,1,8,0:0:0:0:
255,191,246390,1,8,0:0:0:0:
256,96,246551,5,4,0:0:0:0:
255,191,246871,1,0,0:0:0:0:
255,191,247032,1,0,0:0:0:0:
256,96,247192,5,12,0:0:0:0:
256,191,247513,1,0,0:0:0:0:
255,191,247674,1,8,0:0:0:0:
256,191,247754,1,0,0:0:0:0:
255,191,247834,1,0,0:0:0:0:
255,191,247994,1,0,0:0:0:0:
256,191,248075,1,8,0:0:0:0:
255,191,248155,1,0,0:0:0:0:
255,191,248315,1,8,0:0:0:0:
255,191,248396,1,8,0:0:0:0:
255,191,248476,1,8,0:0:0:0:
255,191,248636,1,0,0:0:0:0:
255,191,248797,1,0,0:0:0:0:
256,191,248957,1,8,0:0:0:0:
256,96,249117,5,4,0:0:0:0:
256,191,249438,1,0,0:0:0:0:
256,191,249545,1,0,0:0:0:0:
256,191,249652,1,0,0:0:0:0:
256,191,249759,1,8,0:0:0:0:
256,191,250080,1,8,0:0:0:0:
256,191,250240,1,0,0:0:0:0:
256,191,250561,1,0,0:0:0:0:
256,192,250722,1,8,0:0:0:0:
256,192,250882,1,8,0:0:0:0:
255,191,250962,1,0,0:0:0:0:
256,192,251043,1,8,0:0:0:0:
256,191,251203,1,0,0:0:0:0:
256,192,251283,1,0,0:0:0:0:
256,191,251363,1,8,0:0:0:0:
256,192,251444,1,0,0:0:0:0:
256,192,251524,1,8,0:0:0:0:
256,96,251684,5,4,0:0:0:0:
256,192,252005,1,8,0:0:0:0:
255,191,252166,1,0,0:0:0:0:
256,96,252326,5,12,0:0:0:0:
256,192,252647,1,0,0:0:0:0:
255,191,252807,1,8,0:0:0:0:
256,192,252888,1,0,0:0:0:0:
255,191,252968,1,0,0:0:0:0:
255,191,253128,1,0,0:0:0:0:
255,191,253289,1,8,0:0:0:0:
255,191,253449,1,8,0:0:0:0:
256,192,253529,1,8,0:0:0:0:
255,191,253609,1,8,0:0:0:0:
255,191,253770,1,0,0:0:0:0:
255,191,253930,1,8,0:0:0:0:
255,191,254091,1,8,0:0:0:0:
256,96,254251,5,4,0:0:0:0:
255,191,254572,1,0,0:0:0:0:
255,191,254732,1,8,0:0:0:0:
255,191,254893,1,8,0:0:0:0:
255,191,254973,1,0,0:0:0:0:
255,191,255053,1,8,0:0:0:0:
255,191,255214,1,8,0:0:0:0:
255,191,255374,1,8,0:0:0:0:
255,191,255454,1,8,0:0:0:0:
255,191,255535,1,0,0:0:0:0:
255,191,255695,1,0,0:0:0:0:
255,191,255855,1,8,0:0:0:0:
255,192,255936,1,8,0:0:0:0:
255,191,256016,1,8,0:0:0:0:
255,191,256176,1,8,0:0:0:0:
255,191,256337,1,0,0:0:0:0:
255,191,256417,1,0,0:0:0:0:
255,191,256497,1,8,0:0:0:0:
255,191,256577,1,0,0:0:0:0:
255,191,256658,1,8,0:0:0:0:
256,96,256818,5,4,0:0:0:0:
255,191,257139,1,0,0:0:0:0:
255,191,257299,1,0,0:0:0:0:
256,96,257460,5,12,0:0:0:0:
256,191,257781,1,0,0:0:0:0:
255,191,257941,1,8,0:0:0:0:
256,191,258021,1,0,0:0:0:0:
255,191,258101,1,0,0:0:0:0:
255,191,258262,1,8,0:0:0:0:
256,191,258342,1,8,0:0:0:0:
255,191,258422,1,0,0:0:0:0:
255,191,258583,1,8,0:0:0:0:
255,191,258663,1,8,0:0:0:0:
255,191,258743,1,8,0:0:0:0:
255,191,258904,1,0,0:0:0:0:
255,191,259064,1,0,0:0:0:0:
256,191,259224,1,8,0:0:0:0:
256,96,259385,5,0,0:0:0:0:
256,191,259706,1,0,0:0:0:0:
256,191,259813,1,0,0:0:0:0:
256,191,259920,1,0,0:0:0:0:
256,191,260027,1,8,0:0:0:0:
256,192,260668,1,0,0:0:0:0:
256,191,261310,1,8,0:0:0:0:
256,191,261470,1,0,0:0:0:0:
256,191,261631,1,0,0:0:0:0:
256,192,261791,1,8,0:0:0:0:
256,96,261952,5,4,0:0:0:0:
255,191,262433,1,0,0:0:0:0:
255,191,262754,1,0,0:0:0:0:
255,191,262914,1,8,0:0:0:0:
255,191,263075,1,0,0:0:0:0:
255,191,263396,1,8,0:0:0:0:
255,191,263556,1,0,0:0:0:0:
255,191,263716,1,8,0:0:0:0:
255,191,264037,1,0,0:0:0:0:
255,191,264198,1,8,0:0:0:0:
255,191,264358,1,0,0:0:0:0:
256,96,264519,5,4,0:0:0:0:
255,191,264839,1,0,0:0:0:0:
255,191,265000,1,8,0:0:0:0:
255,191,265080,1,8,0:0:0:0:
255,191,265160,1,0,0:0:0:0:
255,191,265321,1,8,0:0:0:0:
255,191,265481,1,8,0:0:0:0:
255,191,265642,1,0,0:0:0:0:
255,191,265802,1,0,0:0:0:0:
255,191,265962,1,8,0:0:0:0:
255,191,266283,1,8,0:0:0:0:
255,191,266444,1,8,0:0:0:0:
255,191,266604,1,0,0:0:0:0:
255,191,266684,1,0,0:0:0:0:
255,191,266765,1,8,0:0:0:0:
255,191,266925,1,8,0:0:0:0:
256,96,267085,5,4,0:0:0:0:
255,191,267567,1,0,0:0:0:0:
256,96,267727,5,12,0:0:0:0:
255,191,268048,1,0,0:0:0:0:
255,191,268208,1,8,0:0:0:0:
255,191,268369,1,0,0:0:0:0:
255,191,268690,1,8,0:0:0:0:
256,191,268850,1,0,0:0:0:0:
255,191,269011,1,8,0:0:0:0:
255,191,269171,1,0,0:0:0:0:
255,191,269331,1,8,0:0:0:0:
255,191,269412,1,8,0:0:0:0:
255,191,269492,1,8,0:0:0:0:
256,96,269652,5,4,0:0:0:0:
256,191,269973,1,8,0:0:0:0:
256,191,270133,1,0,0:0:0:0:
256,96,270294,5,12,0:0:0:0:
255,191,270615,1,0,0:0:0:0:
255,191,270775,1,8,0:0:0:0:
255,191,270936,1,0,0:0:0:0:
255,191,271256,1,8,0:0:0:0:
255,191,271417,1,8,0:0:0:0:
255,191,271497,1,8,0:0:0:0:
255,191,271577,1,8,0:0:0:0:
256,191,271898,1,8,0:0:0:0:
256,96,272219,5,4,0:0:0:0:
255,191,272700,1,0,0:0:0:0:
255,191,273021,1,8,0:0:0:0:
255,191,273182,1,0,0:0:0:0:
255,191,273342,1,0,0:0:0:0:
255,191,273663,1,0,0:0:0:0:
255,191,273823,1,0,0:0:0:0:
255,191,273984,1,8,0:0:0:0:
255,191,274305,1,8,0:0:0:0:
255,191,274465,1,0,0:0:0:0:
255,191,274625,1,0,0:0:0:0:
256,96,274786,5,4,0:0:0:0:
255,191,275107,1,0,0:0:0:0:
255,191,275267,1,8,0:0:0:0:
256,191,275347,1,0,0:0:0:0:
255,191,275428,1,8,0:0:0:0:
255,191,275588,1,0,0:0:0:0:
255,191,275748,1,8,0:0:0:0:
255,191,275909,1,8,0:0:0:0:
255,191,276230,1,0,0:0:0:0:
255,191,276390,1,8,0:0:0:0:
255,191,276551,1,0,0:0:0:0:
255,191,276711,1,8,0:0:0:0:
255,191,276871,1,0,0:0:0:0:
255,191,277032,1,8,0:0:0:0:
255,191,277192,1,8,0:0:0:0:
256,96,277353,5,4,0:0:0:0:
255,191,277834,1,0,0:0:0:0:
256,96,277994,5,12,0:0:0:0:
255,191,278315,1,0,0:0:0:0:
255,191,278476,1,8,0:0:0:0:
255,191,278636,1,0,0:0:0:0:
255,191,278957,1,8,0:0:0:0:
256,191,279117,1,0,0:0:0:0:
255,191,279278,1,8,0:0:0:0:
255,191,279438,1,0,0:0:0:0:
255,191,279599,1,8,0:0:0:0:
255,191,279679,1,8,0:0:0:0:
255,191,279759,1,8,0:0:0:0:
256,96,279920,5,4,0:0:0:0:
256,191,280240,1,8,0:0:0:0:
256,191,280401,1,0,0:0:0:0:
256,96,280561,5,12,0:0:0:0:
255,191,280882,1,0,0:0:0:0:
255,191,281043,1,8,0:0:0:0:
256,191,281363,1,0,0:0:0:0:
255,191,281524,1,8,0:0:0:0:
255,191,281684,1,0,0:0:0:0:
255,191,281845,1,8,0:0:0:0:
256,191,281925,1,8,0:0:0:0:
256,191,282005,1,8,0:0:0:0:
256,191,282085,1,8,0:0:0:0:
256,191,282166,1,0,0:0:0:0:
256,96,282486,5,4,0:0:0:0:
255,191,282968,1,8,0:0:0:0:
255,191,283289,1,8,0:0:0:0:
255,191,283449,1,8,0:0:0:0:
255,191,283609,1,0,0:0:0:0:
255,191,283930,1,0,0:0:0:0:
255,191,284091,1,0,0:0:0:0:
255,191,284251,1,8,0:0:0:0:
255,191,284572,1,8,0:0:0:0:
255,191,284732,1,8,0:0:0:0:
255,191,284893,1,0,0:0:0:0:
256,96,285053,5,4,0:0:0:0:
255,191,285374,1,8,0:0:0:0:
255,191,285535,1,0,0:0:0:0:
255,191,285695,1,8,0:0:0:0:
255,191,285855,1,0,0:0:0:0:
255,191,286016,1,8,0:0:0:0:
255,191,286176,1,0,0:0:0:0:
255,191,286256,1,8,0:0:0:0:
255,191,286337,1,0,0:0:0:0:
255,191,286497,1,8,0:0:0:0:
255,191,286818,1,0,0:0:0:0:
255,191,286898,1,8,0:0:0:0:
255,191,286978,1,0,0:0:0:0:
255,191,287139,1,8,0:0:0:0:
255,191,287299,1,0,0:0:0:0:
255,191,287460,1,8,0:0:0:0:
256,96,287620,5,4,0:0:0:0:
255,191,288101,1,0,0:0:0:0:
255,191,288262,1,12,0:0:0:0:
255,191,288583,1,8,0:0:0:0:
255,191,288904,1,0,0:0:0:0:
255,191,289224,1,8,0:0:0:0:
256,191,289385,1,0,0:0:0:0:
255,191,289545,1,8,0:0:0:0:
255,191,289706,1,0,0:0:0:0:
255,191,289866,1,8,0:0:0:0:
255,191,289946,1,8,0:0:0:0:
255,191,290027,1,8,0:0:0:0:
256,96,290187,5,4,0:0:0:0:
256,191,290508,1,8,0:0:0:0:
256,191,290668,1,0,0:0:0:0:
257,96,290829,5,12,0:0:0:0:
255,191,291150,1,0,0:0:0:0:
255,191,291310,1,8,0:0:0:0:
255,191,291470,1,0,0:0:0:0:
256,191,291551,1,0,0:0:0:0:
256,191,291631,1,8,0:0:0:0:
255,191,291791,1,0,0:0:0:0:
255,191,292112,1,8,0:0:0:0:
256,191,292433,1,8,0:0:0:0:
256,96,292754,5,4,0:0:0:0:
255,191,293235,1,8,0:0:0:0:
255,191,293556,1,0,0:0:0:0:
255,191,293716,1,0,0:0:0:0:
255,191,293877,1,0,0:0:0:0:
255,191,294198,1,8,0:0:0:0:
255,191,294358,1,8,0:0:0:0:
255,191,294519,1,8,0:0:0:0:
255,191,294839,1,0,0:0:0:0:
255,191,295000,1,0,0:0:0:0:
255,191,295160,1,0,0:0:0:0:
256,96,295321,5,4,0:0:0:0:
255,191,295642,1,8,0:0:0:0:
255,191,295802,1,8,0:0:0:0:
255,191,295882,1,0,0:0:0:0:
256,192,295962,1,8,0:0:0:0:
255,191,296123,1,0,0:0:0:0:
255,191,296283,1,8,0:0:0:0:
256,191,296363,1,0,0:0:0:0:
255,191,296444,1,8,0:0:0:0:
255,191,296765,1,0,0:0:0:0:
255,191,296925,1,8,0:0:0:0:
255,191,297005,1,0,0:0:0:0:
255,191,297085,1,8,0:0:0:0:
255,191,297246,1,8,0:0:0:0:
255,191,297406,1,8,0:0:0:0:
255,191,297567,1,0,0:0:0:0:
255,191,297727,1,8,0:0:0:0:
256,96,297888,5,4,0:0:0:0:
255,191,298369,1,0,0:0:0:0:
256,96,298529,5,12,0:0:0:0:
255,191,298850,1,0,0:0:0:0:
255,191,299011,1,8,0:0:0:0:
255,191,299171,1,0,0:0:0:0:
255,191,299492,1,8,0:0:0:0:
256,191,299652,1,0,0:0:0:0:
255,191,299813,1,8,0:0:0:0:
255,191,299973,1,0,0:0:0:0:
255,191,300133,1,8,0:0:0:0:
255,191,300214,1,8,0:0:0:0:
255,191,300294,1,8,0:0:0:0:
256,96,300454,5,4,0:0:0:0:
256,191,300775,1,8,0:0:0:0:
256,191,300936,1,0,0:0:0:0:
257,96,301096,5,12,0:0:0:0:
255,191,301417,1,0,0:0:0:0:
255,191,301577,1,8,0:0:0:0:
255,191,301738,1,0,0:0:0:0:
256,191,301818,1,8,0:0:0:0:
256,191,301898,1,0,0:0:0:0:
255,191,302059,1,8,0:0:0:0:
255,191,302219,1,0,0:0:0:0:
255,191,302379,1,8,0:0:0:0:
256,96,303021,5,12,0:0:0:0:
256,96,303342,5,4,0:0:0:0:
256,191,303663,1,8,0:0:0:0:
256,191,303743,1,8,0:0:0:0:
256,191,303823,1,0,0:0:0:0:
256,191,303904,1,0,0:0:0:0:
256,191,303984,1,8,0:0:0:0:
256,96,304144,5,4,0:0:0:0:
256,191,304465,1,12,0:0:0:0:
256,96,304625,5,4,0:0:0:0:
