osu file format v14

[General]
AudioFilename: audio.mp3
AudioLeadIn: 0
PreviewTime: 135134
Countdown: 0
SampleSet: Normal
StackLeniency: 1
Mode: 1
LetterboxInBreaks: 0
WidescreenStoryboard: 0

[Editor]
DistanceSpacing: 0.1
BeatDivisor: 8
GridSize: 32
TimelineZoom: 2.5

[Metadata]
Title:Computer Blues
TitleUnicode:Computer Blues
Artist:meganeko
ArtistUnicode:meganeko
Creator:Axer
Version:Technokinesis
Source:
Tags:Technokinesis electronic instrumental featured artist FA mappers' guild mg Volta Vulkin osu! electro house hyperwave records edm chiptune
BeatmapID:2395229
BeatmapSetID:1147128

[Difficulty]
HPDrainRate:5
CircleSize:2
OverallDifficulty:7
ApproachRate:10
SliderMultiplier:1.4
SliderTickRate:1

[Events]
//Background and Video events
0,0,"KeyboardBlues.jpg",0,0
//Break Periods
//Storyboard Layer 0 (Background)
//Storyboard Layer 1 (Fail)
//Storyboard Layer 2 (Pass)
//Storyboard Layer 3 (Foreground)
//Storyboard Layer 4 (Overlay)
//Storyboard Sound Samples

[TimingPoints]
134,468.75,4,1,0,60,1,0
134,-100,4,1,0,60,0,0
7751,-100,4,1,0,60,0,0
8102,-98.7012884466194,4,1,0,60,0,0
8337,-97.8540604542385,4,1,0,60,0,0
8454,-97.4358774490508,4,1,0,60,0,0
8688,-96.6101432921645,4,1,0,60,0,0
8805,-96.2025024194929,4,1,0,60,0,0
9040,-95.3974544143264,4,1,0,60,0,0
9274,-94.605768302905,4,1,0,60,0,0
9626,-93.4426612469923,4,1,0,60,0,0
9977,-92.3077207100679,4,1,0,60,0,0
10212,-91.5662871244065,4,1,0,60,0,0
10329,-91.2000189696039,4,1,0,60,0,0
10563,-90.4762034013624,4,1,0,60,0,0
10680,-90.1185870486974,4,1,0,60,0,0
10915,-89.411768913495,4,1,0,60,0,0
11032,-89.0625013916016,4,1,0,60,0,0
11149,-88.7159519266,4,1,0,60,0,0
11501,-87.6922982485217,4,1,0,60,0,0
11852,-86.6919980685023,4,1,0,60,0,0
12087,-86.0377137714546,4,1,0,60,0,0
12204,-85.7142612244968,4,1,0,60,0,0
12438,-85.074597660959,4,1,0,60,0,0
12555,-84.7583328035938,4,1,0,60,0,0
12790,-84.132876099196,4,1,0,60,0,0
13024,-83.5165128849276,4,1,0,60,0,0
13376,-82.6087172022741,4,1,0,60,0,0
13727,-81.7204441669581,4,1,0,60,0,0
13962,-81.1387992755928,4,1,0,60,0,0
14079,-80.8510707107294,4,1,0,60,0,0
14313,-80.2816924023012,4,1,0,60,0,0
14430,-80,4,1,0,60,0,0
14665,-57.1428571428571,4,1,0,75,0,0
15134,-66.6666666666667,4,1,0,75,0,0
37634,-66.6666666666667,4,1,0,75,0,0
37751,-66.2721705262474,4,1,0,75,0,0
37868,-65.8823591418691,4,1,0,75,0,0
37985,-65.4970637666313,4,1,0,75,0,0
38044,-65.3061224489796,4,1,0,75,0,0
38102,-65.1162911844263,4,1,0,75,0,0
38219,-64.7398784055604,4,1,0,75,0,0
38337,-64.3678338485978,4,1,0,75,0,0
38454,-64,4,1,0,75,0,0
38571,-63.6363462809965,4,1,0,75,0,0
38688,-63.2768418781326,4,1,0,75,0,0
38805,-62.9213370029057,4,1,0,75,0,0
38923,-62.569843587905,4,1,0,75,0,0
39040,-62.2222166913585,4,1,0,75,0,0
39157,-61.8784694484339,4,1,0,75,0,0
39274,-61.5384615384615,4,1,0,75,0,0
39333,-61.3698737744436,4,1,0,75,0,0
39391,-61.2021697393216,4,1,0,75,0,0
39509,-60.8695705103974,4,1,0,75,0,0
39626,-60.5405300686651,4,1,0,75,0,0
39743,-60.2150641230218,4,1,0,75,0,0
39860,-59.8930430038038,4,1,0,75,0,0
39919,-59.7333384305782,4,1,0,75,0,0
39977,-59.5744832956128,4,1,0,75,0,0
40094,-59.2592592592593,4,1,0,75,0,0
40212,-58.9473535290896,4,1,0,75,0,0
40329,-58.6387483676438,4,1,0,75,0,0
40446,-58.3333236111127,4,1,0,75,0,0
40563,-58.031097704638,4,1,0,75,0,0
40680,-57.7319540014883,4,1,0,75,0,0
40798,-57.435911573968,4,1,0,75,0,0
40915,-57.1428571428571,4,1,0,75,0,0
41032,-56.8527780257191,4,1,0,75,0,0
41149,-56.5656611366191,4,1,0,75,0,0
41208,-56.4231874474206,4,1,0,75,0,0
41266,-56.2813979849008,4,1,0,75,0,0
41384,-56.0000089600014,4,1,0,75,0,0
41501,-55.7213885992925,4,1,0,75,0,0
41618,-55.4455577296375,4,1,0,75,0,0
41735,-55.1724137931034,4,1,0,75,0,0
41794,-55.0368636913004,4,1,0,75,0,0
41852,-54.9019478662083,4,1,0,75,0,0
41969,-54.6341506055922,4,1,0,75,0,0
42087,-54.3689235931769,4,1,0,75,0,0
42204,-54.1062885574939,4,1,0,75,0,0
42321,-53.8461497041423,4,1,0,75,0,0
42438,-53.5885290538249,4,1,0,75,0,0
42555,-53.3333333333333,4,1,0,75,0,0
42673,-53.0805566451814,4,1,0,75,0,0
42731,-52.9550787362588,4,1,0,75,0,0
42790,-52.8301926664296,4,1,0,75,0,0
42907,-52.5821517247472,4,1,0,75,0,0
42966,-52.4590163934426,4,1,0,75,0,0
43024,-52.336456424143,4,1,0,75,0,0
43083,-52.2144405301019,4,1,0,75,0,0
43141,-52.0930193791241,4,1,0,75,0,0
43200,-51.9721616313438,4,1,0,75,0,0
43259,-51.8518633744882,4,1,0,75,0,0
43317,-51.7320939703141,4,1,0,75,0,0
43376,-51.6129032258064,4,1,0,75,0,0
43434,-51.4942604497303,4,1,0,75,0,0
43493,-51.3761354768142,4,1,0,75,0,0
43551,-51.2585774822094,4,1,0,75,0,0
43610,-51.1415562477849,4,1,0,75,0,0
43669,-51.0250681057097,4,1,0,75,0,0
43727,-50.9090835041333,4,1,0,75,0,0
43786,-50.7936507936508,4,1,0,75,0,0
43844,-50.6787403697724,4,1,0,75,0,0
43903,-50.5643231282731,4,1,0,75,0,0
43962,-50.4504468143822,4,1,0,75,0,0
44020,-50.3370822714306,4,1,0,75,0,0
44079,-50.2242260572325,4,1,0,75,0,0
44137,-50.1118496484153,4,1,0,75,0,0
44196,-50,4,1,0,75,0,0
44313,-51.1628025960006,4,1,0,75,0,0
44372,-51.7647107543257,4,1,0,75,0,0
44430,-52.3809498866214,4,1,0,75,0,0
44489,-53.012037973583,4,1,0,75,0,0
44548,-53.6585470553263,4,1,0,75,0,0
44606,-54.320990336839,4,1,0,75,0,0
44665,-54.9999945000006,4,1,0,75,0,0
44723,-55.6961884313447,4,1,0,75,0,0
44782,-56.4102650887587,4,1,0,75,0,0
44841,-57.1428571428571,4,1,0,75,0,0
44899,-57.8947277008325,4,1,0,75,0,0
45016,-60.6060606060606,4,1,0,75,0,0
45251,-62.5,4,1,0,75,0,0
45602,-57.1428571428571,4,1,0,75,0,0
73962,-57.1428571428571,4,1,0,75,0,0
74020,-57.9640588056969,4,1,0,75,0,0
74079,-58.8092422252712,4,1,0,75,0,0
74313,-62.4516000099923,4,1,0,75,0,0
74548,-66.5749707403004,4,1,0,75,0,0
74782,-71.2812737678497,4,1,0,75,0,0
75016,-76.7036454941594,4,1,0,75,0,0
75134,-79.7364232792083,4,1,0,75,0,0
80759,-80,4,1,0,75,0,0
80993,-78.0586501473747,4,1,0,75,0,0
81110,-77.1228845192776,4,1,0,75,0,0
81227,-76.2092889978174,4,1,0,75,0,0
81462,-74.4455296948329,4,1,0,75,0,0
81579,-73.5939146663841,4,1,0,75,0,0
81813,-71.9478291900977,4,1,0,75,0,0
81930,-71.1520947176685,4,1,0,75,0,0
82048,-70.3737691627773,4,1,0,75,0,0
82165,-69.6122874040743,4,1,0,75,0,0
82282,-68.8670610912812,4,1,0,75,0,0
82399,-68.1376680700755,4,1,0,75,0,0
82477,-67.6599599858997,4,1,0,75,0,0
82555,-67.1888584747323,4,1,0,75,0,0
82634,-66.7242719547876,4,1,0,75,0,0
86384,-66.6666666666667,4,1,0,75,0,0
86735,-64.6515636303922,4,1,0,75,0,0
86852,-64.0066362080421,4,1,0,75,0,0
87087,-62.754705661604,4,1,0,75,0,0
87438,-60.9659444234451,4,1,0,75,0,0
87555,-60.3921625467133,4,1,0,75,0,0
87673,-59.8290444882792,4,1,0,75,0,0
87790,-59.2763659793967,4,1,0,75,0,0
88024,-58.2010520422167,4,1,0,75,0,0
88259,-57.1640568416516,4,1,0,75,0,0
88610,-55.6760633014569,4,1,0,75,0,0
88727,-55.19714211277,4,1,0,75,0,0
88962,-54.2635700979512,4,1,0,75,0,0
89196,-53.3610526214684,4,1,0,75,0,0
89274,-53.0668387447358,4,1,0,75,0,0
89352,-52.7758793121192,4,1,0,75,0,0
89430,-52.488065526101,4,1,0,75,0,0
89509,-52.2034011559921,4,1,0,75,0,0
89587,-51.9217808755466,4,1,0,75,0,0
89665,-51.6431827900126,4,1,0,75,0,0
89821,-51.0948867813951,4,1,0,75,0,0
89899,-50.825094585501,4,1,0,75,0,0
89977,-50.5581109871876,4,1,0,75,0,0
90055,-50.2939176547745,4,1,0,75,0,0
90134,-50,4,1,0,75,0,0
90602,-52.4523024987228,4,1,0,75,0,0
90837,-53.7709572305806,4,1,0,75,0,0
91071,-55.1575935183209,4,1,0,75,0,0
91188,-55.8780963450137,4,1,0,75,0,0
91423,-57.3770538833651,4,1,0,75,0,0
91540,-58.157083445528,4,1,0,75,0,0
91774,-59.7826184428182,4,1,0,75,0,0
92009,-61.5015984265431,4,1,0,75,0,0
92126,-62.3987190790947,4,1,0,75,0,0
92360,-64.2737960875255,4,1,0,75,0,0
92477,-65.2542173800693,4,1,0,75,0,0
92712,-67.3077052514818,4,1,0,75,0,0
92946,-69.4945867191675,4,1,0,75,0,0
93063,-70.6422225738635,4,1,0,75,0,0
93298,-73.0550374735815,4,1,0,75,0,0
93415,-74.3242992147638,4,1,0,75,0,0
93649,-77.0000177100041,4,1,0,75,0,0
93708,-77.6992928587357,4,1,0,75,0,0
93766,-78.4113853331504,4,1,0,75,0,0
93825,-79.136713420637,4,1,0,75,0,0
93884,-79.8755219865362,4,1,0,75,0,0
103962,-80,4,1,0,75,0,0
104196,-71.4918928193543,4,1,0,75,0,0
104313,-67.8822107878409,4,1,0,75,0,0
104430,-64.6194785078846,4,1,0,75,0,0
104548,-61.6560443578245,4,1,0,75,0,0
104665,-58.9524966677101,4,1,0,75,0,0
104782,-56.4760843549386,4,1,0,75,0,0
104899,-54.1993375756961,4,1,0,75,0,0
105016,-52.0990444514257,4,1,0,75,0,0
105134,-50,4,1,0,90,0,1
108884,-50,4,1,0,90,0,0
109352,-50,4,1,0,90,0,1
116384,-50,4,1,0,90,0,0
116852,-50,4,1,0,90,0,1
118259,-50,4,1,0,90,0,0
118727,-50,4,1,0,90,0,1
120134,-50,4,1,0,90,0,0
120602,-50,4,1,0,90,0,1
123884,-50,4,1,0,90,0,0
124352,-50,4,1,0,90,0,1
126696,-50,4,1,0,90,0,0
127634,-50,4,1,0,90,0,1
131384,-50,4,1,0,90,0,0
132087,-50,4,1,0,90,0,1
134196,-50,4,1,0,90,0,1
134665,-57.058833934258,4,1,0,75,0,0
134723,-58.0838486822808,4,1,0,75,0,0
134782,-59.1463292013708,4,1,0,75,0,0
134841,-60.2484404691185,4,1,0,75,0,0
134899,-61.3924042861721,4,1,0,75,0,0
134958,-62.5806508137362,4,1,0,75,0,0
135016,-63.8158020689083,4,1,0,75,0,0
135075,-65.1006912391396,4,1,0,75,0,0
135134,-66.4383402373842,4,1,0,75,0,0
155290,-66.6666666666667,4,1,0,75,0,0
155407,-65.5782427129457,4,1,0,75,0,0
155524,-64.524746208042,4,1,0,75,0,0
155641,-63.504603131158,4,1,0,75,0,0
155759,-62.5162151433028,4,1,0,75,0,0
155837,-61.8741813272383,4,1,0,75,0,0
155915,-61.2452381827313,4,1,0,75,0,0
155993,-60.6289158701038,4,1,0,75,0,0
156071,-60.0249103377902,4,1,0,75,0,0
156149,-59.432785382863,4,1,0,75,0,0
156227,-58.85226316378,4,1,0,75,0,0
156305,-58.2829380195924,4,1,0,75,0,0
156384,-57.7245557373879,4,1,0,75,0,0
156462,-57.1767384444382,4,1,0,75,0,0
156540,-56.6392532680849,4,1,0,75,0,0
156618,-56.1117476677152,4,1,0,75,0,0
156696,-55.5940080778094,4,1,0,75,0,0
156813,-54.8350534175673,4,1,0,75,0,0
156930,-54.0965125060318,4,1,0,75,0,0
157009,-53.3776296489247,4,1,0,75,0,0
157087,-53.0253057969385,4,1,0,75,0,0
157165,-52.6776025369533,4,1,0,75,0,0
157243,-52.2210118552141,4,1,0,75,0,0
157321,-51.7722950917276,4,1,0,75,0,0
157399,-51.3311976133046,4,1,0,75,0,0
157477,-50.8975788021764,4,1,0,75,0,0
157555,-50.4711991149371,4,1,0,75,0,0
157634,-50.0519288762091,4,1,0,75,0,1
161384,-50,4,1,0,75,0,0
161618,-51.1968020429572,4,1,0,75,0,0
161735,-51.8169617642639,4,1,0,75,0,0
161852,-52.4523024987228,4,1,0,75,0,0
161969,-53.1034449797862,4,1,0,75,0,0
162087,-53.7709572305806,4,1,0,75,0,0
162204,-54.4554347613,4,1,0,75,0,0
162321,-55.1575935183209,4,1,0,75,0,0
162438,-55.8780963450137,4,1,0,75,0,0
162555,-56.6176395653124,4,1,0,75,0,0
162614,-56.9948334183506,4,1,0,75,0,0
162673,-57.3770538833651,4,1,0,75,0,0
162907,-58.9586487621042,4,1,0,75,0,0
163024,-59.7826184428182,4,1,0,75,0,0
163141,-60.6299083700195,4,1,0,75,0,0
163259,-61.5015984265431,4,1,0,75,0,0
163376,-62.3987190790947,4,1,0,75,0,0
163493,-63.3223595684201,4,1,0,75,0,0
163610,-64.2737960875255,4,1,0,75,0,0
163727,-65.2542173800693,4,1,0,75,0,0
163844,-66.265056249093,4,1,0,75,0,0
163962,-67.3077052514818,4,1,0,75,0,0
164079,-68.3836431796206,4,1,0,75,0,0
164196,-69.4945867191675,4,1,0,75,0,0
164313,-70.6422225738635,4,1,0,75,0,0
164430,-71.8283474883063,4,1,0,75,0,0
164548,-73.0550374735815,4,1,0,75,0,0
164665,-74.3242992147638,4,1,0,75,0,0
164782,-75.6385024181629,4,1,0,75,0,0
164899,-77.0000177100041,4,1,0,75,0,0
165016,-78.4113853331504,4,1,0,75,0,0
165134,-79.8755219865362,4,1,0,75,0,0
180602,-50,4,1,0,90,0,1
183884,-50,4,1,0,90,0,0
184352,-50,4,1,0,90,0,1
191384,-50,4,1,0,90,0,0
191852,-50,4,1,0,90,0,1
193259,-50,4,1,0,90,0,0
193727,-50,4,1,0,90,0,1
195134,-50,4,1,0,90,0,0
195602,-50,4,1,0,90,0,1
198884,-50,4,1,0,90,0,0
199352,-50,4,1,0,90,0,1
201696,-50,4,1,0,90,0,0
202634,-50,4,1,0,90,0,1
206384,-50,4,1,0,90,0,0
207087,-50,4,1,0,90,0,1
210134,-50,4,1,0,75,0,0
210602,-51.2396668806777,4,1,0,75,0,0
211071,-52.5423675380643,4,1,0,75,0,0
211540,-53.9130350396989,4,1,0,75,0,0
212009,-55.3571309949005,4,1,0,75,0,0
212477,-56.8807182897106,4,1,0,75,0,0
212946,-58.490580384482,4,1,0,75,0,0
213415,-60.1941864454731,4,1,0,75,0,0
213884,-62.0000086800012,4,1,0,75,0,0
214352,-63.9175310447448,4,1,0,75,0,0
214821,-65.9574482118606,4,1,0,75,0,0
215290,-68.1318651370609,4,1,0,75,0,0
215759,-70.454537448348,4,1,0,75,0,0
216227,-72.941162740487,4,1,0,75,0,0
216696,-75.6097358120221,4,1,0,75,0,0
217165,-78.4809848421826,4,1,0,75,0,0
217634,-81.5789774238338,4,1,0,75,0,0
218102,-84.9315324451194,4,1,0,75,0,0
218571,-88.5714488163312,4,1,0,75,0,0
219040,-92.5373272443772,4,1,0,75,0,0
219509,-96.8750060546879,4,1,0,75,0,0
219977,-101.639340929858,4,1,0,75,0,0
220446,-106.896536979788,4,1,0,75,0,0
220915,-112.727244033065,4,1,0,75,0,0
221384,-119.230723372799,4,1,0,75,0,0
221852,-126.530545106241,4,1,0,75,0,0
222321,-134.782696597411,4,1,0,75,0,0
222790,-144.186126987606,4,1,0,75,0,0
223259,-155.000069750031,4,1,0,75,0,0
223727,-167.567621913823,4,1,0,75,0,0
224196,-182.352973356407,4,1,0,75,0,0
224665,-200,4,1,0,75,0,0
225134,-100,4,1,0,75,0,0
225368,-94.1319994201469,4,1,0,75,0,0
225602,-88.9145753217596,4,1,0,75,0,0
225837,-84.2450756647147,4,1,0,75,0,0
226071,-80.0415575766938,4,1,0,75,0,0
226305,-76.2376418782515,4,1,0,75,0,0
226540,-72.7788266015345,4,1,0,75,0,0
226774,-69.6202355391809,4,1,0,75,0,0
227009,-66.7244500404016,4,1,0,75,0,0
227243,-64.0598985675566,4,1,0,75,0,0
227477,-61.5999857088033,4,1,0,75,0,0
227712,-59.3220439528888,4,1,0,75,0,0
227946,-57.2065361899989,4,1,0,75,0,0
228180,-55.2367169504913,4,1,0,75,0,0
228415,-53.3980660288446,4,1,0,75,0,0
228649,-51.6778506148372,4,1,0,75,0,0
228884,-50.065009414725,4,1,0,75,0,0

[HitObjects]
256,192,251,5,0,0:0:0:0:
256,192,602,1,0,0:0:0:0:
256,192,837,1,8,0:0:0:0:
256,192,954,1,0,0:0:0:0:
256,192,1188,1,8,0:0:0:0:
256,192,1305,1,0,0:0:0:0:
256,192,1540,1,0,0:0:0:0:
256,192,1774,1,8,0:0:0:0:
256,192,2126,1,0,0:0:0:0:
256,192,2477,1,0,0:0:0:0:
256,192,2712,1,8,0:0:0:0:
256,192,2829,1,0,0:0:0:0:
256,192,3063,1,8,0:0:0:0:
256,192,3180,1,0,0:0:0:0:
256,192,3415,1,0,0:0:0:0:
256,192,3532,1,8,0:0:0:0:
256,192,3649,1,0,0:0:0:0:
256,192,4001,1,0,0:0:0:0:
256,192,4352,1,0,0:0:0:0:
256,192,4587,1,8,0:0:0:0:
256,192,4704,1,0,0:0:0:0:
256,192,4938,1,8,0:0:0:0:
256,192,5055,1,0,0:0:0:0:
256,192,5290,1,0,0:0:0:0:
256,192,5524,1,8,0:0:0:0:
256,192,5876,1,0,0:0:0:0:
256,192,6227,1,0,0:0:0:0:
256,192,6462,1,8,0:0:0:0:
256,192,6579,1,0,0:0:0:0:
256,192,6813,1,8,0:0:0:0:
256,192,6930,1,0,0:0:0:0:
256,192,7165,1,0,0:0:0:0:
256,192,7282,1,8,0:0:0:0:
256,192,7399,1,0,0:0:0:0:
256,192,7751,1,0,0:0:0:0:
256,192,8102,1,0,0:0:0:0:
256,192,8337,1,8,0:0:0:0:
256,192,8454,1,0,0:0:0:0:
256,192,8688,1,8,0:0:0:0:
256,192,8805,1,0,0:0:0:0:
256,192,9040,1,0,0:0:0:0:
256,192,9274,1,8,0:0:0:0:
256,192,9626,1,0,0:0:0:0:
256,192,9977,1,0,0:0:0:0:
256,192,10212,1,8,0:0:0:0:
256,192,10329,1,0,0:0:0:0:
256,192,10563,1,8,0:0:0:0:
256,192,10680,1,0,0:0:0:0:
256,192,10915,1,0,0:0:0:0:
256,192,11032,1,8,0:0:0:0:
256,192,11149,1,0,0:0:0:0:
256,192,11501,1,0,0:0:0:0:
256,192,11852,1,0,0:0:0:0:
256,192,12087,1,8,0:0:0:0:
256,192,12204,1,0,0:0:0:0:
256,192,12438,1,8,0:0:0:0:
256,192,12555,1,0,0:0:0:0:
256,192,12790,1,0,0:0:0:0:
256,192,13024,1,8,0:0:0:0:
256,192,13376,1,0,0:0:0:0:
256,192,13727,1,0,0:0:0:0:
256,192,13962,1,8,0:0:0:0:
256,192,14079,1,0,0:0:0:0:
256,192,14313,1,8,0:0:0:0:
256,192,14430,1,0,0:0:0:0:
256,192,14665,1,8,0:0:0:0:
256,192,15134,1,4,0:0:0:0:
256,192,15368,1,8,0:0:0:0:
256,192,15602,1,0,0:0:0:0:
256,192,15719,1,8,0:0:0:0:
256,192,15954,1,0,0:0:0:0:
256,192,16012,1,0,0:0:0:0:
256,192,16071,1,8,0:0:0:0:
256,192,16188,1,8,0:0:0:0:
256,192,16247,1,8,0:0:0:0:
256,192,16305,1,0,0:0:0:0:
256,192,16540,1,0,0:0:0:0:
256,192,16657,1,8,0:0:0:0:
256,192,16774,1,8,0:0:0:0:
256,192,16891,1,8,0:0:0:0:
256,192,16950,1,0,0:0:0:0:
256,192,17009,1,8,0:0:0:0:
256,192,17126,1,8,0:0:0:0:
256,192,17184,1,8,0:0:0:0:
256,192,17243,1,0,0:0:0:0:
256,192,17360,1,0,0:0:0:0:
256,192,17477,1,8,0:0:0:0:
256,192,17594,1,8,0:0:0:0:
256,192,17712,1,0,0:0:0:0:
256,192,17770,1,0,0:0:0:0:
256,192,17829,1,8,0:0:0:0:
256,192,18063,1,8,0:0:0:0:
256,192,18298,1,0,0:0:0:0:
256,192,18532,1,8,0:0:0:0:
256,192,18649,1,0,0:0:0:0:
256,192,18766,1,0,0:0:0:0:
256,192,18884,1,8,0:0:0:0:
256,192,18962,1,0,0:0:0:0:
256,192,19040,1,8,0:0:0:0:
256,192,19118,1,8,0:0:0:0:
256,192,19352,1,0,0:0:0:0:
256,192,19469,1,8,0:0:0:0:
256,192,19587,1,0,0:0:0:0:
256,192,19704,1,8,0:0:0:0:
256,192,19938,1,0,0:0:0:0:
256,192,20055,1,8,0:0:0:0:
256,192,20173,1,8,0:0:0:0:
256,192,20290,1,0,0:0:0:0:
256,192,20407,1,0,0:0:0:0:
256,192,20524,1,8,0:0:0:0:
256,192,20583,1,8,0:0:0:0:
256,192,20641,1,0,0:0:0:0:
256,192,20700,1,0,0:0:0:0:
256,192,20759,1,8,0:0:0:0:
256,192,20817,1,8,0:0:0:0:
256,192,20876,1,8,0:0:0:0:
256,192,20934,1,8,0:0:0:0:
256,192,20993,1,0,0:0:0:0:
256,192,21110,1,0,0:0:0:0:
256,192,21227,1,8,0:0:0:0:
256,192,21344,1,0,0:0:0:0:
256,192,21384,1,8,0:0:0:0:
256,192,21579,1,0,0:0:0:0:
256,192,21813,1,8,0:0:0:0:
256,192,21930,1,0,0:0:0:0:
256,192,22009,1,0,0:0:0:0:
256,192,22087,1,0,0:0:0:0:
256,192,22165,1,8,0:0:0:0:
256,192,22282,1,0,0:0:0:0:
256,192,22399,1,8,0:0:0:0:
256,192,22516,1,8,0:0:0:0:
256,192,22634,1,0,0:0:0:0:
256,192,22751,1,0,0:0:0:0:
256,192,22868,1,8,0:0:0:0:
256,192,22926,1,8,0:0:0:0:
256,192,23102,1,0,0:0:0:0:
256,192,23219,1,8,0:0:0:0:
256,192,23454,1,0,0:0:0:0:
256,192,23571,1,8,0:0:0:0:
256,192,23649,1,0,0:0:0:0:
256,192,23727,1,0,0:0:0:0:
256,192,23805,1,8,0:0:0:0:
256,192,23923,1,8,0:0:0:0:
256,192,24040,1,0,0:0:0:0:
256,192,24157,1,0,0:0:0:0:
256,192,24216,1,0,0:0:0:0:
256,192,24274,1,8,0:0:0:0:
256,192,24391,1,8,0:0:0:0:
256,192,24509,1,0,0:0:0:0:
256,192,24626,1,8,0:0:0:0:
256,192,24743,1,0,0:0:0:0:
256,192,24860,1,8,0:0:0:0:
256,192,24977,1,0,0:0:0:0:
256,192,25055,1,0,0:0:0:0:
256,192,25134,1,0,0:0:0:0:
256,192,25212,1,8,0:0:0:0:
256,192,25329,1,8,0:0:0:0:
256,192,25446,1,0,0:0:0:0:
256,192,25563,1,8,0:0:0:0:
256,192,25680,1,0,0:0:0:0:
256,192,25759,1,8,0:0:0:0:
256,192,25837,1,8,0:0:0:0:
256,192,25915,1,0,0:0:0:0:
256,192,26032,1,8,0:0:0:0:
256,192,26149,1,0,0:0:0:0:
256,192,26266,1,8,0:0:0:0:
256,192,26501,1,0,0:0:0:0:
256,192,26618,1,8,0:0:0:0:
256,192,26735,1,0,0:0:0:0:
256,192,26852,1,8,0:0:0:0:
256,192,26969,1,8,0:0:0:0:
256,192,27087,1,0,0:0:0:0:
256,192,27204,1,8,0:0:0:0:
256,192,27438,1,0,0:0:0:0:
256,192,27555,1,8,0:0:0:0:
256,192,27673,1,8,0:0:0:0:
256,192,27790,1,0,0:0:0:0:
256,192,27907,1,8,0:0:0:0:
256,192,28024,1,0,0:0:0:0:
256,192,28141,1,8,0:0:0:0:
256,192,28200,1,8,0:0:0:0:
256,192,28259,1,0,0:0:0:0:
256,192,28376,1,0,0:0:0:0:
256,192,28493,1,8,0:0:0:0:
256,192,28610,1,0,0:0:0:0:
256,192,28727,1,8,0:0:0:0:
256,192,28844,1,8,0:0:0:0:
256,192,28962,1,0,0:0:0:0:
256,192,29079,1,8,0:0:0:0:
256,192,29313,1,0,0:0:0:0:
256,192,29548,1,8,0:0:0:0:
256,192,29782,1,8,0:0:0:0:
256,192,30016,1,0,0:0:0:0:
256,192,30602,1,12,0:0:0:0:
256,192,30837,1,0,0:0:0:0:
256,192,30954,1,0,0:0:0:0:
256,192,31071,1,8,0:0:0:0:
256,192,31305,1,8,0:0:0:0:
256,192,31423,1,0,0:0:0:0:
256,192,31540,1,8,0:0:0:0:
256,192,31657,1,0,0:0:0:0:
256,192,31716,1,8,0:0:0:0:
256,192,31774,1,8,0:0:0:0:
256,192,31891,1,0,0:0:0:0:
256,192,32126,1,0,0:0:0:0:
256,192,32184,1,0,0:0:0:0:
256,192,32243,1,8,0:0:0:0:
256,192,32360,1,8,0:0:0:0:
256,192,32477,1,0,0:0:0:0:
256,192,32594,1,0,0:0:0:0:
256,192,32712,1,8,0:0:0:0:
256,192,32829,1,8,0:0:0:0:
256,192,32946,1,0,0:0:0:0:
256,192,33063,1,8,0:0:0:0:
256,192,33180,1,0,0:0:0:0:
256,192,33298,1,8,0:0:0:0:
256,192,33415,1,0,0:0:0:0:
256,192,33532,1,8,0:0:0:0:
256,192,33649,1,8,0:0:0:0:
256,192,33766,1,8,0:0:0:0:
256,192,34001,1,0,0:0:0:0:
256,192,34059,1,0,0:0:0:0:
256,192,34118,1,8,0:0:0:0:
256,192,34352,1,8,0:0:0:0:
256,192,34469,1,0,0:0:0:0:
256,192,34587,1,8,0:0:0:0:
256,192,34645,1,0,0:0:0:0:
256,192,34704,1,8,0:0:0:0:
256,192,34821,1,8,0:0:0:0:
256,192,34938,1,0,0:0:0:0:
256,192,35055,1,0,0:0:0:0:
256,192,35173,1,0,0:0:0:0:
256,192,35290,1,8,0:0:0:0:
256,192,35368,1,8,0:0:0:0:
256,192,35446,1,0,0:0:0:0:
256,192,35524,1,0,0:0:0:0:
256,192,35602,1,0,0:0:0:0:
256,192,35680,1,0,0:0:0:0:
256,192,35759,1,8,0:0:0:0:
256,192,35837,1,0,0:0:0:0:
256,192,35915,1,8,0:0:0:0:
256,192,35993,1,8,0:0:0:0:
256,192,36071,1,0,0:0:0:0:
256,192,36149,1,0,0:0:0:0:
256,192,36227,1,8,0:0:0:0:
256,192,36344,1,0,0:0:0:0:
256,192,36462,1,0,0:0:0:0:
256,192,36579,1,8,0:0:0:0:
256,192,36637,1,0,0:0:0:0:
256,192,36696,1,8,0:0:0:0:
256,192,36755,1,8,0:0:0:0:
256,192,36813,1,0,0:0:0:0:
256,192,36872,1,0,0:0:0:0:
256,192,36930,1,8,0:0:0:0:
256,192,36989,1,0,0:0:0:0:
256,192,37048,1,8,0:0:0:0:
256,192,37106,1,0,0:0:0:0:
256,192,37165,1,8,0:0:0:0:
256,192,37223,1,8,0:0:0:0:
256,192,37282,1,0,0:0:0:0:
256,192,37341,1,0,0:0:0:0:
256,192,37399,1,8,0:0:0:0:
256,192,37458,1,0,0:0:0:0:
256,192,37516,1,0,0:0:0:0:
256,192,37575,1,0,0:0:0:0:
256,192,37634,1,8,0:0:0:0:
256,192,37751,1,0,0:0:0:0:
256,192,37868,1,8,0:0:0:0:
256,192,37985,1,0,0:0:0:0:
256,192,38044,1,8,0:0:0:0:
256,192,38102,1,8,0:0:0:0:
256,192,38219,1,0,0:0:0:0:
256,192,38337,1,0,0:0:0:0:
256,192,38454,1,8,0:0:0:0:
256,192,38571,1,8,0:0:0:0:
256,192,38688,1,0,0:0:0:0:
256,192,38805,1,0,0:0:0:0:
256,192,38923,1,8,0:0:0:0:
256,192,39040,1,0,0:0:0:0:
256,192,39157,1,8,0:0:0:0:
256,192,39274,1,0,0:0:0:0:
256,192,39333,1,8,0:0:0:0:
256,192,39391,1,8,0:0:0:0:
256,192,39509,1,0,0:0:0:0:
256,192,39626,1,0,0:0:0:0:
256,192,39743,1,8,0:0:0:0:
256,192,39860,1,8,0:0:0:0:
256,192,39919,1,8,0:0:0:0:
256,192,39977,1,0,0:0:0:0:
256,192,40094,1,8,0:0:0:0:
256,192,40212,1,0,0:0:0:0:
256,192,40329,1,8,0:0:0:0:
256,192,40446,1,0,0:0:0:0:
256,192,40563,1,0,0:0:0:0:
256,192,40680,1,8,0:0:0:0:
256,192,40798,1,8,0:0:0:0:
256,192,40915,1,0,0:0:0:0:
256,192,41032,1,0,0:0:0:0:
256,192,41149,1,8,0:0:0:0:
256,192,41208,1,0,0:0:0:0:
256,192,41266,1,8,0:0:0:0:
256,192,41384,1,0,0:0:0:0:
256,192,41501,1,8,0:0:0:0:
256,192,41618,1,8,0:0:0:0:
256,192,41735,1,0,0:0:0:0:
256,192,41794,1,0,0:0:0:0:
256,192,41852,1,8,0:0:0:0:
256,192,41969,1,0,0:0:0:0:
256,192,42087,1,8,0:0:0:0:
256,192,42204,1,0,0:0:0:0:
256,192,42321,1,8,0:0:0:0:
256,192,42438,1,0,0:0:0:0:
256,192,42555,1,0,0:0:0:0:
256,192,42673,1,8,0:0:0:0:
256,192,42731,1,8,0:0:0:0:
256,192,42790,1,8,0:0:0:0:
256,192,42907,1,0,0:0:0:0:
256,192,42966,1,0,0:0:0:0:
256,192,43024,1,8,0:0:0:0:
256,192,43083,1,8,0:0:0:0:
256,192,43141,1,0,0:0:0:0:
256,192,43259,1,0,0:0:0:0:
256,192,43376,1,8,0:0:0:0:
256,192,43434,1,8,0:0:0:0:
256,192,43493,1,0,0:0:0:0:
256,192,43551,1,0,0:0:0:0:
256,192,43610,1,8,0:0:0:0:
256,192,43727,1,0,0:0:0:0:
256,192,43844,1,8,0:0:0:0:
256,192,43903,1,0,0:0:0:0:
256,192,43962,1,8,0:0:0:0:
256,192,44020,1,8,0:0:0:0:
256,192,44079,1,0,0:0:0:0:
256,192,44196,1,8,0:0:0:0:
256,192,44313,1,0,0:0:0:0:
256,192,44372,1,0,0:0:0:0:
256,192,44430,1,8,0:0:0:0:
256,192,44548,1,0,0:0:0:0:
256,192,44606,1,0,0:0:0:0:
256,192,44665,1,8,0:0:0:0:
256,192,44723,1,8,0:0:0:0:
256,192,44782,1,0,0:0:0:0:
256,192,44841,1,0,0:0:0:0:
256,192,44899,1,8,0:0:0:0:
256,192,45016,1,8,0:0:0:0:
256,192,45251,1,0,0:0:0:0:
256,192,45485,1,0,0:0:0:0:
256,192,45602,1,12,0:0:0:0:
256,192,45719,1,0,0:0:0:0:
256,192,45837,1,0,0:0:0:0:
256,192,45954,1,8,0:0:0:0:
256,192,46188,1,0,0:0:0:0:
256,192,46305,1,8,0:0:0:0:
256,192,46384,1,0,0:0:0:0:
256,192,46462,1,0,0:0:0:0:
256,192,46540,1,8,0:0:0:0:
256,192,46696,1,8,0:0:0:0:
256,192,46852,1,8,0:0:0:0:
256,192,47009,1,8,0:0:0:0:
256,192,47243,1,0,0:0:0:0:
256,192,47360,1,8,0:0:0:0:
256,192,47594,1,0,0:0:0:0:
256,192,47712,1,0,0:0:0:0:
256,192,47829,1,8,0:0:0:0:
256,192,48063,1,0,0:0:0:0:
256,192,48180,1,8,0:0:0:0:
256,192,48239,1,8,0:0:0:0:
256,192,48298,1,0,0:0:0:0:
256,192,48532,1,0,0:0:0:0:
256,192,48591,1,0,0:0:0:0:
256,192,48649,1,8,0:0:0:0:
256,192,48708,1,8,0:0:0:0:
256,192,48766,1,0,0:0:0:0:
256,192,49001,1,8,0:0:0:0:
256,192,49352,1,0,0:0:0:0:
256,192,49587,1,8,0:0:0:0:
256,192,49704,1,0,0:0:0:0:
256,192,49938,1,8,0:0:0:0:
256,192,50055,1,8,0:0:0:0:
256,192,50173,1,0,0:0:0:0:
256,192,50290,1,0,0:0:0:0:
256,192,50407,1,0,0:0:0:0:
256,192,50524,1,8,0:0:0:0:
256,192,50641,1,8,0:0:0:0:
256,192,50876,1,0,0:0:0:0:
256,192,50993,1,0,0:0:0:0:
256,192,51110,1,8,0:0:0:0:
256,192,51344,1,0,0:0:0:0:
256,192,51403,1,0,0:0:0:0:
256,192,51462,1,8,0:0:0:0:
256,192,51520,1,8,0:0:0:0:
256,192,51579,1,0,0:0:0:0:
256,192,51813,1,8,0:0:0:0:
256,192,51872,1,0,0:0:0:0:
256,192,51930,1,8,0:0:0:0:
256,192,51989,1,8,0:0:0:0:
256,192,52048,1,0,0:0:0:0:
256,192,52165,1,0,0:0:0:0:
256,192,52282,1,8,0:0:0:0:
256,192,52399,1,8,0:0:0:0:
256,192,52516,1,0,0:0:0:0:
256,192,52575,1,8,0:0:0:0:
256,192,52751,1,8,0:0:0:0:
256,192,52868,1,0,0:0:0:0:
256,192,52985,1,8,0:0:0:0:
256,192,53102,1,8,0:0:0:0:
256,192,53180,1,8,0:0:0:0:
256,192,53259,1,0,0:0:0:0:
256,192,53337,1,8,0:0:0:0:
256,192,53415,1,0,0:0:0:0:
256,192,53493,1,0,0:0:0:0:
256,192,53571,1,8,0:0:0:0:
256,192,53649,1,8,0:0:0:0:
256,192,53727,1,0,0:0:0:0:
256,192,53805,1,8,0:0:0:0:
256,192,53884,1,8,0:0:0:0:
256,192,53962,1,8,0:0:0:0:
256,192,54040,1,0,0:0:0:0:
256,192,54118,1,0,0:0:0:0:
256,192,54196,1,0,0:0:0:0:
256,192,54274,1,8,0:0:0:0:
256,192,54352,1,8,0:0:0:0:
256,192,54430,1,0,0:0:0:0:
256,192,54509,1,8,0:0:0:0:
256,192,54626,1,0,0:0:0:0:
256,192,54743,1,8,0:0:0:0:
256,192,54860,1,8,0:0:0:0:
256,192,54977,1,0,0:0:0:0:
256,192,55055,1,0,0:0:0:0:
256,192,55134,1,0,0:0:0:0:
256,192,55212,1,8,0:0:0:0:
256,192,55329,1,0,0:0:0:0:
256,192,55446,1,8,0:0:0:0:
256,192,55563,1,0,0:0:0:0:
256,192,55622,1,0,0:0:0:0:
256,192,55680,1,8,0:0:0:0:
256,192,55798,1,8,0:0:0:0:
256,192,55915,1,0,0:0:0:0:
256,192,56032,1,0,0:0:0:0:
256,192,56149,1,8,0:0:0:0:
256,192,56227,1,0,0:0:0:0:
256,192,56305,1,0,0:0:0:0:
256,192,56384,1,8,0:0:0:0:
256,192,56462,1,8,0:0:0:0:
256,192,56540,1,8,0:0:0:0:
256,192,56618,1,0,0:0:0:0:
256,192,56696,1,0,0:0:0:0:
256,192,56774,1,0,0:0:0:0:
256,192,56852,1,8,0:0:0:0:
256,192,56930,1,8,0:0:0:0:
256,192,57009,1,8,0:0:0:0:
256,192,57087,1,0,0:0:0:0:
256,192,57165,1,0,0:0:0:0:
256,192,57243,1,0,0:0:0:0:
256,192,57321,1,8,0:0:0:0:
256,192,57399,1,8,0:0:0:0:
256,192,57477,1,8,0:0:0:0:
256,192,57555,1,0,0:0:0:0:
256,192,57634,1,0,0:0:0:0:
256,192,57712,1,0,0:0:0:0:
256,192,57790,1,8,0:0:0:0:
256,192,57868,1,8,0:0:0:0:
256,192,57946,1,8,0:0:0:0:
256,192,58024,1,0,0:0:0:0:
256,192,58102,1,0,0:0:0:0:
256,192,58180,1,0,0:0:0:0:
256,192,58259,1,8,0:0:0:0:
256,192,58376,1,0,0:0:0:0:
256,192,58493,1,8,0:0:0:0:
256,192,58727,1,0,0:0:0:0:
256,192,58844,1,8,0:0:0:0:
256,192,59079,1,8,0:0:0:0:
256,192,59137,1,8,0:0:0:0:
256,192,59196,1,0,0:0:0:0:
256,192,59313,1,0,0:0:0:0:
256,192,59430,1,8,0:0:0:0:
256,192,59548,1,0,0:0:0:0:
256,192,59665,1,0,0:0:0:0:
256,192,59782,1,0,0:0:0:0:
256,192,59899,1,8,0:0:0:0:
256,192,60016,1,8,0:0:0:0:
256,192,60134,1,4,0:0:0:0:
256,192,60368,1,8,0:0:0:0:
256,192,60485,1,0,0:0:0:0:
256,192,60544,1,0,0:0:0:0:
256,192,60602,1,0,0:0:0:0:
256,192,60719,1,8,0:0:0:0:
256,192,60837,1,8,0:0:0:0:
256,192,60954,1,0,0:0:0:0:
256,192,61188,1,0,0:0:0:0:
256,192,61305,1,8,0:0:0:0:
256,192,61540,1,0,0:0:0:0:
256,192,61657,1,8,0:0:0:0:
256,192,61774,1,8,0:0:0:0:
256,192,61891,1,0,0:0:0:0:
256,192,62126,1,0,0:0:0:0:
256,192,62243,1,8,0:0:0:0:
256,192,62477,1,0,0:0:0:0:
256,192,62594,1,8,0:0:0:0:
256,192,62712,1,8,0:0:0:0:
256,192,62829,1,0,0:0:0:0:
256,192,63063,1,0,0:0:0:0:
256,192,63180,1,8,0:0:0:0:
256,192,63298,1,0,0:0:0:0:
256,192,63415,1,8,0:0:0:0:
256,192,63532,1,8,0:0:0:0:
256,192,63649,1,0,0:0:0:0:
256,192,63766,1,8,0:0:0:0:
256,192,63884,1,0,0:0:0:0:
256,192,64001,1,8,0:0:0:0:
256,192,64059,1,8,0:0:0:0:
256,192,64118,1,0,0:0:0:0:
256,192,64352,1,0,0:0:0:0:
256,192,64469,1,8,0:0:0:0:
256,192,64587,1,0,0:0:0:0:
256,192,64704,1,8,0:0:0:0:
256,192,64938,1,0,0:0:0:0:
256,192,65055,1,8,0:0:0:0:
256,192,65173,1,0,0:0:0:0:
256,192,65290,1,8,0:0:0:0:
256,192,65407,1,8,0:0:0:0:
256,192,65524,1,0,0:0:0:0:
256,192,65641,1,8,0:0:0:0:
256,192,65876,1,0,0:0:0:0:
256,192,65993,1,8,0:0:0:0:
256,192,66110,1,0,0:0:0:0:
256,192,66169,1,0,0:0:0:0:
256,192,66227,1,8,0:0:0:0:
256,192,66305,1,0,0:0:0:0:
256,192,66384,1,8,0:0:0:0:
256,192,66462,1,0,0:0:0:0:
256,192,66540,1,8,0:0:0:0:
256,192,66618,1,0,0:0:0:0:
256,192,66696,1,8,0:0:0:0:
256,192,66774,1,0,0:0:0:0:
256,192,66852,1,8,0:0:0:0:
256,192,66930,1,0,0:0:0:0:
256,192,67009,1,8,0:0:0:0:
256,192,67087,1,0,0:0:0:0:
256,192,67165,1,8,0:0:0:0:
256,192,67243,1,8,0:0:0:0:
256,192,67321,1,0,0:0:0:0:
256,192,67399,1,8,0:0:0:0:
256,192,67477,1,0,0:0:0:0:
256,192,67555,1,8,0:0:0:0:
256,192,67634,1,0,0:0:0:0:
256,192,67712,1,8,0:0:0:0:
256,192,67790,1,0,0:0:0:0:
256,192,67868,1,8,0:0:0:0:
256,192,67946,1,0,0:0:0:0:
256,192,68024,1,8,0:0:0:0:
256,192,68102,1,0,0:0:0:0:
256,192,68219,1,0,0:0:0:0:
256,192,68337,1,8,0:0:0:0:
256,192,68454,1,8,0:0:0:0:
256,192,68571,1,0,0:0:0:0:
256,192,68688,1,8,0:0:0:0:
256,192,68805,1,8,0:0:0:0:
256,192,68923,1,0,0:0:0:0:
256,192,69157,1,8,0:0:0:0:
256,192,69274,1,0,0:0:0:0:
256,192,69391,1,8,0:0:0:0:
256,192,69626,1,8,0:0:0:0:
256,192,69743,1,0,0:0:0:0:
256,192,69860,1,8,0:0:0:0:
256,192,70094,1,8,0:0:0:0:
256,192,70212,1,0,0:0:0:0:
256,192,70329,1,8,0:0:0:0:
256,192,70563,1,8,0:0:0:0:
256,192,70680,1,0,0:0:0:0:
256,192,70798,1,8,0:0:0:0:
256,192,70915,1,8,0:0:0:0:
256,192,71032,1,0,0:0:0:0:
256,192,71149,1,8,0:0:0:0:
256,192,71266,1,8,0:0:0:0:
256,192,71501,1,0,0:0:0:0:
256,192,71618,1,8,0:0:0:0:
256,192,71735,1,0,0:0:0:0:
256,192,71852,1,8,0:0:0:0:
256,192,71969,1,8,0:0:0:0:
256,192,72087,1,0,0:0:0:0:
256,192,72204,1,8,0:0:0:0:
256,192,72262,1,0,0:0:0:0:
256,192,72321,1,8,0:0:0:0:
256,192,72380,1,0,0:0:0:0:
256,192,72438,1,8,0:0:0:0:
256,192,72555,1,0,0:0:0:0:
256,192,72790,1,0,0:0:0:0:
256,192,72907,1,8,0:0:0:0:
256,192,73024,1,8,0:0:0:0:
256,192,73141,1,0,0:0:0:0:
256,192,73200,1,0,0:0:0:0:
256,192,73259,1,8,0:0:0:0:
256,192,73317,1,0,0:0:0:0:
256,192,73376,1,8,0:0:0:0:
256,192,73493,1,0,0:0:0:0:
256,192,73610,1,0,0:0:0:0:
256,192,73727,1,8,0:0:0:0:
256,192,73844,1,8,0:0:0:0:
256,192,73962,1,0,0:0:0:0:
256,192,74020,1,0,0:0:0:0:
256,192,74079,1,8,0:0:0:0:
256,192,74313,1,0,0:0:0:0:
256,192,74548,1,12,0:0:0:0:
256,192,74782,1,0,0:0:0:0:
256,192,75016,1,0,0:0:0:0:
256,192,75134,1,8,0:0:0:0:
256,192,75368,1,0,0:0:0:0:
256,192,75485,1,0,0:0:0:0:
256,192,75719,1,0,0:0:0:0:
256,192,75837,1,0,0:0:0:0:
256,192,76071,1,0,0:0:0:0:
256,192,76188,1,0,0:0:0:0:
256,192,76423,1,0,0:0:0:0:
256,192,76540,1,8,0:0:0:0:
256,192,76657,1,8,0:0:0:0:
256,192,76774,1,0,0:0:0:0:
256,192,76891,1,8,0:0:0:0:
256,192,77009,1,0,0:0:0:0:
256,192,77243,1,0,0:0:0:0:
256,192,77360,1,0,0:0:0:0:
256,192,77594,1,0,0:0:0:0:
256,192,77712,1,0,0:0:0:0:
256,192,77946,1,0,0:0:0:0:
256,192,78063,1,0,0:0:0:0:
256,192,78298,1,0,0:0:0:0:
256,192,78415,1,8,0:0:0:0:
256,192,78532,1,8,0:0:0:0:
256,192,78649,1,0,0:0:0:0:
256,192,78766,1,0,0:0:0:0:
256,192,78884,1,0,0:0:0:0:
256,192,79118,1,0,0:0:0:0:
256,192,79235,1,0,0:0:0:0:
256,192,79469,1,0,0:0:0:0:
256,192,79587,1,0,0:0:0:0:
256,192,79821,1,0,0:0:0:0:
256,192,79938,1,0,0:0:0:0:
256,192,80173,1,0,0:0:0:0:
256,192,80290,1,8,0:0:0:0:
256,192,80407,1,8,0:0:0:0:
256,192,80524,1,0,0:0:0:0:
256,192,80641,1,8,0:0:0:0:
256,192,80759,1,0,0:0:0:0:
256,192,80993,1,0,0:0:0:0:
256,192,81110,1,0,0:0:0:0:
256,192,81227,1,8,0:0:0:0:
256,192,81462,1,0,0:0:0:0:
256,192,81579,1,0,0:0:0:0:
256,192,81813,1,0,0:0:0:0:
256,192,81930,1,8,0:0:0:0:
256,192,82048,1,0,0:0:0:0:
256,192,82165,1,0,0:0:0:0:
256,192,82282,1,8,0:0:0:0:
256,192,82399,1,0,0:0:0:0:
256,192,82477,1,0,0:0:0:0:
256,192,82555,1,8,0:0:0:0:
256,192,82634,1,8,0:0:0:0:
256,192,82985,1,0,0:0:0:0:
256,192,83102,1,8,0:0:0:0:
256,192,83337,1,0,0:0:0:0:
256,192,83688,1,8,0:0:0:0:
256,192,83805,1,0,0:0:0:0:
256,192,83923,1,0,0:0:0:0:
256,192,84040,1,8,0:0:0:0:
256,192,84274,1,0,0:0:0:0:
256,192,84509,1,0,0:0:0:0:
256,192,84860,1,0,0:0:0:0:
256,192,84977,1,8,0:0:0:0:
256,192,85212,1,0,0:0:0:0:
256,192,85563,1,8,0:0:0:0:
256,192,85680,1,0,0:0:0:0:
256,192,85798,1,8,0:0:0:0:
256,192,85915,1,8,0:0:0:0:
256,192,86149,1,0,0:0:0:0:
256,192,86266,1,8,0:0:0:0:
256,192,86384,1,0,0:0:0:0:
256,192,86735,1,0,0:0:0:0:
256,192,86852,1,8,0:0:0:0:
256,192,87087,1,0,0:0:0:0:
256,192,87438,1,8,0:0:0:0:
256,192,87555,1,0,0:0:0:0:
256,192,87673,1,0,0:0:0:0:
256,192,87790,1,8,0:0:0:0:
256,192,88024,1,0,0:0:0:0:
256,192,88259,1,0,0:0:0:0:
256,192,88610,1,0,0:0:0:0:
256,192,88727,1,8,0:0:0:0:
256,192,88962,1,0,0:0:0:0:
256,192,89196,1,8,0:0:0:0:
256,192,89274,1,8,0:0:0:0:
256,192,89352,1,0,0:0:0:0:
256,192,89430,1,8,0:0:0:0:
256,192,89509,1,0,0:0:0:0:
256,192,89587,1,0,0:0:0:0:
256,192,89665,1,8,0:0:0:0:
256,192,89821,1,0,0:0:0:0:
256,192,89899,1,0,0:0:0:0:
256,192,89977,1,0,0:0:0:0:
256,192,90055,1,0,0:0:0:0:
256,192,90134,1,12,0:0:0:0:
256,192,90602,1,8,0:0:0:0:
256,192,90837,1,0,0:0:0:0:
256,192,91071,1,8,0:0:0:0:
256,192,91188,1,0,0:0:0:0:
256,192,91423,1,0,0:0:0:0:
256,192,91540,1,8,0:0:0:0:
256,192,91774,1,0,0:0:0:0:
256,192,92009,1,8,0:0:0:0:
256,192,92126,1,0,0:0:0:0:
256,192,92360,1,8,0:0:0:0:
256,192,92477,1,0,0:0:0:0:
256,192,92712,1,8,0:0:0:0:
256,192,92946,1,0,0:0:0:0:
256,192,93063,1,8,0:0:0:0:
256,192,93298,1,0,0:0:0:0:
256,192,93415,1,8,0:0:0:0:
256,192,93649,1,8,0:0:0:0:
256,192,93708,1,8,0:0:0:0:
256,192,93766,1,8,0:0:0:0:
256,192,93825,1,8,0:0:0:0:
256,192,93884,1,0,0:0:0:0:
256,192,94118,1,8,0:0:0:0:
256,192,94235,1,8,0:0:0:0:
256,192,94352,1,0,0:0:0:0:
256,192,94587,1,8,0:0:0:0:
256,192,94821,1,0,0:0:0:0:
256,192,94938,1,8,0:0:0:0:
256,192,95173,1,8,0:0:0:0:
256,192,95290,1,0,0:0:0:0:
256,192,95524,1,0,0:0:0:0:
256,192,95759,1,0,0:0:0:0:
256,192,95993,1,8,0:0:0:0:
256,192,96227,1,0,0:0:0:0:
256,192,96344,1,0,0:0:0:0:
256,192,96462,1,8,0:0:0:0:
256,192,96696,1,0,0:0:0:0:
256,192,96813,1,8,0:0:0:0:
256,192,96930,1,0,0:0:0:0:
256,192,97048,1,0,0:0:0:0:
256,192,97165,1,8,0:0:0:0:
256,192,97399,1,0,0:0:0:0:
256,192,97516,1,8,0:0:0:0:
256,192,97634,1,0,0:0:0:0:
256,192,97868,1,0,0:0:0:0:
256,192,98102,1,8,0:0:0:0:
256,192,98337,1,0,0:0:0:0:
256,192,98571,1,8,0:0:0:0:
256,192,98688,1,0,0:0:0:0:
256,192,98923,1,0,0:0:0:0:
256,192,99040,1,8,0:0:0:0:
256,192,99274,1,0,0:0:0:0:
256,192,99509,1,8,0:0:0:0:
256,192,99743,1,0,0:0:0:0:
256,192,99977,1,8,0:0:0:0:
256,192,100212,1,0,0:0:0:0:
256,192,100329,1,0,0:0:0:0:
256,192,100446,1,8,0:0:0:0:
256,192,100680,1,0,0:0:0:0:
256,192,100798,1,8,0:0:0:0:
256,192,100915,1,8,0:0:0:0:
256,192,101032,1,8,0:0:0:0:
256,192,101149,1,0,0:0:0:0:
256,192,101384,1,8,0:0:0:0:
256,192,101618,1,0,0:0:0:0:
256,192,101735,1,0,0:0:0:0:
256,192,101852,1,8,0:0:0:0:
256,192,102087,1,0,0:0:0:0:
256,192,102321,1,8,0:0:0:0:
256,192,102438,1,0,0:0:0:0:
256,192,102673,1,0,0:0:0:0:
256,192,102790,1,8,0:0:0:0:
256,192,103024,1,0,0:0:0:0:
256,192,103259,1,0,0:0:0:0:
256,192,103493,1,8,0:0:0:0:
256,192,103727,1,0,0:0:0:0:
256,192,103962,1,8,0:0:0:0:
256,192,104196,1,0,0:0:0:0:
256,192,104313,1,0,0:0:0:0:
256,192,104430,1,8,0:0:0:0:
256,192,104548,1,8,0:0:0:0:
256,192,104665,1,0,0:0:0:0:
256,192,104782,1,8,0:0:0:0:
256,192,104899,1,8,0:0:0:0:
256,192,105016,1,8,0:0:0:0:
256,192,105134,1,4,0:0:0:0:
256,192,105602,1,8,0:0:0:0:
256,192,106071,1,0,0:0:0:0:
256,192,106423,1,0,0:0:0:0:
256,192,106540,1,8,0:0:0:0:
256,192,106774,1,0,0:0:0:0:
256,192,107009,1,8,0:0:0:0:
256,192,107126,1,0,0:0:0:0:
256,192,107477,1,8,0:0:0:0:
256,192,107712,1,0,0:0:0:0:
256,192,107829,1,8,0:0:0:0:
256,192,108063,1,0,0:0:0:0:
256,192,108298,1,0,0:0:0:0:
256,192,108415,1,8,0:0:0:0:
256,192,108532,1,0,0:0:0:0:
256,192,108649,1,0,0:0:0:0:
256,192,108884,1,0,0:0:0:0:
256,192,109001,1,0,0:0:0:0:
256,192,109235,1,0,0:0:0:0:
256,192,109352,1,8,0:0:0:0:
256,192,109411,1,0,0:0:0:0:
256,192,109469,1,8,0:0:0:0:
256,192,109821,1,8,0:0:0:0:
256,192,109880,1,0,0:0:0:0:
256,192,109938,1,8,0:0:0:0:
256,192,110173,1,0,0:0:0:0:
256,192,110231,1,0,0:0:0:0:
256,192,110290,1,0,0:0:0:0:
256,192,110524,1,8,0:0:0:0:
256,192,110583,1,0,0:0:0:0:
256,192,110641,1,8,0:0:0:0:
256,192,110759,1,8,0:0:0:0:
256,192,111227,1,8,0:0:0:0:
256,192,111286,1,0,0:0:0:0:
256,192,111344,1,8,0:0:0:0:
256,192,111696,1,8,0:0:0:0:
256,192,111755,1,8,0:0:0:0:
256,192,111813,1,8,0:0:0:0:
256,192,112048,1,0,0:0:0:0:
256,192,112106,1,0,0:0:0:0:
256,192,112165,1,0,0:0:0:0:
256,192,112399,1,8,0:0:0:0:
256,192,112458,1,8,0:0:0:0:
256,192,112516,1,0,0:0:0:0:
256,192,112634,1,8,0:0:0:0:
256,192,112692,1,0,0:0:0:0:
256,192,112751,1,0,0:0:0:0:
256,192,112868,1,8,0:0:0:0:
256,192,113102,1,8,0:0:0:0:
256,192,113454,1,8,0:0:0:0:
256,192,113571,1,0,0:0:0:0:
256,192,113688,1,8,0:0:0:0:
256,192,113805,1,0,0:0:0:0:
256,192,113923,1,0,0:0:0:0:
256,192,114040,1,8,0:0:0:0:
256,192,114274,1,8,0:0:0:0:
256,192,114391,1,0,0:0:0:0:
256,192,114626,1,8,0:0:0:0:
256,192,114743,1,0,0:0:0:0:
256,192,114977,1,8,0:0:0:0:
256,192,115212,1,0,0:0:0:0:
256,192,115329,1,8,0:0:0:0:
256,192,115563,1,8,0:0:0:0:
256,192,115798,1,0,0:0:0:0:
256,192,115915,1,8,0:0:0:0:
256,192,116032,1,8,0:0:0:0:
256,192,116149,1,0,0:0:0:0:
256,192,116384,1,8,0:0:0:0:
256,192,116501,1,0,0:0:0:0:
256,192,116735,1,0,0:0:0:0:
256,192,116852,1,12,0:0:0:0:
256,192,117321,1,0,0:0:0:0:
256,192,117673,1,0,0:0:0:0:
256,192,117790,1,8,0:0:0:0:
256,192,118024,1,0,0:0:0:0:
256,192,118259,1,8,0:0:0:0:
256,192,118337,1,8,0:0:0:0:
256,192,118415,1,0,0:0:0:0:
256,192,118493,1,0,0:0:0:0:
256,192,118571,1,0,0:0:0:0:
256,192,118649,1,0,0:0:0:0:
256,192,118727,1,8,0:0:0:0:
256,192,119196,1,0,0:0:0:0:
256,192,119274,1,0,0:0:0:0:
256,192,119352,1,0,0:0:0:0:
256,192,119430,1,0,0:0:0:0:
256,192,119509,1,0,0:0:0:0:
256,192,119587,1,0,0:0:0:0:
256,192,119665,1,8,0:0:0:0:
256,192,120134,1,0,0:0:0:0:
256,192,120192,1,0,0:0:0:0:
256,192,120251,1,8,0:0:0:0:
256,192,120602,1,12,0:0:0:0:
256,192,121071,1,0,0:0:0:0:
256,192,121423,1,8,0:0:0:0:
256,192,121540,1,0,0:0:0:0:
256,192,121774,1,8,0:0:0:0:
256,192,122009,1,0,0:0:0:0:
256,192,122126,1,8,0:0:0:0:
256,192,122477,1,8,0:0:0:0:
256,192,122712,1,0,0:0:0:0:
256,192,122829,1,8,0:0:0:0:
256,192,123063,1,0,0:0:0:0:
256,192,123298,1,0,0:0:0:0:
256,192,123415,1,8,0:0:0:0:
256,192,123532,1,0,0:0:0:0:
256,192,123649,1,8,0:0:0:0:
256,192,123766,1,8,0:0:0:0:
256,192,123884,1,0,0:0:0:0:
256,192,124001,1,0,0:0:0:0:
256,192,124235,1,0,0:0:0:0:
256,192,124352,1,12,0:0:0:0:
256,192,124821,1,4,0:0:0:0:
256,192,125290,1,12,0:0:0:0:
256,192,125759,1,4,0:0:0:0:
256,192,126227,1,12,0:0:0:0:
256,192,126696,1,8,0:0:0:0:
256,192,126755,1,0,0:0:0:0:
256,192,126813,1,8,0:0:0:0:
256,192,127048,1,8,0:0:0:0:
256,192,127106,1,0,0:0:0:0:
256,192,127165,1,8,0:0:0:0:
256,192,127399,1,8,0:0:0:0:
256,192,127458,1,8,0:0:0:0:
256,192,127516,1,0,0:0:0:0:
256,192,127634,1,12,0:0:0:0:
256,192,127751,1,0,0:0:0:0:
256,192,128102,1,8,0:0:0:0:
256,192,128337,1,0,0:0:0:0:
256,192,128454,1,0,0:0:0:0:
256,192,128571,1,8,0:0:0:0:
256,192,128923,1,0,0:0:0:0:
256,192,129040,1,8,0:0:0:0:
256,192,129274,1,0,0:0:0:0:
256,192,129509,1,8,0:0:0:0:
256,192,129626,1,0,0:0:0:0:
256,192,129977,1,8,0:0:0:0:
256,192,130212,1,8,0:0:0:0:
256,192,130329,1,0,0:0:0:0:
256,192,130563,1,8,0:0:0:0:
256,192,130680,1,0,0:0:0:0:
256,192,130798,1,8,0:0:0:0:
256,192,131032,1,0,0:0:0:0:
256,192,131149,1,8,0:0:0:0:
256,192,131266,1,8,0:0:0:0:
256,192,131384,1,0,0:0:0:0:
256,192,131462,1,0,0:0:0:0:
256,192,131540,1,0,0:0:0:0:
256,192,131618,1,8,0:0:0:0:
256,192,131696,1,8,0:0:0:0:
256,192,131774,1,8,0:0:0:0:
256,192,131852,1,0,0:0:0:0:
256,192,132087,1,12,0:0:0:0:
256,192,132321,1,12,0:0:0:0:
256,192,132790,1,4,0:0:0:0:
256,192,133259,1,12,0:0:0:0:
256,192,133727,1,4,0:0:0:0:
256,192,134196,1,12,0:0:0:0:
256,192,134665,1,8,0:0:0:0:
256,192,134723,1,8,0:0:0:0:
256,192,134782,1,0,0:0:0:0:
256,192,134841,1,0,0:0:0:0:
256,192,134899,1,0,0:0:0:0:
256,192,134958,1,0,0:0:0:0:
256,192,135016,1,0,0:0:0:0:
256,192,135075,1,0,0:0:0:0:
256,192,135134,1,12,0:0:0:0:
256,192,135368,1,0,0:0:0:0:
256,192,135602,1,8,0:0:0:0:
256,192,135719,1,0,0:0:0:0:
256,192,135954,1,8,0:0:0:0:
256,192,136012,1,0,0:0:0:0:
256,192,136071,1,8,0:0:0:0:
256,192,136130,1,0,0:0:0:0:
256,192,136188,1,8,0:0:0:0:
256,192,136305,1,0,0:0:0:0:
256,192,136540,1,0,0:0:0:0:
256,192,136657,1,8,0:0:0:0:
256,192,136774,1,8,0:0:0:0:
256,192,136891,1,0,0:0:0:0:
256,192,136950,1,0,0:0:0:0:
256,192,137009,1,8,0:0:0:0:
256,192,137067,1,8,0:0:0:0:
256,192,137126,1,0,0:0:0:0:
256,192,137243,1,8,0:0:0:0:
256,192,137360,1,0,0:0:0:0:
256,192,137477,1,8,0:0:0:0:
256,192,137594,1,8,0:0:0:0:
256,192,137712,1,0,0:0:0:0:
256,192,137770,1,0,0:0:0:0:
256,192,137829,1,8,0:0:0:0:
256,192,138063,1,0,0:0:0:0:
256,192,138298,1,8,0:0:0:0:
256,192,138532,1,8,0:0:0:0:
256,192,138649,1,8,0:0:0:0:
256,192,138766,1,0,0:0:0:0:
256,192,138825,1,0,0:0:0:0:
256,192,138884,1,8,0:0:0:0:
256,192,138942,1,0,0:0:0:0:
256,192,139001,1,8,0:0:0:0:
256,192,139118,1,0,0:0:0:0:
256,192,139352,1,0,0:0:0:0:
256,192,139469,1,8,0:0:0:0:
256,192,139704,1,0,0:0:0:0:
256,192,139762,1,8,0:0:0:0:
256,192,139821,1,8,0:0:0:0:
256,192,139938,1,0,0:0:0:0:
256,192,140055,1,8,0:0:0:0:
256,192,140173,1,8,0:0:0:0:
256,192,140290,1,8,0:0:0:0:
256,192,140348,1,8,0:0:0:0:
256,192,140407,1,0,0:0:0:0:
256,192,140524,1,8,0:0:0:0:
256,192,140641,1,0,0:0:0:0:
256,192,140876,1,0,0:0:0:0:
256,192,140993,1,8,0:0:0:0:
256,192,141110,1,8,0:0:0:0:
256,192,141227,1,0,0:0:0:0:
256,192,141344,1,8,0:0:0:0:
256,192,141462,1,8,0:0:0:0:
256,192,141579,1,8,0:0:0:0:
256,192,141696,1,0,0:0:0:0:
256,192,141813,1,8,0:0:0:0:
256,192,141930,1,8,0:0:0:0:
256,192,142048,1,0,0:0:0:0:
256,192,142165,1,8,0:0:0:0:
256,192,142282,1,0,0:0:0:0:
256,192,142399,1,8,0:0:0:0:
256,192,142516,1,8,0:0:0:0:
256,192,142634,1,0,0:0:0:0:
256,192,142868,1,0,0:0:0:0:
256,192,143102,1,8,0:0:0:0:
256,192,143337,1,0,0:0:0:0:
256,192,143571,1,8,0:0:0:0:
256,192,143688,1,8,0:0:0:0:
256,192,143805,1,0,0:0:0:0:
256,192,144040,1,8,0:0:0:0:
256,192,144274,1,0,0:0:0:0:
256,192,144391,1,8,0:0:0:0:
256,192,144509,1,0,0:0:0:0:
256,192,144743,1,0,0:0:0:0:
256,192,144977,1,8,0:0:0:0:
256,192,145212,1,0,0:0:0:0:
256,192,145446,1,8,0:0:0:0:
256,192,145563,1,8,0:0:0:0:
256,192,145680,1,0,0:0:0:0:
256,192,145798,1,8,0:0:0:0:
256,192,145915,1,0,0:0:0:0:
256,192,146032,1,0,0:0:0:0:
256,192,146149,1,8,0:0:0:0:
256,192,146266,1,8,0:0:0:0:
256,192,146384,1,4,0:0:0:0:
256,192,146618,1,0,0:0:0:0:
256,192,146852,1,8,0:0:0:0:
256,192,147087,1,8,0:0:0:0:
256,192,147321,1,4,0:0:0:0:
256,192,147438,1,0,0:0:0:0:
256,192,147555,1,0,0:0:0:0:
256,192,147673,1,0,0:0:0:0:
256,192,147790,1,8,0:0:0:0:
256,192,148024,1,8,0:0:0:0:
256,192,148259,1,4,0:0:0:0:
256,192,148376,1,8,0:0:0:0:
256,192,148493,1,0,0:0:0:0:
256,192,148610,1,0,0:0:0:0:
256,192,148727,1,8,0:0:0:0:
256,192,148844,1,0,0:0:0:0:
256,192,148962,1,8,0:0:0:0:
256,192,149079,1,8,0:0:0:0:
256,192,149196,1,0,0:0:0:0:
256,192,149313,1,8,0:0:0:0:
256,192,149430,1,0,0:0:0:0:
256,192,149548,1,0,0:0:0:0:
256,192,149665,1,8,0:0:0:0:
256,192,149899,1,8,0:0:0:0:
256,192,150016,1,8,0:0:0:0:
256,192,150134,1,0,0:0:0:0:
256,192,150368,1,0,0:0:0:0:
256,192,150446,1,0,0:0:0:0:
256,192,150524,1,0,0:0:0:0:
256,192,150602,1,12,0:0:0:0:
256,192,150837,1,8,0:0:0:0:
256,192,150915,1,0,0:0:0:0:
256,192,150993,1,0,0:0:0:0:
256,192,151071,1,8,0:0:0:0:
256,192,151149,1,0,0:0:0:0:
256,192,151227,1,0,0:0:0:0:
256,192,151305,1,8,0:0:0:0:
256,192,151540,1,8,0:0:0:0:
256,192,151618,1,0,0:0:0:0:
256,192,151696,1,8,0:0:0:0:
256,192,151774,1,8,0:0:0:0:
256,192,151852,1,0,0:0:0:0:
256,192,151930,1,0,0:0:0:0:
256,192,152009,1,8,0:0:0:0:
256,192,152243,1,8,0:0:0:0:
256,192,152360,1,0,0:0:0:0:
256,192,152477,1,8,0:0:0:0:
256,192,152712,1,0,0:0:0:0:
256,192,152829,1,8,0:0:0:0:
256,192,152946,1,0,0:0:0:0:
256,192,153063,1,0,0:0:0:0:
256,192,153180,1,8,0:0:0:0:
256,192,153298,1,0,0:0:0:0:
256,192,153415,1,8,0:0:0:0:
256,192,153532,1,8,0:0:0:0:
256,192,153649,1,0,0:0:0:0:
256,192,153766,1,8,0:0:0:0:
256,192,153884,1,0,0:0:0:0:
256,192,154001,1,0,0:0:0:0:
256,192,154118,1,8,0:0:0:0:
256,192,154352,1,0,0:0:0:0:
256,192,154509,1,8,0:0:0:0:
256,192,154665,1,8,0:0:0:0:
256,192,154821,1,0,0:0:0:0:
256,192,154977,1,8,0:0:0:0:
256,192,155134,1,8,0:0:0:0:
256,192,155290,1,0,0:0:0:0:
256,192,155407,1,8,0:0:0:0:
256,192,155524,1,8,0:0:0:0:
256,192,155641,1,0,0:0:0:0:
256,192,155759,1,8,0:0:0:0:
256,192,155837,1,8,0:0:0:0:
256,192,155915,1,0,0:0:0:0:
256,192,155993,1,0,0:0:0:0:
256,192,156071,1,8,0:0:0:0:
256,192,156149,1,8,0:0:0:0:
256,192,156227,1,0,0:0:0:0:
256,192,156305,1,0,0:0:0:0:
256,192,156384,1,8,0:0:0:0:
256,192,156462,1,0,0:0:0:0:
256,192,156540,1,8,0:0:0:0:
256,192,156618,1,8,0:0:0:0:
256,192,156696,1,0,0:0:0:0:
256,192,156813,1,0,0:0:0:0:
256,192,156930,1,8,0:0:0:0:
256,192,157009,1,0,0:0:0:0:
256,192,157087,1,0,0:0:0:0:
256,192,157165,1,8,0:0:0:0:
256,192,157243,1,0,0:0:0:0:
256,192,157321,1,8,0:0:0:0:
256,192,157399,1,8,0:0:0:0:
256,192,157477,1,0,0:0:0:0:
256,192,157555,1,0,0:0:0:0:
256,192,157634,1,8,0:0:0:0:
256,192,157712,1,8,0:0:0:0:
256,192,157790,1,0,0:0:0:0:
256,192,157868,1,8,0:0:0:0:
256,192,157946,1,0,0:0:0:0:
256,192,158024,1,0,0:0:0:0:
256,192,158102,1,8,0:0:0:0:
256,192,158180,1,0,0:0:0:0:
256,192,158259,1,8,0:0:0:0:
256,192,158337,1,8,0:0:0:0:
256,192,158415,1,8,0:0:0:0:
256,192,158493,1,0,0:0:0:0:
256,192,158571,1,8,0:0:0:0:
256,192,158649,1,8,0:0:0:0:
256,192,158727,1,0,0:0:0:0:
256,192,158805,1,8,0:0:0:0:
256,192,158884,1,0,0:0:0:0:
256,192,158962,1,0,0:0:0:0:
256,192,159040,1,8,0:0:0:0:
256,192,159118,1,0,0:0:0:0:
256,192,159196,1,8,0:0:0:0:
256,192,159274,1,8,0:0:0:0:
256,192,159352,1,8,0:0:0:0:
256,192,159430,1,0,0:0:0:0:
256,192,159509,1,8,0:0:0:0:
256,192,159587,1,0,0:0:0:0:
256,192,159665,1,8,0:0:0:0:
256,192,159743,1,8,0:0:0:0:
256,192,159821,1,8,0:0:0:0:
256,192,159899,1,8,0:0:0:0:
256,192,159977,1,0,0:0:0:0:
256,192,160055,1,0,0:0:0:0:
256,192,160134,1,0,0:0:0:0:
256,192,160212,1,8,0:0:0:0:
256,192,160290,1,8,0:0:0:0:
256,192,160368,1,8,0:0:0:0:
256,192,160446,1,0,0:0:0:0:
256,192,160524,1,8,0:0:0:0:
256,192,160602,1,8,0:0:0:0:
256,192,160680,1,0,0:0:0:0:
256,192,160759,1,8,0:0:0:0:
256,192,160837,1,8,0:0:0:0:
256,192,160915,1,0,0:0:0:0:
256,192,160993,1,0,0:0:0:0:
256,192,161071,1,0,0:0:0:0:
256,192,161149,1,8,0:0:0:0:
256,192,161227,1,0,0:0:0:0:
256,192,161305,1,0,0:0:0:0:
256,192,161384,1,12,0:0:0:0:
256,192,161618,1,8,0:0:0:0:
256,192,161735,1,0,0:0:0:0:
256,192,161852,1,8,0:0:0:0:
256,192,161969,1,8,0:0:0:0:
256,192,162087,1,0,0:0:0:0:
256,192,162204,1,8,0:0:0:0:
256,192,162321,1,0,0:0:0:0:
256,192,162438,1,8,0:0:0:0:
256,192,162555,1,8,0:0:0:0:
256,192,162614,1,0,0:0:0:0:
256,192,162673,1,8,0:0:0:0:
256,192,162907,1,8,0:0:0:0:
256,192,163024,1,0,0:0:0:0:
256,192,163141,1,8,0:0:0:0:
256,192,163259,1,0,0:0:0:0:
256,192,163376,1,0,0:0:0:0:
256,192,163493,1,8,0:0:0:0:
256,192,163610,1,8,0:0:0:0:
256,192,163727,1,0,0:0:0:0:
256,192,163844,1,8,0:0:0:0:
256,192,163962,1,8,0:0:0:0:
256,192,164079,1,8,0:0:0:0:
256,192,164196,1,0,0:0:0:0:
256,192,164313,1,8,0:0:0:0:
256,192,164430,1,0,0:0:0:0:
256,192,164548,1,0,0:0:0:0:
256,192,164665,1,8,0:0:0:0:
256,192,164782,1,0,0:0:0:0:
256,192,164899,1,8,0:0:0:0:
256,192,165016,1,8,0:0:0:0:
256,192,165134,1,4,0:0:0:0:
256,192,165368,1,8,0:0:0:0:
256,192,165485,1,0,0:0:0:0:
256,192,165602,1,8,0:0:0:0:
256,192,165837,1,0,0:0:0:0:
256,192,165954,1,8,0:0:0:0:
256,192,166071,1,0,0:0:0:0:
256,192,166305,1,8,0:0:0:0:
256,192,166423,1,0,0:0:0:0:
256,192,166540,1,8,0:0:0:0:
256,192,166774,1,0,0:0:0:0:
256,192,166891,1,8,0:0:0:0:
256,192,167009,1,0,0:0:0:0:
256,192,167243,1,8,0:0:0:0:
256,192,167360,1,0,0:0:0:0:
256,192,167477,1,8,0:0:0:0:
256,192,167712,1,0,0:0:0:0:
256,192,167829,1,8,0:0:0:0:
256,192,167946,1,0,0:0:0:0:
256,192,168063,1,0,0:0:0:0:
256,192,168298,1,0,0:0:0:0:
256,192,168415,1,8,0:0:0:0:
256,192,168649,1,8,0:0:0:0:
256,192,168708,1,8,0:0:0:0:
256,192,168766,1,8,0:0:0:0:
256,192,168825,1,8,0:0:0:0:
256,192,168884,1,0,0:0:0:0:
256,192,169118,1,8,0:0:0:0:
256,192,169235,1,0,0:0:0:0:
256,192,169352,1,8,0:0:0:0:
256,192,169587,1,0,0:0:0:0:
256,192,169704,1,0,0:0:0:0:
256,192,169821,1,8,0:0:0:0:
256,192,169938,1,0,0:0:0:0:
256,192,170173,1,0,0:0:0:0:
256,192,170290,1,8,0:0:0:0:
256,192,170524,1,0,0:0:0:0:
256,192,170641,1,0,0:0:0:0:
256,192,170759,1,8,0:0:0:0:
256,192,170876,1,0,0:0:0:0:
256,192,171110,1,0,0:0:0:0:
256,192,171227,1,8,0:0:0:0:
256,192,171462,1,0,0:0:0:0:
256,192,171579,1,8,0:0:0:0:
256,192,171696,1,0,0:0:0:0:
256,192,171813,1,8,0:0:0:0:
256,192,171930,1,0,0:0:0:0:
256,192,172048,1,0,0:0:0:0:
256,192,172165,1,8,0:0:0:0:
256,192,172399,1,8,0:0:0:0:
256,192,172516,1,8,0:0:0:0:
256,192,172634,1,0,0:0:0:0:
256,192,172751,1,8,0:0:0:0:
256,192,172868,1,0,0:0:0:0:
256,192,172985,1,0,0:0:0:0:
256,192,173102,1,8,0:0:0:0:
256,192,173337,1,0,0:0:0:0:
256,192,173454,1,0,0:0:0:0:
256,192,173571,1,8,0:0:0:0:
256,192,173688,1,0,0:0:0:0:
256,192,173923,1,0,0:0:0:0:
256,192,174040,1,8,0:0:0:0:
256,192,174274,1,0,0:0:0:0:
256,192,174391,1,0,0:0:0:0:
256,192,174509,1,8,0:0:0:0:
256,192,174626,1,0,0:0:0:0:
256,192,174860,1,0,0:0:0:0:
256,192,174977,1,8,0:0:0:0:
256,192,175212,1,0,0:0:0:0:
256,192,175329,1,0,0:0:0:0:
256,192,175446,1,8,0:0:0:0:
256,192,175563,1,0,0:0:0:0:
256,192,175798,1,0,0:0:0:0:
256,192,175915,1,8,0:0:0:0:
256,192,176149,1,8,0:0:0:0:
256,192,176266,1,8,0:0:0:0:
256,192,176384,1,0,0:0:0:0:
256,192,176618,1,0,0:0:0:0:
256,192,176735,1,0,0:0:0:0:
256,192,176852,1,8,0:0:0:0:
256,192,177087,1,0,0:0:0:0:
256,192,177204,1,0,0:0:0:0:
256,192,177321,1,8,0:0:0:0:
256,192,177438,1,0,0:0:0:0:
256,192,177673,1,0,0:0:0:0:
256,192,177790,1,8,0:0:0:0:
256,192,178024,1,0,0:0:0:0:
256,192,178141,1,0,0:0:0:0:
256,192,178259,1,0,0:0:0:0:
256,192,179196,8,0,180321,0:0:0:0:
256,192,180602,5,12,0:0:0:0:
256,192,181071,1,0,0:0:0:0:
256,192,181423,1,0,0:0:0:0:
256,192,181540,1,8,0:0:0:0:
256,192,181774,1,0,0:0:0:0:
256,192,182009,1,8,0:0:0:0:
256,192,182126,1,0,0:0:0:0:
256,192,182477,1,8,0:0:0:0:
256,192,182712,1,0,0:0:0:0:
256,192,182829,1,8,0:0:0:0:
256,192,183063,1,0,0:0:0:0:
256,192,183298,1,0,0:0:0:0:
256,192,183415,1,8,0:0:0:0:
256,192,183532,1,0,0:0:0:0:
256,192,183649,1,0,0:0:0:0:
256,192,183884,1,8,0:0:0:0:
256,192,184001,1,0,0:0:0:0:
256,192,184235,1,0,0:0:0:0:
256,192,184352,1,8,0:0:0:0:
256,192,184411,1,0,0:0:0:0:
256,192,184469,1,8,0:0:0:0:
256,192,184821,1,8,0:0:0:0:
256,192,184880,1,0,0:0:0:0:
256,192,184938,1,8,0:0:0:0:
256,192,185173,1,0,0:0:0:0:
256,192,185231,1,0,0:0:0:0:
256,192,185290,1,0,0:0:0:0:
256,192,185524,1,8,0:0:0:0:
256,192,185583,1,0,0:0:0:0:
256,192,185641,1,8,0:0:0:0:
256,192,185759,1,8,0:0:0:0:
256,192,186227,1,8,0:0:0:0:
256,192,186286,1,0,0:0:0:0:
256,192,186344,1,8,0:0:0:0:
256,192,186696,1,8,0:0:0:0:
256,192,186755,1,8,0:0:0:0:
256,192,186813,1,8,0:0:0:0:
256,192,187048,1,0,0:0:0:0:
256,192,187106,1,0,0:0:0:0:
256,192,187165,1,0,0:0:0:0:
256,192,187399,1,8,0:0:0:0:
256,192,187458,1,8,0:0:0:0:
256,192,187516,1,0,0:0:0:0:
256,192,187634,1,8,0:0:0:0:
256,192,187692,1,0,0:0:0:0:
256,192,187751,1,0,0:0:0:0:
256,192,187868,1,8,0:0:0:0:
256,192,188102,1,8,0:0:0:0:
256,192,188454,1,8,0:0:0:0:
256,192,188571,1,0,0:0:0:0:
256,192,188688,1,8,0:0:0:0:
256,192,188805,1,0,0:0:0:0:
256,192,188923,1,0,0:0:0:0:
256,192,189040,1,8,0:0:0:0:
256,192,189274,1,8,0:0:0:0:
256,192,189391,1,0,0:0:0:0:
256,192,189626,1,8,0:0:0:0:
256,192,189743,1,0,0:0:0:0:
256,192,189977,1,8,0:0:0:0:
256,192,190212,1,0,0:0:0:0:
256,192,190329,1,8,0:0:0:0:
256,192,190563,1,8,0:0:0:0:
256,192,190798,1,0,0:0:0:0:
256,192,190915,1,8,0:0:0:0:
256,192,191032,1,8,0:0:0:0:
256,192,191149,1,0,0:0:0:0:
256,192,191384,1,8,0:0:0:0:
256,192,191501,1,0,0:0:0:0:
256,192,191735,1,0,0:0:0:0:
256,192,191852,1,12,0:0:0:0:
256,192,192321,1,0,0:0:0:0:
256,192,192673,1,0,0:0:0:0:
256,192,192790,1,8,0:0:0:0:
256,192,193024,1,0,0:0:0:0:
256,192,193259,1,8,0:0:0:0:
256,192,193337,1,8,0:0:0:0:
256,192,193415,1,0,0:0:0:0:
256,192,193493,1,0,0:0:0:0:
256,192,193571,1,0,0:0:0:0:
256,192,193649,1,0,0:0:0:0:
256,192,193727,1,8,0:0:0:0:
256,192,194196,1,0,0:0:0:0:
256,192,194274,1,0,0:0:0:0:
256,192,194352,1,0,0:0:0:0:
256,192,194430,1,0,0:0:0:0:
256,192,194509,1,0,0:0:0:0:
256,192,194587,1,0,0:0:0:0:
256,192,194665,1,8,0:0:0:0:
256,192,195134,1,8,0:0:0:0:
256,192,195192,1,8,0:0:0:0:
256,192,195251,1,0,0:0:0:0:
256,192,195309,1,0,0:0:0:0:
256,192,195368,1,0,0:0:0:0:
256,192,195426,1,0,0:0:0:0:
256,192,195485,1,0,0:0:0:0:
256,192,195544,1,0,0:0:0:0:
256,192,195602,1,12,0:0:0:0:
256,192,196071,1,0,0:0:0:0:
256,192,196423,1,8,0:0:0:0:
256,192,196540,1,0,0:0:0:0:
256,192,196774,1,8,0:0:0:0:
256,192,197009,1,0,0:0:0:0:
256,192,197126,1,8,0:0:0:0:
256,192,197243,1,0,0:0:0:0:
256,192,197477,1,8,0:0:0:0:
256,192,197712,1,0,0:0:0:0:
256,192,197829,1,8,0:0:0:0:
256,192,198063,1,0,0:0:0:0:
256,192,198298,1,0,0:0:0:0:
256,192,198415,1,8,0:0:0:0:
256,192,198532,1,0,0:0:0:0:
256,192,198649,1,8,0:0:0:0:
256,192,198766,1,8,0:0:0:0:
256,192,198884,1,0,0:0:0:0:
256,192,199001,1,0,0:0:0:0:
256,192,199235,1,0,0:0:0:0:
256,192,199352,1,12,0:0:0:0:
256,192,199821,1,4,0:0:0:0:
256,192,200290,1,12,0:0:0:0:
256,192,200759,1,4,0:0:0:0:
256,192,201227,1,12,0:0:0:0:
256,192,201696,1,8,0:0:0:0:
256,192,201755,1,0,0:0:0:0:
256,192,201813,1,8,0:0:0:0:
256,192,202048,1,8,0:0:0:0:
256,192,202106,1,0,0:0:0:0:
256,192,202165,1,8,0:0:0:0:
256,192,202399,1,8,0:0:0:0:
256,192,202458,1,8,0:0:0:0:
256,192,202516,1,0,0:0:0:0:
256,192,202634,1,12,0:0:0:0:
256,192,202751,1,0,0:0:0:0:
256,192,203102,1,8,0:0:0:0:
256,192,203337,1,0,0:0:0:0:
256,192,203454,1,0,0:0:0:0:
256,192,203571,1,8,0:0:0:0:
256,192,203688,1,0,0:0:0:0:
256,192,203923,1,0,0:0:0:0:
256,192,204040,1,8,0:0:0:0:
256,192,204274,1,0,0:0:0:0:
256,192,204391,1,0,0:0:0:0:
256,192,204509,1,8,0:0:0:0:
256,192,204626,1,0,0:0:0:0:
256,192,204860,1,0,0:0:0:0:
256,192,204977,1,8,0:0:0:0:
256,192,205212,1,8,0:0:0:0:
256,192,205329,1,0,0:0:0:0:
256,192,205563,1,8,0:0:0:0:
256,192,205680,1,0,0:0:0:0:
256,192,205798,1,8,0:0:0:0:
256,192,206032,1,0,0:0:0:0:
256,192,206149,1,8,0:0:0:0:
256,192,206266,1,8,0:0:0:0:
256,192,206384,1,0,0:0:0:0:
256,192,206462,1,0,0:0:0:0:
256,192,206540,1,0,0:0:0:0:
256,192,206618,1,8,0:0:0:0:
256,192,206696,1,8,0:0:0:0:
256,192,206774,1,8,0:0:0:0:
256,192,206852,1,0,0:0:0:0:
256,192,207087,1,12,0:0:0:0:
256,192,207321,1,12,0:0:0:0:
256,192,207790,1,4,0:0:0:0:
256,192,208259,1,4,0:0:0:0:
256,192,208727,1,12,0:0:0:0:
256,192,209196,1,4,0:0:0:0:
256,192,209665,1,8,0:0:0:0:
256,192,209723,1,8,0:0:0:0:
256,192,209782,1,0,0:0:0:0:
256,192,209841,1,0,0:0:0:0:
256,192,209899,1,0,0:0:0:0:
256,192,209958,1,0,0:0:0:0:
256,192,210016,1,0,0:0:0:0:
256,192,210075,1,0,0:0:0:0:
256,192,210134,1,12,0:0:0:0:
256,192,210602,1,0,0:0:0:0:
256,192,211071,1,0,0:0:0:0:
256,192,211540,1,0,0:0:0:0:
256,192,212009,1,0,0:0:0:0:
256,192,212477,1,0,0:0:0:0:
256,192,212946,1,0,0:0:0:0:
256,192,213415,1,0,0:0:0:0:
256,192,213884,1,8,0:0:0:0:
256,192,214352,1,0,0:0:0:0:
256,192,214821,1,0,0:0:0:0:
256,192,215290,1,0,0:0:0:0:
256,192,215759,1,0,0:0:0:0:
256,192,216227,1,0,0:0:0:0:
256,192,216696,1,8,0:0:0:0:
256,192,217165,1,0,0:0:0:0:
256,192,217634,1,8,0:0:0:0:
256,192,218102,1,0,0:0:0:0:
256,192,218571,1,0,0:0:0:0:
256,192,219040,1,0,0:0:0:0:
256,192,219509,1,0,0:0:0:0:
256,192,219977,1,0,0:0:0:0:
256,192,220446,1,0,0:0:0:0:
256,192,220915,1,0,0:0:0:0:
256,192,221384,1,8,0:0:0:0:
256,192,221852,1,0,0:0:0:0:
256,192,222321,1,0,0:0:0:0:
256,192,222790,1,0,0:0:0:0:
256,192,223259,1,8,0:0:0:0:
256,192,223727,1,0,0:0:0:0:
256,192,224196,1,0,0:0:0:0:
256,192,224665,1,0,0:0:0:0:
256,192,225134,1,8,0:0:0:0:
256,192,225368,1,0,0:0:0:0:
256,192,225602,1,8,0:0:0:0:
256,192,225837,1,0,0:0:0:0:
256,192,226071,1,8,0:0:0:0:
256,192,226305,1,0,0:0:0:0:
256,192,226540,1,8,0:0:0:0:
256,192,226774,1,0,0:0:0:0:
256,192,227009,1,8,0:0:0:0:
256,192,227243,1,0,0:0:0:0:
256,192,227477,1,8,0:0:0:0:
256,192,227712,1,0,0:0:0:0:
256,192,227946,1,8,0:0:0:0:
256,192,228180,1,0,0:0:0:0:
256,192,228415,1,8,0:0:0:0:
256,192,228649,1,0,0:0:0:0:
256,192,228884,1,12,0:0:0:0:
256,192,229118,8,0,232634,0:0:0:0:
