osu file format v14

[General]
AudioFilename: audio.mp3
AudioLeadIn: 0
PreviewTime: 54348
Countdown: 0
SampleSet: Normal
StackLeniency: 0.7
Mode: 0
LetterboxInBreaks: 0
WidescreenStoryboard: 0

[Editor]
Bookmarks: 82903
DistanceSpacing: 1.8
BeatDivisor: 4
GridSize: 4
TimelineZoom: 1.5

[Metadata]
Title:Clover (TV Size)
TitleUnicode:Clover (TV Size)
Artist:meg rock
ArtistUnicode:meg rock
Creator:zhuxiaoyan
Version:Nold's Tutelary
Source:SoltyRei
Tags:frostwich synderes nold_1702 ulysses nold beren japanese pop jpop j-pop anime op opening
BeatmapID:3468910
BeatmapSetID:1697894

[Difficulty]
HPDrainRate:6
CircleSize:5
OverallDifficulty:9
ApproachRate:9
SliderMultiplier:1.6
SliderTickRate:2

[Events]
//Background and Video events
0,0,"cars_cover_soft_shading_Solty_Rei_1920x1289.jpg",0,0
Video,471,"solty rei.mp4"
//Break Periods
//Storyboard Layer 0 (Background)
//Storyboard Layer 1 (Fail)
//Storyboard Layer 2 (Pass)
//Storyboard Layer 3 (Foreground)
//Storyboard Layer 4 (Overlay)
//Storyboard Sound Samples

[TimingPoints]
635,441.176470588235,4,1,1,80,1,0
2399,-100,4,1,1,65,0,0
9182,-100,4,1,1,5,0,0
9237,-100,4,1,1,80,0,0
9403,-100,4,1,1,5,0,0
9458,-100,4,1,1,65,0,0
14752,-100,4,1,1,70,0,0
15193,-100,4,1,1,65,0,0
15414,-100,4,1,1,70,0,0
15855,-100,4,1,1,65,0,0
17620,-100,4,1,2,65,0,0
17841,-100,4,1,1,65,0,0
18282,-133.333333333333,4,2,1,50,0,0
19164,-133.333333333333,4,1,1,50,0,0
19826,-133.333333333333,4,2,1,50,0,0
20708,-133.333333333333,4,1,1,50,0,0
21591,-133.333333333333,4,2,1,50,0,0
22694,-133.333333333333,4,1,1,50,0,0
23245,-133.333333333333,4,2,1,50,0,0
23576,-100,4,2,1,50,0,0
23797,-100,4,1,1,50,0,0
24017,-133.333333333333,4,1,1,50,0,0
25341,-133.333333333333,4,2,1,50,0,0
26223,-133.333333333333,4,1,1,50,0,0
27105,-133.333333333333,4,2,1,50,0,0
27877,-133.333333333333,4,1,1,50,0,0
28760,-133.333333333333,4,2,1,50,0,0
29752,-133.333333333333,4,1,1,50,0,0
30524,-133.333333333333,4,2,1,50,0,0
30745,-133.333333333333,4,1,0,50,0,0
31076,-133.333333333333,4,2,1,50,0,0
31297,-133.333333333333,4,1,1,50,0,0
31517,-133.333333333333,4,1,1,50,0,0
32399,-133.333333333333,4,2,1,55,0,0
37914,-100,4,1,0,55,0,0
38245,-133.333333333333,4,2,1,55,0,0
39238,-133.333333333333,4,1,1,55,0,0
39679,-133.333333333333,4,2,1,55,0,0
44752,-133.333333333333,4,1,1,55,0,0
46296,-133.333333333333,4,1,0,60,0,0
46407,-133.333333333333,4,1,1,60,0,0
46738,-133.333333333333,4,2,1,60,0,0
49826,-133.333333333333,4,2,1,40,0,0
49936,-133.333333333333,4,2,1,35,0,0
50046,-133.333333333333,4,2,1,42,0,0
50377,-133.333333333333,4,2,1,35,0,0
50487,-133.333333333333,4,2,1,44,0,0
50708,-133.333333333333,4,2,1,46,0,0
50818,-133.333333333333,4,2,1,35,0,0
50929,-133.333333333333,4,2,1,48,0,0
51039,-133.333333333333,4,2,1,35,0,0
51149,-133.333333333333,4,2,1,50,0,0
51259,-133.333333333333,4,2,1,35,0,0
51370,-133.333333333333,4,2,1,52,0,0
51480,-133.333333333333,4,2,1,35,0,0
51590,-133.333333333333,4,2,1,54,0,0
51701,-133.333333333333,4,2,1,35,0,0
51811,-100,4,2,1,56,0,0
51921,-100,4,2,1,35,0,0
52032,-100,4,2,1,58,0,0
52142,-100,4,2,1,35,0,0
52252,-100,4,2,1,60,0,0
52362,-100,4,2,1,35,0,0
52473,-100,4,2,1,62,0,0
52583,-100,4,2,1,35,0,0
52693,-100,4,2,1,64,0,0
52804,-100,4,2,1,35,0,0
52914,-100,4,2,1,66,0,0
53024,-100,4,2,1,35,0,0
53134,-100,4,2,1,68,0,0
53245,-100,4,2,1,35,0,0
53355,-100,4,1,1,70,0,0
53521,-100,4,1,1,5,0,0
53576,-100,4,1,1,60,0,0
53797,-200,4,2,1,70,0,0
54238,-200,4,2,0,70,0,0
54458,441.176470588235,4,1,1,65,1,1
54458,-100,4,1,1,65,0,1
61241,-100,4,1,1,5,0,1
61296,-100,4,1,1,65,0,1
61461,-100,4,1,1,5,0,1
61516,-100,4,1,1,65,0,1
67693,-100,4,1,1,65,0,0
67913,-100,4,1,2,65,0,0
68575,-100,4,1,1,55,0,1
68906,-100,4,1,1,35,0,1
69016,-100,4,1,1,65,0,1
75358,-100,4,1,1,5,0,1
75413,-100,4,1,1,65,0,1
75579,-100,4,1,1,5,0,1
75634,-100,4,1,1,65,0,1
76902,-100,4,1,1,5,0,1
76957,-100,4,1,1,65,0,1
84457,-100,4,1,1,70,0,1
84623,-100,4,1,1,5,0,1
84678,-200,4,1,1,70,0,1
85450,-200,4,1,1,5,0,1
85560,-200,4,1,1,65,0,1
85781,-100,4,1,1,75,0,1
86112,-100,4,1,1,5,0,1
86222,-100,4,1,1,70,0,0
89310,-66.6666666666667,4,1,1,50,0,1
89421,-100,4,2,0,20,0,0

[Colours]
Combo1 : 96,0,0
Combo2 : 255,170,85
Combo3 : 0,234,0
Combo4 : 255,255,128
Combo5 : 173,92,92

[HitObjects]
256,192,1958,5,12,0:0:0:0:
100,160,2399,6,0,B|112:204|124:264,1,80,6|0,0:0|0:0,0:0:0:0:
12,72,2841,1,8,0:0:0:0:
176,36,3061,1,0,0:0:0:0:
176,36,3172,1,0,0:0:0:0:
176,36,3282,2,0,B|136:32|76:28,2,80,2|2|8,0:0|0:0|0:0,0:0:0:0:
256,136,3944,1,0,0:0:0:0:
216,188,4054,1,0,0:0:0:0:
240,248,4164,5,2,0:0:0:0:
304,256,4274,1,0,0:0:0:0:
348,208,4385,1,0,0:0:0:0:
356,80,4605,2,0,B|400:84|464:96,1,80,8|0,0:0|0:0,0:0:0:0:
492,116,4936,2,0,B|472:184,1,40,0|2,0:0|0:0,0:0:0:0:
496,280,5267,1,2,0:0:0:0:
388,348,5488,2,0,B|336:352|304:328,1,80,8|0,0:0|0:0,0:0:0:0:
104,324,5929,6,0,B|64:332|-8:344,2,80,2|0|8,0:0|0:0|0:0,0:0:0:0:
156,208,6591,2,0,B|172:184|168:152,1,40
112,144,6811,2,0,B|92:80|72:40,1,80,2|0,0:0|0:0,0:0:0:0:
32,28,7142,1,0,0:0:0:0:
32,28,7252,2,0,B|0:64|0:128,1,80,8|0,0:0|0:0,0:0:0:0:
112,288,7694,5,2,0:0:0:0:
220,356,7914,2,0,B|276:340|320:324,1,80,0|8,0:0|0:0,0:0:0:0:
480,196,8355,1,0,0:0:0:0:
368,200,8576,1,2,0:0:0:0:
308,216,8686,1,0,0:0:0:0:
308,216,8797,2,0,B|252:200|208:184,1,80,2|8,0:0|0:0,0:0:0:0:
124,48,9238,1,0,0:0:0:0:
12,192,9458,6,0,B|40:288|56:332,1,120,6|0,0:0|0:0,0:0:0:0:
120,260,9899,2,0,B|140:308|152:344,1,80,8|0,0:0|0:0,0:0:0:0:
296,132,10341,6,0,B|260:100|216:120,1,80,2|2,0:0|0:0,0:0:0:0:
48,44,10782,2,0,B|85:67|123:48,1,80
188,20,11113,1,0,0:0:0:0:
188,20,11223,5,6,0:0:0:0:
204,96,11664,1,12,0:0:0:0:
220,176,12105,5,6,0:0:0:0:
126,114,12326,1,6,0:0:0:0:
188,20,12547,1,12,0:0:0:0:
282,82,12767,1,4,0:0:0:0:
400,176,12988,6,0,B|404:244|408:272,1,80,6|0,0:0|0:0,0:0:0:0:
420,320,13319,1,0,0:0:0:0:
372,364,13429,1,8,0:0:0:0:
308,372,13539,1,0,0:0:0:0:
252,340,13650,1,0,0:0:0:0:
124,328,13870,6,0,B|64:336|-12:356,1,120,2|0,0:0|0:0,0:0:0:0:
84,260,14311,2,0,B|44:272|-16:280,1,80,8|0,0:0|0:0,0:0:0:0:
160,96,14752,6,0,B|168:176|176:232,2,120,6|4|4,0:0|0:0|0:0,0:0:0:0:
280,32,15635,1,0,0:0:0:0:
264,96,15745,1,8,0:0:0:0:
392,76,15966,1,0,0:0:0:0:
388,140,16076,1,8,0:0:0:0:
504,84,16297,1,2,0:0:0:0:
388,140,16517,5,2,0:0:0:0:
384,204,16627,1,8,0:0:0:0:
380,268,16738,1,0,0:0:0:0:
240,160,16958,1,8,0:0:0:0:
44,356,17289,5,8,0:0:0:0:
28,292,17400,1,2,0:0:0:0:
148,332,17620,1,4,0:0:0:0:
276,352,17841,1,8,0:0:0:0:
276,288,17951,1,8,0:0:0:0:
292,228,18061,1,2,0:0:0:0:
464,296,18282,6,0,B|464:236|456:160,1,120.000004577637,4|8,0:0|0:0,0:0:0:0:
416,88,18944,1,0,0:0:0:0:
320,92,19164,2,0,B|316:48|312:20,2,60.0000022888184,2|2|8,0:0|0:0|0:0,0:0:0:0:
228,120,19826,1,0,0:0:0:0:
84,248,20047,6,0,B|44:240|28:200|48:164,1,90.0000034332277,4|0,0:0|0:0,0:0:0:0:
56,156,20488,1,8,0:0:0:0:
72,320,20929,1,2,0:0:0:0:
160,344,21150,1,2,0:0:0:0:
248,364,21370,1,8,0:0:0:0:
416,320,21591,1,0,0:0:0:0:
272,348,21811,6,0,B|212:324|152:292,1,120.000004577637,4|8,0:0|0:0,0:0:0:0:
64,104,22473,1,0,0:0:0:0:
64,104,22583,1,0,0:0:0:0:
64,104,22694,2,0,B|60:180,1,60.0000022888184,2|2,0:0|0:0,0:0:0:0:
36,276,23135,1,8,0:0:0:0:
232,236,23355,1,0,0:0:0:0:
140,316,23576,6,2,B|192:312|288:300,1,120,4|0,0:0|0:0,0:0:0:0:
232,236,24017,2,0,B|268:232|308:216,1,60.0000022888184
304,28,24458,2,0,B|312:100,1,60.0000022888184,0|2,0:0|0:0,0:0:0:0:
472,132,24900,1,8,0:0:0:0:
460,212,25120,1,0,0:0:0:0:
352,248,25341,6,0,B|356:296|364:384,2,120.000004577637,4|8|2,0:0|0:0|0:0,0:0:0:0:
288,320,26444,1,2,0:0:0:0:
196,344,26664,1,8,0:0:0:0:
60,196,26885,1,0,0:0:0:0:
136,144,27105,6,0,B|144:192|152:244,1,90.0000034332277,4|0,0:0|0:0,0:0:0:0:
220,188,27547,2,0,B|224:256,1,60.0000022888184,8|0,0:0|0:0,0:0:0:0:
276,24,27988,1,2,0:0:0:0:
260,96,28208,1,2,0:0:0:0:
328,124,28429,1,0,0:0:0:0:
380,72,28650,1,0,0:0:0:0:
480,248,28870,6,0,B|420:240|352:236,1,120.000004577637,4|8,0:0|0:0,0:0:0:0:
280,324,29532,1,0,0:0:0:0:
200,196,29752,2,0,B|280:188,1,60.0000022888184,2|2,0:0|0:0,0:0:0:0:
80,192,30194,1,8,0:0:0:0:
188,188,30414,1,0,0:0:0:0:
316,216,30635,6,2,B|396:228|460:232,1,120.000004577637,4|8,0:0|0:0,0:0:0:0:
288,304,31297,1,0,0:0:0:0:
156,360,31517,1,2,0:0:0:0:
132,320,31627,1,0,0:0:0:0:
40,292,31848,1,0,0:0:0:0:
56,248,31958,2,0,B|36:236,4,15.0000005722046,8|0|0|0|0,0:0|0:0|0:0|0:0|0:0,0:0:0:0:
24,156,32400,6,0,B|88:140|152:132,1,120.000004577637,4|8,0:0|0:0,0:0:0:0:
204,20,33061,2,0,B|224:72|240:144,1,120.000004577637,4|0,0:0|0:0,0:0:0:0:
344,184,33723,2,0,B|312:236,1,60.0000022888184,8|0,0:0|0:0,0:0:0:0:
292,344,34164,6,0,B|247:353|247:353|215:337|215:337|160:350,1,120.000004577637,4|8,0:0|0:0,0:0:0:0:
136,256,34826,2,0,B|71:269|71:269|46:337,1,120.000004577637,4|0,0:0|0:0,0:0:0:0:
208,148,35488,2,0,B|232:224,1,60.0000022888184,8|0,0:0|0:0,0:0:0:0:
360,252,35929,6,0,B|388:220|428:228|428:228|444:172,1,120.000004577637,0|8,0:0|0:0,0:0:0:0:
428,88,36591,2,0,B|392:128|352:112|352:112|376:152,1,120.000004577637,4|0,0:0|0:0,0:0:0:0:
228,32,37252,2,0,B|260:36|284:48,1,60.0000022888184,8|0,0:0|0:0,0:0:0:0:
112,108,37694,5,0,0:0:0:0:
112,108,37914,2,2,B|88:148|60:184,1,80
112,108,38576,1,4,0:0:0:0:
67,175,38797,2,0,B|96:232,1,60.0000022888184,0|8,0:0|0:0,0:0:0:0:
16,340,39238,6,0,B|57:326|57:326|85:351|127:331,1,120.000004577637,4|0,0:0|0:0,0:0:0:0:
268,360,39899,1,8,0:0:0:0:
208,296,40120,2,0,B|210:264|256:230,2,60.0000022888184,0|8|0,0:0|0:0|0:0,0:0:0:0:
372,356,40782,1,8,0:0:0:0:
372,356,41002,1,0,0:0:0:0:
444,292,41223,6,0,B|491:286|522:227|494:191,1,120.000004577637,4|8,0:0|0:0,0:0:0:0:
392,92,41885,2,0,B|428:228,1,120.000004577637,4|0,0:0|0:0,0:0:0:0:
340,160,42547,1,8,0:0:0:0:
384,88,42767,1,0,0:0:0:0:
236,136,42988,6,0,B|156:148|96:160,1,120.000004577637,0|8,0:0|0:0,0:0:0:0:
248,232,43649,2,0,B|328:220|388:208,1,120.000004577637,4|0,0:0|0:0,0:0:0:0:
180,308,44311,2,0,B|228:380,1,60.0000022888184,8|0,0:0|0:0,0:0:0:0:
172,304,44752,5,4,0:0:0:0:
88,184,45194,1,0,0:0:0:0:
92,188,45414,1,4,0:0:0:0:
280,104,45855,1,0,0:0:0:0:
284,108,46076,1,4,0:0:0:0:
152,24,46297,1,4,0:2:0:0:
208,80,46517,6,0,B|236:128|280:192,1,120.000004577637,0|8,0:0|0:0,0:0:0:0:
368,268,47179,2,0,B|379:211|387:135,1,120.000004577637,4|0,0:0|0:0,0:0:0:0:
468,248,47841,2,0,B|492:320,1,60.0000022888184,8|0,0:0|0:0,0:0:0:0:
328,332,48282,6,0,B|292:296|248:320|248:320|240:356,1,120.000004577637,4|8,0:0|0:0,0:0:0:0:
264,228,48944,2,0,B|212:232|184:268|184:268|172:320,1,120.000004577637,4|2,0:0|0:1,0:0:0:0:
128,184,49605,2,0,B|112:120,1,60.0000022888184,8|0,0:0|0:0,0:0:0:0:
272,48,50047,6,0,B|232:104,1,60.0000022888184,8|0,0:0|0:0,0:0:0:0:
352,132,50488,2,0,B|292:160,1,60.0000022888184,8|0,0:0|0:0,0:0:0:0:
392,244,50929,2,0,B|332:240,1,60.0000022888184,8|0,0:0|0:0,0:0:0:0:
332,364,51370,2,0,B|288:308,1,60.0000022888184,8|0,0:0|0:0,0:0:0:0:
40,184,51811,6,0,B|68:276,1,80,8|0,0:0|0:0,0:0:0:0:
228,200,52252,2,0,B|293:129,1,80,8|0,0:0|0:0,0:0:0:0:
147,29,52694,2,0,B|53:7,1,80,8|0,0:0|0:0,0:0:0:0:
140,132,53135,1,8,0:0:0:0:
260,324,53355,2,0,B|204:335|184:282|190:254|190:254|206:276|237:259,1,160,4|0,0:0|0:0,0:0:0:0:
176,264,54017,6,0,B|200:192,1,60
28,192,54458,6,0,B|32:132|48:68,1,120,6|0,0:0|0:0,0:0:0:0:
112,144,54899,2,0,B|141:80|158:59,1,80,8|0,0:0|0:0,0:0:0:0:
212,132,55230,1,0,0:0:0:0:
212,132,55340,2,0,B|252:116|320:104,1,80,2|2,0:0|0:0,0:0:0:0:
472,104,55781,1,8,0:0:0:0:
440,248,56002,1,0,0:0:0:0:
380,272,56112,1,0,0:0:0:0:
380,272,56222,6,0,B|344:284|280:292,1,80,2|0,0:0|0:0,0:0:0:0:
176,280,56663,1,8,0:0:0:0:
60,332,56884,2,0,B|52:280,1,40,2|2,0:0|0:0,0:0:0:0:
8,248,57105,5,2,0:0:0:0:
68,232,57215,1,2,0:0:0:0:
100,176,57325,1,2,0:0:0:0:
88,112,57435,1,0,0:0:0:0:
32,80,57546,1,10,0:0:0:0:
216,176,57766,1,0,0:0:0:0:
324,248,57987,6,0,B|380:240|464:224,1,120,2|0,0:0|0:0,0:0:0:0:
368,168,58428,2,0,B|408:160|456:148,1,80,8|0,0:0|0:0,0:0:0:0:
380,92,58759,2,0,B|424:80,1,40,0|2,0:0|0:0,0:0:0:0:
224,32,59090,1,2,0:0:0:0:
224,32,59200,2,0,B|244:100,1,40,0|8,0:0|0:0,0:0:0:0:
160,176,59531,1,0,0:0:0:0:
276,280,59752,6,0,B|184:312|152:324,1,120,2|0,0:0|0:0,0:0:0:0:
128,252,60193,2,0,B|68:272|36:288,1,80,8|0,0:0|0:0,0:0:0:0:
244,144,60634,6,0,B|336:176|368:188,1,120,2|0,0:0|0:0,0:0:0:0:
392,116,61075,2,0,B|452:136|484:152,1,80,8|0,0:0|0:0,0:0:0:0:
424,248,61516,6,0,B|448:308|464:388,1,120,6|0,0:0|0:0,0:0:0:0:
380,368,61957,1,8,0:0:0:0:
380,368,62178,1,0,0:0:0:0:
352,312,62288,1,0,0:0:0:0:
352,312,62399,2,0,B|296:264|264:260,1,80,2|2,0:0|0:0,0:0:0:0:
96,328,62840,2,0,B|169:322|194:302,1,80,8|2,0:0|0:0,0:0:0:0:
204,256,63171,1,0,0:0:0:0:
204,256,63281,5,6,0:0:0:0:
168,184,63722,1,12,0:0:0:0:
128,116,64163,5,6,0:0:0:0:
272,132,64384,1,6,0:0:0:0:
356,16,64605,1,12,0:0:0:0:
496,48,64825,1,4,0:0:0:0:
492,192,65046,6,0,B|472:236|448:292,1,80,6|0,0:0|0:0,0:0:0:0:
388,252,65377,1,0,0:0:0:0:
388,252,65487,2,0,B|371:297|348:353,1,80,8|0,0:0|0:0,0:0:0:0:
168,72,65928,6,0,B|188:116|212:172,1,80,6|0,0:0|0:0,0:0:0:0:
272,132,66259,1,0,0:0:0:0:
272,132,66369,2,0,B|289:177|312:233,1,80,8|0,0:0|0:0,0:0:0:0:
180,280,66810,6,0,B|80:328|56:332,2,120,6|4|4,0:0|0:0|0:0,0:0:0:0:
320,320,67693,1,2,0:0:0:0:
420,216,67913,1,4,0:0:0:0:
480,172,68024,1,4,0:0:0:0:
472,100,68134,1,4,0:0:0:0:
424,48,68244,1,4,0:0:0:0:
352,44,68355,1,4,0:0:0:0:
292,84,68465,1,4,0:0:0:0:
220,76,68575,6,0,B|156:64|84:40,1,120,6|0,0:0|0:0,0:0:0:0:
140,136,69016,2,0,B|84:124|36:96,1,80,8|0,0:0|0:0,0:0:0:0:
96,200,69347,1,0,0:0:0:0:
96,200,69457,2,0,B|56:188|0:160,1,80,2|2,0:0|0:0,0:0:0:0:
136,332,69899,1,8,0:0:0:0:
236,240,70119,1,0,0:0:0:0:
236,240,70230,1,0,0:0:0:0:
236,240,70340,6,0,B|266:211|318:176,1,80,2|0,0:0|0:0,0:0:0:0:
500,320,70781,2,0,B|470:291|418:256,1,80,8|0,0:0|0:0,0:0:0:0:
380,300,71112,1,0,0:0:0:0:
380,300,71222,2,0,B|344:316|296:336,1,80,2|2,0:0|0:0,0:0:0:0:
152,352,71663,1,8,0:0:0:0:
36,296,71884,1,0,0:0:0:0:
84,176,72105,6,0,B|160:176|208:156,1,120,2|0,0:0|0:0,0:0:0:0:
124,96,72546,2,0,B|164:92|224:76,1,80,8|0,0:0|0:0,0:0:0:0:
444,148,72987,2,0,B|409:127|351:105,1,80,2|2,0:0|0:0,0:0:0:0:
336,168,73318,1,0,0:0:0:0:
336,168,73428,2,0,B|392:196|436:216,1,80,8|0,0:0|0:0,0:0:0:0:
264,268,73869,6,0,B|244:303|204:351,1,80,2|2,0:0|0:0,0:0:0:0:
161,304,74200,1,0,0:0:0:0:
161,304,74310,2,0,B|195:251|223:212,1,80,8|0,0:0|0:0,0:0:0:0:
144,212,74641,1,0,0:0:0:0:
144,212,74752,2,0,B|124:247|84:295,2,80,2|2|8,0:0|0:0|0:0,0:0:0:0:
116,88,75413,1,0,0:0:0:0:
8,20,75634,6,0,B|12:72|20:148,1,120,6|0,0:0|0:0,0:0:0:0:
40,200,76075,2,0,B|56:276|52:300,1,80,8|0,0:0|0:0,0:0:0:0:
200,344,76516,1,2,0:0:0:0:
408,248,76737,1,2,0:0:0:0:
312,40,76958,1,8,0:0:0:0:
104,136,77178,1,0,0:0:0:0:
152,180,77288,1,0,0:0:0:0:
152,180,77399,5,6,0:0:0:0:
360,204,77840,1,12,0:0:0:0:
256,368,78171,1,0,0:0:0:0:
256,368,78281,5,6,0:0:0:0:
432,192,78502,1,6,0:0:0:0:
256,16,78722,1,12,0:0:0:0:
80,192,78943,1,4,0:0:0:0:
92,64,79163,6,0,B|156:76|204:84,1,80,6|0,0:0|0:0,0:0:0:0:
202,138,79494,1,0,0:0:0:0:
202,138,79605,2,0,B|258:146|298:146,1,80,8|0,0:0|0:0,0:0:0:0:
80,192,80046,6,0,B|144:204|192:212,1,80,2|2,0:0|0:0,0:0:0:0:
190,266,80377,1,0,0:0:0:0:
190,266,80487,2,0,B|246:274|286:274,1,80,8|0,0:0|0:0,0:0:0:0:
164,344,80928,6,0,B|76:344|8:332,2,120,6|4|4,0:0|0:0|0:0,0:0:0:0:
304,372,81810,1,0,0:0:0:0:
424,292,82031,1,10,0:0:0:0:
476,244,82141,1,8,0:0:0:0:
464,172,82252,1,8,0:0:0:0:
400,136,82362,1,0,0:0:0:0:
336,172,82472,1,8,0:0:0:0:
264,172,82583,1,8,0:0:0:0:
212,120,82693,6,0,B|200:60|192:12,1,80,2|0,0:0|0:0,0:0:0:0:
128,24,83024,1,0,0:0:0:0:
128,24,83134,2,0,B|120:92|120:128,1,80,8|0,0:0|0:0,0:0:0:0:
32,216,83575,5,2,0:0:0:0:
124,328,83796,1,10,0:0:0:0:
192,352,83906,1,8,0:0:0:0:
264,344,84016,1,8,0:0:0:0:
320,300,84127,1,8,0:0:0:0:
332,228,84237,1,10,0:0:0:0:
464,176,84458,5,6,0:0:0:0:
332,228,84678,2,0,B|252:264|192:204|196:168,1,160
392,352,85781,6,0,B|484:340,1,80,14|0,0:0|0:0,0:0:0:0:
256,192,86222,12,0,89090,0:0:0:0:
256,196,89310,6,0,B|244:212|244:212|268:212|268:212|244:220|244:220|268:220|268:220|256:228|256:228|256:292,1,120.000004577637
