osu file format v14

[General]
AudioFilename: audio.mp3
AudioLeadIn: 0
PreviewTime: 50775
Countdown: 0
SampleSet: Soft
StackLeniency: 0.7
Mode: 0
LetterboxInBreaks: 0
WidescreenStoryboard: 1

[Editor]
Bookmarks: 10591,20696,30801,40907,51012,71223,78801
DistanceSpacing: 1
BeatDivisor: 4
GridSize: 32
TimelineZoom: 1.700001

[Metadata]
Title:Koko de Ikiteru (TV Size)
TitleUnicode:ここで生きてる (TV Size)
Artist:mary x jon-YAKITORY
ArtistUnicode:めありー×jon-YAKITORY
Creator:Zekk
Version:frozz's Hard
Source:探偵はもう、死んでいる。
Tags:Tantei wa Mou Shindeiru The Detective Is Already Dead La detective está muerta tanmoushi anime opening op japanese pop jpop j-pop -aqua frozz -keqing silky
BeatmapID:3103931
BeatmapSetID:1511716

[Difficulty]
HPDrainRate:4.4
CircleSize:3.6
OverallDifficulty:6
ApproachRate:8
SliderMultiplier:1.39999990463257
SliderTickRate:1

[Events]
//Background and Video events
0,0,"bless frozz.jpg",0,0
Video,0,"angryfacevideo.mp4"
//Break Periods
//Storyboard Layer 0 (Background)
//Storyboard Layer 1 (Fail)
//Storyboard Layer 2 (Pass)
//Storyboard Layer 3 (Foreground)
//Storyboard Layer 4 (Overlay)
//Storyboard Sound Samples

[TimingPoints]
-777,315.789473684211,4,2,1,40,1,0
10591,-100,4,2,1,60,0,0
20696,-125,4,2,1,50,0,0
30801,-111.111111111111,4,2,1,60,0,0
40907,-125,4,2,1,55,0,0
43433,-111.111111111111,4,2,1,55,0,0
48486,-90.9090909090908,4,2,1,68,0,0
51012,-83.3333333333333,4,2,1,75,0,1
71223,-142.857142857143,4,2,1,75,0,0
72485,-142.857142857143,4,2,1,60,0,0
73749,-111.111111111111,4,2,1,60,0,0
77696,-111.111111111111,4,2,1,70,0,0
78801,-111.111111111111,4,2,1,50,0,0

[Colours]
Combo1 : 143,216,237
Combo2 : 245,169,188
Combo3 : 183,191,204

[HitObjects]
512,384,328,5,2,0:0:0:0:
512,384,407,1,2,0:0:0:0:
512,384,486,1,0,0:0:0:0:
386,203,1749,1,2,0:0:0:0:
276,255,2380,1,2,0:0:0:0:
0,384,3012,5,2,0:0:0:0:
0,384,4275,1,2,0:0:0:0:
110,332,4907,1,2,0:0:0:0:
386,203,5538,5,2,0:0:0:0:
305,178,6801,1,2,0:0:0:0:
224,153,8065,1,2,0:0:0:0:
305,178,9328,5,2,0:0:0:0:
386,203,9959,1,2,0:0:0:0:
467,228,10591,6,0,P|410:243|322:270,1,139.999990463257,4|0,1:2|1:0,0:0:0:0:
244,259,11065,2,0,P|253:292|264:325,1,69.9999952316285,0|0,0:0|1:0,0:0:0:0:
88,242,11538,2,0,P|97:208|108:175,1,69.9999952316285,0|0,1:0|0:0,0:0:0:0:
51,112,11854,2,0,P|146:132|210:144,1,139.999990463257,0|0,1:0|1:0,0:0:0:0:
386,203,12486,2,0,P|406:108|418:44,1,139.999990463257,0|0,1:0|1:0,0:0:0:0:
331,25,12959,1,0,0:0:0:0:
261,94,13117,6,0,B|220:142|220:142|241:215,1,139.999990463257,4|0,1:2|1:0,0:0:0:0:
313,285,13591,2,0,P|269:300|231:321,1,69.9999952316285,8|0,0:0|1:0,0:0:0:0:
512,169,14065,2,0,P|468:154|430:133,1,69.9999952316285,4|0,1:2|0:0,0:0:0:0:
364,156,14380,5,0,1:0:0:0:
343,78,14538,1,8,3:0:0:0:
322,0,14696,1,0,1:0:0:0:
188,140,15012,5,8,3:0:0:0:
177,179,15170,1,4,3:0:0:0:
167,218,15328,1,0,1:0:0:0:
0,2,15644,6,0,P|15:74|30:169,1,139.999990463257,4|8,1:2|0:0,0:0:0:0:
70,224,16117,2,0,P|55:296|40:391,1,139.999990463257,0|2,1:0|1:2,0:0:0:0:
137,380,16591,1,12,0:0:0:0:
259,280,16907,5,0,1:0:0:0:
259,280,17065,1,0,1:0:0:0:
344,316,17223,1,8,0:0:0:0:
163,166,17538,5,0,1:0:0:0:
163,166,17696,1,0,1:0:0:0:
254,154,17854,1,8,0:0:0:0:
50,82,18170,5,4,1:2:0:0:
50,82,18328,1,0,1:0:0:0:
123,26,18486,1,8,0:0:0:0:
208,64,18644,2,0,P|253:69|360:79,1,139.999990463257,4|0,1:2|1:0,0:0:0:0:
438,54,19117,1,12,0:2:0:0:
466,218,19433,5,0,1:0:0:0:
466,218,19591,1,0,1:0:0:0:
388,268,19749,2,0,P|341:251|300:247,1,69.9999952316285,10|0,0:2|1:0,0:0:0:0:
315,250,19986,1,0,1:0:0:0:
308,252,20065,1,8,0:0:0:0:
230,311,20223,1,8,3:0:0:0:
273,375,20380,1,4,3:0:0:0:
81,295,20696,5,6,1:2:0:0:
402,131,21959,2,0,B|474:84|445:-1|445:-1|400:15|356:25,1,223.999984741211,2|2,0:0|0:0,0:0:0:0:
325,170,23065,1,0,1:0:0:0:
402,131,23223,1,2,1:2:0:0:
156,0,24486,6,0,B|97:22|46:0|46:0|77:59|53:112,1,223.999984741211,2|2,0:0|0:0,0:0:0:0:
161,182,25591,1,0,1:0:0:0:
157,105,25749,1,2,1:2:0:0:
303,248,26854,5,0,1:0:0:0:
325,170,27012,1,2,1:2:0:0:
180,384,28117,5,0,1:0:0:0:
139,316,28275,1,2,1:2:0:0:
343,384,29538,6,0,P|379:356|440:316,1,111.999992370606,2|0,1:2|0:0,0:0:0:0:
325,170,30170,2,0,P|288:197|227:237,1,111.999992370606,2|2,0:0|0:0,0:0:0:0:
176,169,30644,5,8,0:0:0:0:
176,169,30723,1,8,0:0:0:0:
176,169,30801,2,0,B|137:212|137:212|160:302,1,125.999987571717,4|8,1:2|0:0,0:0:0:0:
343,384,31433,1,2,1:2:0:0:
326,300,31591,2,0,P|319:259|317:223,1,62.9999937858584,2|2,1:2|0:0,0:0:0:0:
407,243,31907,6,0,P|463:217|474:141,1,125.999987571717,10|2,0:2|1:2,0:0:0:0:
411,103,32380,1,8,0:0:0:0:
411,103,32538,2,0,P|375:111|339:120,1,62.9999937858584,2|0,0:0|1:2,0:0:0:0:
270,85,32854,2,0,P|262:49|253:13,1,62.9999937858584,2|8,1:2|0:0,0:0:0:0:
177,79,33170,5,2,0:0:0:0:
177,79,33249,1,2,0:0:0:0:
177,79,33328,2,0,B|134:62|134:62|124:42|124:42|69:19,2,125.999987571717,6|8|0,1:2|0:0|1:0,0:0:0:0:
216,159,34117,2,0,P|181:170|146:187,1,62.9999937858584,2|2,1:2|0:0,0:0:0:0:
74,134,34433,6,0,B|41:188|41:188|73:253,1,125.999987571717,10|0,0:2|1:0,0:0:0:0:
84,334,34907,2,0,P|116:320|150:309,1,62.9999937858584,8|0,0:0|0:0,0:0:0:0:
224,351,35222,1,0,1:0:0:0:
224,351,35380,1,0,1:0:0:0:
284,289,35538,2,0,P|323:305|363:313,1,62.9999937858584,10|0,0:0|0:0,0:0:0:0:
352,310,35775,1,2,0:0:0:0:
360,310,35854,6,0,B|400:264|400:264|375:177,1,125.999987571717,6|8,1:2|0:0,0:0:0:0:
433,129,36328,1,2,0:0:0:0:
433,129,36486,2,0,P|446:85|455:59,1,62.9999937858584,0|0,1:0|1:0,0:0:0:0:
388,3,36801,1,10,0:0:0:0:
313,62,36959,6,0,P|261:52|185:31,1,125.999987571717,4|0,1:2|0:0,0:0:0:0:
104,71,37433,1,10,0:0:0:0:
104,71,37591,2,0,P|85:111|70:141,1,62.9999937858584,2|0,0:0|1:0,0:0:0:0:
144,196,37907,2,0,P|186:175|213:166,1,62.9999937858584,0|2,1:0|0:0,0:0:0:0:
258,248,38223,6,0,B|223:298|223:298|144:287,1,125.999987571717,14|0,0:0|1:0,0:0:0:0:
87,353,38696,2,0,B|37:318|37:318|48:239,1,125.999987571717,8|0,0:0|1:0,0:0:0:0:
0,175,39170,1,0,1:0:0:0:
76,127,39328,1,10,0:0:0:0:
10,56,39486,6,0,B|60:23|60:23|149:47,1,125.999987571717,6|0,1:2|1:0,0:0:0:0:
219,39,39959,2,0,P|205:82|191:124,1,62.9999937858584,8|8,0:0|0:0,0:0:0:0:
203,107,40196,1,8,0:0:0:0:
207,116,40275,1,10,0:0:0:0:
281,173,40433,1,8,3:0:0:0:
352,134,40591,1,4,3:0:0:0:
466,373,40907,6,0,P|414:356|355:340,1,111.999992370606,6|0,1:2|1:0,0:0:0:0:
280,316,41380,2,0,P|272:276|264:248,2,55.9999961853028,2|0|0,0:0|1:0|0:0,0:0:0:0:
219,373,41854,1,2,1:2:0:0:
64,342,42170,1,0,1:0:0:0:
153,217,42486,2,0,P|205:198|276:159,2,111.999992370606,2|2|2,1:2|1:2|1:2,0:0:0:0:
55,47,43433,6,0,P|92:53|127:61,1,62.9999937858584,6|8,1:2|0:0,0:0:0:0:
126,64,43670,1,8,0:0:0:0:
135,69,43749,1,8,0:0:0:0:
217,39,43907,1,2,1:2:0:0:
66,173,44223,1,2,1:2:0:0:
153,217,44380,1,12,0:0:0:0:
114,384,44696,5,0,1:0:0:0:
114,384,44854,1,0,1:0:0:0:
186,341,45012,2,0,P|223:352|267:372,1,62.9999937858584,10|0,0:0|0:0,0:0:0:0:
332,329,45328,2,0,P|343:292|363:248,1,62.9999937858584,2|0,1:2|1:0,0:0:0:0:
277,203,45644,1,10,0:0:0:0:
345,140,45801,5,8,0:0:0:0:
345,140,45880,1,8,0:0:0:0:
345,140,45959,2,0,P|404:144|442:77,1,125.999987571717,6|8,1:2|0:0,0:0:0:0:
391,30,46433,1,6,1:2:0:0:
220,101,46749,1,0,1:0:0:0:
229,16,46907,1,14,0:0:0:0:
60,43,47223,5,0,1:0:0:0:
60,43,47380,1,0,1:0:0:0:
28,129,47538,2,0,P|43:165|55:196,1,62.9999937858584,10|0,0:0|0:0,0:0:0:0:
84,275,47854,2,0,P|54:286|25:298,1,62.9999937858584,2|0,1:2|1:0,0:0:0:0:
66,382,48170,2,0,P|95:370|124:358,1,62.9999937858584,10|0,0:0|1:0,0:0:0:0:
187,285,48486,6,0,P|229:303|269:327,1,76.9999971046448,14|0,0:0|1:0,0:0:0:0:
348,284,48801,2,0,P|366:242|390:202,1,76.9999971046448,8|0,0:0|1:0,0:0:0:0:
316,139,49117,1,8,0:0:0:0:
230,96,49275,1,8,3:0:0:0:
187,181,49433,1,4,3:0:0:0:
273,224,49591,1,4,1:2:0:0:
484,166,49907,5,8,0:0:0:0:
437,97,50065,1,8,0:0:0:0:
430,14,50223,1,8,0:0:0:0:
316,139,50538,1,2,0:0:0:0:
191,25,50854,5,2,0:0:0:0:
191,25,50933,1,2,0:0:0:0:
191,25,51012,2,0,B|134:55|134:55|130:82|130:82|54:124,1,167.999983428956,6|8,1:2|0:0,0:0:0:0:
12,210,51486,2,0,P|41:257|64:303,1,83.9999917144779,2|0,0:2|1:0,0:0:0:0:
78,384,51801,2,0,P|125:355|171:332,1,83.9999917144779,2|8,1:2|0:0,0:0:0:0:
208,250,52117,6,0,B|270:294|270:294|246:397,1,167.999983428956,6|2,1:2|1:2,0:0:0:0:
353,381,52591,1,10,0:2:0:0:
353,381,52749,1,2,0:2:0:0:
400,290,52907,2,0,P|377:248|363:201,1,83.9999917144779,0|0,1:0|1:0,0:0:0:0:
267,149,53223,1,10,0:2:0:0:
328,61,53380,5,2,0:0:0:0:
328,61,53459,1,2,0:0:0:0:
328,61,53538,2,0,P|395:54|416:168,1,167.999983428956,6|8,1:2|0:0,0:0:0:0:
446,237,54012,2,0,P|391:219|348:211,1,83.9999917144779,2|0,0:0|1:0,0:0:0:0:
272,261,54328,2,0,P|254:316|246:359,1,83.9999917144779,2|8,1:2|0:0,0:0:0:0:
147,379,54644,6,0,B|72:357|72:357|65:251,1,167.999983428956,6|2,1:2|1:2,0:0:0:0:
139,197,55117,1,10,0:2:0:0:
139,197,55275,1,2,0:2:0:0:
86,120,55433,2,0,P|35:134|-5:144,1,83.9999917144779,0|0,1:0|1:0,0:0:0:0:
28,40,55749,1,10,0:0:0:0:
131,10,55907,5,2,0:0:0:0:
131,10,55986,1,2,0:0:0:0:
131,10,56065,2,0,P|163:61|238:151,1,167.999983428956,6|8,1:2|0:0,0:0:0:0:
331,170,56538,2,0,P|370:140|412:109,1,83.9999917144779,2|0,0:0|1:0,0:0:0:0:
489,96,56854,2,0,P|459:57|428:15,1,83.9999917144779,2|8,1:2|0:0,0:0:0:0:
338,37,57170,1,6,1:2:0:0:
425,217,57486,6,0,P|455:256|486:298,1,83.9999917144779,2|8,1:2|0:0,0:0:0:0:
416,362,57801,2,0,P|367:368|315:374,1,83.9999917144779,2|0,0:2|1:0,0:0:0:0:
294,281,58117,2,0,P|312:235|333:187,1,83.9999917144779,2|8,1:2|0:0,0:0:0:0:
245,127,58433,5,0,1:0:0:0:
245,127,58512,1,0,1:0:0:0:
245,127,58591,2,0,P|180:115|145:115,1,83.9999917144779,6|8,1:2|3:0,0:0:0:0:
77,161,58907,1,12,3:0:0:0:
45,80,59065,1,6,1:2:0:0:
124,282,59380,1,2,1:2:0:0:
326,203,59696,6,0,B|350:159|355:126|355:126|398:134|440:128,1,167.999983428956,4|0,1:2|1:0,0:0:0:0:
428,228,60170,1,8,0:0:0:0:
256,351,60486,2,0,L|204:332,3,41.999995857239,6|0|8|8,1:2|1:0|0:0|0:0,0:0:0:0:
144,345,60801,2,0,L|125:397,3,41.999995857239,10|8|8|8,0:0|3:0|3:0|3:0,0:0:0:0:
53,384,61117,6,0,P|-4:336|23:234,1,167.999983428956,6|8,1:2|0:0,0:0:0:0:
85,197,61591,2,0,P|142:219|187:232,1,83.9999917144779,2|0,0:0|1:0,0:0:0:0:
261,192,61907,2,0,P|274:152|289:113,1,83.9999917144779,2|8,1:2|0:0,0:0:0:0:
246,17,62223,6,0,B|332:3|332:3|375:71,1,167.999983428956,6|2,1:2|1:2,0:0:0:0:
368,172,62696,1,10,0:0:0:0:
368,172,62854,1,2,0:0:0:0:
431,242,63012,2,0,P|482:227|532:225,1,83.9999917144779,0|0,1:0|1:0,0:0:0:0:
497,323,63328,1,10,0:0:0:0:
413,379,63486,5,2,0:0:0:0:
413,379,63565,1,2,0:0:0:0:
413,379,63644,2,0,P|332:346|222:314,1,167.999983428956,6|8,1:2|0:0,0:0:0:0:
154,317,64117,2,0,P|174:273|188:234,1,83.9999917144779,2|0,0:0|1:2,0:0:0:0:
98,188,64433,2,0,P|54:168|15:154,1,83.9999917144779,2|8,1:2|0:0,0:0:0:0:
60,59,64749,6,0,B|133:18|133:18|219:77,1,167.999983428956,6|0,1:2|1:0,0:0:0:0:
250,161,65223,1,10,0:2:0:0:
250,161,65380,1,2,0:0:0:0:
332,84,65538,2,0,P|314:26|308:-8,2,83.9999917144779,0|0|8,1:0|1:0|0:0,0:0:0:0:
432,124,66012,5,2,0:0:0:0:
432,124,66091,1,2,0:0:0:0:
432,124,66170,2,0,P|408:174|375:289,1,167.999983428956,6|8,1:2|0:0,0:0:0:0:
340,364,66644,2,0,P|300:340|257:318,1,83.9999917144779,2|0,0:0|1:0,0:0:0:0:
181,273,66959,2,0,P|157:313|135:356,1,83.9999917144779,2|8,1:2|0:0,0:0:0:0:
45,369,67275,6,0,B|-4:296|-4:296|39:209,1,167.999983428956,6|0,1:2|1:0,0:0:0:0:
99,153,67749,2,0,P|141:166|186:184,1,83.9999917144779,10|0,0:0|0:0,0:0:0:0:
257,120,68065,2,0,P|247:77|240:29,1,83.9999917144779,2|0,1:2|1:0,0:0:0:0:
150,0,68380,2,0,P|117:29|79:59,1,83.9999917144779,10|0,0:0|0:0,0:0:0:0:
103,156,68696,5,2,1:2:0:0:
103,156,68854,1,0,1:0:0:0:
31,224,69012,2,0,P|40:282|44:331,1,83.9999917144779,8|0,0:0|1:0,0:0:0:0:
126,363,69328,1,8,0:0:0:0:
202,301,69486,1,8,0:0:0:0:
202,301,69644,1,0,1:0:0:0:
287,377,69801,6,0,P|362:352|460:325,1,167.999983428956,4|0,1:2|1:0,0:0:0:0:
419,234,70275,2,0,P|399:183|391:147,1,83.9999917144779,8|0,0:0|0:0,0:0:0:0:
389,141,70512,1,8,0:0:0:0:
386,128,70591,1,8,0:0:0:0:
433,47,70749,1,8,3:0:0:0:
352,0,70907,1,4,3:0:0:0:
100,70,71223,6,0,P|114:218|126:367,1,293.999971000673,6|0,1:2|0:0,0:0:0:0:
225,347,72328,1,0,1:0:0:0:
225,347,72407,1,0,1:0:0:0:
225,347,72486,2,0,B|216:305|235:251|235:251|194:275|126:272,1,195.999980667115,10|2,0:0|0:0,0:0:0:0:
283,134,73749,6,0,P|245:104|210:79,2,62.9999937858584,6|0|8,1:2|0:2|0:2,0:0:0:0:
373,160,74223,2,0,P|410:189|445:214,2,62.9999937858584,2|2|2,0:2|0:2|0:2,0:0:0:0:
347,70,74696,5,10,0:2:0:0:
347,70,74854,2,0,P|376:32|401:-2,1,62.9999937858584,2|2,1:2|0:2,0:0:0:0:
478,48,75170,1,2,1:2:0:0:
478,48,75328,2,0,P|448:85|423:120,1,62.9999937858584,10|2,0:2|0:2,0:0:0:0:
373,160,75644,5,2,0:2:0:0:
347,240,75801,1,2,1:2:0:0:
379,318,75959,1,10,0:2:0:0:
128,353,76275,5,2,1:2:0:0:
98,272,76433,2,0,P|91:226|86:195,1,62.9999937858584,2|8,0:2|0:2,0:0:0:0:
22,133,76749,5,2,0:2:0:0:
103,103,76907,2,0,P|149:96|180:91,1,62.9999937858584,2|0,0:2|0:2,0:0:0:0:
242,27,77222,5,10,0:2:0:0:
272,108,77380,2,0,P|279:154|284:185,1,62.9999937858584,2|0,1:2|0:2,0:0:0:0:
348,247,77696,5,8,0:0:0:0:
348,247,77775,1,8,0:0:0:0:
348,247,77854,2,0,L|299:255,3,31.4999968929292,8|8|8|8,1:2|0:0|0:0|0:0,0:0:0:0:
285,259,78170,2,0,L|224:268,3,31.4999968929292,8|8|8|8,1:2|0:0|0:0|0:0,0:0:0:0:
222,268,78486,1,8,1:2:0:0:
162,196,78644,5,8,0:0:0:0:
162,196,78723,1,8,0:0:0:0:
162,196,78801,1,4,1:2:0:0:
