osu file format v14

[General]
AudioFilename: audio.mp3
AudioLeadIn: 0
PreviewTime: 51036
Countdown: 0
SampleSet: Soft
StackLeniency: 0.9
Mode: 0
LetterboxInBreaks: 0
WidescreenStoryboard: 1

[Editor]
Bookmarks: 69273
DistanceSpacing: 1
BeatDivisor: 2
GridSize: 4
TimelineZoom: 1.700001

[Metadata]
Title:Koko de Ikiteru (TV Size)
TitleUnicode:ここで生きてる (TV Size)
Artist:mary x jon-YAKITORY
ArtistUnicode:めありー×jon-YAKITORY
Creator:Zekk
Version:Normal
Source:探偵はもう、死んでいる。
Tags:Tantei wa Mou Shindeiru The Detective Is Already Dead La detective está muerta tanmoushi anime opening op japanese pop jpop j-pop Bazz_B -Mikan God Haachama Post Malone Vaporfly red crewmate
BeatmapID:3631643
BeatmapSetID:1773727

[Difficulty]
HPDrainRate:3
CircleSize:3.5
OverallDifficulty:5
ApproachRate:4
SliderMultiplier:1
SliderTickRate:1

[Events]
//Background and Video events
0,0,"6353722.jpg",0,0
//Break Periods
//Storyboard Layer 0 (Background)
//Storyboard Layer 1 (Fail)
//Storyboard Layer 2 (Pass)
//Storyboard Layer 3 (Foreground)
//Storyboard Layer 4 (Overlay)
//Storyboard Sound Samples

[TimingPoints]
-777,315.789473684211,4,2,1,40,1,0
328,-111.111111111111,4,2,1,40,0,0
486,-111.111111111111,4,2,2,40,0,0
1748,-111.111111111111,4,2,3,40,0,0
1961,-111.111111111111,4,2,3,40,0,0
2040,-111.111111111111,4,2,3,40,0,0
2380,-111.111111111111,4,2,4,40,0,0
2593,-111.111111111111,4,2,4,40,0,0
2672,-111.111111111111,4,2,4,40,0,0
3012,-111.111111111111,4,2,5,24,0,0
3382,-111.111111111111,4,2,5,24,0,0
3461,-111.111111111111,4,2,5,24,0,0
3643,-111.111111111111,4,2,5,40,0,0
4275,-111.111111111111,4,2,6,40,0,0
4488,-111.111111111111,4,2,6,40,0,0
4567,-111.111111111111,4,2,6,40,0,0
4906,-111.111111111111,4,2,2,40,0,0
5119,-111.111111111111,4,2,2,40,0,0
5198,-111.111111111111,4,2,2,40,0,0
5538,-111.111111111111,4,2,7,40,0,0
5909,-111.111111111111,4,2,7,40,0,0
5988,-111.111111111111,4,2,7,40,0,0
6801,-111.111111111111,4,2,8,40,0,0
7172,-111.111111111111,4,2,8,40,0,0
7251,-111.111111111111,4,2,8,40,0,0
8065,-111.111111111111,4,2,9,40,0,0
8435,-111.111111111111,4,2,9,40,0,0
8514,-111.111111111111,4,2,9,40,0,0
9328,-111.111111111111,4,2,10,40,0,0
9698,-111.111111111111,4,2,10,40,0,0
9959,-111.111111111111,4,2,11,50,0,0
10330,-100,4,2,11,50,0,0
10591,-100,4,2,1,60,0,0
20435,-100,4,2,1,60,0,0
20696,-100,4,2,12,50,0,0
21328,-100,4,2,1,50,0,0
21959,-100,4,2,13,50,0,0
22117,-100,4,2,1,50,0,0
22591,-100,4,2,2,50,0,0
22749,-100,4,2,1,50,0,0
23223,-100,4,2,14,50,0,0
24170,-100,4,2,1,50,0,0
24486,-100,4,2,6,50,0,0
25117,-100,4,2,2,50,0,0
25749,-100,4,2,15,50,0,0
26064,-100,4,2,1,50,0,0
27012,-100,4,2,16,50,0,0
27327,-100,4,2,1,50,0,0
28275,-100,4,2,4,50,0,0
29223,-100,4,2,1,50,0,0
29538,-100,4,2,2,50,0,0
30011,-100,4,2,1,50,0,0
30170,-100,4,2,17,50,0,0
30328,-100,4,2,1,50,0,0
30540,-100,4,2,1,50,0,0
30644,-100,4,2,1,60,0,0
30801,-100,4,2,1,60,0,0
40591,-100,4,2,1,60,0,0
40645,-100,4,2,1,60,0,0
40906,-100,4,2,1,55,0,0
43433,-100,4,2,1,55,0,0
45959,-100,4,2,1,55,0,0
48224,-100,4,2,1,55,0,0
48248,-100,4,2,1,68,0,0
50751,-100,4,2,1,68,0,0
51012,-100,4,2,18,75,0,1
51327,-100,4,2,19,75,0,1
51486,-100,4,2,20,75,0,1
51801,-100,4,2,19,75,0,1
52117,-100,4,2,21,75,0,1
52432,-100,4,2,19,75,0,1
52591,-100,4,2,20,75,0,1
52749,-100,4,2,22,75,0,1
53223,-100,4,2,23,75,0,1
53538,-100,4,2,18,75,0,1
53853,-100,4,2,19,75,0,1
54012,-100,4,2,20,75,0,1
54328,-100,4,2,19,75,0,1
54644,-100,4,2,21,75,0,1
54959,-100,4,2,19,75,0,1
55117,-100,4,2,20,75,0,1
55275,-100,4,2,22,75,0,1
56065,-100,4,2,24,75,0,1
56380,-100,4,2,25,75,0,1
56538,-100,4,2,21,75,0,1
56854,-100,4,2,19,75,0,1
57170,-100,4,2,26,75,0,1
57328,-100,4,2,26,75,0,1
57485,-100,4,2,20,75,0,1
57801,-100,4,2,21,75,0,1
58117,-100,4,2,19,75,0,1
58275,-100,4,2,19,75,0,1
58432,-100,4,2,22,75,0,1
58591,-100,4,2,27,75,0,1
58749,-100,4,2,1,75,0,1
59064,-100,4,2,22,75,0,1
59380,-100,4,2,28,75,0,1
59538,-100,4,2,28,75,0,1
59696,-100,4,2,29,75,0,1
60012,-100,4,2,29,75,0,1
60170,-100,4,2,20,75,0,1
60801,-100,4,2,22,75,0,1
60879,-100,4,2,1,75,0,1
61116,-100,4,2,18,75,0,1
61433,-100,4,2,19,75,0,1
61591,-100,4,2,20,75,0,1
61907,-100,4,2,19,75,0,1
62223,-100,4,2,30,75,0,1
62380,-100,4,2,1,75,0,1
62538,-100,4,2,19,75,0,1
62696,-100,4,2,20,75,0,1
62854,-100,4,2,22,75,0,1
63644,-100,4,2,31,75,0,1
63959,-100,4,2,25,75,0,1
64117,-100,4,2,32,75,0,1
64274,-100,4,2,19,75,0,1
64749,-100,4,2,33,75,0,1
65064,-100,4,2,22,75,0,1
65223,-100,4,2,28,75,0,1
65380,-100,4,2,22,75,0,1
66644,-100,4,2,20,75,0,1
66959,-100,4,2,19,75,0,1
67275,-100,4,2,27,75,0,1
67749,-100,4,2,22,75,0,1
68065,-100,4,2,28,75,0,1
68380,-100,4,2,22,75,0,1
68696,-100,4,2,34,75,0,1
69012,-100,4,2,19,75,0,1
69486,-100,4,2,20,75,0,1
69801,-100,4,2,35,75,0,1
70275,-100,4,2,36,75,0,1
70433,-100,4,2,37,75,0,1
70512,-100,4,2,38,75,0,1
70749,-100,4,2,1,75,0,1
70907,-100,4,2,2,75,0,1
71223,-100,4,2,39,75,0,0
72224,-100,4,2,39,75,0,0
72486,-100,4,2,40,60,0,0
73749,-100,4,2,1,60,0,0
77435,-100,4,2,1,60,0,0
77538,-100,4,2,1,70,0,0
78540,-100,4,2,1,70,0,0
78564,-100,4,2,1,50,0,0

[Colours]
Combo1 : 143,216,237
Combo2 : 245,169,188
Combo3 : 183,191,204

[HitObjects]
51,45,486,5,2,2:2:0:0:
210,128,1117,2,0,L|289:114,2,44.999998626709,0|0|0,2:2|2:2|2:2,0:0:0:0:
172,153,1591,2,0,P|136:136|84:141,2,89.9999972534181,0|0|0,2:2|2:2|2:2,0:0:0:0:
248,200,2538,2,0,L|371:173,1,89.9999972534181,0|0,2:2|2:2,0:0:0:0:
375,158,3012,6,0,P|423:200|519:190,1,134.999995880127,2|0,2:2|0:0,0:0:0:0:
486,293,3801,2,0,L|504:363,2,44.999998626709,0|0|0,2:2|2:2|2:2,0:0:0:0:
440,295,4275,2,0,P|396:287|335:273,1,89.9999972534181,2|0,2:2|0:0,0:0:0:0:
274,324,4907,2,0,P|228:342|183:340,1,89.9999972534181,2|0,2:2|2:2,0:0:0:0:
135,267,5538,6,0,L|163:111,1,134.999995880127,2|0,2:2|2:2,0:0:0:0:
136,0,6486,1,0,2:2:0:0:
206,55,6801,2,0,B|259:72|286:52|276:47|306:29|359:51,1,134.999995880127,2|0,2:2|2:2,0:0:0:0:
439,131,7749,1,0,2:2:0:0:
385,203,8065,6,0,L|421:388,1,179.999994506836,2|0,2:2|2:2,0:0:0:0:
240,357,9328,2,0,P|182:373|93:303,1,179.999994506836,2|2,2:2|2:2,0:0:0:0:
58,107,10591,6,0,L|31:-3,1,100,4|0,1:2|1:1,0:0:0:0:
84,5,11065,2,0,P|139:37|189:36,1,100,0|0,2:2|2:2,0:0:0:0:
223,28,11538,1,0,1:1:0:0:
289,102,11854,2,0,P|337:107|403:123,1,100,0|0,1:1|1:1,0:0:0:0:
435,98,12328,1,0,2:2:0:0:
435,98,12486,2,0,P|466:137|433:190,1,100,0|0,1:1|1:1,0:0:0:0:
368,238,13117,6,0,P|381:291|388:371,1,100,4|0,1:2|1:1,0:0:0:0:
338,350,13591,2,0,P|294:329|237:336,1,100,8|0,2:2|2:2,0:0:0:0:
196,350,14065,1,4,1:2:0:0:
127,277,14380,1,0,1:1:0:0:
127,277,14538,2,0,P|141:222|151:154,1,100,8|0,3:3|1:1,0:0:0:0:
181,144,15012,1,8,3:3:0:0:
270,188,15328,1,0,1:1:0:0:
350,128,15644,6,0,P|352:79|291:38,1,100,4|8,1:2|2:2,0:0:0:0:
270,29,16117,2,0,L|152:57,1,100,0|2,1:1|1:2,0:0:0:0:
127,29,16591,1,12,2:2:0:0:
56,99,16907,2,0,P|66:148|77:215,1,100,0|8,1:1|2:2,0:0:0:0:
33,288,17538,1,0,1:1:0:0:
118,339,17854,1,8,2:2:0:0:
203,287,18170,6,0,P|250:319|319:313,1,100,4|8,1:2|2:2,0:0:0:0:
336,298,18644,1,4,1:2:0:0:
402,224,18959,1,0,1:1:0:0:
402,224,19117,2,0,L|517:254,1,100,12|0,2:2|1:1,0:0:0:0:
456,157,19749,6,0,L|472:91,1,50,10|0,2:2|1:1,0:0:0:0:
451,71,20065,1,8,2:2:0:0:
451,71,20223,1,8,3:3:0:0:
451,71,20380,1,4,3:3:0:0:
362,118,20696,5,6,1:2:0:0:
166,162,21328,2,0,L|108:146,2,50,2|2|2,0:0|0:0|0:0,0:0:0:0:
186,207,21801,2,0,P|191:243|154:320,1,100,2|2,0:0|0:0,0:0:0:0:
249,363,22433,2,0,L|356:344,1,100,2|2,0:0|0:0,0:0:0:0:
425,282,23065,1,2,0:0:0:0:
425,282,23223,2,0,P|449:233|345:127,1,200,2|0,1:2|0:0,0:0:0:0:
274,146,24170,2,0,L|206:131,1,50,2|2,2:2|0:0,0:0:0:0:
180,111,24486,6,0,P|102:129|0:128,1,150,2|0,2:2|0:0,0:0:0:0:
9,175,25117,1,2,2:2:0:0:
154,312,25749,2,0,P|189:273|298:291,1,150,2|2,1:2|2:2,0:0:0:0:
414,342,26696,1,2,2:2:0:0:
472,260,27012,2,0,P|452:182|437:88,1,150,2|2,1:2|2:2,0:0:0:0:
319,24,27959,1,2,2:2:0:0:
261,105,28275,2,0,P|282:188|416:204,1,200,2|0,1:2|2:2,0:0:0:0:
352,304,29223,6,0,L|339:359,1,50,2|2,2:2|2:2,0:0:0:0:
295,373,29538,2,0,P|253:359|182:348,1,100,2|0,1:2|2:2,0:0:0:0:
100,370,30170,1,2,2:2:0:0:
50,282,30486,2,0,L|78:220,1,50,2|8,2:2|2:2,0:0:0:0:
113,211,30801,6,0,P|108:149|84:79,1,100,4|8,1:2|2:2,0:0:0:0:
180,55,31433,1,2,1:2:0:0:
262,111,31749,1,0,2:2:0:0:
262,111,31907,2,0,B|315:121|315:121|381:91,1,100,10|2,2:2|1:2,0:0:0:0:
449,62,32538,1,2,2:2:0:0:
499,148,32854,1,2,1:2:0:0:
423,213,33170,1,2,2:2:0:0:
423,213,33328,6,0,P|381:210|320:182,1,100,6|8,1:2|2:2,0:0:0:0:
278,191,33801,1,0,0:0:0:0:
181,217,34117,2,0,L|108:232,1,50,2|2,1:2|2:2,0:0:0:0:
87,203,34433,2,0,B|37:206|37:206|-3:244,1,100,10|0,2:2|1:1,0:0:0:0:
11,289,34907,1,8,2:2:0:0:
100,334,35223,2,0,P|150:351|214:365,1,100,0|10,1:1|2:2,0:0:0:0:
280,308,35854,6,0,P|321:288|382:303,1,100,6|8,1:2|2:2,0:0:0:0:
421,311,36328,1,2,2:2:0:0:
486,235,36644,2,0,L|468:165,1,50,0|10,1:1|2:2,0:0:0:0:
430,160,36959,2,0,B|385:142|385:142|317:155,1,100,4|0,1:2|1:2,0:0:0:0:
291,178,37433,1,10,2:2:0:0:
195,206,37749,1,0,1:1:0:0:
116,143,38065,1,2,2:2:0:0:
116,143,38223,6,0,P|115:88|162:30,1,100,14|0,2:2|1:1,0:0:0:0:
182,31,38696,1,8,2:2:0:0:
276,63,39012,1,0,1:1:0:0:
374,47,39328,1,10,2:2:0:0:
374,47,39486,2,0,P|426:46|475:103,1,100,6|0,1:2|1:1,0:0:0:0:
484,119,39959,1,8,2:2:0:0:
420,196,40275,1,10,2:2:0:0:
458,288,40591,1,4,3:3:0:0:
374,343,40907,6,0,L|201:308,1,150,6|0,1:2|0:0,0:0:0:0:
130,340,41696,1,0,2:2:0:0:
130,340,41854,2,0,P|66:341|17:295,1,100,2|0,1:2|1:1,0:0:0:0:
21,223,42486,1,2,1:2:0:0:
117,248,42801,2,0,L|228:237,1,100,2|2,1:2|1:2,0:0:0:0:
271,154,43433,6,0,P|243:89|155:85,1,150,6|2,1:2|1:2,0:0:0:0:
70,70,44223,1,2,1:2:0:0:
70,70,44380,2,0,B|41:113|41:113|54:193,1,100,12|0,2:2|1:1,0:0:0:0:
13,254,45012,1,10,2:2:0:0:
103,296,45328,1,2,1:2:0:0:
192,251,45644,2,0,L|247:241,1,50,10|8,2:2|2:2,0:0:0:0:
282,269,45959,6,0,P|320:276|402:198,1,150,6|6,1:2|1:2,0:0:0:0:
505,316,46907,2,0,P|433:327|367:349,1,100,14|0,2:2|1:1,0:0:0:0:
308,354,47538,1,10,2:2:0:0:
218,309,47854,1,2,1:2:0:0:
171,220,48170,2,0,L|187:148,1,50,10|0,2:2|1:1,0:0:0:0:
221,140,48486,6,0,L|205:29,1,100,14|8,2:2|2:2,0:0:0:0:
156,37,48959,1,0,1:1:0:0:
156,37,49117,2,0,L|48:63,1,100,8|4,2:2|3:3,0:0:0:0:
23,95,49591,1,4,1:2:0:0:
53,190,49907,1,8,2:2:0:0:
53,190,50065,1,8,2:2:0:0:
53,190,50223,1,8,2:2:0:0:
148,161,50538,1,0,0:0:0:0:
233,213,50854,5,0,0:0:0:0:
233,213,51012,2,0,L|356:193,1,100,6|10,1:2|2:2,0:0:0:0:
379,180,51486,1,2,2:2:0:0:
446,253,51801,1,2,1:2:0:0:
373,322,52117,2,0,P|324:329|261:290,1,100,6|2,1:2|1:2,0:0:0:0:
230,294,52591,1,10,2:2:0:0:
230,294,52749,2,0,P|173:291|90:276,1,100,2|0,2:2|1:1,0:0:0:0:
84,304,53223,1,10,2:2:0:0:
22,225,53538,6,0,P|72:210|134:185,1,100,6|10,1:2|2:2,0:0:0:0:
140,148,54012,1,2,2:2:0:0:
147,48,54328,1,2,1:2:0:0:
230,102,54644,2,0,P|270:124|332:122,1,100,6|2,1:2|1:2,0:0:0:0:
363,94,55117,1,10,2:2:0:0:
445,151,55433,1,0,1:1:0:0:
445,151,55591,1,0,1:1:0:0:
445,151,55749,1,10,2:2:0:0:
390,234,56065,6,0,P|381:283|376:340,1,100,6|10,1:2|2:2,0:0:0:0:
338,365,56538,1,2,2:2:0:0:
259,303,56854,1,2,1:2:0:0:
312,218,57170,2,0,P|325:177|272:133,1,100,6|2,1:2|1:2,0:0:0:0:
246,114,57644,1,8,2:2:0:0:
246,114,57801,2,0,P|199:135|112:142,1,100,2|2,2:2|1:2,0:0:0:0:
103,129,58275,1,8,2:2:0:0:
144,37,58591,6,0,P|193:28|238:7,1,100,6|12,1:2|3:3,0:0:0:0:
285,26,59065,1,6,1:2:0:0:
377,64,59380,1,2,1:2:0:0:
416,156,59696,2,0,B|438:223|438:223|387:312,1,150,6|8,1:2|2:2,0:0:0:0:
351,309,60328,1,0,2:2:0:0:
351,309,60486,2,0,L|278:290,1,50,6|8,1:2|2:2,0:0:0:0:
258,319,60801,2,0,L|185:300,1,50,10|8,2:2|3:3,0:0:0:0:
175,343,61117,6,0,P|109:328|91:300,1,100,6|10,1:2|2:2,0:0:0:0:
51,275,61591,1,2,2:2:0:0:
5,185,61907,1,2,1:2:0:0:
102,205,62223,2,0,P|151:187|224:185,1,100,6|2,1:2|1:2,0:0:0:0:
243,162,62696,1,10,2:2:0:0:
243,162,62854,1,2,2:2:0:0:
311,234,63170,1,0,1:1:0:0:
311,234,63328,2,0,L|376:250,1,50,10|0,2:2|2:2,0:0:0:0:
399,214,63644,6,0,B|432:180|432:180|423:97,1,100,6|10,1:2|2:2,0:0:0:0:
466,97,64117,1,2,2:2:0:0:
385,37,64433,1,2,1:2:0:0:
291,73,64749,2,0,P|246:60|191:49,1,100,6|2,1:2|1:2,0:0:0:0:
149,26,65223,1,10,2:2:0:0:
149,26,65380,2,0,B|105:54|105:54|31:53,1,100,2|0,2:2|1:1,0:0:0:0:
23,90,65854,1,8,2:2:0:0:
92,161,66170,6,0,P|110:207|122:266,1,100,6|10,1:2|2:2,0:0:0:0:
164,280,66644,1,2,2:2:0:0:
241,217,66959,1,2,1:2:0:0:
341,217,67275,2,0,P|390:210|459:185,1,100,6|0,1:2|1:1,0:0:0:0:
476,226,67749,1,10,2:2:0:0:
485,325,68065,1,2,1:2:0:0:
401,379,68380,1,10,2:2:0:0:
324,314,68696,6,0,B|309:268|309:268|343:201,1,100,2|8,1:2|2:2,0:0:0:0:
404,152,69328,1,10,2:2:0:0:
404,152,69486,2,8,L|395:96,1,50,10|8,0:0|0:0,0:0:0:0:
354,75,69801,2,0,P|291:66|232:46,1,100,6|0,1:2|1:1,0:0:0:0:
211,31,70275,1,10,2:2:0:0:
127,78,70591,1,10,2:2:0:0:
127,78,70749,1,10,3:3:0:0:
127,78,70907,1,6,3:3:0:0:
148,175,71223,5,6,1:2:0:0:
259,373,72486,1,10,2:2:0:0:
427,202,73749,6,0,P|376:202|305:182,1,100,6|8,1:2|2:2,0:0:0:0:
289,158,74223,1,2,2:2:0:0:
219,229,74538,2,0,L|165:218,1,50,0|8,2:2|2:2,2:2:0:0:
121,231,74854,2,0,P|63:237|20:206,1,100,2|2,1:2|1:2,0:0:0:0:
27,166,75328,1,10,2:2:0:0:
98,96,75644,2,0,L|171:79,1,50,2|2,2:2|1:2,0:0:0:0:
183,50,75959,1,10,2:2:0:0:
285,37,76275,5,2,1:2:0:0:
285,37,76433,2,0,L|395:58,1,100,2|2,2:2|2:2,0:0:0:0:
430,39,76907,1,2,2:2:0:0:
472,135,77223,1,10,2:2:0:0:
472,135,77380,2,0,P|471:191|442:227,1,100,2|8,1:2|2:2,0:0:0:0:
398,243,77854,5,8,1:2:0:0:
311,204,78170,1,8,1:2:0:0:
311,204,78328,1,8,0:0:0:0:
311,204,78486,2,8,L|244:226,1,50
213,217,78801,1,4,1:2:0:0:
