osu file format v14

[General]
AudioFilename: audio.mp3
AudioLeadIn: 0
PreviewTime: 51036
Countdown: 0
SampleSet: Soft
StackLeniency: 0.9
Mode: 0
LetterboxInBreaks: 0
WidescreenStoryboard: 1

[Editor]
Bookmarks: 69273
DistanceSpacing: 1
BeatDivisor: 2
GridSize: 4
TimelineZoom: 3.3

[Metadata]
Title:Koko de Ikiteru (TV Size)
TitleUnicode:ここで生きてる (TV Size)
Artist:mary x jon-YAKITORY
ArtistUnicode:めありー×jon-YAKITORY
Creator:Zekk
Version:Hard
Source:探偵はもう、死んでいる。
Tags:Tantei wa Mou Shindeiru The Detective Is Already Dead La detective está muerta tanmoushi anime opening op japanese pop jpop j-pop Bazz_B -Mikan God Haachama Post Malone Vaporfly red crewmate
BeatmapID:3631641
BeatmapSetID:1773727

[Difficulty]
HPDrainRate:4
CircleSize:4
OverallDifficulty:6
ApproachRate:8
SliderMultiplier:1.4
SliderTickRate:1

[Events]
//Background and Video events
0,0,"6353722.jpg",0,0
//Break Periods
//Storyboard Layer 0 (Background)
//Storyboard Layer 1 (Fail)
//Storyboard Layer 2 (Pass)
//Storyboard Layer 3 (Foreground)
//Storyboard Layer 4 (Overlay)
//Storyboard Sound Samples

[TimingPoints]
-777,315.789473684211,4,2,1,40,1,0
328,-125,4,2,1,40,0,0
486,-125,4,2,2,40,0,0
1748,-125,4,2,3,40,0,0
1961,-125,4,2,3,40,0,0
2040,-125,4,2,3,40,0,0
2380,-125,4,2,4,40,0,0
2593,-125,4,2,4,40,0,0
2672,-125,4,2,4,40,0,0
3012,-125,4,2,5,24,0,0
3382,-125,4,2,5,24,0,0
3461,-125,4,2,5,24,0,0
3643,-125,4,2,5,40,0,0
4275,-125,4,2,6,40,0,0
4488,-125,4,2,6,40,0,0
4567,-125,4,2,6,40,0,0
4906,-125,4,2,2,40,0,0
5119,-125,4,2,2,40,0,0
5198,-125,4,2,2,40,0,0
5538,-125,4,2,7,40,0,0
5909,-125,4,2,7,40,0,0
5988,-125,4,2,7,40,0,0
6801,-125,4,2,8,40,0,0
7172,-125,4,2,8,40,0,0
7251,-125,4,2,8,40,0,0
8065,-125,4,2,9,40,0,0
8435,-125,4,2,9,40,0,0
8514,-125,4,2,9,40,0,0
9328,-125,4,2,10,40,0,0
9698,-125,4,2,10,40,0,0
9959,-125,4,2,11,50,0,0
10330,-125,4,2,11,50,0,0
10591,-111.111111111111,4,2,1,60,0,0
20435,-100,4,2,1,60,0,0
20696,-111.111111111111,4,2,12,50,0,0
21328,-111.111111111111,4,2,1,50,0,0
21959,-111.111111111111,4,2,13,50,0,0
22117,-111.111111111111,4,2,1,50,0,0
22591,-111.111111111111,4,2,2,50,0,0
22749,-111.111111111111,4,2,1,50,0,0
23223,-111.111111111111,4,2,14,50,0,0
24170,-111.111111111111,4,2,1,50,0,0
24486,-111.111111111111,4,2,6,50,0,0
25117,-111.111111111111,4,2,2,50,0,0
25749,-111.111111111111,4,2,15,50,0,0
26064,-111.111111111111,4,2,1,50,0,0
27012,-111.111111111111,4,2,16,50,0,0
27327,-111.111111111111,4,2,1,50,0,0
28275,-111.111111111111,4,2,4,50,0,0
29223,-111.111111111111,4,2,1,50,0,0
29538,-111.111111111111,4,2,2,50,0,0
30011,-111.111111111111,4,2,1,50,0,0
30170,-111.111111111111,4,2,17,50,0,0
30328,-111.111111111111,4,2,1,50,0,0
30540,-111.111111111111,4,2,1,50,0,0
30644,-111.111111111111,4,2,1,60,0,0
30801,-105.263157894737,4,2,1,60,0,0
40645,-105.263157894737,4,2,1,60,0,0
40906,-111.111111111111,4,2,1,55,0,0
43433,-111.111111111111,4,2,1,55,0,0
45959,-105.263157894737,4,2,1,55,0,0
48224,-105.263157894737,4,2,1,55,0,0
48248,-105.263157894737,4,2,1,68,0,0
50751,-105.263157894737,4,2,1,68,0,0
51012,-100,4,2,18,75,0,1
51327,-100,4,2,19,75,0,1
51486,-100,4,2,20,75,0,1
51801,-100,4,2,19,75,0,1
52117,-100,4,2,21,75,0,1
52432,-100,4,2,19,75,0,1
52591,-100,4,2,20,75,0,1
52749,-100,4,2,22,75,0,1
53223,-100,4,2,23,75,0,1
53538,-100,4,2,18,75,0,1
53853,-100,4,2,19,75,0,1
54012,-100,4,2,20,75,0,1
54328,-100,4,2,19,75,0,1
54644,-100,4,2,21,75,0,1
54959,-100,4,2,19,75,0,1
55117,-100,4,2,20,75,0,1
55275,-100,4,2,22,75,0,1
56065,-100,4,2,24,75,0,1
56380,-100,4,2,25,75,0,1
56538,-100,4,2,21,75,0,1
56854,-100,4,2,19,75,0,1
57170,-100,4,2,26,75,0,1
57328,-100,4,2,26,75,0,1
57485,-100,4,2,20,75,0,1
57801,-100,4,2,21,75,0,1
58117,-100,4,2,19,75,0,1
58275,-100,4,2,19,75,0,1
58591,-100,4,2,27,75,0,1
58749,-100,4,2,1,75,0,1
59064,-100,4,2,22,75,0,1
59380,-100,4,2,28,75,0,1
59538,-100,4,2,28,75,0,1
59696,-100,4,2,29,75,0,1
60012,-100,4,2,29,75,0,1
60170,-100,4,2,20,75,0,1
60801,-100,4,2,22,75,0,1
60879,-100,4,2,1,75,0,1
61116,-100,4,2,18,75,0,1
61433,-100,4,2,19,75,0,1
61591,-100,4,2,20,75,0,1
61907,-100,4,2,19,75,0,1
62223,-100,4,2,30,75,0,1
62380,-100,4,2,1,75,0,1
62538,-100,4,2,19,75,0,1
62696,-100,4,2,20,75,0,1
62854,-100,4,2,22,75,0,1
63644,-100,4,2,31,75,0,1
63959,-100,4,2,25,75,0,1
64117,-100,4,2,32,75,0,1
64274,-100,4,2,19,75,0,1
64749,-100,4,2,33,75,0,1
65064,-100,4,2,22,75,0,1
65223,-100,4,2,28,75,0,1
65380,-100,4,2,22,75,0,1
66644,-100,4,2,20,75,0,1
66959,-100,4,2,19,75,0,1
67275,-100,4,2,27,75,0,1
67749,-100,4,2,22,75,0,1
68065,-100,4,2,28,75,0,1
68380,-100,4,2,22,75,0,1
68696,-100,4,2,34,75,0,1
69012,-100,4,2,19,75,0,1
69486,-100,4,2,20,75,0,1
69801,-100,4,2,35,75,0,1
70275,-100,4,2,36,75,0,1
70433,-100,4,2,37,75,0,1
70512,-100,4,2,38,75,0,1
70749,-100,4,2,1,75,0,1
70907,-100,4,2,2,75,0,1
71223,-100,4,2,39,75,0,0
72224,-100,4,2,39,75,0,0
72486,-100,4,2,40,60,0,0
73749,-105.263157894737,4,2,1,60,0,0
77435,-105.263157894737,4,2,1,60,0,0
77538,-105.263157894737,4,2,1,70,0,0
78540,-105.263157894737,4,2,1,70,0,0
78564,-105.263157894737,4,2,1,50,0,0

[Colours]
Combo1 : 143,216,237
Combo2 : 245,169,188
Combo3 : 183,191,204

[HitObjects]
393,64,328,6,0,L|361:72,2,28,2|2|2,2:2|2:2|2:2,2:2:0:0:
25,211,1749,6,0,P|93:202|158:279,1,168,2|0,2:2|2:2,0:0:0:0:
223,327,2380,2,0,P|274:317|395:296,1,168,2|0,2:2|2:2,0:0:0:0:
466,256,3012,6,0,B|409:280|344:243|384:233|316:176|240:225,1,224,2|0,2:2|2:2,0:0:0:0:
46,144,4275,2,0,P|94:84|186:97,1,168,2|0,2:2|0:0,0:0:0:0:
254,127,4907,2,0,P|325:118|427:96,1,168,2|0,2:2|0:0,0:0:0:0:
486,159,5538,6,0,P|483:213|369:257,1,168,2|0,2:2|2:2,0:0:0:0:
121,188,6801,2,0,P|215:174|303:148,1,168,2|0,2:2|2:2,0:0:0:0:
448,382,8065,6,0,P|379:315|247:337,1,224,2|0,2:2|2:2,0:0:0:0:
46,363,9328,2,0,L|56:292,1,56,2|0,2:2|0:0,0:0:0:0:
120,256,9644,2,0,L|130:185,1,56
59,159,9959,2,0,L|188:130,1,112,2|0,2:2|2:2,0:0:0:0:
221,76,10433,1,0,0:0:0:0:
298,138,10591,6,0,B|321:174|321:174|300:201|294:253,1,125.999996154785,4|0,1:2|1:1,0:0:0:0:
358,318,11065,2,0,P|411:322|469:264,1,125.999996154785,0|0,2:2|2:2,0:0:0:0:
512,205,11538,2,0,P|474:201|435:193,1,62.9999980773926,0|0,1:1|2:2,0:0:0:0:
381,123,11854,6,0,P|393:61|412:-20,1,125.999996154785,0|0,1:1|1:1,0:0:0:0:
339,50,12328,1,0,2:2:0:0:
267,9,12486,2,0,P|235:14|203:19,1,62.9999980773926,0|0,1:1|2:2,0:0:0:0:
136,78,12801,1,0,1:1:0:0:
62,34,12959,1,0,2:2:0:0:
10,112,13117,6,0,P|3:162|49:224,1,125.999996154785,4|0,1:2|1:1,0:0:0:0:
137,261,13591,2,0,P|214:245|279:227,1,125.999996154785,8|0,2:2|2:2,0:0:0:0:
330,162,14065,2,0,B|401:160|383:201|476:189,1,125.999996154785,4|0,1:2|1:1,0:0:0:0:
505,260,14538,2,0,P|499:294|491:334,1,62.9999980773926,8|0,3:3|1:1,0:0:0:0:
431,378,14854,1,0,1:1:0:0:
364,323,15012,2,0,P|330:317|285:306,1,62.9999980773926,8|4,3:3|3:3,0:0:0:0:
222,346,15328,2,0,P|191:339|160:333,1,62.9999980773926,0|0,1:1|2:2,0:0:0:0:
84,283,15644,6,0,P|132:290|206:239,1,125.999996154785,4|8,1:2|2:2,0:0:0:0:
285,190,16117,2,0,P|211:174|134:154,1,125.999996154785,0|2,1:1|1:2,0:0:0:0:
104,85,16591,2,0,P|139:33|223:33,1,125.999996154785,12|0,2:2|1:1,0:0:0:0:
260,80,17065,1,0,1:1:0:0:
330,35,17223,2,0,P|363:30|416:17,1,62.9999980773926,8|0,2:2|2:2,0:0:0:0:
482,84,17538,6,0,P|486:120|498:169,1,62.9999980773926,0|0,1:1|1:1,0:0:0:0:
408,174,17854,2,0,P|404:138|392:89,1,62.9999980773926,8|0,2:2|2:2,0:0:0:0:
322,152,18170,2,0,P|285:180|193:167,1,125.999996154785,4|8,1:2|2:2,0:0:0:0:
128,230,18644,2,0,P|59:224|-9:210,1,125.999996154785,4|0,1:2|1:1,0:0:0:0:
0,293,19117,6,0,B|65:287|62:321|130:310,1,125.999996154785,12|0,2:2|1:1,0:0:0:0:
190,366,19591,1,0,1:1:0:0:
244,301,19749,2,0,P|238:271|231:228,1,62.9999980773926,10|0,2:2|1:1,0:0:0:0:
232,239,19986,1,0,1:1:0:0:
232,239,20065,1,8,2:2:0:0:
274,169,20223,1,8,3:3:0:0:
339,220,20380,1,4,3:3:0:0:
404,96,20696,5,6,1:2:0:0:
158,40,21328,2,0,P|124:47|92:52,2,62.9999980773926,2|2|2,0:0|0:0|0:0,0:0:0:0:
218,90,21801,1,2,0:0:0:0:
111,196,22117,1,2,0:0:0:0:
237,279,22433,2,0,P|294:270|364:252,2,125.999996154785,2|2|2,0:0|0:0|0:0,0:0:0:0:
168,351,23223,6,0,P|124:307|3:319,1,188.999994232178,2|0,1:2|0:0,0:0:0:0:
145,138,24170,2,0,P|180:133|226:125,1,62.9999980773926,2|2,2:2|0:0,0:0:0:0:
279,61,24486,6,0,B|399:31|385:126|472:86,1,188.999994232178,2|0,2:2|0:0,0:0:0:0:
512,155,25117,2,0,P|524:216|409:264,1,188.999994232178,2|0,2:2|0:0,0:0:0:0:
318,312,25749,6,0,P|234:292|168:281,1,125.999996154785,2|0,1:2|2:2,0:0:0:0:
122,320,26223,1,2,2:2:0:0:
19,117,26696,1,2,2:2:0:0:
163,161,27012,2,0,P|199:166|277:117,1,125.999996154785,2|0,1:2|2:2,0:0:0:0:
329,70,27486,2,0,P|388:96|470:114,1,125.999996154785,2|0,2:2|2:2,0:0:0:0:
469,183,27959,1,2,2:2:0:0:
365,293,28275,6,0,P|302:305|225:327,2,125.999996154785,2|0|0,1:2|0:0|2:2,0:0:0:0:
268,175,29223,1,2,2:2:0:0:
268,175,29380,1,2,2:2:0:0:
201,210,29538,2,0,P|161:204|117:192,1,62.9999980773926,2|0,1:2|2:2,0:0:0:0:
74,239,29854,2,0,P|67:276|56:313,1,62.9999980773926,0|2,2:2|2:2,0:0:0:0:
117,356,30170,2,0,P|157:362|201:374,1,62.9999980773926,2|2,2:2|2:2,0:0:0:0:
241,316,30486,1,2,2:2:0:0:
327,363,30644,5,8,2:2:0:0:
327,363,30723,1,8,2:2:0:0:
327,363,30801,2,0,P|361:354|478:344,1,132.999996448517,4|8,1:2|2:2,0:0:0:0:
506,275,31275,1,0,0:0:0:0:
446,216,31433,2,0,P|432:165|424:74,1,132.999996448517,2|0,1:2|2:2,0:0:0:0:
349,120,31907,2,0,P|315:112|267:97,1,66.4999982242585,10|0,2:2|0:0,0:0:0:0:
209,138,32223,2,0,P|177:128|144:121,1,66.4999982242585,2|8,1:2|2:2,0:0:0:0:
74,160,32538,2,0,P|69:218|132:271,1,132.999996448517,2|2,2:2|1:2,0:0:0:0:
189,313,33012,2,0,P|177:346|173:398,1,66.4999982242585,8|2,2:2|2:2,0:0:0:0:
264,357,33328,6,0,P|282:300|288:211,1,132.999996448517,6|8,1:2|2:2,0:0:0:0:
416,131,33959,1,0,1:1:0:0:
356,85,34117,2,0,P|314:77|278:66,1,66.4999982242585,2|2,1:2|2:2,0:0:0:0:
204,14,34433,6,0,B|159:35|159:35|53:14,1,132.999996448517,10|0,2:2|1:1,0:0:0:0:
13,68,34907,2,0,P|25:107|32:147,1,66.4999982242585,8|2,2:2|2:2,0:0:0:0:
29,132,35144,1,2,2:2:0:0:
29,132,35223,1,0,1:1:0:0:
102,186,35380,1,0,1:1:0:0:
162,132,35538,2,0,P|200:141|240:148,1,66.4999982242585,10|0,2:2|0:0,0:0:0:0:
302,212,35854,6,0,P|309:258|252:325,1,132.999996448517,6|8,1:2|2:2,0:0:0:0:
183,377,36328,2,0,P|127:359|38:345,1,132.999996448517,2|0,2:2|1:1,0:0:0:0:
16,277,36801,1,10,2:2:0:0:
90,225,36959,6,0,P|111:177|100:85,1,132.999996448517,4|0,1:2|1:2,0:0:0:0:
43,34,37433,2,0,P|66:58|108:67,1,66.4999982242585,10|2,2:2|2:2,0:0:0:0:
185,93,37749,2,0,L|265:83,1,66.4999982242585,0|0,1:1|1:1,0:0:0:0:
310,29,38065,1,2,2:2:0:0:
375,93,38223,6,0,B|401:121|401:121|373:157|363:228,1,132.999996448517,14|0,2:2|1:1,0:0:0:0:
420,273,38696,2,0,P|413:304|408:357,1,66.4999982242585,8|0,2:2|2:2,0:0:0:0:
333,373,39012,2,0,P|272:368|201:351,1,132.999996448517,0|10,1:1|2:2,0:0:0:0:
133,304,39486,6,0,P|188:312|245:244,1,132.999996448517,6|0,1:2|1:1,0:0:0:0:
279,190,39959,2,0,P|270:159|260:116,1,66.4999982242585,8|8,2:2|2:2,0:0:0:0:
262,125,40196,1,8,2:2:0:0:
262,125,40275,1,10,2:2:0:0:
198,167,40433,1,8,3:3:0:0:
135,117,40591,2,0,P|98:109|58:97,1,66.4999982242585,4|0,3:3|0:0,0:0:0:0:
68,21,40907,6,0,P|114:25|207:61,1,125.999996154785,6|0,1:2|1:1,0:0:0:0:
253,98,41380,2,0,P|291:99|387:49,1,125.999996154785,0|0,0:0|2:2,0:0:0:0:
436,104,41854,2,0,P|433:136|420:177,1,62.9999980773926,2|0,1:2|0:0,0:0:0:0:
352,223,42170,6,0,P|309:211|216:198,1,125.999996154785,0|2,1:1|1:2,0:0:0:0:
101,116,42801,1,2,1:2:0:0:
0,229,43117,2,0,P|8:268|19:305,1,62.9999980773926,2|0,1:2|2:2,0:0:0:0:
78,364,43433,5,6,1:2:0:0:
132,297,43591,1,8,0:0:0:0:
132,297,43670,1,8,0:0:0:0:
132,297,43749,1,8,2:2:0:0:
196,355,43907,2,0,P|242:361|325:383,1,125.999996154785,2|2,1:2|1:2,0:0:0:0:
416,336,44380,6,0,P|445:309|437:221,1,125.999996154785,12|0,2:2|1:1,0:0:0:0:
379,176,44854,1,0,1:1:0:0:
308,218,45012,2,0,P|273:212|236:199,1,62.9999980773926,10|0,2:2|1:1,0:0:0:0:
205,127,45328,2,0,P|212:98|234:49,1,62.9999980773926,2|0,1:2|1:1,0:0:0:0:
165,8,45644,1,10,2:2:0:0:
91,46,45801,5,8,2:2:0:0:
91,46,45880,1,8,2:2:0:0:
91,46,45959,2,0,B|112:80|112:80|86:109|79:177,1,132.999996448517,6|8,1:2|2:2,0:0:0:0:
30,227,46433,2,0,P|94:208|182:198,1,132.999996448517,6|0,1:2|1:1,0:0:0:0:
234,250,46907,6,0,P|277:255|354:196,1,132.999996448517,14|0,2:2|1:1,0:0:0:0:
401,132,47380,1,0,1:1:0:0:
458,197,47538,2,0,P|450:226|439:277,1,66.4999982242585,10|0,2:2|2:2,0:0:0:0:
378,321,47854,2,0,P|331:309|294:296,1,66.4999982242585,2|0,1:2|1:1,0:0:0:0:
237,339,48170,2,0,P|190:351|153:364,1,66.4999982242585,10|0,2:2|1:1,0:0:0:0:
80,309,48486,6,0,P|70:276|69:223,1,66.4999982242585,14|0,2:2|1:2,0:0:0:0:
27,170,48801,1,8,2:2:0:0:
27,170,48959,1,0,1:1:0:0:
117,173,49117,2,0,P|158:168|207:152,1,66.4999982242585,8|8,2:2|3:3,0:0:0:0:
234,88,49433,1,4,3:3:0:0:
307,144,49591,5,4,1:2:0:0:
251,293,49907,1,8,2:2:0:0:
169,256,50065,1,8,2:2:0:0:
132,335,50223,1,8,2:2:0:0:
16,225,50538,1,0,0:0:0:0:
131,114,50854,5,0,0:0:0:0:
213,167,51012,2,0,P|282:153|365:122,1,140,6|10,1:2|2:2,0:0:0:0:
418,162,51486,2,0,L|508:176,1,70,2|0,2:2|1:1,0:0:0:0:
472,250,51801,2,0,L|402:239,1,70,2|8,1:2|2:2,0:0:0:0:
326,300,52117,6,0,P|259:268|186:277,1,140,6|2,1:2|1:2,0:0:0:0:
136,336,52591,1,10,2:2:0:0:
65,289,52749,2,0,P|48:230|30:143,1,140,2|0,2:2|1:1,0:0:0:0:
0,83,53223,2,0,L|95:105,1,70,10|0,2:2|0:0,0:0:0:0:
157,147,53538,6,0,B|240:127|240:127|188:57,1,140,6|10,1:2|2:2,0:0:0:0:
266,19,54012,2,0,L|350:10,1,70,2|0,2:2|1:1,0:0:0:0:
385,82,54328,2,0,L|315:89,1,70,2|8,1:2|2:2,0:0:0:0:
250,156,54644,6,0,P|253:216|329:266,1,140,6|2,1:2|1:2,0:0:0:0:
396,232,55117,1,10,2:2:0:0:
375,310,55275,2,0,P|382:344|397:382,1,70,2|0,2:2|1:1,0:0:0:0:
298,340,55591,1,0,1:1:0:0:
225,381,55749,1,10,2:2:0:0:
225,381,56065,6,0,B|146:347|146:347|212:338,1,140,6|10,1:2|2:2,0:0:0:0:
253,268,56538,2,0,P|252:229|233:189,1,70,2|0,2:2|1:1,0:0:0:0:
157,179,56854,2,0,L|73:191,1,70,2|8,1:2|2:2,0:0:0:0:
43,102,57170,6,0,P|120:103|203:70,1,140,6|2,1:2|1:2,0:0:0:0:
228,9,57644,1,8,2:2:0:0:
303,73,57801,2,0,P|291:114|284:164,1,70,2|0,2:2|1:1,0:0:0:0:
220,195,58117,1,2,1:2:0:0:
296,252,58275,1,8,2:2:0:0:
296,252,58433,1,0,1:2:0:0:
365,195,58591,6,0,P|420:186|495:254,1,140,6|12,1:2|3:3,0:0:0:0:
428,309,59065,2,0,P|420:345|415:387,1,70,6|0,1:2|2:2,0:0:0:0:
327,331,59380,2,0,L|252:339,1,70,2|8,1:2|0:0,0:0:0:0:
252,251,59696,6,0,B|168:274|168:274|181:206,1,140,6|0,1:2|1:1,0:0:0:0:
105,181,60170,2,0,L|25:207,1,70,8|0,2:2|2:2,0:0:0:0:
70,108,60486,2,0,L|-10:64,1,70,6|8,1:2|2:2,0:0:0:0:
12,33,60723,1,8,2:2:0:0:
12,33,60801,2,0,L|50:3,3,35,10|8|8|8,2:2|3:3|3:3|3:3,0:0:0:0:
81,29,61117,6,0,B|180:57|180:57|144:95,1,140,6|10,1:2|2:2,0:0:0:0:
216,148,61591,2,0,P|255:144|295:118,1,70,2|0,2:2|1:1,0:0:0:0:
361,93,61907,2,0,L|441:106,1,70,2|8,1:2|2:2,0:0:0:0:
512,175,62223,6,0,P|446:160|379:198,1,140,6|2,1:2|1:2,0:0:0:0:
343,270,62696,1,10,2:2:0:0:
273,211,62854,2,0,P|194:201|121:187,1,140,2|0,2:2|1:1,0:0:0:0:
57,238,63328,2,0,P|47:266|56:329,1,70,10|0,2:2|2:2,0:0:0:0:
135,372,63644,6,0,B|212:346|212:346|155:288,1,140,6|10,1:2|2:2,0:0:0:0:
249,329,64117,2,0,L|340:344,1,70,2|0,2:2|1:1,0:0:0:0:
336,263,64433,2,0,L|266:251,1,70,2|8,1:2|2:2,0:0:0:0:
205,172,64749,6,0,P|250:131|334:131,1,140,6|2,1:2|1:2,0:0:0:0:
414,140,65223,1,10,2:2:0:0:
443,61,65380,1,2,2:2:0:0:
356,30,65538,2,0,P|314:42|271:51,1,70,0|0,1:1|1:1,0:0:0:0:
220,106,65854,1,8,2:2:0:0:
153,49,66012,1,0,0:0:0:0:
77,124,66170,6,0,P|62:184|102:258,1,140,6|10,1:2|2:2,0:0:0:0:
174,304,66644,2,0,L|266:317,1,70,2|0,2:2|1:1,0:0:0:0:
276,239,66959,2,0,L|185:228,1,70,2|8,1:2|2:2,0:0:0:0:
94,251,67275,6,0,B|8:275|8:275|20:206,1,140,6|0,1:2|1:1,0:0:0:0:
84,163,67749,2,0,P|121:156|157:134,1,70,10|0,2:2|2:2,0:0:0:0:
230,105,68065,2,0,L|329:125,1,70,2|0,1:2|1:1,0:0:0:0:
372,61,68380,2,0,L|443:90,1,70,10|0,2:2|2:2,0:0:0:0:
506,165,68696,6,0,P|486:225|388:242,1,140,2|8,1:2|2:2,0:0:0:0:
340,298,69170,1,0,1:1:0:0:
294,224,69328,1,10,2:2:0:0:
225,279,69486,2,0,P|186:291|131:303,1,70,10|2,2:2|1:2,0:0:0:0:
72,241,69801,6,0,P|61:176|26:93,1,140,6|0,1:2|1:1,0:0:0:0:
103,49,70275,2,0,L|193:65,1,70,10|10,2:2|2:2,0:0:0:0:
171,61,70512,1,8,2:2:0:0:
171,61,70591,1,10,2:2:0:0:
261,31,70749,1,10,3:3:0:0:
259,116,70907,1,6,3:3:0:0:
421,72,71223,5,6,1:2:0:0:
72,327,72486,5,10,2:2:0:0:
351,362,73749,5,6,1:2:0:0:
297,303,73907,2,0,L|290:224,1,66.4999982242585,0|8,2:2|2:2,0:0:0:0:
229,187,74223,1,2,2:2:0:0:
162,230,74380,2,0,P|99:250|18:266,1,132.999996448517,2|10,2:2|2:2,0:0:0:0:
2,192,74854,2,0,L|10:113,1,66.4999982242585,2|2,1:2|2:2,0:0:0:0:
6,51,75170,1,2,1:2:0:0:
80,75,75328,2,0,B|154:64|154:64|190:6,1,132.999996448517,10|2,2:2|2:2,0:0:0:0:
261,40,75801,1,2,1:2:0:0:
222,104,75959,2,0,L|205:193,1,66.4999982242585,10|0,2:2|0:0,0:0:0:0:
284,235,76275,5,2,1:2:0:0:
359,185,76433,2,0,L|436:196,1,66.4999982242585,2|8,2:2|2:2,0:0:0:0:
496,258,76749,1,2,2:2:0:0:
421,314,76907,2,0,L|282:285,1,132.999996448517,2|10,2:2|2:2,0:0:0:0:
214,320,77380,2,0,L|148:331,1,66.4999982242585,2|0,1:2|2:2,0:0:0:0:
82,271,77696,5,8,2:2:0:0:
82,271,77775,1,8,2:2:0:0:
82,271,77854,2,0,L|95:214,3,33.2499991121292,8|8|8|8,1:2|2:2|2:2|2:2,0:0:0:0:
66,201,78170,2,0,L|83:140,3,33.2499991121292,8|8|8|8,1:2|2:2|2:2|2:2,0:0:0:0:
109,141,78486,1,8,1:2:0:0:
131,137,78564,1,8,2:2:0:0:
154,133,78643,1,8,2:2:0:0:
177,129,78722,1,8,2:2:0:0:
200,125,78801,1,4,1:2:0:0:
