osu file format v14

[General]
AudioFilename: audio.mp3
AudioLeadIn: 0
PreviewTime: 50630
Countdown: 0
SampleSet: Normal
StackLeniency: 0.7
Mode: 1
LetterboxInBreaks: 0
WidescreenStoryboard: 1

[Editor]
Bookmarks: 336,10757,20863,30968,41073,73915
DistanceSpacing: 1.5
BeatDivisor: 4
GridSize: 32
TimelineZoom: 0.7999998

[Metadata]
Title:Koko de Ikiteru (TV Size)
TitleUnicode:ここで生きてる (TV Size)
Artist:mary x jon-YAKITORY
ArtistUnicode:めありー×jon-YAKITORY
Creator:BlackBN
Version:Futsuu
Source:探偵はもう、死んでいる。
Tags:BlackBq living here tantei wa mou shinde iru the detective is already dead 偵探已經,死了。 侦探已死 たんもし tanmoshi television version ver. 君塚君彦 kimiduka kimihiko シエスタ siesta anime pop japanese j-pop jpop
BeatmapID:3131136
BeatmapSetID:1530839

[Difficulty]
HPDrainRate:7.5
CircleSize:2
OverallDifficulty:4
ApproachRate:10
SliderMultiplier:1.4
SliderTickRate:1

[Events]
//Background and Video events
0,0,"bg2.jpg",0,20
Video,0,"koko.mp4"
//Break Periods
//Storyboard Layer 0 (Background)
//Storyboard Layer 1 (Fail)
//Storyboard Layer 2 (Pass)
//Storyboard Layer 3 (Foreground)
//Storyboard Layer 4 (Overlay)
//Storyboard Sound Samples

[TimingPoints]
-4557,315.789473684211,4,1,0,40,1,0
179,-100,4,1,0,40,0,0
10127,-100,4,1,0,55,0,0
10521,-100,4,1,0,70,0,0
20627,-100,4,1,0,60,0,0
20785,-100,4,1,0,50,0,0
30732,-100,4,1,0,60,0,0
50943,-100,4,1,0,70,0,0
51021,-100,4,1,0,70,0,1
71232,-100,4,1,0,70,0,0
73679,-100,4,1,0,60,0,0
78890,-100,4,1,0,40,0,0
80074,-111.111111111111,4,1,0,30,0,0
81337,-125,4,1,0,30,0,0
81969,-125,4,1,0,20,0,0
82285,-125,4,1,0,10,0,0
82600,-142.857142857143,4,1,0,10,0,0

[HitObjects]
256,192,495,5,8,0:0:0:0:
256,192,1758,1,8,0:0:0:0:
256,192,2390,1,0,0:0:0:0:
256,192,3021,1,8,0:0:0:0:
256,192,4285,1,0,0:0:0:0:
256,192,4916,1,8,0:0:0:0:
256,192,5548,1,0,0:0:0:0:
256,192,6811,1,0,0:0:0:0:
256,192,8074,1,8,0:0:0:0:
256,192,9337,1,0,0:0:0:0:
256,192,9969,1,0,0:0:0:0:
256,192,10285,1,8,0:0:0:0:
384,96,10600,1,4,0:0:0:0:
256,192,10916,1,0,0:0:0:0:
256,192,11074,1,8,0:0:0:0:
256,192,11548,1,0,0:0:0:0:
256,192,12179,1,0,0:0:0:0:
256,192,12495,1,8,0:0:0:0:
256,192,12653,1,0,0:0:0:0:
256,192,12811,1,8,0:0:0:0:
320,64,13127,1,12,0:0:0:0:
256,192,13443,1,0,0:0:0:0:
256,192,13600,1,8,0:0:0:0:
416,96,14074,1,12,0:0:0:0:
256,192,14390,1,0,0:0:0:0:
256,192,14548,1,0,0:0:0:0:
256,192,14706,1,0,0:0:0:0:
256,192,15021,1,0,0:0:0:0:
256,192,15179,1,8,0:0:0:0:
384,64,15653,1,12,0:0:0:0:
256,192,15969,1,0,0:0:0:0:
256,192,16127,1,8,0:0:0:0:
448,64,16600,1,4,0:0:0:0:
256,192,17232,1,8,0:0:0:0:
256,192,17390,1,8,0:0:0:0:
256,192,17548,1,0,0:0:0:0:
256,192,17864,1,8,0:0:0:0:
256,192,18179,1,8,0:0:0:0:
256,192,18337,1,8,0:0:0:0:
448,64,18653,1,4,0:0:0:0:
448,64,19127,1,12,0:0:0:0:
256,192,19443,1,0,0:0:0:0:
256,192,19600,1,0,0:0:0:0:
256,192,19758,1,8,0:0:0:0:
256,192,20074,1,0,0:0:0:0:
256,192,20232,1,8,0:0:0:0:
256,192,20390,1,0,0:0:0:0:
416,64,20706,1,4,0:0:0:0:
256,192,21969,1,8,0:0:0:0:
256,192,22600,1,0,0:0:0:0:
256,192,23232,1,8,0:0:0:0:
256,192,24495,1,0,0:0:0:0:
256,192,25127,1,8,0:0:0:0:
256,192,25758,1,0,0:0:0:0:
256,192,27021,1,0,0:0:0:0:
256,192,28285,1,8,0:0:0:0:
256,192,29548,1,0,0:0:0:0:
256,192,29864,1,8,0:0:0:0:
256,192,30179,1,8,0:0:0:0:
256,192,30337,1,8,0:0:0:0:
256,192,30495,1,0,0:0:0:0:
448,64,30811,1,4,0:0:0:0:
256,192,31127,1,8,0:0:0:0:
256,192,31443,1,0,0:0:0:0:
256,192,31758,1,0,0:0:0:0:
256,192,31916,1,8,0:0:0:0:
256,192,32232,1,8,0:0:0:0:
256,192,32390,1,8,0:0:0:0:
256,192,32706,1,0,0:0:0:0:
256,192,33021,1,8,0:0:0:0:
256,192,33337,1,0,0:0:0:0:
256,192,33653,1,8,0:0:0:0:
256,192,34285,1,0,0:0:0:0:
256,192,34443,1,8,0:0:0:0:
256,192,34916,1,8,0:0:0:0:
256,192,35232,1,0,0:0:0:0:
256,192,35548,1,8,0:0:0:0:
256,192,35706,1,8,0:0:0:0:
256,192,35864,1,0,0:0:0:0:
256,192,36179,1,8,0:0:0:0:
256,192,36337,1,0,0:0:0:0:
256,192,36811,1,8,0:0:0:0:
256,192,36969,1,0,0:0:0:0:
256,192,37285,1,0,0:0:0:0:
256,192,37443,1,8,0:0:0:0:
256,192,37758,1,0,0:0:0:0:
256,192,38074,1,0,0:0:0:0:
256,192,38232,1,8,0:0:0:0:
256,192,38706,1,8,0:0:0:0:
256,192,39021,1,0,0:0:0:0:
384,64,39495,1,4,0:0:0:0:
256,192,39811,1,0,0:0:0:0:
256,192,39969,1,8,0:0:0:0:
256,192,40127,1,8,0:0:0:0:
256,192,40285,1,0,0:0:0:0:
384,96,40916,1,12,0:0:0:0:
256,192,41232,1,0,0:0:0:0:
256,192,41548,1,0,0:0:0:0:
256,192,41864,1,8,0:0:0:0:
256,192,42495,1,0,0:0:0:0:
256,192,42811,1,8,0:0:0:0:
256,192,42969,1,0,0:0:0:0:
256,192,43127,1,8,0:0:0:0:
256,192,43443,1,8,0:0:0:0:
256,192,43600,1,8,0:0:0:0:
256,192,43916,1,0,0:0:0:0:
416,64,44390,1,12,0:0:0:0:
256,192,45021,1,8,0:0:0:0:
256,192,45337,1,8,0:0:0:0:
256,192,45653,1,0,0:0:0:0:
352,96,45969,1,12,0:0:0:0:
352,96,46443,1,4,0:0:0:0:
352,96,46916,1,12,0:0:0:0:
256,192,47548,1,8,0:0:0:0:
256,192,47864,1,8,0:0:0:0:
256,192,48021,1,8,0:0:0:0:
256,192,48179,1,0,0:0:0:0:
416,96,48495,1,12,0:0:0:0:
256,192,48811,1,8,0:0:0:0:
256,192,49127,1,0,0:0:0:0:
256,192,49285,1,8,0:0:0:0:
384,64,49600,1,4,0:0:0:0:
384,64,49916,1,4,0:0:0:0:
384,64,50074,1,4,0:0:0:0:
384,64,50232,1,4,0:0:0:0:
384,96,51021,1,12,0:0:0:0:
256,192,51337,1,0,0:0:0:0:
256,192,51495,1,8,0:0:0:0:
256,192,51811,1,0,0:0:0:0:
256,192,52127,1,8,0:0:0:0:
256,192,52443,1,8,0:0:0:0:
256,192,52600,1,0,0:0:0:0:
256,192,52758,1,8,0:0:0:0:
256,192,53232,1,8,0:0:0:0:
256,192,53548,1,0,0:0:0:0:
256,192,53864,1,8,0:0:0:0:
256,192,54021,1,0,0:0:0:0:
256,192,54337,1,8,0:0:0:0:
256,192,54653,1,0,0:0:0:0:
256,192,54969,1,0,0:0:0:0:
256,192,55127,1,0,0:0:0:0:
256,192,55285,1,8,0:0:0:0:
256,192,55758,1,0,0:0:0:0:
256,192,56074,1,8,0:0:0:0:
256,192,56390,1,8,0:0:0:0:
256,192,56548,1,0,0:0:0:0:
256,192,56864,1,0,0:0:0:0:
256,192,57179,1,8,0:0:0:0:
256,192,57495,1,0,0:0:0:0:
256,192,57811,1,8,0:0:0:0:
256,192,58127,1,0,0:0:0:0:
256,192,58443,1,8,0:0:0:0:
256,192,58600,1,0,0:0:0:0:
256,192,59074,1,0,0:0:0:0:
256,192,59390,1,0,0:0:0:0:
384,64,59706,1,4,0:0:0:0:
256,192,60495,1,8,0:0:0:0:
256,192,60653,1,8,0:0:0:0:
256,192,60811,1,0,0:0:0:0:
352,96,61127,1,12,0:0:0:0:
256,192,61443,1,8,0:0:0:0:
256,192,61600,1,0,0:0:0:0:
256,192,61916,1,0,0:0:0:0:
256,192,62232,1,8,0:0:0:0:
256,192,62548,1,0,0:0:0:0:
256,192,62706,1,8,0:0:0:0:
256,192,62864,1,0,0:0:0:0:
256,192,63337,1,0,0:0:0:0:
256,192,63653,1,8,0:0:0:0:
256,192,63969,1,8,0:0:0:0:
256,192,64127,1,8,0:0:0:0:
256,192,64443,1,0,0:0:0:0:
256,192,64758,1,8,0:0:0:0:
256,192,65074,1,0,0:0:0:0:
256,192,65232,1,0,0:0:0:0:
256,192,65390,1,8,0:0:0:0:
384,96,66179,1,4,0:0:0:0:
256,192,66495,1,8,0:0:0:0:
256,192,66653,1,0,0:0:0:0:
256,192,66969,1,8,0:0:0:0:
256,192,67285,1,0,0:0:0:0:
256,192,67758,1,8,0:0:0:0:
256,192,68074,1,0,0:0:0:0:
256,192,68390,1,8,0:0:0:0:
256,192,68706,1,8,0:0:0:0:
256,192,68864,1,0,0:0:0:0:
256,192,69021,1,8,0:0:0:0:
256,192,69337,1,8,0:0:0:0:
256,192,69495,1,8,0:0:0:0:
416,64,69811,1,12,0:0:0:0:
256,192,70285,1,0,0:0:0:0:
256,192,70600,1,8,0:0:0:0:
256,192,70758,1,0,0:0:0:0:
256,192,70916,1,0,0:0:0:0:
352,64,71232,1,4,0:0:0:0:
256,192,72495,1,8,0:0:0:0:
352,96,73758,1,4,0:0:0:0:
256,192,74074,1,8,0:0:0:0:
256,192,74232,1,8,0:0:0:0:
256,192,74390,1,0,0:0:0:0:
256,192,74706,1,8,0:0:0:0:
256,192,75337,1,8,0:0:0:0:
256,192,75653,1,0,0:0:0:0:
256,192,75811,1,0,0:0:0:0:
256,192,75969,1,8,0:0:0:0:
256,192,76285,1,8,0:0:0:0:
256,192,76443,1,0,0:0:0:0:
256,192,76600,1,8,0:0:0:0:
256,192,76916,1,8,0:0:0:0:
256,192,77232,1,8,0:0:0:0:
256,192,77390,1,0,0:0:0:0:
256,192,77548,1,0,0:0:0:0:
256,192,77864,1,8,0:0:0:0:
256,192,78179,1,8,0:0:0:0:
256,192,78337,1,8,0:0:0:0:
256,192,78495,1,0,0:0:0:0:
384,64,78811,1,4,0:0:0:0:
256,192,78969,12,0,82600,0:0:0:0:
