osu file format v14

[General]
AudioFilename: audio.mp3
AudioLeadIn: 0
PreviewTime: 50459
Countdown: 0
SampleSet: Soft
StackLeniency: 0.5
Mode: 0
LetterboxInBreaks: 0
WidescreenStoryboard: 1

[Editor]
Bookmarks: 10848,20953,31058,41163,51269,61374,71479,81426
DistanceSpacing: 1
BeatDivisor: 2
GridSize: 8
TimelineZoom: 2.899999

[Metadata]
Title:Koko de Ikiteru (TV Size)
TitleUnicode:ここで生きてる (TV Size)
Artist:mary x jon-YAKITORY
ArtistUnicode:めありー×jon-YAKITORY
Creator:Airiesu
Version:Minami's Easy
Source:探偵はもう、死んでいる。
Tags:Tantei wa mou shindeiru tanmoshi La detective esta está muerta the detective is already dead & siesta シエスタ natsunagi nagisa 夏凪渚 saikawa yui 斎川唯 charlotte arisaka anderson シャーロット・有坂・アンダーソン anime opening op japanese pop jpop j-pop meausa meari usagi めありーちゃんねる Mujina Amateurre Nagaraia Shikibe Mayu Shizuku- Kazato Asa Pile AyameMyMommy Yume Minami SekairiNights
BeatmapID:3094771
BeatmapSetID:1510909

[Difficulty]
HPDrainRate:2.8
CircleSize:3.3
OverallDifficulty:2.6
ApproachRate:4.4
SliderMultiplier:0.85
SliderTickRate:1

[Events]
//Background and Video events
0,0,"tanteibg7.jpg",0,0
Video,11,"tanteiwamouop.mp4"
//Break Periods
//Storyboard Layer 0 (Background)
//Storyboard Layer 1 (Fail)
//Storyboard Layer 2 (Pass)
//Storyboard Layer 3 (Foreground)
//Storyboard Layer 4 (Overlay)
//Storyboard Sound Samples

[TimingPoints]
-777,315.789473684211,4,2,1,40,1,0
10591,-100,4,2,1,60,0,0
15644,-100,4,2,1,65,0,0
16591,-100,4,2,1,60,0,0
18170,-100,4,2,1,65,0,0
18643,-100,4,2,1,70,0,0
19117,-100,4,2,1,65,0,0
20064,-100,4,2,1,60,0,0
20380,-100,4,2,1,55,0,0
20696,-100,4,2,1,45,0,0
21959,-100,4,2,1,35,0,0
22590,-100,4,2,1,40,0,0
23222,-100,4,2,1,45,0,0
24486,-100,4,2,1,35,0,0
25749,-100,4,2,1,45,0,0
29853,-100,4,2,1,40,0,0
30801,-100,4,2,1,55,0,0
39486,-100,4,2,1,60,0,0
39959,-100,4,2,1,55,0,0
40275,-100,4,2,1,60,0,0
40591,-100,4,2,1,50,0,0
42486,-100,4,2,1,35,0,0
42801,-100,4,2,1,40,0,0
43116,-100,4,2,1,50,0,0
43433,-100,4,2,1,60,0,0
45959,-100,4,2,1,65,0,0
46432,-100,4,2,1,60,0,0
46907,-100,4,2,1,65,0,0
47538,-100,4,2,1,60,0,0
48486,-100,4,2,1,70,0,0
49274,-100,4,2,1,65,0,0
49591,-100,4,2,1,70,0,0
50222,-100,4,2,1,80,0,0
51012,-100,4,2,1,75,0,1
59064,-100,4,2,1,70,0,1
59696,-100,4,2,1,75,0,1
60801,-100,4,2,1,65,0,1
61117,-100,4,2,1,75,0,1
70591,-100,4,2,1,60,0,1
70906,-100,4,2,1,55,0,1
71223,-100,4,2,1,65,0,0
73749,-100,4,2,1,55,0,0
76275,-100,4,2,1,65,0,0
77854,-100,4,2,1,35,0,0
78169,-100,4,2,1,45,0,0
78485,-100,4,2,1,50,0,0
78801,-100,4,2,1,65,0,0
81170,-100,4,2,1,50,0,0

[Colours]
Combo1 : 171,52,54
Combo2 : 163,206,241
Combo3 : 103,206,245
Combo4 : 197,190,190

[HitObjects]
170,334,10591,6,0,P|123:324|38:320,2,127.5,14|2|10,2:1|2:0|2:1,2:0:0:0:
325,263,12170,1,8,2:1:0:0:
400,301,12486,2,0,P|418:253|411:221,1,85,10|10,2:1|2:1,2:0:0:0:
367,147,13117,2,0,P|349:74|365:16,2,127.5,14|10|14,2:1|2:0|2:1,2:0:0:0:
211,79,14696,5,10,2:1:0:0:
141,127,15012,2,0,P|144:191|175:234,1,85,10|10,2:1|2:1,2:0:0:0:
214,267,15644,2,0,P|203:332|156:383,1,127.5,14|8,2:1|2:0,2:0:0:0:
62,301,16591,2,0,P|61:223|114:126,1,170,14|8,2:1|2:0,2:0:0:0:
175,101,17538,1,10,2:1:0:0:
255,126,17854,1,10,2:0:0:0:
306,195,18170,6,0,B|363:204|363:204|372:210|372:210|431:218,2,127.5,14|8|14,2:1|2:0|2:1,2:0:0:0:
143,246,19749,2,0,P|101:252|67:277,1,85,12|8,2:0|2:1,2:0:0:0:
28,352,20380,1,8,2:1:0:0:
107,382,20696,1,12,2:1:0:0:
264,316,21328,6,0,P|293:273|300:225,1,85,0|0,2:0|2:0,2:0:0:0:
335,164,21959,2,0,P|281:132|169:119,2,170,2|2|10,2:0|2:0|2:1,2:0:0:0:
198,265,23854,5,0,2:0:0:0:
189,349,24170,1,0,2:0:0:0:
106,367,24486,2,0,P|65:340|6:227,1,170,2|2,2:0|2:0,2:0:0:0:
27,67,25749,6,0,P|130:45|304:107,1,255,10|0,2:1|2:0,2:0:0:0:
312,158,27012,2,0,P|392:195|441:184,2,127.5,10|0|0,2:1|2:0|2:0,2:0:0:0:
360,88,28275,1,10,2:1:0:0:
110,139,29223,5,0,2:0:0:0:
177,87,29538,2,0,P|219:97|254:120,1,85,8|8,2:1|2:1,2:0:0:0:
299,191,30170,2,0,P|277:227|268:268,1,85,2|2,2:3|2:3,2:0:0:0:
313,340,30801,6,0,P|405:317|486:331,1,170,14|10,2:1|2:1,2:0:0:0:
453,202,31907,2,0,B|435:167|435:167|460:61,1,127.5,10|8,2:0|2:0,2:0:0:0:
391,24,32696,1,10,2:1:0:0:
304,42,33012,1,10,2:0:0:0:
245,103,33328,2,0,P|169:90|91:24,1,170,10|8,2:1|2:1,2:0:0:0:
30,142,34433,2,0,B|81:195|32:258|39:249|-5:302|63:356,1,212.5,10|10,2:0|2:1,2:0:0:0:
128,363,35538,1,8,2:0:0:0:
195,310,35854,6,0,P|258:289|335:296,1,127.5,10|2,2:1|2:0,2:0:0:0:
471,366,36959,2,0,P|463:302|473:192,1,170,2|2,2:0|2:0,2:0:0:0:
487,113,37907,1,10,2:1:0:0:
420,60,38223,2,0,P|337:18|189:22,1,212.5,10|8,2:0|2:1,2:0:0:0:
104,69,39486,2,0,P|57:165|69:221,1,127.5,14|8,2:1|2:0,2:0:0:0:
88,261,40275,1,10,2:0:0:0:
162,301,40591,1,8,2:1:0:0:
234,257,40907,6,0,B|295:249|295:249|303:252|303:252|377:241,2,127.5,14|2|10,2:1|2:0|2:1,2:0:0:0:
86,341,42486,1,10,2:1:0:0:
33,274,42801,2,0,P|46:223|72:192,1,85,10|10,2:1|2:1,2:0:0:0:
123,135,43433,2,0,P|102:83|33:94,1,127.5,14|10,2:1|2:1,2:0:0:0:
145,17,44380,6,0,B|197:4|220:45|226:36|246:85|317:59,1,170,14|10,2:1|2:0,2:0:0:0:
385,72,45328,1,10,2:1:0:0:
451,18,45644,1,10,2:0:0:0:
467,101,45959,6,0,P|457:146|455:236,1,127.5,14|10,2:1|2:0,2:0:0:0:
402,344,46907,2,0,P|322:335|288:225,1,170,14|10,2:1|2:0,2:0:0:0:
326,190,47854,2,0,P|288:140|259:138,1,85,10|10,2:1|2:0,2:0:0:0:
193,174,48486,1,10,2:0:0:0:
138,109,48801,2,0,P|181:64|231:64,1,85,10|8,2:0|0:0,2:0:0:0:
318,8,49591,2,0,P|389:27|387:130,1,170,10|10,2:1|2:0,2:0:0:0:
447,318,51012,6,0,P|413:283|326:271,1,127.5,14|2,2:1|2:0,2:0:0:0:
276,326,51801,1,10,2:1:0:0:
193,306,52117,2,0,P|180:270|184:167,1,127.5,10|10,2:1|2:0,2:0:0:0:
238,120,52907,2,0,P|249:86|238:29,1,85,10|8,2:1|2:0,2:0:0:0:
163,6,53538,6,0,P|78:8|32:53,1,127.5,10|2,2:1|2:0,2:0:0:0:
28,115,54328,1,10,2:1:0:0:
1,194,54644,2,0,P|23:259|105:276,1,127.5,10|10,2:1|2:0,2:0:0:0:
138,226,55433,2,0,P|171:191|238:179,1,85,10|10,2:1|2:0,2:0:0:0:
287,199,56065,6,0,P|326:216|357:292,1,127.5,14|2,2:1|2:0,2:0:0:0:
301,355,56854,1,10,2:1:0:0:
217,373,57170,1,10,2:1:0:0:
163,307,57486,1,10,2:1:0:0:
86,344,57801,2,0,P|13:311|3:237,1,127.5,2|12,2:0|2:0,2:0:0:0:
39,195,58591,6,0,P|35:116|21:57,1,127.5,10|10,2:1|2:1,2:0:0:0:
88,12,59380,1,10,2:1:0:0:
153,65,59696,2,0,B|216:102|248:46|259:61|291:4|367:52,1,212.5,14|10,2:1|2:1,2:0:0:0:
410,110,60801,1,8,2:0:0:0:
344,164,61117,6,0,P|323:240|317:318,1,127.5,14|2,2:1|2:0,2:0:0:0:
289,368,61907,1,10,2:1:0:0:
205,349,62223,2,0,B|150:335|150:335|144:328|144:328|61:309,1,127.5,10|10,2:1|2:0,2:0:0:0:
35,244,63012,2,0,P|34:189|38:138,1,85,8|10,2:1|2:0,2:0:0:0:
73,82,63644,6,0,P|151:76|199:127,1,127.5,10|2,2:1|2:0,2:0:0:0:
219,182,64433,1,10,2:1:0:0:
288,230,64749,2,0,P|358:207|389:127,1,127.5,10|10,2:1|2:0,2:0:0:0:
401,80,65538,2,0,P|373:53|292:49,1,85,8|8,2:1|2:0,2:0:0:0:
252,77,66170,6,0,P|187:97|122:92,1,127.5,14|2,2:1|2:0,2:0:0:0:
50,58,66959,1,10,2:1:0:0:
46,142,67275,2,0,P|109:260|106:279,1,127.5,10|8,2:1|2:0,2:0:0:0:
56,313,68065,1,10,2:1:0:0:
115,373,68380,1,8,2:0:0:0:
191,335,68696,6,0,P|258:316|366:366,1,170,10|10,2:1|2:0,2:0:0:0:
434,253,69801,2,0,P|425:195|420:115,1,127.5,14|10,2:1|2:0,2:0:0:0:
430,41,70591,2,0,P|385:26|334:31,1,85,10|8,2:1|2:1,2:0:0:0:
297,95,71223,6,0,P|228:126|0:17,1,340,14|10,2:1|2:0,2:0:0:0:
288,212,73749,5,14,2:1:0:0:
339,279,74065,2,0,P|288:363|225:362,1,170,10|10,2:0|2:0,2:0:0:0:
129,221,75328,2,0,P|84:191|28:198,2,85,10|10|10,2:0|2:1|2:0,2:0:0:0:
196,273,76275,6,0,P|266:287|395:288,1,170,10|2,2:1|2:0,2:0:0:0:
406,216,77223,2,0,P|393:158|367:125,1,85,10|2,2:0|2:0,2:0:0:0:
312,84,77854,2,0,P|325:26|351:-7,2,85,10|10|10,2:1|2:1|2:1,2:0:0:0:
273,160,78801,1,14,2:1:0:0:
256,192,79117,12,2,81170,2:0:0:0:
