osu file format v14

[General]
AudioFilename: audio.mp3
AudioLeadIn: 0
PreviewTime: 50459
Countdown: 0
SampleSet: Soft
StackLeniency: 0.5
Mode: 0
LetterboxInBreaks: 0
WidescreenStoryboard: 1

[Editor]
Bookmarks: 10858,20963,31068,41173,51279,71489,74015,81436
DistanceSpacing: 1.1
BeatDivisor: 4
GridSize: 8
TimelineZoom: 1.5

[Metadata]
Title:Koko de Ikiteru (TV Size)
TitleUnicode:ここで生きてる (TV Size)
Artist:mary x jon-YAKITORY
ArtistUnicode:めありー×jon-YAKITORY
Creator:Airiesu
Version:Mayu's Expert
Source:探偵はもう、死んでいる。
Tags:Tantei wa mou shindeiru tanmoshi La detective esta está muerta the detective is already dead & siesta シエスタ natsunagi nagisa 夏凪渚 saikawa yui 斎川唯 charlotte arisaka anderson シャーロット・有坂・アンダーソン anime opening op japanese pop jpop j-pop meausa meari usagi めありーちゃんねる Mujina Amateurre Nagaraia Shikibe Mayu Shizuku- Kazato Asa Pile AyameMyMommy Yume Minami SekairiNights
BeatmapID:3094069
BeatmapSetID:1510909

[Difficulty]
HPDrainRate:5.2
CircleSize:4
OverallDifficulty:8.2
ApproachRate:9.1
SliderMultiplier:1.8
SliderTickRate:1

[Events]
//Background and Video events
0,0,"tanteibg3.jpg",0,0
Video,11,"tanteiwamouop.mp4"
//Break Periods
//Storyboard Layer 0 (Background)
//Storyboard Layer 1 (Fail)
//Storyboard Layer 2 (Pass)
//Storyboard Layer 3 (Foreground)
//Storyboard Layer 4 (Overlay)
//Storyboard Sound Samples

[TimingPoints]
-777,315.789473684211,4,2,1,40,1,0
486,-200,4,2,1,40,0,0
1749,-200,4,2,1,25,0,0
2380,-200,4,2,1,30,0,0
3012,-200,4,2,1,40,0,0
4275,-200,4,2,1,30,0,0
4906,-200,4,2,1,25,0,0
5538,-200,4,2,1,40,0,0
8065,-200,4,2,1,35,0,0
9328,-200,4,2,1,25,0,0
9959,-200,4,2,1,30,0,0
10117,-200,4,2,1,35,0,0
10275,-200,4,2,1,40,0,0
10591,-111.111111111111,4,2,1,60,0,0
13117,-111.111111111111,4,2,2,60,0,0
14538,-111.111111111111,4,2,10,55,0,0
14696,-111.111111111111,4,2,1,60,0,0
15170,-111.111111111111,4,2,10,55,0,0
15327,-111.111111111111,4,2,1,60,0,0
15486,-111.111111111111,4,2,11,50,0,0
15644,-90.9090909090909,4,2,1,65,0,0
16117,-90.9090909090909,4,2,4,65,0,0
16433,-90.9090909090909,4,2,2,60,0,0
16591,-90.9090909090909,4,2,2,60,0,0
16906,-90.9090909090909,4,2,3,60,0,0
17065,-90.9090909090909,4,2,1,60,0,0
17223,-90.9090909090909,4,2,3,60,0,0
17380,-90.9090909090909,4,2,3,60,0,0
17538,-90.9090909090909,4,2,3,60,0,0
17695,-90.9090909090909,4,2,1,60,0,0
17854,-90.9090909090909,4,2,3,60,0,0
18170,-90.9090909090909,4,2,3,65,0,0
18328,-90.9090909090909,4,2,1,65,0,0
18486,-90.9090909090909,4,2,3,65,0,0
18644,-90.9090909090909,4,2,4,70,0,0
18959,-90.9090909090909,4,2,2,65,0,0
19117,-90.9090909090909,4,2,2,65,0,0
19433,-90.9090909090909,4,2,3,65,0,0
19591,-90.9090909090909,4,2,1,65,0,0
20065,-90.9090909090909,4,2,10,60,0,0
20380,-90.9090909090909,4,2,11,55,0,0
20696,-142.857142857143,4,2,1,45,0,0
21328,-142.857142857143,4,2,1,40,0,0
21959,-142.857142857143,4,2,1,40,0,0
22116,-142.857142857143,4,2,1,40,0,0
22591,-142.857142857143,4,2,1,40,0,0
22749,-142.857142857143,4,2,1,40,0,0
22906,-142.857142857143,4,2,1,40,0,0
23223,-142.857142857143,4,2,1,45,0,0
23380,-142.857142857143,4,2,1,40,0,0
23538,-142.857142857143,4,2,1,40,0,0
24486,-142.857142857143,4,2,1,40,0,0
24643,-142.857142857143,4,2,1,40,0,0
25117,-142.857142857143,4,2,1,40,0,0
25432,-142.857142857143,4,2,1,40,0,0
25591,-142.857142857143,4,2,1,40,0,0
25749,-142.857142857143,4,2,1,45,0,0
26064,-142.857142857143,4,2,1,40,0,0
26853,-142.857142857143,4,2,1,40,0,0
27012,-142.857142857143,4,2,1,45,0,0
27327,-142.857142857143,4,2,1,40,0,0
28117,-142.857142857143,4,2,1,35,0,0
28275,-142.857142857143,4,2,1,45,0,0
28591,-142.857142857143,4,2,1,40,0,0
28748,-142.857142857143,4,2,1,40,0,0
29380,-142.857142857143,4,2,1,35,0,0
29538,-117.647058823529,4,2,1,40,0,0
29854,-117.647058823529,4,2,1,45,0,0
30643,-117.647058823529,4,2,1,50,0,0
30801,-117.647058823529,4,2,1,55,0,0
31117,-100,4,2,1,55,0,0
35854,-100,4,2,3,55,0,0
36170,-100,4,2,1,55,0,0
38696,-100,4,2,3,55,0,0
39169,-100,4,2,1,55,0,0
39328,-100,4,2,3,55,0,0
39486,-100,4,2,2,60,0,0
39801,-100,4,2,1,55,0,0
40116,-100,4,2,1,40,0,0
40275,-100,4,2,1,60,0,0
40433,-100,4,2,10,50,0,0
40591,-166.666666666667,4,2,10,50,0,0
40907,-111.111111111111,4,2,1,50,0,0
42170,-111.111111111111,4,2,3,30,0,0
42486,-111.111111111111,4,2,3,35,0,0
42801,-111.111111111111,4,2,3,40,0,0
43117,-111.111111111111,4,2,3,50,0,0
43433,-111.111111111111,4,2,1,60,0,0
43591,-111.111111111111,4,2,1,40,0,0
43670,-111.111111111111,4,2,1,50,0,0
43749,-111.111111111111,4,2,1,60,0,0
43907,-111.111111111111,4,2,4,60,0,0
44380,-111.111111111111,4,2,2,60,0,0
44695,-111.111111111111,4,2,3,60,0,0
44854,-111.111111111111,4,2,1,60,0,0
45012,-111.111111111111,4,2,3,60,0,0
45485,-111.111111111111,4,2,1,60,0,0
45644,-111.111111111111,4,2,3,60,0,0
45801,-111.111111111111,4,2,1,40,0,0
45880,-111.111111111111,4,2,1,50,0,0
45959,-100,4,2,1,65,0,0
46433,-100,4,2,2,60,0,0
46907,-100,4,2,2,65,0,0
47223,-100,4,2,3,60,0,0
47380,-100,4,2,1,60,0,0
47538,-100,4,2,3,60,0,0
47696,-100,4,2,3,60,0,0
47854,-100,4,2,3,60,0,0
48012,-100,4,2,1,60,0,0
48170,-100,4,2,3,60,0,0
48327,-100,4,2,1,60,0,0
48486,-100,4,2,2,70,0,0
48801,-100,4,2,3,70,0,0
48959,-100,4,2,1,70,0,0
49117,-100,4,2,3,70,0,0
49275,-100,4,2,10,65,0,0
49432,-100,4,2,3,70,0,0
49591,-71.4285714285714,4,2,4,70,0,0
49904,-71.4285714285714,4,2,1,40,0,0
49907,-71.4285714285714,4,2,1,40,0,0
50065,-71.4285714285714,4,2,1,60,0,0
50223,-71.4285714285714,4,2,1,80,0,0
50538,-71.4285714285714,4,2,1,60,0,0
50854,-71.4285714285714,4,2,1,65,0,0
51012,-83.3333333333333,4,2,1,75,0,1
51328,-83.3333333333333,4,2,3,75,0,1
51801,-83.3333333333333,4,2,1,75,0,1
51958,-83.3333333333333,4,2,3,75,0,1
52117,-83.3333333333333,4,2,1,75,0,1
52275,-83.3333333333333,4,2,5,75,0,1
52433,-83.3333333333333,4,2,1,75,0,1
52591,-83.3333333333333,4,2,3,75,0,1
53065,-83.3333333333333,4,2,1,75,0,1
53223,-83.3333333333333,4,2,3,75,0,1
54328,-83.3333333333333,4,2,1,75,0,1
54485,-83.3333333333333,4,2,3,75,0,1
54644,-83.3333333333333,4,2,1,75,0,1
54801,-83.3333333333333,4,2,5,75,0,1
54959,-83.3333333333333,4,2,1,75,0,1
55117,-83.3333333333333,4,2,3,75,0,1
55591,-83.3333333333333,4,2,1,75,0,1
55749,-83.3333333333333,4,2,3,75,0,1
56854,-83.3333333333333,4,2,1,75,0,1
57011,-83.3333333333333,4,2,3,75,0,1
57170,-83.3333333333333,4,2,1,75,0,1
57328,-83.3333333333333,4,2,5,75,0,1
57486,-83.3333333333333,4,2,1,75,0,1
57644,-83.3333333333333,4,2,3,75,0,1
58117,-83.3333333333333,4,2,1,75,0,1
58275,-83.3333333333333,4,2,3,75,0,1
58432,-83.3333333333333,4,2,1,75,0,1
58749,-83.3333333333333,4,2,10,70,0,1
59065,-83.3333333333333,4,2,4,70,0,1
59538,-83.3333333333333,4,2,3,75,0,1
59696,-83.3333333333333,4,2,1,75,0,1
60170,-83.3333333333333,4,2,3,75,0,1
60565,-83.3333333333333,4,2,1,75,0,1
60644,-83.3333333333333,4,2,1,65,0,1
60880,-83.3333333333333,4,2,1,70,0,1
61117,-83.3333333333333,4,2,1,75,0,1
61433,-83.3333333333333,4,2,3,75,0,1
61907,-83.3333333333333,4,2,1,75,0,1
62064,-83.3333333333333,4,2,3,75,0,1
62223,-83.3333333333333,4,2,1,75,0,1
62380,-83.3333333333333,4,2,5,75,0,1
62538,-83.3333333333333,4,2,1,75,0,1
62696,-83.3333333333333,4,2,3,75,0,1
63170,-83.3333333333333,4,2,1,75,0,1
63328,-83.3333333333333,4,2,3,75,0,1
64433,-83.3333333333333,4,2,1,75,0,1
64590,-83.3333333333333,4,2,3,75,0,1
64749,-83.3333333333333,4,2,1,75,0,1
64907,-83.3333333333333,4,2,5,75,0,1
65065,-83.3333333333333,4,2,1,75,0,1
65223,-83.3333333333333,4,2,3,75,0,1
65696,-83.3333333333333,4,2,1,75,0,1
65854,-83.3333333333333,4,2,3,75,0,1
66012,-83.3333333333333,4,2,3,75,0,1
66170,-83.3333333333333,4,2,3,75,0,1
66959,-83.3333333333333,4,2,1,75,0,1
67117,-83.3333333333333,4,2,3,75,0,1
67275,-83.3333333333333,4,2,1,75,0,1
67433,-83.3333333333333,4,2,5,75,0,1
67591,-83.3333333333333,4,2,1,75,0,1
67749,-83.3333333333333,4,2,3,75,0,1
67907,-83.3333333333333,4,2,3,75,0,1
68065,-83.3333333333333,4,2,3,75,0,1
68222,-83.3333333333333,4,2,1,75,0,1
68380,-83.3333333333333,4,2,3,75,0,1
68854,-83.3333333333333,4,2,1,75,0,1
69012,-83.3333333333333,4,2,3,75,0,1
69170,-83.3333333333333,4,2,1,75,0,1
69644,-83.3333333333333,4,2,10,75,0,1
69801,-83.3333333333333,4,2,2,75,0,1
70432,-83.3333333333333,4,2,1,40,0,1
70512,-83.3333333333333,4,2,1,50,0,1
70591,-83.3333333333333,4,2,1,60,0,1
70749,-83.3333333333333,4,2,10,55,0,1
71065,-83.3333333333333,4,2,10,55,0,1
71223,-200,4,2,1,65,0,0
72328,-200,4,2,1,55,0,0
72407,-200,4,2,1,60,0,0
72486,-200,4,2,4,65,0,0
73749,-111.111111111111,4,2,1,50,0,0
74065,-111.111111111111,4,2,3,50,0,0
74380,-111.111111111111,4,2,6,50,0,0
74696,-111.111111111111,4,2,3,50,0,0
74854,-111.111111111111,4,2,1,50,0,0
75011,-111.111111111111,4,2,6,50,0,0
75170,-111.111111111111,4,2,1,50,0,0
75328,-111.111111111111,4,2,3,50,0,0
75644,-111.111111111111,4,2,6,50,0,0
75801,-111.111111111111,4,2,1,50,0,0
75959,-111.111111111111,4,2,3,50,0,0
76196,-111.111111111111,4,2,3,50,0,0
76275,-111.111111111111,4,2,3,60,0,0
76907,-111.111111111111,4,2,6,60,0,0
77223,-111.111111111111,4,2,3,60,0,0
77380,-111.111111111111,4,2,1,60,0,0
77537,-111.111111111111,4,2,6,60,0,0
77696,-111.111111111111,4,2,1,30,0,0
77933,-111.111111111111,4,2,1,35,0,0
78170,-111.111111111111,4,2,1,40,0,0
78407,-111.111111111111,4,2,1,45,0,0
78644,-111.111111111111,4,2,1,50,0,0
78801,-1000,4,2,1,60,0,0
78880,-1000,4,2,1,40,0,0
80379,-1000,4,2,1,40,0,0
80538,-1000,4,2,1,30,0,0
80696,-1000,4,2,1,30,0,0
80854,-333.333333333333,4,2,1,30,0,0
81169,-333.333333333333,4,2,1,50,0,0

[Colours]
Combo1 : 248,92,97
Combo2 : 114,215,248
Combo3 : 244,188,83
Combo4 : 197,190,190

[HitObjects]
499,241,328,6,0,L|492:274,2,30
502,228,486,2,0,B|482:187|430:177|392:207|384:248|399:278|399:278|419:318|394:366|347:377|310:358|296:328,1,360,2|2,0:0|0:0,0:0:0:0:
296,328,2380,1,2,0:0:0:0:
24,261,3012,6,0,P|3:140|118:83,1,270,2|0,0:0|0:0,0:0:0:0:
161,8,4275,2,0,L|192:188,1,180,2|2,0:0|0:0,0:0:0:0:
191,185,5538,6,0,B|258:150|314:203|314:203|373:260|454:209,1,270,2|0,0:0|0:0,0:0:0:0:
411,125,6801,2,0,B|335:128|313:202|313:202|290:280|195:277,1,270,2|0,0:0|0:0,0:0:0:0:
28,384,8065,6,0,L|0:203,1,180,2|0,0:0|0:0,0:0:0:0:
119,364,9328,2,0,L|91:183,1,180,2|2,0:0|0:0,0:0:0:0:
34,131,10117,1,8,0:1:0:0:
34,131,10275,2,0,L|42:79,1,45,2|0,0:3|0:0,0:0:0:0:
0,1,10591,6,0,P|77:38|155:23,1,162,14|8,0:1|0:1,0:0:0:0:
234,4,11065,2,0,P|245:45|245:83,1,81.0000000000001,2|8,0:0|0:1,0:0:0:0:
244,83,11380,1,0,0:0:0:0:
185,218,11538,5,10,0:1:0:0:
185,218,11696,2,0,L|216:388,1,162
108,337,12170,2,0,P|146:313|183:307,1,81.0000000000001,8|0,0:1|0:0,0:0:0:0:
278,245,12486,2,0,P|322:251|354:270,1,81.0000000000001,10|0,0:1|0:0,0:0:0:0:
457,149,12801,1,10,0:1:0:0:
442,68,12959,1,0,0:0:0:0:
503,0,13117,6,0,P|433:37|350:37,1,162,14|8,0:1|0:1,0:0:0:0:
128,172,13591,2,0,P|108:134|106:87,1,81.0000000000001,10|8,0:0|0:1,0:0:0:0:
42,50,13907,1,0,0:0:0:0:
185,11,14065,2,0,P|225:87|229:181,1,162,14|8,0:0|0:1,0:0:0:0:
97,331,14538,5,8,0:3:0:0:
176,301,14696,1,10,0:1:0:0:
241,354,14854,2,0,L|290:342,1,40.5,8|8,0:1|0:1,0:0:0:0:
354,384,15012,1,10,0:1:0:0:
432,353,15170,2,0,P|448:315|450:246,1,81.0000000000001,4|8,0:3|0:1,0:0:0:0:
426,199,15486,1,8,0:3:0:0:
512,220,15644,6,0,P|419:219|325:146,1,198,14|8,0:1|0:0,0:0:0:0:
178,36,16117,2,0,P|120:44|78:69,1,99,10|0,0:1|0:0,0:0:0:0:
85,63,16433,1,8,0:1:0:0:
127,317,16591,6,0,P|153:251|151:120,1,198,14|8,0:0|0:1,0:0:0:0:
245,95,17065,1,8,0:1:0:0:
294,179,17223,1,8,0:0:0:0:
445,81,17380,5,0,0:0:0:0:
445,81,17459,1,0,0:0:0:0:
445,81,17538,2,0,P|388:81|334:110,1,99,10|8,0:1|0:1,0:0:0:0:
372,244,17854,2,0,P|429:244|483:215,1,99,10|0,0:0|0:0,0:0:0:0:
255,332,18170,5,12,0:1:0:0:
217,138,18328,1,8,0:1:0:0:
23,176,18486,1,8,0:0:0:0:
61,370,18644,6,0,P|105:297|110:228,1,148.5,10|0,0:1|0:0,0:0:0:0:
106,226,18959,1,8,0:1:0:0:
246,51,19117,2,0,P|293:91|304:155,1,99,12|0,0:0|0:0,0:0:0:0:
243,338,19433,5,8,0:1:0:0:
364,298,19591,1,8,0:1:0:0:
487,259,19749,1,12,0:0:0:0:
451,340,19907,5,8,0:0:0:0:
451,340,19986,1,8,0:0:0:0:
451,340,20065,1,8,0:3:0:0:
364,298,20223,1,4,0:3:0:0:
278,256,20380,1,8,0:3:0:0:
56,363,20538,5,4,0:3:0:0:
56,363,20617,1,0,0:0:0:0:
56,363,20696,2,0,P|26:298|25:219,1,126,12|0,0:1|0:0,0:0:0:0:
122,205,21328,2,0,P|152:270|153:349,1,126,2|0,0:0|0:0,0:0:0:0:
156,323,21801,1,0,0:0:0:0:
256,350,21959,6,0,P|286:336|309:308,2,62.9999999999999,2|0|0,0:0|0:0|0:0,0:0:0:0:
237,268,22433,1,0,0:0:0:0:
387,312,22591,2,0,P|412:260|414:181,1,126,2|0,0:0|0:0,0:0:0:0:
371,133,23065,1,0,0:0:0:0:
371,133,23223,6,0,L|515:164,1,126,10|0,0:1|0:0,0:0:0:0:
512,47,23854,2,0,L|368:16,1,126,0|2,0:0|0:0,0:0:0:0:
388,20,24328,1,0,0:0:0:0:
313,68,24486,6,0,P|278:69|242:57,1,62.9999999999999,2|2,0:0|0:3,0:0:0:0:
189,175,24801,2,0,P|170:145|163:108,1,62.9999999999999
56,12,25117,6,0,P|46:70|12:128,1,126,2|2,0:0|0:0,0:0:0:0:
12,127,25591,1,8,0:1:0:0:
56,202,25749,6,0,L|189:174,1,126,10|0,0:1|0:0,0:0:0:0:
267,225,26223,2,0,P|243:183|238:89,1,126,2|0,0:0|0:0,0:0:0:0:
296,30,26696,2,0,L|362:44,1,62.9999999999999,2|8,0:0|0:1,0:0:0:0:
364,199,27012,6,0,L|497:227,1,126,10|0,0:1|0:0,0:0:0:0:
502,143,27486,1,2,0:0:0:0:
502,143,27644,2,0,L|369:115,1,126,0|2,0:0|0:0,0:0:0:0:
257,218,28275,6,0,B|200:206|170:241|170:241|136:284|76:264,1,189,10|0,0:1|0:0,0:0:0:0:
8,236,28907,2,0,P|35:284|35:369,1,126,0|2,0:0|0:0,0:0:0:0:
121,376,29380,5,8,0:1:0:0:
121,376,29459,1,8,0:1:0:0:
121,376,29538,2,0,L|196:358,1,76.5000000000003,10|0,0:1|0:0,0:0:0:0:
257,218,29854,2,0,L|332:200,1,76.5000000000003,2|0,0:3|0:0,0:0:0:0:
388,271,30170,6,0,L|313:289,1,76.5000000000003,2|0,0:3|0:0,0:0:0:0:
175,171,30486,2,0,L|100:189,1,76.5000000000003,2|8,0:3|0:0,0:0:0:0:
100,188,30723,1,8,0:0:0:0:
100,188,30801,1,12,0:1:0:0:
230,44,31117,6,0,P|249:92|247:142,1,90,8|0,0:0|0:0,0:0:0:0:
249,129,31354,1,0,0:0:0:0:
249,129,31433,1,10,0:1:0:0:
331,200,31591,2,0,L|420:180,1,90,8|0,0:1|0:0,0:0:0:0:
456,376,31907,6,0,B|469:351|498:337|498:337|370:368,1,180,10|10,0:0|0:1,0:0:0:0:
317,288,32380,2,0,L|331:199,1,90,8|10,0:0|0:1,0:0:0:0:
258,183,32617,1,8,0:1:0:0:
258,183,32696,2,0,L|244:272,1,90,8|10,0:1|0:1,0:0:0:0:
48,379,33012,2,0,P|32:335|31:285,1,90,8|0,0:0|0:0,0:0:0:0:
105,139,33328,6,0,P|121:183|122:233,1,90,10|0,0:1|0:0,0:0:0:0:
217,384,33644,2,0,B|259:373|259:373|280:280|280:280|328:269,1,180,8|8,0:0|0:1,0:0:0:0:
384,327,34117,1,8,0:1:0:0:
464,299,34275,1,0,0:0:0:0:
424,154,34433,6,0,P|402:202|403:260,1,90,10|0,0:1|0:0,0:0:0:0:
486,214,34749,1,8,0:1:0:0:
508,97,34907,2,0,P|427:96|374:66,1,135,8|0,0:0|0:0,0:0:0:0:
373,63,35223,1,10,0:1:0:0:
310,129,35380,1,8,0:1:0:0:
216,111,35538,2,0,P|196:64|197:10,1,90,10|0,0:0|0:0,0:0:0:0:
251,211,35854,6,0,L|233:356,1,135,10|0,0:1|0:0,0:0:0:0:
233,356,36170,1,10,0:0:0:0:
78,287,36328,2,0,P|116:263|167:258,1,90,2|8,0:0|0:1,0:0:0:0:
331,319,36644,5,8,0:1:0:0:
484,257,36801,1,8,0:0:0:0:
400,375,36959,2,0,B|415:308|415:308|396:263|396:263|410:203,1,180,10|8,0:1|0:1,0:0:0:0:
291,73,37433,5,10,0:0:0:0:
360,16,37591,2,0,P|377:59|377:103,1,90,10|8,0:1|0:1,0:0:0:0:
205,170,37907,5,8,0:1:0:0:
116,138,38065,1,0,0:0:0:0:
51,210,38223,2,0,L|77:383,1,135,10|0,0:0|0:0,0:0:0:0:
74,354,38538,1,8,0:1:0:0:
160,384,38696,2,0,P|175:343|171:284,1,90,8|0,0:0|0:0,0:0:0:0:
272,160,39012,2,0,P|257:201|261:260,1,90,8|8,0:1|0:1,0:0:0:0:
288,336,39328,1,10,0:0:0:0:
453,292,39486,6,0,P|393:286|279:345,1,180,14|8,0:1|0:1,0:0:0:0:
134,218,39959,6,0,L|147:117,1,90,8|8,0:0|0:0,0:0:0:0:
145,128,40196,1,8,0:0:0:0:
145,128,40275,1,10,0:0:0:0:
255,151,40433,1,8,0:3:0:0:
328,91,40591,2,0,P|333:51|351:15,1,80.9999999999998,4|0,0:3|0:0,0:0:0:0:
351,15,40907,6,0,L|186:45,1,162,14|8,0:1|0:1,0:0:0:0:
115,199,41380,2,0,L|32:214,1,81.0000000000001,2|8,0:0|0:1,0:0:0:0:
27,133,41696,1,0,0:0:0:0:
27,133,41854,2,0,L|109:117,1,81.0000000000001,10|0,0:1|0:0,0:0:0:0:
238,276,42170,1,8,0:1:0:0:
238,276,42486,6,0,P|259:311|266:349,1,81.0000000000001,10|0,0:1|0:0,0:0:0:0:
292,192,42801,2,0,P|251:192|214:179,1,81.0000000000001,8|0,0:1|0:0,0:0:0:0:
337,280,43117,2,0,P|356:244|386:219,1,81.0000000000001,10|0,0:1|0:0,0:0:0:0:
493,78,43433,5,14,0:1:0:0:
382,99,43591,1,8,0:0:0:0:
382,99,43670,1,8,0:0:0:0:
382,99,43749,1,8,0:0:0:0:
308,13,43907,1,10,0:1:0:0:
96,224,44223,5,8,0:1:0:0:
44,156,44380,2,0,B|133:142|95:211|212:194,1,162,14|8,0:0|0:1,0:0:0:0:
266,159,44854,1,8,0:1:0:0:
328,343,45012,6,0,P|370:349|417:368,1,81.0000000000001,10|0,0:0|0:0,0:0:0:0:
426,277,45328,2,0,P|387:263|347:257,1,81.0000000000001,10|8,0:1|0:1,0:0:0:0:
492,197,45644,1,10,0:0:0:0:
419,90,45801,5,8,0:0:0:0:
419,90,45880,1,8,0:0:0:0:
419,90,45959,2,0,P|405:139|405:179,1,90,14|0,0:1|0:0,0:0:0:0:
426,277,46275,1,8,0:0:0:0:
247,370,46433,2,0,L|101:349,1,135,14|0,0:1|0:0,0:0:0:0:
100,349,46749,1,8,0:1:0:0:
20,384,46907,2,0,P|3:337|5:290,1,90,14|0,0:0|0:0,0:0:0:0:
48,187,47223,5,8,0:1:0:0:
130,216,47380,1,8,0:1:0:0:
196,159,47538,1,10,0:0:0:0:
286,32,47696,5,0,0:0:0:0:
286,32,47775,1,0,0:0:0:0:
286,32,47854,1,10,0:1:0:0:
372,112,48012,1,8,0:1:0:0:
484,77,48170,2,0,P|499:127|500:171,1,90,10|8,0:0|0:1,0:0:0:0:
335,278,48486,5,14,0:0:0:0:
372,112,48644,1,8,0:1:0:0:
192,32,48801,1,10,0:0:0:0:
155,198,48959,1,8,0:1:0:0:
145,199,49038,1,0,0:0:0:0:
135,202,49117,2,0,L|73:217,1,45,8|0,0:0|0:0,0:0:0:0:
5,141,49275,2,0,L|129:111,1,90,8|8,0:3|0:0,0:0:0:0:
424,360,49591,6,0,P|343:303|247:301,1,189,10|0,0:1|0:0,0:0:0:0:
245,292,49907,5,10,0:0:0:0:
318,73,50065,1,10,0:0:0:0:
92,119,50223,1,10,0:0:0:0:
280,184,50538,5,2,0:0:0:0:
280,184,50854,5,0,0:0:0:0:
472,100,51012,2,0,P|403:54|320:72,1,162,14|0,0:1|0:0,0:0:0:0:
318,73,51328,1,10,0:0:0:0:
92,119,51486,2,0,P|61:75|74:9,1,108,2|8,0:0|0:1,0:0:0:0:
154,0,51801,2,0,P|185:44|172:110,1,108,10|8,0:1|0:0,0:0:0:0:
0,306,52117,6,0,P|81:294|139:359,1,162,10|0,0:1|0:0,0:0:0:0:
141,357,52433,1,8,0:1:0:0:
274,328,52591,1,10,0:0:0:0:
481,384,52749,6,0,P|503:330|499:266,1,108,2|8,0:0|0:1,0:0:0:0:
453,218,53065,1,8,0:1:0:0:
379,261,53223,2,0,P|357:315|361:379,1,108,10|0,0:0|0:0,0:0:0:0:
156,221,53538,6,0,L|185:49,1,162,10|0,0:1|0:0,0:0:0:0:
184,48,53854,1,10,0:0:0:0:
32,107,54012,2,0,P|32:162|63:216,1,108,2|8,0:0|0:1,0:0:0:0:
301,143,54328,2,0,P|301:89|277:41,1,108,10|8,0:1|0:0,0:0:0:0:
0,322,54644,6,0,P|72:318|154:387,1,162,10|0,0:1|0:0,0:0:0:0:
153,384,54959,1,8,0:1:0:0:
283,350,55117,1,10,0:0:0:0:
223,202,55275,2,0,P|203:251|200:312,1,108,2|8,0:0|0:1,0:0:0:0:
283,350,55591,1,8,0:1:0:0:
375,332,55749,2,0,P|395:282|398:228,1,108,10|0,0:0|0:0,0:0:0:0:
184,48,56065,6,0,L|-8:85,1,162,14|0,0:1|0:0,0:0:0:0:
10,80,56380,1,10,0:0:0:0:
88,212,56538,2,0,P|114:153|112:102,1,108,2|8,0:0|0:1,0:0:0:0:
290,22,56854,2,0,P|264:81|266:132,1,108,10|8,0:1|0:0,0:0:0:0:
283,350,57170,6,0,P|352:305|444:326,1,162,10|0,0:1|0:0,0:0:0:0:
438,321,57486,1,10,0:1:0:0:
489,215,57644,1,8,0:0:0:0:
383,111,57801,2,0,L|405:239,1,108,2|8,0:0|0:1,0:0:0:0:
196,326,58117,5,10,0:1:0:0:
283,350,58275,2,0,L|305:222,1,108,12|10,0:0|0:1,0:0:0:0:
218,34,58591,5,10,0:0:0:0:
26,63,58749,1,8,0:3:0:0:
56,256,58907,1,4,0:3:0:0:
249,225,59065,1,10,0:1:0:0:
249,225,59380,5,10,0:1:0:0:
136,202,59538,1,8,0:0:0:0:
163,4,59696,2,0,P|200:57|202:165,1,162,14|0,0:1|0:0,0:0:0:0:
206,151,60012,1,8,0:1:0:0:
318,286,60170,2,0,P|342:227|331:182,1,108,12|0,0:0|0:0,0:0:0:0:
438,371,60486,5,10,0:1:0:0:
415,341,60565,1,8,0:1:0:0:
387,316,60644,1,8,0:0:0:0:
354,298,60723,1,8,0:0:0:0:
318,286,60801,1,8,0:0:0:0:
280,282,60880,1,8,0:0:0:0:
243,285,60959,1,8,0:0:0:0:
206,296,61038,1,8,0:0:0:0:
173,314,61117,6,0,P|94:335|21:267,1,162,14|0,0:1|0:0,0:0:0:0:
25,277,61433,1,10,0:0:0:0:
132,143,61591,2,0,P|117:191|112:258,1,108,2|8,0:0|0:1,0:0:0:0:
354,298,61907,2,0,P|369:246|374:192,1,108,10|8,0:1|0:0,0:0:0:0:
459,17,62223,6,0,B|343:-5|388:106|235:73,1,216,10|8,0:1|0:1,0:0:0:0:
93,36,62696,1,10,0:0:0:0:
187,0,62854,1,2,0:0:0:0:
68,208,63012,5,8,0:1:0:0:
44,122,63170,1,8,0:1:0:0:
0,288,63328,2,0,P|59:294|104:321,1,108,10|0,0:0|0:0,0:0:0:0:
232,179,63644,6,0,P|305:176|397:130,1,162,10|0,0:1|0:0,0:0:0:0:
394,129,63959,1,10,0:0:0:0:
442,57,64117,2,0,P|480:109|476:165,1,108,2|8,0:0|0:1,0:0:0:0:
368,301,64433,2,0,P|330:249|334:193,1,108,10|8,0:1|0:0,0:0:0:0:
140,8,64749,6,0,P|93:78|89:165,1,162,10|0,0:1|0:0,0:0:0:0:
86,153,65065,1,8,0:1:0:0:
126,247,65223,1,10,0:0:0:0:
27,231,65380,1,2,0:0:0:0:
240,334,65538,5,8,0:1:0:0:
368,299,65696,1,8,0:1:0:0:
496,264,65854,1,8,0:0:0:0:
299,146,66012,5,0,0:0:0:0:
299,146,66091,1,0,0:0:0:0:
299,146,66170,2,0,P|282:199|289:260,1,108,14|0,0:1|0:0,0:0:0:0:
384,328,66486,1,10,0:0:0:0:
496,264,66644,2,0,P|513:211|506:150,1,108,2|8,0:0|0:1,0:0:0:0:
408,40,66959,5,10,0:1:0:0:
502,16,67117,1,8,0:0:0:0:
313,63,67275,2,0,B|201:35|225:133|82:102,1,216,10|8,0:1|0:1,0:0:0:0:
31,63,67749,1,10,0:0:0:0:
3,201,67907,1,0,0:0:0:0:
3,201,67986,1,0,0:0:0:0:
3,201,68065,2,0,P|4:260|34:320,1,108,10|8,0:1|0:1,0:0:0:0:
231,243,68380,2,0,P|230:184|200:124,1,108,10|0,0:0|0:0,0:0:0:0:
237,384,68696,5,10,0:1:0:0:
318,303,68854,1,8,0:1:0:0:
429,332,69012,1,8,0:0:0:0:
480,160,69170,5,8,0:1:0:0:
480,160,69249,1,8,0:1:0:0:
480,160,69328,1,10,0:0:0:0:
375,48,69486,1,10,0:0:0:0:
227,81,69644,1,8,0:3:0:0:
296,16,69801,6,0,P|276:79|284:201,1,162,14|0,0:1|0:0,0:0:0:0:
277,174,70117,1,8,0:1:0:0:
237,384,70275,2,0,P|250:342|244:260,1,108,14|8,0:0|0:0,0:0:0:0:
249,278,70512,1,8,0:0:0:0:
249,278,70591,1,8,0:0:0:0:
179,239,70749,1,8,0:3:0:0:
103,273,70907,1,4,0:3:0:0:
79,326,71065,1,0,0:0:0:0:
444,367,71223,6,0,P|454:251|367:78,1,315,14|8,0:1|0:1,0:0:0:0:
366,77,72407,1,8,0:1:0:0:
366,77,72486,1,10,0:0:0:0:
0,347,73749,6,0,P|41:349|86:373,1,81.0000000000001,14|0,0:1|0:0,0:0:0:0:
158,336,74065,2,0,L|184:169,1,162,8|2,0:0|0:0,0:0:0:0:
182,175,74538,1,0,0:0:0:0:
95,42,74696,5,8,0:0:0:0:
95,42,74854,2,0,P|99:93|126:137,1,81.0000000000001,8|2,0:1|0:0,0:0:0:0:
201,93,75170,1,8,0:1:0:0:
201,93,75328,2,0,P|198:42|170:-1,1,81.0000000000001,8|0,0:0|0:0,0:0:0:0:
332,120,75644,5,2,0:0:0:0:
402,59,75801,1,8,0:1:0:0:
488,87,75959,2,0,P|477:130|478:174,1,81.0000000000001,8|0,0:0|0:0,0:0:0:0:
476,166,76196,1,0,0:0:0:0:
476,166,76275,5,10,0:1:0:0:
392,200,76433,1,0,0:0:0:0:
373,296,76591,1,8,0:0:0:0:
462,262,76749,5,0,0:0:0:0:
310,233,76907,1,2,0:0:0:0:
208,350,77065,1,0,0:0:0:0:
55,320,77223,1,8,0:0:0:0:
128,200,77380,2,0,P|144:247|144:296,1,81.0000000000001,8|2,0:1|0:0,0:0:0:0:
372,376,77696,5,8,0:0:0:0:
392,379,77775,1,8,0:0:0:0:
415,376,77854,1,8,0:0:0:0:
434,367,77933,1,8,0:0:0:0:
447,354,78012,1,8,0:0:0:0:
456,336,78091,1,8,0:0:0:0:
462,315,78170,5,8,0:0:0:0:
465,286,78249,1,8,0:0:0:0:
455,252,78328,1,8,0:0:0:0:
429,228,78407,1,8,0:0:0:0:
385,219,78486,1,8,0:0:0:0:
353,233,78565,1,8,0:0:0:0:
306,239,78644,1,8,0:0:0:0:
265,217,78723,1,8,0:0:0:0:
235,169,78801,6,0,P|235:121|220:80,1,90,14|0,0:1|0:0,0:0:0:0:
123,116,80538,5,2,0:0:0:0:
123,116,80696,1,0,0:0:0:0:
123,116,80854,2,0,P|124:150|134:178,1,54.0000000000001,2|2,0:0|0:1,0:0:0:0:
