osu file format v14

[General]
AudioFilename: audio.mp3
AudioLeadIn: 0
PreviewTime: 50459
Countdown: 0
SampleSet: Soft
StackLeniency: 0.4
Mode: 0
LetterboxInBreaks: 0
WidescreenStoryboard: 1

[Editor]
Bookmarks: 594,10858,20963,31068,41173,51279,74015,79068
DistanceSpacing: 1
BeatDivisor: 4
GridSize: 32
TimelineZoom: 1.9

[Metadata]
Title:Koko de Ikiteru (TV Size)
TitleUnicode:ここで生きてる (TV Size)
Artist:mary x jon-YAKITORY
ArtistUnicode:めありー×jon-YAKITORY
Creator:Airiesu
Version:Ayame's Normal
Source:探偵はもう、死んでいる。
Tags:Tantei wa mou shindeiru tanmoshi La detective esta está muerta the detective is already dead & siesta シエスタ natsunagi nagisa 夏凪渚 saikawa yui 斎川唯 charlotte arisaka anderson シャーロット・有坂・アンダーソン anime opening op japanese pop jpop j-pop meausa meari usagi めありーちゃんねる Mujina Amateurre Nagaraia Shikibe Mayu Shizuku- Kazato Asa Pile AyameMyMommy Yume Minami SekairiNights
BeatmapID:3094130
BeatmapSetID:1510909

[Difficulty]
HPDrainRate:3.8
CircleSize:3.4
OverallDifficulty:4
ApproachRate:5.2
SliderMultiplier:1.02
SliderTickRate:1

[Events]
//Background and Video events
0,0,"tanteibg6.jpg",0,0
Video,11,"tanteiwamouop.mp4"
//Break Periods
//Storyboard Layer 0 (Background)
//Storyboard Layer 1 (Fail)
//Storyboard Layer 2 (Pass)
//Storyboard Layer 3 (Foreground)
//Storyboard Layer 4 (Overlay)
//Storyboard Sound Samples

[TimingPoints]
-777,315.789473684211,4,2,1,40,1,0
1749,-100,4,2,1,25,0,0
2380,-100,4,2,1,30,0,0
3012,-100,4,2,1,40,0,0
4275,-100,4,2,1,30,0,0
4907,-100,4,2,1,25,0,0
5538,-100,4,2,1,40,0,0
8065,-100,4,2,1,35,0,0
9328,-100,4,2,1,25,0,0
9959,-100,4,2,1,30,0,0
10117,-100,4,2,1,35,0,0
10275,-100,4,2,1,40,0,0
10591,-100,4,2,1,60,0,0
13117,-100,4,2,2,60,0,0
14537,-100,4,2,10,55,0,0
14695,-100,4,2,1,60,0,0
15170,-100,4,2,10,55,0,0
15328,-100,4,2,1,60,0,0
15485,-100,4,2,11,50,0,0
15644,-100,4,2,1,65,0,0
16117,-100,4,2,4,65,0,0
16433,-100,4,2,2,60,0,0
16591,-100,4,2,2,60,0,0
16906,-100,4,2,3,60,0,0
17065,-100,4,2,1,60,0,0
17223,-100,4,2,3,60,0,0
17695,-100,4,2,1,60,0,0
17854,-100,4,2,3,60,0,0
18170,-100,4,2,3,65,0,0
18328,-100,4,2,1,65,0,0
18486,-100,4,2,3,65,0,0
18644,-100,4,2,4,70,0,0
18959,-100,4,2,2,65,0,0
19117,-100,4,2,2,65,0,0
19432,-100,4,2,3,65,0,0
19591,-100,4,2,1,65,0,0
19749,-100,4,2,1,65,0,0
20065,-100,4,2,10,60,0,0
20380,-100,4,2,11,55,0,0
20695,-100,4,2,1,45,0,0
21328,-111.111111111111,4,2,1,40,0,0
21959,-111.111111111111,4,2,1,40,0,0
22117,-111.111111111111,4,2,1,40,0,0
22591,-111.111111111111,4,2,1,40,0,0
22749,-111.111111111111,4,2,1,40,0,0
23223,-111.111111111111,4,2,1,45,0,0
23380,-111.111111111111,4,2,1,40,0,0
24486,-111.111111111111,4,2,1,40,0,0
24644,-111.111111111111,4,2,1,40,0,0
24801,-111.111111111111,4,2,1,40,0,0
25117,-111.111111111111,4,2,1,40,0,0
25432,-111.111111111111,4,2,1,40,0,0
25591,-111.111111111111,4,2,1,40,0,0
25749,-111.111111111111,4,2,1,45,0,0
26064,-111.111111111111,4,2,1,40,0,0
26854,-111.111111111111,4,2,1,40,0,0
27012,-111.111111111111,4,2,1,45,0,0
27327,-111.111111111111,4,2,1,40,0,0
28117,-111.111111111111,4,2,1,35,0,0
28275,-111.111111111111,4,2,1,45,0,0
28590,-111.111111111111,4,2,1,40,0,0
29380,-111.111111111111,4,2,1,35,0,0
29538,-111.111111111111,4,2,1,40,0,0
29853,-111.111111111111,4,2,1,45,0,0
30644,-111.111111111111,4,2,1,50,0,0
30801,-100,4,2,1,55,0,0
35854,-100,4,2,3,55,0,0
36169,-100,4,2,1,55,0,0
38696,-100,4,2,3,55,0,0
39169,-100,4,2,1,55,0,0
39328,-100,4,2,3,55,0,0
39486,-100,4,2,2,60,0,0
39801,-100,4,2,1,55,0,0
40117,-100,4,2,1,40,0,0
40275,-100,4,2,1,60,0,0
40432,-100,4,2,10,50,0,0
40907,-105.263157894737,4,2,1,50,0,0
42169,-105.263157894737,4,2,3,30,0,0
42485,-105.263157894737,4,2,3,35,0,0
42801,-105.263157894737,4,2,3,40,0,0
43117,-105.263157894737,4,2,3,50,0,0
43433,-105.263157894737,4,2,1,60,0,0
43591,-105.263157894737,4,2,1,40,0,0
43670,-105.263157894737,4,2,1,50,0,0
43749,-105.263157894737,4,2,1,60,0,0
43907,-105.263157894737,4,2,4,60,0,0
44380,-105.263157894737,4,2,2,60,0,0
44695,-105.263157894737,4,2,3,60,0,0
44854,-105.263157894737,4,2,1,60,0,0
45012,-105.263157894737,4,2,3,60,0,0
45485,-105.263157894737,4,2,1,60,0,0
45644,-105.263157894737,4,2,3,60,0,0
45801,-105.263157894737,4,2,1,40,0,0
45880,-105.263157894737,4,2,1,50,0,0
45959,-100,4,2,1,65,0,0
46433,-100,4,2,2,60,0,0
46907,-100,4,2,2,65,0,0
47222,-100,4,2,3,60,0,0
47380,-100,4,2,1,60,0,0
47538,-100,4,2,3,60,0,0
48012,-100,4,2,1,60,0,0
48170,-100,4,2,3,60,0,0
48327,-100,4,2,1,60,0,0
48486,-100,4,2,2,70,0,0
48801,-100,4,2,3,70,0,0
48959,-100,4,2,1,70,0,0
49117,-100,4,2,3,70,0,0
49274,-100,4,2,10,65,0,0
49432,-100,4,2,3,70,0,0
49591,-100,4,2,4,70,0,0
49906,-100,4,2,1,40,0,0
50065,-100,4,2,1,60,0,0
50223,-100,4,2,1,80,0,0
50538,-100,4,2,1,60,0,0
50854,-100,4,2,1,65,0,0
51012,-90.9090909090909,4,2,1,75,0,0
51327,-90.9090909090909,4,2,3,75,0,0
51801,-90.9090909090909,4,2,1,75,0,0
51958,-90.9090909090909,4,2,3,75,0,0
52117,-90.9090909090909,4,2,1,75,0,0
52275,-90.9090909090909,4,2,5,75,0,0
52433,-90.9090909090909,4,2,1,75,0,0
52591,-90.9090909090909,4,2,3,75,0,0
53064,-90.9090909090909,4,2,1,75,0,0
53223,-90.9090909090909,4,2,3,75,0,0
54328,-90.9090909090909,4,2,1,75,0,0
54485,-90.9090909090909,4,2,3,75,0,0
54644,-90.9090909090909,4,2,1,75,0,0
54801,-90.9090909090909,4,2,5,75,0,0
54959,-90.9090909090909,4,2,1,75,0,0
55117,-90.9090909090909,4,2,3,75,0,0
55590,-90.9090909090909,4,2,1,75,0,0
55749,-90.9090909090909,4,2,3,75,0,0
56854,-90.9090909090909,4,2,1,75,0,0
57011,-90.9090909090909,4,2,3,75,0,0
57170,-90.9090909090909,4,2,1,75,0,0
57328,-90.9090909090909,4,2,5,75,0,0
57486,-90.9090909090909,4,2,1,75,0,0
57643,-90.9090909090909,4,2,3,75,0,0
58117,-90.9090909090909,4,2,1,75,0,0
58275,-90.9090909090909,4,2,3,75,0,0
58433,-90.9090909090909,4,2,1,75,0,0
58748,-90.9090909090909,4,2,10,70,0,0
59065,-90.9090909090909,4,2,4,70,0,0
59538,-90.9090909090909,4,2,3,75,0,0
59696,-90.9090909090909,4,2,1,75,0,0
60170,-90.9090909090909,4,2,3,75,0,0
60565,-90.9090909090909,4,2,1,75,0,0
60643,-90.9090909090909,4,2,1,65,0,0
60880,-90.9090909090909,4,2,1,70,0,0
61117,-90.9090909090909,4,2,1,75,0,0
61432,-90.9090909090909,4,2,3,75,0,0
61907,-90.9090909090909,4,2,1,75,0,0
62064,-90.9090909090909,4,2,3,75,0,0
62223,-90.9090909090909,4,2,1,75,0,0
62380,-90.9090909090909,4,2,5,75,0,0
62538,-90.9090909090909,4,2,1,75,0,0
62696,-90.9090909090909,4,2,3,75,0,0
63169,-90.9090909090909,4,2,1,75,0,0
63328,-90.9090909090909,4,2,3,75,0,0
64433,-90.9090909090909,4,2,1,75,0,0
64590,-90.9090909090909,4,2,3,75,0,0
64749,-90.9090909090909,4,2,1,75,0,0
64907,-90.9090909090909,4,2,5,75,0,0
65065,-90.9090909090909,4,2,1,75,0,0
65223,-90.9090909090909,4,2,3,75,0,0
65695,-90.9090909090909,4,2,1,75,0,0
65854,-90.9090909090909,4,2,3,75,0,0
66959,-90.9090909090909,4,2,1,75,0,0
67116,-90.9090909090909,4,2,3,75,0,0
67275,-90.9090909090909,4,2,1,75,0,0
67433,-90.9090909090909,4,2,5,75,0,0
67591,-90.9090909090909,4,2,1,75,0,0
67749,-90.9090909090909,4,2,3,75,0,0
68222,-90.9090909090909,4,2,1,75,0,0
68380,-90.9090909090909,4,2,3,75,0,0
68854,-90.9090909090909,4,2,1,75,0,0
69012,-90.9090909090909,4,2,3,75,0,0
69170,-90.9090909090909,4,2,1,75,0,0
69328,-90.9090909090909,4,2,1,75,0,0
69643,-90.9090909090909,4,2,10,75,0,0
69801,-90.9090909090909,4,2,2,75,0,0
70433,-90.9090909090909,4,2,1,40,0,0
70512,-90.9090909090909,4,2,1,50,0,0
70591,-90.9090909090909,4,2,1,60,0,0
70748,-90.9090909090909,4,2,10,55,0,0
71223,-100,4,2,1,65,0,0
72328,-100,4,2,1,55,0,0
72407,-100,4,2,1,60,0,0
72486,-100,4,2,4,65,0,0
73749,-100,4,2,1,50,0,0
74064,-100,4,2,3,50,0,0
74380,-100,4,2,6,50,0,0
74696,-100,4,2,3,50,0,0
74854,-100,4,2,1,50,0,0
75012,-100,4,2,6,50,0,0
75170,-100,4,2,1,50,0,0
75328,-100,4,2,3,50,0,0
75644,-100,4,2,6,50,0,0
75801,-100,4,2,1,50,0,0
75959,-100,4,2,3,50,0,0
76275,-100,4,2,3,60,0,0
76907,-100,4,2,6,60,0,0
77223,-100,4,2,3,60,0,0
77380,-100,4,2,1,60,0,0
77538,-100,4,2,6,60,0,0
77696,-100,4,2,1,30,0,0
77933,-100,4,2,1,35,0,0
78169,-100,4,2,1,40,0,0
78407,-100,4,2,1,45,0,0
78486,-100,4,2,1,45,0,0
78644,-100,4,2,1,50,0,0
78801,-100,4,2,1,60,0,0
78880,-100,4,2,1,40,0,0
80538,-100,4,2,1,30,0,0
81170,-100,4,2,1,50,0,0

[Colours]
Combo1 : 27,149,222
Combo2 : 201,106,110
Combo3 : 103,206,245
Combo4 : 173,149,147

[HitObjects]
21,44,10591,6,0,P|36:102|43:159,1,102,14|8,0:1|0:1,0:0:0:0:
33,194,11065,2,0,P|91:230|138:218,1,102,2|0,0:0|0:0,0:0:0:0:
168,205,11538,1,10,0:1:0:0:
247,140,11854,1,8,0:1:0:0:
309,220,12170,1,8,0:1:0:0:
254,306,12486,1,10,0:1:0:0:
338,362,12801,2,0,P|370:355|403:345,1,51,10|0,0:1|0:0,0:0:0:0:
438,354,13117,6,0,P|461:310|446:260,1,102,14|8,0:1|0:1,0:0:0:0:
466,214,13591,2,0,P|439:172|388:160,1,102,10|0,0:0|0:0,0:0:0:0:
342,178,14065,1,14,0:0:0:0:
269,106,14380,2,0,L|281:42,2,51,8|8|10,0:1|0:3|0:1,0:0:0:0:
205,186,15012,1,10,0:1:0:0:
205,186,15170,2,0,P|218:255|229:301,1,102,4|8,0:3|0:3,0:0:0:0:
215,336,15644,6,0,P|172:368|123:364,1,102,14|8,0:1|0:0,0:0:0:0:
81,338,16117,1,10,0:1:0:0:
16,258,16433,1,8,0:1:0:0:
16,258,16591,2,0,P|32:189|43:142,1,102,14|8,0:0|0:1,0:0:0:0:
6,61,17223,1,8,0:0:0:0:
96,14,17538,2,0,P|121:15|145:28,1,51,10|8,0:1|0:1,0:0:0:0:
186,55,17854,1,10,0:0:0:0:
243,139,18170,6,0,P|313:116|362:103,1,102,12|8,0:1|0:0,0:0:0:0:
387,88,18644,1,10,0:1:0:0:
483,48,18959,1,8,0:1:0:0:
483,48,19117,2,0,P|492:99|477:152,1,102,12|8,0:0|0:1,0:0:0:0:
440,241,19749,1,12,0:0:0:0:
364,309,20065,2,0,L|315:293,1,51,8|4,0:3|0:3,0:0:0:0:
272,265,20380,2,0,P|218:273|191:321,1,102,8|12,0:3|0:1,0:0:0:0:
57,371,21328,6,0,P|51:318|36:268,1,91.8000000000001,2|0,0:0|0:0,0:0:0:0:
13,244,21801,1,0,0:0:0:0:
66,169,22117,1,0,0:0:0:0:
24,87,22433,2,0,P|69:52|105:60,1,91.8000000000001
186,24,23065,6,0,P|201:85|217:180,1,137.7
250,242,23854,1,0,0:0:0:0:
190,311,24170,2,0,P|221:332|243:333,1,45.9,2|0,0:0|0:0,0:0:0:0:
268,356,24486,2,0,P|321:336|376:327,1,91.8000000000001,2|0,0:0|0:0,0:0:0:0:
442,359,25117,2,0,P|468:318|456:268,1,91.8000000000001,2|2,0:0|0:0,0:0:0:0:
400,207,25749,6,0,P|412:146|424:106,1,91.8000000000001,10|0,0:1|0:0,0:0:0:0:
445,79,26223,1,2,0:0:0:0:
326,9,26696,1,2,0:0:0:0:
261,73,27012,2,0,P|217:98|174:91,1,91.8000000000001,10|0,0:1|0:0,0:0:0:0:
137,72,27486,2,0,P|73:90|57:169,1,137.7,2|2,0:0|0:0,0:0:0:0:
14,236,28275,6,0,P|27:283|34:325,2,91.8000000000001,10|0|0,0:1|0:0|0:0,0:0:0:0:
52,152,29223,2,0,P|88:152|109:169,1,45.9,2|8,0:0|0:1,0:0:0:0:
134,181,29538,2,0,P|177:207|226:199,1,91.8000000000001,10|2,0:1|0:3,0:0:0:0:
291,149,30170,1,2,0:3:0:0:
363,92,30486,1,2,0:3:0:0:
448,36,30801,6,0,P|470:121|477:150,1,102,12|8,0:1|0:0,0:0:0:0:
499,233,31433,2,0,P|455:245|400:205,1,102,10|0,0:1|0:0,0:0:0:0:
371,182,31907,1,10,0:0:0:0:
300,245,32223,2,0,L|286:302,1,51,10|8,0:1|0:0,0:0:0:0:
257,335,32538,2,0,P|196:351|141:374,1,102,10|10,0:1|0:1,0:0:0:0:
79,311,33170,1,0,0:0:0:0:
79,311,33328,6,0,P|45:263|61:216,1,102,10|8,0:1|0:0,0:0:0:0:
98,132,33959,2,0,L|43:113,2,51,8|8|0,0:1|0:1|0:0,0:0:0:0:
143,155,34433,2,0,P|196:148|225:109,1,102,10|8,0:1|0:1,0:0:0:0:
251,67,34907,1,8,0:0:0:0:
339,16,35223,2,0,L|403:37,1,51,10|8,0:1|0:1,0:0:0:0:
431,56,35538,1,10,0:0:0:0:
490,139,35854,6,0,P|475:191|461:260,1,102,10|10,0:1|0:0,0:0:0:0:
470,288,36328,2,0,P|427:324|380:315,1,102,2|8,0:0|0:1,0:0:0:0:
338,296,36801,1,8,0:0:0:0:
338,296,36959,1,10,0:1:0:0:
200,362,37433,2,0,L|184:299,1,51,10|10,0:0|0:1,0:0:0:0:
153,274,37749,2,0,P|131:225|163:169,1,102,8|0,0:1|0:0,0:0:0:0:
184,147,38223,6,0,P|247:164|306:176,1,102,10|8,0:0|0:1,0:0:0:0:
330,190,38696,1,8,0:0:0:0:
387,105,39012,2,0,P|382:76|376:49,1,51,8|8,0:1|0:1,0:0:0:0:
349,19,39328,1,10,0:0:0:0:
349,19,39486,2,0,P|291:10|253:39,1,102,14|8,0:1|0:1,0:0:0:0:
216,63,39959,1,8,0:0:0:0:
120,26,40275,2,0,L|108:85,1,51,10|8,0:0|0:3,0:0:0:0:
94,124,40591,1,4,0:3:0:0:
30,197,40907,6,0,P|26:241|66:282,1,96.8999999999998,14|8,0:1|0:1,0:0:0:0:
79,323,41380,2,0,P|128:336|188:356,1,96.8999999999998,2|0,0:0|0:0,0:0:0:0:
218,338,41854,2,0,P|263:352|311:363,2,96.8999999999998,10|8|10,0:1|0:1|0:1,0:0:0:0:
167,255,42801,1,8,0:1:0:0:
225,177,43117,1,10,0:1:0:0:
151,114,43433,6,0,P|144:61|184:25,1,96.8999999999998,14|8,0:1|0:0,0:0:0:0:
214,8,43907,1,10,0:1:0:0:
295,70,44223,1,8,0:1:0:0:
295,70,44380,2,0,P|350:55|403:44,1,96.8999999999998,14|8,0:0|0:1,0:0:0:0:
478,85,45012,1,10,0:0:0:0:
428,168,45328,2,0,L|442:225,1,48.4499999999999,10|8,0:1|0:1,0:0:0:0:
458,259,45644,1,10,0:0:0:0:
380,325,45959,6,0,P|321:357|279:342,1,102,14|8,0:1|0:0,0:0:0:0:
245,324,46433,2,0,P|195:318|155:348,1,102,14|8,0:1|0:1,0:0:0:0:
115,380,46907,2,0,P|102:318|83:263,1,102,14|8,0:0|0:1,0:0:0:0:
27,200,47538,1,10,0:0:0:0:
77,111,47854,1,10,0:1:0:0:
129,23,48170,2,0,L|188:39,1,51,10|8,0:0|0:1,0:0:0:0:
217,68,48486,6,0,P|272:65|302:22,1,102,14|10,0:0|0:0,0:0:0:0:
390,76,49117,2,0,L|454:56,2,51,8|8|8,0:0|0:3|0:0,0:0:0:0:
365,121,49591,2,0,P|382:193|390:232,1,102,10|10,0:1|0:0,0:0:0:0:
405,276,50065,1,10,0:0:0:0:
405,276,50223,1,10,0:0:0:0:
135,353,51012,6,0,P|67:354|38:304,1,112.2,14|10,0:1|0:0,0:0:0:0:
8,278,51486,1,2,0:0:0:0:
64,183,51801,2,0,L|51:127,1,56.1,10|8,0:1|0:0,0:0:0:0:
25,78,52117,2,0,P|91:64|148:47,1,112.2,10|8,0:1|0:1,0:0:0:0:
188,31,52591,1,10,0:0:0:0:
188,31,52749,2,0,P|232:65|220:129,1,112.2,2|8,0:0|0:1,0:0:0:0:
205,168,53223,1,10,0:0:0:0:
252,269,53538,6,0,P|302:282|366:310,1,112.2,10|10,0:1|0:0,0:0:0:0:
407,331,54012,1,2,0:0:0:0:
491,257,54328,2,0,P|502:229|494:193,1,56.1,10|8,0:1|0:0,0:0:0:0:
472,153,54644,2,0,P|456:89|445:29,1,112.2,10|8,0:1|0:1,0:0:0:0:
404,17,55117,1,10,0:0:0:0:
404,17,55275,2,0,P|336:23|313:70,1,112.2,2|8,0:0|0:1,0:0:0:0:
291,111,55749,1,10,0:0:0:0:
231,206,56065,6,0,P|176:217|123:236,1,112.2,14|10,0:1|0:0,0:0:0:0:
70,255,56538,2,0,P|48:227|46:198,1,56.1,2|8,0:0|0:1,0:0:0:0:
16,158,56854,2,0,P|20:122|39:100,1,56.1,10|8,0:1|0:0,0:0:0:0:
75,70,57170,1,10,0:1:0:0:
173,15,57486,2,0,L|184:69,1,56.1,10|8,0:1|0:0,0:0:0:0:
217,115,57801,1,2,0:0:0:0:
298,194,58117,2,0,P|351:231|407:222,1,112.2,10|10,0:1|0:1,0:0:0:0:
450,240,58591,6,0,P|458:266|463:294,2,56.1,10|8|4,0:0|0:3|0:3,0:0:0:0:
477,190,59065,1,10,0:1:0:0:
410,100,59380,1,10,0:1:0:0:
340,11,59696,6,0,P|279:30|210:45,1,112.2,14|8,0:1|0:1,0:0:0:0:
175,36,60170,1,12,0:0:0:0:
82,99,60486,2,0,P|73:130|82:158,1,56.1,10|8,0:1|0:0,0:0:0:0:
116,193,60801,1,8,0:0:0:0:
41,276,61117,6,0,P|96:295|158:328,1,112.2,14|10,0:1|0:0,0:0:0:0:
190,352,61591,1,2,0:0:0:0:
273,277,61907,2,0,P|286:245|281:217,1,56.1,10|8,0:1|0:0,0:0:0:0:
251,177,62223,2,0,P|234:138|270:59,1,112.2,10|8,0:1|0:1,0:0:0:0:
301,44,62696,1,10,0:0:0:0:
301,44,62854,2,0,P|352:60|411:76,1,112.2,2|8,0:0|0:1,0:0:0:0:
464,69,63328,1,10,0:0:0:0:
492,177,63644,6,0,P|495:235|456:269,1,112.2,10|10,0:1|0:0,0:0:0:0:
410,299,64117,1,2,0:0:0:0:
311,353,64433,2,0,P|307:325|299:298,1,56.1,10|8,0:1|0:0,0:0:0:0:
263,255,64749,2,0,P|248:184|245:133,1,112.2,10|8,0:1|0:1,0:0:0:0:
244,92,65223,1,10,0:0:0:0:
244,92,65380,2,0,P|190:57|141:69,1,112.2,2|8,0:0|0:1,0:0:0:0:
103,102,65854,1,8,0:0:0:0:
11,166,66170,6,0,P|31:222|43:290,1,112.2,14|10,0:1|0:0,0:0:0:0:
60,326,66644,2,0,P|91:346|113:347,1,56.1,2|8,0:0|0:1,0:0:0:0:
161,367,66959,2,0,P|196:356|211:339,1,56.1,10|8,0:1|0:0,0:0:0:0:
249,302,67275,2,0,P|297:268|356:288,1,112.2,10|8,0:1|0:1,0:0:0:0:
390,313,67749,1,10,0:0:0:0:
478,244,68065,2,0,L|495:174,1,56.1,10|8,0:1|0:1,0:0:0:0:
507,135,68380,1,10,0:0:0:0:
462,31,68696,6,0,P|424:35|391:110,1,112.2,10|8,0:1|0:0,0:0:0:0:
295,156,69328,1,10,0:0:0:0:
295,157,69486,2,0,L|278:104,1,56.1,10|8,0:0|0:3,0:0:0:0:
257,52,69801,2,0,P|205:71|138:84,1,112.2,14|8,0:1|0:1,0:0:0:0:
107,120,70275,1,14,0:0:0:0:
27,180,70591,2,0,P|11:158|9:125,2,56.1,8|8|4,0:0|0:3|0:3,0:0:0:0:
117,227,71223,6,0,B|347:181|238:409|487:345,1,408,14|10,0:1|0:0,0:0:0:0:
66,383,73749,6,0,P|56:332|42:283,1,102,14|8,0:1|0:0,0:0:0:0:
3,200,74380,1,2,0:0:0:0:
67,120,74696,1,8,0:0:0:0:
67,120,74854,2,0,P|118:124|144:177,1,102,8|8,0:1|0:1,0:0:0:0:
171,207,75328,1,8,0:0:0:0:
208,301,75644,2,0,L|276:283,1,51,2|8,0:0|0:1,0:0:0:0:
307,295,75959,1,8,0:0:0:0:
395,346,76275,6,0,P|423:300|409:245,1,102,10|8,0:1|0:0,0:0:0:0:
391,210,76749,2,0,P|400:161|416:99,1,102
407,63,77223,1,8,0:0:0:0:
407,63,77380,1,8,0:1:0:0:
315,31,77696,1,8,0:0:0:0:
315,31,77854,2,0,P|261:33|227:75,1,102,8|8,0:0|0:0,0:0:0:0:
161,142,78486,1,8,0:0:0:0:
72,91,78801,1,14,0:1:0:0:
256,192,78959,12,2,81170,0:1:0:0:
