osu file format v14

[General]
AudioFilename: audio.mp3
AudioLeadIn: 0
PreviewTime: 50609
Countdown: 0
SampleSet: Drum
StackLeniency: 0.7
Mode: 2
LetterboxInBreaks: 0
WidescreenStoryboard: 1

[Editor]
Bookmarks: 10741
DistanceSpacing: 1.3
BeatDivisor: 4
GridSize: 32
TimelineZoom: 1

[Metadata]
Title:Koko de Ikiteru (TV Size)
TitleUnicode:ここで生きてる (TV Size)
Artist:mary x jon-YAKITORY
ArtistUnicode:めありー×jon-YAKITORY
Creator:-Rustyy
Version:Salad
Source:探偵はもう、死んでいる。
Tags:Tantei wa mou shindeiru La está muerta the detective is already dead siesta anime opening op japanese pop jpop j-pop
BeatmapID:3137967
BeatmapSetID:1531813

[Difficulty]
HPDrainRate:3
CircleSize:3
OverallDifficulty:7
ApproachRate:7
SliderMultiplier:1.5
SliderTickRate:1

[Events]
//Background and Video events
0,0,"bg (3).jpg",0,0
//Break Periods
//Storyboard Layer 0 (Background)
//Storyboard Layer 1 (Fail)
//Storyboard Layer 2 (Pass)
//Storyboard Layer 3 (Foreground)
//Storyboard Layer 4 (Overlay)
//Storyboard Sound Samples

[TimingPoints]
486,315.789473684211,4,2,37,50,1,0
486,-133.333333333333,4,2,37,50,0,0
1749,-133.333333333333,4,2,40,50,0,0
2380,-133.333333333333,4,2,34,50,0,0
4275,-133.333333333333,4,2,30,50,0,0
4907,-133.333333333333,4,2,34,50,0,0
5538,-133.333333333333,4,2,30,50,0,0
6801,-133.333333333333,4,2,31,50,0,0
8064,-133.333333333333,4,2,32,50,0,0
9328,-100,4,2,1,70,0,0
10741,-100,4,3,1,70,0,0
14538,-100,4,3,2,70,0,0
14696,-100,4,3,1,70,0,0
15012,-100,4,3,2,70,0,0
15170,-100,4,3,1,70,0,0
20222,-100,4,3,2,70,0,0
20696,-100,4,2,1,50,0,0
30643,-100,4,3,1,60,0,0
40591,-100,4,3,2,65,0,0
40907,-100,4,3,1,65,0,0
49275,-100,4,3,2,70,0,0
49433,-100,4,3,1,70,0,0
50538,-100,4,2,39,70,0,0
51012,-100,4,3,1,70,0,1
51162,-100,4,3,1,70,0,1
58749,-100,4,3,2,70,0,1
59064,-100,4,3,1,70,0,1
59214,-100,4,3,1,70,0,1
71222,-100,4,3,1,70,0,0
78801,-100,4,2,1,50,0,0
80696,-100,4,2,37,50,0,0
80854,-100,4,2,39,50,0,0
81170,-100,4,2,1,50,0,0

[Colours]
Combo1 : 213,0,0
Combo2 : 0,128,255
Combo3 : 192,192,192

[HitObjects]
366,353,486,5,8,0:0:0:0:
164,319,1749,2,0,P|103:296|174:197,1,225.000008583069,8|8,0:0|0:0,0:0:0:0:
380,177,3012,5,8,0:0:0:0:
167,123,4275,2,0,L|398:108,1,225.000008583069,8|8,0:0|0:0,0:0:0:0:
167,212,5538,5,8,0:0:0:0:
385,311,6801,5,8,0:0:0:0:
123,349,8064,5,8,0:0:0:0:
364,360,9328,6,0,P|411:329|358:274,1,150,2|2,0:0|0:0,0:0:0:0:
226,207,9959,1,2,0:0:0:0:
300,201,10116,1,2,0:0:0:0:
375,195,10274,1,2,0:0:0:0:
115,98,10591,6,0,P|76:122|133:193,1,150,6|2,0:0|0:0,0:0:0:0:
192,214,11064,2,0,P|239:239|188:301,1,150
119,314,11538,1,2,0:0:0:0:
284,313,11854,5,2,0:0:0:0:
168,230,12170,1,2,0:0:0:0:
242,220,12327,1,0,0:0:0:0:
316,210,12485,1,2,0:0:0:0:
179,162,12801,1,2,0:0:0:0:
435,100,13117,6,0,P|481:117|436:181,1,150,6|2,0:0|0:0,0:0:0:0:
363,228,13591,2,0,L|195:226,1,150,8|2,0:0|0:0,0:0:0:0:
288,230,14064,1,6,0:0:0:0:
138,337,14380,6,0,L|139:247,1,75,2|8,0:0|0:0,0:0:0:0:
214,229,14696,1,2,0:0:0:0:
364,210,15012,2,0,L|451:211,2,75,8|8|2,0:0|0:0|0:0,0:0:0:0:
78,128,15643,6,0,L|259:112,1,150,6|8,0:0|0:0,0:0:0:0:
302,88,16117,2,0,L|121:79,1,150,2|2,2:0|0:0,0:0:0:0:
77,70,16591,1,6,0:0:0:0:
242,166,16907,6,0,L|331:162,2,75,2|2|8,0:0|0:0|0:0,0:0:0:0:
106,274,17538,2,0,L|19:272,2,75,2|2|2,0:0|0:0|0:0,0:0:0:0:
362,349,18170,6,0,P|411:298|351:255,1,150,2|8,3:2|0:0,0:0:0:0:
290,230,18643,2,0,L|468:226,1,150,2|2,3:2|0:0,0:0:0:0:
364,210,19117,1,4,0:0:0:0:
213,206,19433,6,0,P|168:180|210:100,1,150,2|8,0:0|0:0,0:0:0:0:
334,49,20064,1,8,0:0:0:0:
259,47,20221,1,8,0:0:0:0:
184,46,20379,1,8,0:0:0:0:
335,145,20696,5,4,0:0:0:0:
109,215,21328,2,0,L|109:312,1,75,2|0,0:0|0:0,0:0:0:0:
188,313,21643,1,2,0:0:0:0:
323,346,21959,6,0,P|367:317|318:251,1,150,2|2,0:0|0:0,0:0:0:0:
186,222,22591,2,0,P|142:197|208:134,1,150,2|2,0:0|0:0,0:0:0:0:
348,80,23222,5,2,3:0:0:0:
233,39,23538,2,0,L|233:128,2,75,2|0|2,0:0|0:0|0:0,0:0:0:0:
369,137,24170,1,2,0:0:0:0:
204,198,24486,6,0,L|119:198,1,75,2|2,0:0|0:0,0:0:0:0:
250,300,24959,2,0,L|156:300,1,75,2|2,0:0|0:0,0:0:0:0:
92,304,25275,2,0,L|94:221,1,75,2|2,0:0|0:0,0:0:0:0:
350,257,25749,6,0,P|396:225|345:166,1,150,2|2,3:0|0:0,0:0:0:0:
273,107,26222,1,0,0:0:0:0:
491,91,26696,1,2,0:0:0:0:
325,80,27012,6,0,P|287:111|335:188,1,150,2|2,3:0|0:0,0:0:0:0:
403,232,27486,1,0,0:0:0:0:
185,296,27959,1,2,0:0:0:0:
336,358,28275,6,0,P|377:329|308:268,1,150,2|2,3:0|0:0,0:0:0:0:
180,217,28907,2,0,L|347:202,1,150,2|2,0:0|0:0,0:0:0:0:
78,132,29538,6,0,L|79:43,1,75,2|0,3:0|0:0,0:0:0:0:
252,289,30012,2,0,L|332:290,1,75,0|2,0:0|0:0,0:0:0:0:
403,273,30328,2,0,L|403:186,1,75,0|2,0:0|0:0,0:0:0:0:
148,104,30801,6,0,P|104:147|159:200,1,150,12|8,0:0|0:0,0:0:0:0:
305,287,31433,2,0,L|305:199,1,75,2|0,0:0|0:0,0:0:0:0:
230,172,31749,2,0,L|131:165,1,75,2|8,0:0|0:0,0:0:0:0:
306,100,32222,5,2,0:0:0:0:
380,73,32380,2,0,L|221:56,1,150,8|2,0:0|0:0,0:0:0:0:
156,55,32854,1,2,0:0:0:0:
156,55,33012,1,8,0:0:0:0:
411,137,33328,6,0,P|448:159|409:237,1,150,2|8,0:0|0:0,0:0:0:0:
259,331,33959,2,0,L|171:330,1,75,2|2,0:0|0:0,0:0:0:0:
259,331,34275,2,0,L|257:235,1,75,0|8,0:0|0:0,0:0:0:0:
102,231,34749,5,2,0:0:0:0:
102,231,34907,2,0,L|257:197,1,150,8|2,0:0|0:0,0:0:0:0:
177,69,35379,1,2,0:0:0:0:
102,64,35537,1,8,0:0:0:0:
358,48,35854,6,0,P|401:71|348:138,1,150,2|8,2:0|0:0,0:0:0:0:
283,192,36328,2,0,L|201:196,1,75,0|2,0:0|0:0,0:0:0:0:
358,303,36801,1,8,0:0:0:0:
433,252,36959,6,0,L|257:256,1,150,2|2,0:0|0:0,0:0:0:0:
207,260,37433,2,0,L|206:176,1,75,8|0,0:0|0:0,0:0:0:0:
295,169,37749,2,0,L|378:167,1,75,2|2,0:0|0:0,0:0:0:0:
295,169,38064,1,2,0:0:0:0:
40,101,38380,6,0,L|196:95,1,150,2|8,0:2|0:0,0:0:0:0:
341,54,39012,2,0,L|428:50,2,75,2|2|8,0:0|0:0|0:0,0:0:0:0:
189,116,39486,6,0,P|143:147|205:202,1,150,6|2,0:0|0:0,0:0:0:0:
266,221,39959,1,8,0:0:0:0:
116,303,40275,2,0,L|33:304,2,75,8|2|8,0:0|0:0|0:0,0:0:0:0:
372,353,40907,5,6,0:0:0:0:
223,307,41222,1,2,0:0:0:0:
148,263,41380,2,0,L|311:258,1,150
297,258,41854,1,2,0:0:0:0:
148,226,42170,6,0,L|149:129,1,75,2|0,0:0|0:0,0:0:0:0:
223,133,42486,2,0,L|386:130,1,150,2|2,0:0|0:0,0:0:0:0:
448,135,42959,1,0,0:0:0:0:
374,133,43117,1,2,0:0:0:0:
118,76,43433,6,0,P|69:109|134:157,1,150,6|8,0:0|0:0,0:0:0:0:
195,207,43907,2,0,L|45:224,1,150,8|2,0:0|0:0,0:0:0:0:
121,264,44380,1,6,0:0:0:0:
271,336,44696,6,0,L|354:335,1,75,2|2,0:0|0:0,0:0:0:0:
271,336,45012,2,0,L|97:337,1,150,8|2,0:0|0:0,0:0:0:0:
121,336,45486,1,2,0:0:0:0:
196,342,45643,1,8,0:0:0:0:
451,248,45959,6,0,L|268:237,1,150,6|8,0:0|0:0,0:0:0:0:
301,238,46433,2,0,L|456:249,1,150,2|2,0:0|0:0,0:0:0:0:
375,239,46907,1,6,0:0:0:0:
226,165,47222,5,2,0:0:0:0:
299,148,47379,1,2,0:0:0:0:
372,132,47537,1,8,0:0:0:0:
209,76,47854,2,0,L|131:79,2,75,2|2|8,0:0|0:0|0:0,0:0:0:0:
465,59,48486,6,0,P|486:103|411:160,1,150,12|8,0:0|0:0,0:0:0:0:
333,232,49117,1,8,0:0:0:0:
416,226,49274,1,8,0:0:0:0:
416,226,49432,1,8,0:0:0:0:
265,341,49591,6,0,P|218:320|269:254,1,150,8|8,0:0|0:0,0:0:0:0:
334,195,50064,2,0,L|334:110,1,75,8|8,0:0|0:0,0:0:0:0:
184,77,50538,2,0,P|134:106|185:169,1,150,8|0,0:0|0:0,0:0:0:0:
327,248,51012,6,0,P|373:197|329:146,1,150,6|8,0:0|0:0,0:0:0:0:
260,288,51486,2,0,L|100:285,1,150,0|2,0:0|0:0,0:0:0:0:
275,337,52117,6,0,P|321:310|265:246,1,150,2|2,0:0|0:0,0:0:0:0:
203,223,52591,1,8,0:0:0:0:
279,193,52749,2,0,L|454:189,1,150,0|2,0:0|0:0,0:0:0:0:
354,158,53222,1,8,0:0:0:0:
113,81,53538,6,0,P|77:103|129:182,1,150,2|8,0:0|0:0,0:0:0:0:
190,238,54012,2,0,L|338:151,1,150,0|2,0:0|0:0,0:0:0:0:
168,354,54643,6,0,P|122:333|174:267,1,150,2|2,0:0|0:0,0:0:0:0:
237,225,55117,1,8,0:0:0:0:
313,181,55275,2,0,L|145:175,1,150,0|2,0:0|0:0,0:0:0:0:
87,167,55749,1,8,0:0:0:0:
334,55,56064,6,0,P|385:87|330:138,1,150,6|8,0:0|0:0,0:0:0:0:
261,183,56538,2,0,P|219:214|272:283,1,150,0|2,0:0|0:0,0:0:0:0:
428,324,57170,6,0,L|268:323,2,150,2|2|0,0:0|0:0|0:0,0:0:0:0:
272,243,58117,2,0,L|360:235,1,75,2|12,0:0|0:0,0:0:0:0:
96,186,58591,6,0,L|96:100,1,75,12|8,0:0|0:0,0:0:0:0:
172,98,58907,1,8,0:0:0:0:
245,50,59064,2,0,L|82:52,1,150,8|8,0:0|0:0,0:0:0:0:
354,113,59696,6,0,P|404:152|347:203,1,150,6|2,0:0|0:0,0:0:0:0:
274,217,60170,2,0,L|274:306,1,75,8|2,0:0|0:0,0:0:0:0:
351,336,60486,2,0,L|432:336,2,75,8|8|8,0:0|0:0|0:0,0:0:0:0:
96,251,61117,6,0,L|275:248,1,150,6|8,0:0|0:0,0:0:0:0:
171,247,61591,2,0,L|19:228,1,150,0|2,0:0|0:0,0:0:0:0:
187,177,62222,6,0,P|229:152|172:85,1,150,2|2,0:0|0:0,0:0:0:0:
111,69,62696,1,8,0:0:0:0:
186,59,62854,2,0,L|343:56,1,150,0|2,0:0|0:0,0:0:0:0:
335,56,63328,1,8,0:0:0:0:
97,121,63643,6,0,P|46:158|111:210,1,150,2|8,0:0|0:0,0:0:0:0:
166,232,64117,2,0,L|340:228,1,150,0|2,0:0|0:0,0:0:0:0:
151,115,64749,6,0,P|109:145|157:214,1,150,2|2,0:0|0:0,0:0:0:0:
228,277,65222,2,0,L|228:372,1,75,8|0,0:0|0:0,0:0:0:0:
145,359,65538,2,0,L|63:354,1,75,2|2,0:0|0:0,0:0:0:0:
111,304,65854,1,8,0:0:0:0:
366,197,66170,6,0,L|192:192,1,150,6|8,0:0|0:0,0:0:0:0:
141,191,66643,2,0,L|305:196,1,150,0|2,0:0|0:0,0:0:0:0:
441,127,67275,6,0,P|483:145|439:218,1,150,2|2,0:0|0:0,0:0:0:0:
371,259,67749,1,8,0:0:0:0:
221,343,68064,2,0,L|392:345,1,150,2|8,0:0|0:0,0:0:0:0:
116,288,68696,6,0,P|62:245|121:206,1,150,2|8,0:0|0:0,0:0:0:0:
264,158,69328,2,0,L|348:161,2,75,8|0|2,0:0|0:0|0:0,0:0:0:0:
111,63,69801,6,0,P|75:87|135:160,1,150,6|2,0:0|0:0,0:0:0:0:
192,190,70275,1,8,0:0:0:0:
343,257,70591,1,8,0:0:0:0:
268,262,70748,1,2,0:0:0:0:
193,268,70906,1,2,0:0:0:0:
256,192,71222,12,12,72486,0:0:0:0:
256,302,72801,5,0,0:0:0:0:
225,222,73117,2,0,L|387:217,1,150
119,98,73749,6,0,L|30:98,2,75,6|0|8,0:0|0:0|0:0,0:0:0:0:
194,141,74222,2,0,P|238:167|188:237,1,150
122,275,74696,1,8,0:0:0:0:
272,344,75012,5,0,0:0:0:0:
346,345,75169,1,2,0:0:0:0:
272,344,75327,1,8,0:0:0:0:
197,343,75486,1,0,0:0:0:0:
197,343,75643,2,0,L|371:346,1,150,2|8,0:0|0:0,0:0:0:0:
91,284,76275,6,0,L|90:198,1,75,2|0,0:0|0:0,0:0:0:0:
166,195,76591,1,8,0:0:0:0:
241,156,76749,2,0,L|69:150,1,150
166,195,77222,1,8,0:0:0:0:
316,318,77538,5,2,0:0:0:0:
382,288,77695,1,8,0:0:0:0:
409,220,77853,1,8,0:0:0:0:
378,154,78011,1,8,0:0:0:0:
316,318,78170,2,0,L|494:315,1,150,8|8,0:0|0:0,0:0:0:0:
211,240,78801,5,4,0:0:0:0:
346,181,79117,2,0,L|427:183,1,75
353,180,79433,2,0,L|185:173,1,150
279,181,79907,6,0,P|322:157|273:88,1,150
205,62,80380,2,0,L|382:61,1,150,0|8,0:0|0:0,0:0:0:0:
354,61,80854,1,8,0:0:0:0:
99,175,81170,5,8,0:0:0:0:
256,192,81486,12,0,83222,0:0:0:0:
