osu file format v14

[General]
AudioFilename: audio.mp3
AudioLeadIn: 0
PreviewTime: 66389
Countdown: 0
SampleSet: Soft
StackLeniency: 0.7
Mode: 0
LetterboxInBreaks: 0
WidescreenStoryboard: 1

[Editor]
Bookmarks: 207805,208138,208472,208805,209138,209472,209805,210138,210472,210805,211138,211472,211805,212138,212472,212805,213138,213472,213805,214138,214472,214805,215138,215472,215805,235805,236138,236472,236805,237138,237472,237805,238138,238472,238805,239138,239472,239805
DistanceSpacing: 1.3
BeatDivisor: 4
GridSize: 32
TimelineZoom: 1

[Metadata]
Title:Vivid
TitleUnicode:ビビッド
Artist:mary
ArtistUnicode:めありー
Creator:Silky
Version:Hard
Source:
Tags:japanese pop あめのむらくもP amenomurakumop vocaloid Satellite amateurre mujina airiesu
BeatmapID:4009211
BeatmapSetID:1939205

[Difficulty]
HPDrainRate:5
CircleSize:3.8
OverallDifficulty:6
ApproachRate:8
SliderMultiplier:1.5
SliderTickRate:1

[Events]
//Background and Video events
0,0,"BG.jpg",0,0
//Break Periods
2,208005,215055
2,237138,239055
//Storyboard Layer 0 (Background)
//Storyboard Layer 1 (Fail)
//Storyboard Layer 2 (Pass)
//Storyboard Layer 3 (Foreground)
//Storyboard Layer 4 (Overlay)
//Storyboard Sound Samples

[TimingPoints]
1139,333.333333333333,4,2,2,69,1,0
2472,-200,4,2,2,69,0,0
13138,-200,4,2,1,50,0,0
13222,-200,4,2,1,10,0,0
13472,-200,4,2,1,15,0,0
13805,-200,4,2,1,20,0,0
14138,-200,4,2,1,25,0,0
14472,-100,4,2,1,70,0,0
18555,-100,4,2,1,5,0,0
18638,-100,4,2,1,70,0,0
22472,-200,4,2,1,70,0,0
22638,-200,4,2,2,70,0,0
23138,-200,4,2,2,65,0,0
23638,-200,4,2,2,60,0,0
24138,-200,4,2,2,55,0,0
24638,-200,4,2,1,70,0,0
24805,-133.333333333333,4,2,1,70,0,0
25138,-133.333333333333,4,2,1,60,0,0
25305,-133.333333333333,4,2,1,40,0,0
25472,-133.333333333333,4,2,1,60,0,0
26638,-133.333333333333,4,2,1,65,0,0
26805,-133.333333333333,4,2,1,70,0,0
26972,-133.333333333333,4,2,1,75,0,0
27138,-133.333333333333,4,2,1,70,0,0
27638,-133.333333333333,4,2,1,65,0,0
27805,-133.333333333333,4,2,1,60,0,0
27972,-133.333333333333,4,2,1,40,0,0
28138,-133.333333333333,4,2,1,60,0,0
29305,-133.333333333333,4,2,1,75,0,0
29472,-133.333333333333,4,2,1,70,0,0
29638,-133.333333333333,4,2,1,65,0,0
29805,-133.333333333333,4,2,1,60,0,0
30638,-133.333333333333,4,2,1,40,0,0
30805,-133.333333333333,4,2,1,60,0,0
32138,-133.333333333333,4,2,1,65,0,0
32305,-133.333333333333,4,2,1,70,0,0
32472,-133.333333333333,4,2,1,75,0,0
32972,-133.333333333333,4,2,1,70,0,0
33138,-133.333333333333,4,2,1,60,0,0
33388,-133.333333333333,4,2,1,5,0,0
33472,-133.333333333333,4,2,1,70,0,0
33805,-133.333333333333,4,2,1,60,0,0
34138,-133.333333333333,4,2,1,70,0,0
34472,-133.333333333333,4,2,1,60,0,0
34722,-133.333333333333,4,2,1,5,0,0
34805,-133.333333333333,4,2,1,70,0,0
35138,-111.111111111111,4,2,1,60,0,0
35805,-111.111111111111,4,2,1,65,0,0
35972,-111.111111111111,4,2,1,40,0,0
36138,-111.111111111111,4,2,1,65,0,0
38388,-111.111111111111,4,2,1,5,0,0
38472,-111.111111111111,4,2,1,65,0,0
38638,-111.111111111111,4,2,1,40,0,0
38805,-111.111111111111,4,2,1,65,0,0
39388,-111.111111111111,4,2,1,5,0,0
39472,-111.111111111111,4,2,1,65,0,0
39972,-111.111111111111,4,2,1,40,0,0
40138,-111.111111111111,4,2,1,65,0,0
41305,-111.111111111111,4,2,1,40,0,0
41472,-111.111111111111,4,2,1,65,0,0
43388,-111.111111111111,4,2,1,5,0,0
43472,-111.111111111111,4,2,1,65,0,0
44805,-200,4,2,1,65,0,0
45055,-200,4,2,1,5,0,0
45138,-100,4,2,1,65,0,0
46472,-200,4,2,2,50,0,0
54305,-200,4,2,1,65,0,0
54472,-133.333333333333,4,2,1,65,0,0
56055,-133.333333333333,4,2,1,5,0,0
56138,-133.333333333333,4,2,1,65,0,0
57138,-100,4,2,4,65,0,0
62472,-111.111111111111,4,2,1,50,0,0
64805,-76.9230769230769,4,2,1,70,0,0
65055,-76.9230769230769,4,2,1,5,0,0
65138,-100,4,2,1,70,0,0
67305,-133.333333333333,4,2,1,70,0,0
67805,-100,4,2,1,85,0,1
68055,-100,4,2,1,5,0,1
68138,-100,4,2,1,85,0,1
69055,-100,4,2,1,5,0,1
69138,-100,4,2,1,85,0,1
70388,-100,4,2,1,5,0,1
70472,-100,4,2,1,85,0,1
72388,-100,4,2,1,5,0,1
72472,-100,4,2,1,85,0,1
76305,-100,4,2,1,80,0,1
76805,-100,4,2,1,75,0,1
77305,-100,4,2,1,85,0,1
77805,-100,4,2,1,70,0,0
78472,-100,4,2,1,85,0,1
80055,-100,4,2,1,5,0,1
80138,-100,4,2,1,85,0,1
80805,-76.9230769230769,4,2,1,95,0,1
81055,-76.9230769230769,4,2,1,5,0,1
81138,-100,4,2,1,85,0,1
81388,-100,4,2,1,5,0,1
81472,-100,4,2,1,85,0,1
83055,-100,4,2,1,5,0,1
83138,-100,4,2,1,70,0,1
83805,-100,4,2,1,85,0,1
84055,-100,4,2,1,5,0,1
84138,-100,4,2,1,85,0,1
84722,-100,4,2,1,5,0,1
84805,-100,4,2,1,85,0,1
86055,-100,4,2,1,5,0,1
86138,-100,4,2,1,85,0,1
86722,-100,4,2,1,5,0,1
86805,-100,4,2,1,85,0,1
87388,-100,4,2,1,5,0,1
87472,-100,4,2,1,85,0,1
88472,-100,4,2,1,70,0,0
89138,-100,4,2,1,85,0,1
91055,-100,4,2,1,5,0,1
91138,-100,4,2,1,85,0,1
91472,-100,4,2,1,95,0,1
91805,-100,4,2,1,85,0,1
93388,-100,4,2,1,5,0,1
93472,-100,4,2,1,85,0,1
93805,-100,4,2,1,70,0,1
94472,-133.333333333333,4,2,1,70,0,0
95138,-100,4,2,1,70,0,0
97138,-100,4,2,1,90,0,1
98472,-100,4,2,1,70,0,0
98805,-100,4,2,2,50,0,0
100805,-100,4,2,1,70,0,0
101138,-133.333333333333,4,2,1,60,0,0
101305,-133.333333333333,4,2,1,40,0,0
101472,-133.333333333333,4,2,1,60,0,0
102638,-133.333333333333,4,2,1,65,0,0
102805,-133.333333333333,4,2,1,70,0,0
103138,-133.333333333333,4,2,1,75,0,0
103305,-133.333333333333,4,2,1,65,0,0
103472,-133.333333333333,4,2,1,70,0,0
103638,-133.333333333333,4,2,1,60,0,0
103972,-133.333333333333,4,2,1,40,0,0
104138,-133.333333333333,4,2,1,60,0,0
105305,-133.333333333333,4,2,1,75,0,0
105472,-133.333333333333,4,2,1,70,0,0
105638,-133.333333333333,4,2,1,65,0,0
105805,-133.333333333333,4,2,1,60,0,0
106638,-133.333333333333,4,2,1,40,0,0
106805,-133.333333333333,4,2,1,60,0,0
107805,-200,4,2,3,60,0,0
108472,-200,4,2,1,60,0,0
108638,-133.333333333333,4,2,1,60,0,0
109138,-100,4,2,1,70,0,0
110472,-100,4,2,1,80,0,0
110722,-100,4,2,1,5,0,0
110805,-100,4,2,1,80,0,0
111055,-100,4,2,1,5,0,0
111138,-100,4,2,1,70,0,0
111805,-133.333333333333,4,2,3,60,0,0
114055,-133.333333333333,4,2,3,5,0,0
114138,-133.333333333333,4,2,3,60,0,0
116472,-333.333333333333,4,2,3,70,0,0
116722,-333.333333333333,4,2,3,5,0,0
116805,-100,4,2,3,70,0,0
117138,-133.333333333333,4,2,3,60,0,0
121138,-100,4,2,1,80,0,0
122305,-100,4,2,1,70,0,0
122472,-100,4,2,4,70,0,0
127805,-111.111111111111,4,2,1,50,0,0
130138,-76.9230769230769,4,2,1,70,0,0
130388,-76.9230769230769,4,2,1,5,0,0
130472,-100,4,2,1,80,0,0
131805,-200,4,2,1,50,0,0
131888,-200,4,2,1,10,0,0
132138,-200,4,2,1,50,0,0
132222,-200,4,2,1,15,0,0
132472,-200,4,2,1,50,0,0
132555,-200,4,2,1,20,0,0
132638,-200,4,2,1,70,0,0
133138,-100,4,2,1,85,0,1
133388,-100,4,2,1,5,0,1
133472,-100,4,2,1,85,0,1
134388,-100,4,2,1,5,0,1
134472,-100,4,2,1,85,0,1
135722,-100,4,2,1,5,0,1
135805,-100,4,2,1,85,0,1
136555,-100,4,2,1,5,0,1
136638,-100,4,2,1,85,0,1
137722,-100,4,2,1,5,0,1
137805,-100,4,2,1,85,0,1
141638,-100,4,2,1,80,0,1
142138,-100,4,2,1,75,0,1
142638,-100,4,2,1,85,0,1
143138,-100,4,2,1,70,0,0
143805,-100,4,2,1,85,0,1
145388,-100,4,2,1,5,0,1
145472,-100,4,2,1,85,0,1
146138,-76.9230769230769,4,2,1,95,0,1
146388,-76.9230769230769,4,2,1,5,0,1
146472,-100,4,2,1,85,0,1
146722,-100,4,2,1,5,0,1
146805,-100,4,2,1,85,0,1
148388,-100,4,2,1,5,0,1
148472,-100,4,2,1,70,0,1
149138,-100,4,2,1,85,0,1
149388,-100,4,2,1,5,0,1
149472,-100,4,2,1,85,0,1
151055,-100,4,2,1,5,0,1
151138,-100,4,2,1,85,0,1
152055,-100,4,2,1,5,0,1
152138,-100,4,2,1,85,0,1
152722,-100,4,2,1,5,0,1
152805,-100,4,2,1,85,0,1
153805,-100,4,2,1,70,0,0
154472,-100,4,2,1,70,0,1
156805,-100,4,2,1,85,0,1
156972,-100,4,2,1,70,0,1
159805,-133.333333333333,4,2,1,70,0,0
160472,-100,4,2,1,70,0,0
162472,-100,4,2,1,90,0,1
163472,-200,4,2,1,90,0,1
163722,-200,4,2,1,5,0,1
163805,-100,4,2,1,90,0,1
165138,-133.333333333333,4,2,4,60,0,0
169388,-133.333333333333,4,2,4,5,0,0
169472,-133.333333333333,4,2,4,60,0,0
170055,-133.333333333333,4,2,4,5,0,0
170138,-133.333333333333,4,2,4,40,0,0
170472,-133.333333333333,4,2,4,60,0,0
170638,-133.333333333333,4,2,4,40,0,0
170805,-133.333333333333,4,2,4,60,0,0
170972,-133.333333333333,4,2,4,40,0,0
171138,-133.333333333333,4,2,4,60,0,0
174722,-133.333333333333,4,2,4,5,0,0
174805,-133.333333333333,4,2,4,60,0,0
175138,-133.333333333333,4,2,1,60,0,0
175805,-133.333333333333,4,2,4,60,0,0
180055,-133.333333333333,4,2,4,5,0,0
180138,-133.333333333333,4,2,4,60,0,0
180722,-133.333333333333,4,2,4,5,0,0
180805,-133.333333333333,4,2,4,40,0,0
181138,-133.333333333333,4,2,4,60,0,0
181305,-133.333333333333,4,2,4,40,0,0
181472,-133.333333333333,4,2,4,60,0,0
181638,-133.333333333333,4,2,4,40,0,0
181805,-133.333333333333,4,2,4,60,0,0
184722,-133.333333333333,4,2,4,5,0,0
184805,-133.333333333333,4,2,4,60,0,0
185388,-133.333333333333,4,2,4,5,0,0
185472,-133.333333333333,4,2,4,60,0,0
185805,-133.333333333333,4,2,1,60,0,0
186472,-133.333333333333,4,2,4,60,0,0
191388,-133.333333333333,4,2,4,5,0,0
191472,-133.333333333333,4,2,4,40,0,0
191805,-133.333333333333,4,2,4,60,0,0
191972,-133.333333333333,4,2,4,40,0,0
192055,-133.333333333333,4,2,4,60,0,0
195805,-111.111111111111,4,2,4,60,0,0
196388,-111.111111111111,4,2,4,5,0,0
196472,-111.111111111111,4,2,1,60,0,0
197138,-133.333333333333,4,2,4,50,0,0
206472,-133.333333333333,4,2,1,70,0,1
206805,-111.111111111111,4,2,1,75,0,1
207138,-100,4,2,1,80,0,1
207472,-111.111111111111,4,2,1,75,0,1
207805,-111.111111111111,4,2,2,50,0,0
215805,-100,4,2,1,70,0,1
216305,-100,4,2,1,75,0,1
216805,-100,4,2,1,80,0,1
217305,-100,4,2,1,85,0,1
217805,-100,4,2,1,60,0,0
218472,-100,4,2,1,85,0,1
220055,-100,4,2,1,5,0,1
220138,-100,4,2,1,85,0,1
220805,-76.9230769230769,4,2,1,95,0,1
221055,-76.9230769230769,4,2,1,5,0,1
221138,-100,4,2,1,85,0,1
221388,-100,4,2,1,5,0,1
221472,-100,4,2,1,85,0,1
223055,-100,4,2,1,5,0,1
223138,-100,4,2,1,70,0,1
223805,-100,4,2,1,85,0,1
224055,-100,4,2,1,5,0,1
224138,-100,4,2,1,85,0,1
225722,-100,4,2,1,5,0,1
225805,-100,4,2,1,85,0,1
226722,-100,4,2,1,5,0,1
226805,-100,4,2,1,85,0,1
227388,-100,4,2,1,5,0,1
227472,-100,4,2,1,85,0,1
228472,-100,4,2,1,70,0,0
229138,-100,4,2,1,70,0,1
231472,-100,4,2,1,85,0,1
231638,-100,4,2,1,70,0,1
234472,-100,4,2,1,90,0,1
235638,-100,4,2,1,90,0,0
236805,-100,4,2,2,50,0,0
239805,-100,4,2,1,70,0,0
241805,-100,4,2,1,85,0,1
242472,-100,4,2,1,80,0,0
247805,-100,4,2,1,90,0,1
250472,-111.111111111111,4,2,1,70,0,0
252472,-100,4,2,1,70,0,0
253222,-100,4,2,2,40,0,0
255805,-100,4,2,2,60,0,0
258138,-100,4,2,2,70,0,0

[Colours]
Combo1 : 231,235,254
Combo2 : 173,245,252
Combo3 : 107,122,254
Combo4 : 211,190,254

[HitObjects]
502,319,2472,6,0,B|463:313|432:338|432:338|419:296|381:285,1,150,6|2,0:0|0:0,0:0:0:0:
295,328,3472,1,2,0:0:0:0:
209,281,3805,2,0,P|196:245|189:208,1,75,2|0,0:0|0:0,0:0:0:0:
272,156,4472,2,0,P|284:191|291:228,1,75,2|2,0:0|0:0,0:0:0:0:
295,328,5138,6,0,P|245:377|158:361,1,150,2|2,0:0|0:0,0:0:0:0:
110,292,6138,1,2,0:0:0:0:
13,308,6472,2,0,P|24:273|29:229,1,75,2|0,0:0|0:0,0:0:0:0:
7,140,7138,1,2,0:0:0:0:
100,169,7472,1,2,0:0:0:0:
162,94,7805,6,0,B|207:79|241:106|225:118|256:143|302:133,1,150,2|2,0:0|0:0,0:0:0:0:
390,101,8805,1,2,0:0:0:0:
359,193,9138,2,0,P|337:117|332:47,2,150,2|2|2,0:0|0:0|0:0,0:0:0:0:
256,192,10555,12,6,11805,0:0:0:0:
256,192,11888,12,0,14138,1:0:0:0:
481,148,14472,6,0,P|466:175|339:176,1,150,6|10,3:2|0:0,0:0:0:0:
296,116,14972,1,2,0:0:0:0:
221,177,15138,2,0,P|232:212|238:255,1,75,2|2,3:2|3:2,0:0:0:0:
279,338,15472,2,0,P|300:344|321:351,2,37.5,10|2|2,0:0|0:0|0:0,0:0:0:0:
185,365,15805,6,0,P|149:376|112:382,1,75,2|2,3:2|0:0,0:0:0:0:
34,322,16138,1,10,0:0:0:0:
110,260,16305,1,2,0:0:0:0:
40,191,16472,2,0,P|51:156|59:114,1,75,2|2,3:2|3:2,0:0:0:0:
139,63,16805,2,0,L|131:22,2,37.5,10|2|2,0:0|0:0|0:0,0:0:0:0:
231,95,17138,5,6,3:2:0:0:
175,175,17305,1,2,0:0:0:0:
255,230,17472,2,0,P|293:226|340:209,1,75,10|2,0:0|0:0,0:0:0:0:
392,141,17805,1,2,3:2:0:0:
448,61,17972,2,0,P|412:49|375:45,1,75,2|8,3:2|0:0,0:0:0:0:
286,4,18305,6,0,P|319:55|304:108,1,112.5,6|0,3:2|0:0,0:0:0:0:
294,116,18638,2,0,P|254:111|211:95,1,75,2|8,3:2|0:0,0:0:0:0:
158,24,18972,1,2,0:0:0:0:
70,66,19138,2,0,P|79:98|87:156,1,75,14|2,0:0|3:2,0:0:0:0:
150,212,19472,1,12,0:0:0:0:
105,297,19637,5,4,0:3:0:0:
105,297,19721,1,4,0:3:0:0:
105,297,19805,2,0,P|158:251|232:269,1,150,6|10,3:2|0:0,0:0:0:0:
181,352,20305,1,2,0:0:0:0:
273,383,20472,2,0,P|311:372|358:367,1,75,2|2,3:2|3:2,0:0:0:0:
435,327,20805,2,0,P|454:336|482:341,2,37.5,10|2|2,0:0|0:0|0:0,0:0:0:0:
379,246,21138,6,0,P|393:211|399:157,1,75,6|2,3:2|0:0,0:0:0:0:
325,108,21472,1,10,0:0:0:0:
251,171,21638,1,2,0:0:0:0:
155,151,21805,2,0,P|141:116|135:79,1,75,2|2,3:2|3:2,0:0:0:0:
229,53,22138,2,0,P|233:37|239:10,3,37.5,10|2|10|8,0:0|0:0|0:0|0:0,0:0:0:0:
224,0,22472,5,4,3:2:0:0:
256,192,22555,12,14,24805,0:0:0:0:
16,326,25138,6,0,P|62:367|116:358,1,112.500004291535,6|2,3:2|3:2,0:0:0:0:
177,302,25638,1,2,0:0:0:0:
97,258,25805,2,0,P|87:230|86:187,1,56.2500021457673,2|2,3:2|0:0,0:0:0:0:
151,143,26138,2,0,P|178:149|224:162,1,56.2500021457673,2|2,3:2|0:0,0:0:0:0:
284,201,26472,6,0,P|294:173|295:130,1,56.2500021457673,2|2,3:2|0:0,0:0:0:0:
239,77,26805,1,2,3:2:0:0:
308,18,26972,2,0,P|371:11|413:60,1,112.500004291535,2|0,0:0|0:0,0:0:0:0:
495,45,27472,2,0,P|487:70|477:114,1,56.2500021457673,2|2,3:2|0:0,0:0:0:0:
501,186,27805,6,0,P|445:192|384:216,1,112.500004291535,2|2,3:2|3:2,0:0:0:0:
321,156,28305,1,2,0:0:0:0:
244,203,28472,2,0,P|251:230|256:268,1,56.2500021457673,2|2,3:2|0:0,0:0:0:0:
341,283,28805,2,0,P|334:310|329:348,1,56.2500021457673,2|2,3:2|0:0,0:0:0:0:
250,380,29138,6,0,P|206:352|142:366,2,112.500004291535,2|2|2,3:2|3:2|3:2,0:0:0:0:
483,304,30138,2,0,P|458:320|420:320,1,56.2500021457673,2|4,3:2|0:3,0:0:0:0:
424,319,30388,1,4,0:3:0:0:
418,312,30472,6,0,P|428:252|446:192,1,112.500004291535,6|2,3:2|3:2,0:0:0:0:
501,134,30972,1,2,0:0:0:0:
443,65,31138,2,0,P|385:55|336:99,1,112.500004291535,2|2,3:2|3:2,0:0:0:0:
255,62,31638,6,0,P|245:33|241:7,2,56.2500021457673,2|2|2,0:0|3:2|0:0,0:0:0:0:
196,130,32138,1,2,3:2:0:0:
196,130,32305,1,2,0:0:0:0:
223,215,32472,2,0,P|173:182|121:185,1,112.500004291535,2|2,3:2|3:2,0:0:0:0:
48,238,32972,1,2,0:0:0:0:
65,325,33138,6,0,P|106:331|150:352,1,84.3750032186509,2|0,3:2|0:0,0:0:0:0:
156,364,33472,2,0,P|185:355|225:352,1,56.2500021457673,2|0,3:2|0:0,0:0:0:0:
250,271,33805,2,0,P|244:243|240:215,1,56.2500021457673,2|0,3:2|0:0,0:0:0:0:
318,169,34138,2,0,P|323:196|327:224,1,56.2500021457673,2|0,3:2|0:0,0:0:0:0:
408,263,34472,2,0,P|455:261|492:295,1,84.3750032186509,2|0,3:2|0:0,0:0:0:0:
492,300,34805,2,0,P|485:325|476:361,1,56.2500021457673,2|0,3:2|0:0,0:0:0:0:
386,384,35138,6,0,B|366:372|357:350|357:350|337:362|293:358,1,89.999997253418,10|8,0:0|0:3,0:0:0:0:
301,343,35472,6,0,B|276:344|255:333|255:333|243:356|225:363,1,89.999997253418,4|4,0:3|0:3,0:0:0:0:
209,377,35805,6,0,P|163:335|83:356,1,134.999995880127,6|10,3:2|0:0,0:0:0:0:
17,290,36305,1,2,0:0:0:0:
46,199,36472,2,0,P|37:165|35:123,1,67.4999979400635,2|2,3:2|3:2,0:0:0:0:
109,75,36805,2,0,P|141:87|178:95,1,67.4999979400635,10|2,0:0|0:0,0:0:0:0:
263,64,37138,6,0,P|253:31|248:-3,2,67.4999979400635,2|2|10,3:2|3:2|0:0,0:0:0:0:
346,106,37638,1,2,0:0:0:0:
346,106,37722,1,8,0:0:0:0:
346,106,37805,2,0,P|336:138|331:171,1,67.4999979400635,0|2,3:0|3:2,0:0:0:0:
384,249,38138,2,0,P|428:240|480:284,1,101.249996910095,8|0,0:0|0:0,0:0:0:0:
480,286,38472,1,2,3:2:0:0:
423,358,38638,6,0,P|404:362|389:369,1,33.7499989700318,2|2,0:0|0:0,0:0:0:0:
376,380,38805,2,0,P|336:369|291:361,1,67.4999979400635,10|2,0:0|0:0,0:0:0:0:
226,321,39138,2,0,P|186:349|126:340,1,101.249996910095,2|0,3:2|0:0,0:0:0:0:
123,333,39472,2,0,P|128:293|141:259,1,67.4999979400635,10|2,0:0|0:0,0:0:0:0:
62,209,39805,6,0,P|60:186|53:165,3,33.7499989700318,2|0|2|2,3:2|0:0|3:2|0:0,0:0:0:0:
43,164,40138,2,0,P|79:161|118:146,1,67.4999979400635,14|0,0:0|0:0,0:0:0:0:
190,101,40472,2,0,P|181:44|218:10,1,101.249996910095,2|8,3:2|0:3,0:0:0:0:
225,9,40805,2,0,P|258:20|293:26,1,67.4999979400635,10|4,0:0|0:3,0:0:0:0:
353,96,41138,6,0,P|411:55|484:92,1,134.999995880127,6|10,3:2|0:0,0:0:0:0:
510,157,41638,1,2,0:0:0:0:
510,157,41722,1,8,0:0:0:0:
510,157,41805,2,0,P|499:186|491:227,1,67.4999979400635,2|2,3:2|3:2,0:0:0:0:
405,262,42138,1,10,0:0:0:0:
445,347,42305,5,2,0:0:0:0:
445,347,42388,1,0,0:0:0:0:
445,347,42472,2,0,P|388:304|315:324,1,134.999995880127,2|10,3:2|0:0,0:0:0:0:
253,370,42972,2,0,P|228:357|209:357,1,33.7499989700318,2|8,0:0|0:0,0:0:0:0:
207,346,43138,2,0,P|168:375|115:368,1,101.249996910095,2|0,3:2|0:0,0:0:0:0:
104,359,43472,2,0,P|97:323|96:285,1,67.4999979400635,8|0,0:0|0:0,0:0:0:0:
132,206,43805,6,0,P|82:249|17:236,2,134.999995880127,2|10|2,3:2|0:0|3:2,0:0:0:0:
58,146,44638,1,0,3:2:0:0:
137,92,44805,6,0,P|166:104|196:110,1,56.25,14|0,0:0|0:0,0:0:0:0:
209,100,45138,6,0,P|201:50|192:11,1,75,10|2,0:0|3:2,0:0:0:0:
278,0,45472,2,0,P|285:36|291:73,1,75,10|0,0:0|3:2,0:0:0:0:
375,123,45805,1,10,0:0:0:0:
303,190,45972,1,8,0:3:0:0:
374,255,46138,2,0,P|396:247|416:244,3,37.5,4|4|8|8,0:3|0:3|0:0|0:0,0:0:0:0:
428,252,46472,6,0,P|463:281|454:348,1,112.5,6|2,0:0|0:0,0:0:0:0:
377,383,47138,2,0,P|323:363|259:353,1,112.5,2|0,0:0|0:0,0:0:0:0:
184,320,47805,6,0,P|154:333|124:333,2,56.25,2|2|2,0:0|0:0|0:0,0:0:0:0:
252,260,48472,2,0,P|231:202|232:139,1,112.5,2|0,0:0|0:0,0:0:0:0:
241,61,49138,6,0,P|270:69|293:86,1,56.25,6|2,0:0|0:0,0:0:0:0:
364,3,49638,6,0,P|372:17|377:42,1,37.5,2|2,0:0|0:0,0:0:0:0:
472,65,50055,6,0,P|470:86|452:122,1,56.25,2|2,0:0|0:0,0:0:0:0:
459,208,50472,6,0,P|489:215|517:228,2,56.25,2|2|2,0:0|0:0|0:0,0:0:0:0:
383,261,51138,2,0,P|332:267|272:287,1,112.5,2|2,0:0|0:0,0:0:0:0:
187,272,51805,6,0,P|182:239|172:208,2,56.25,6|2|2,0:0|0:0|0:0,0:0:0:0:
145,351,52472,2,0,P|83:358|46:317,1,112.5,2|0,0:0|0:0,0:0:0:0:
53,240,53138,6,0,P|22:245|-5:258,2,56.25,2|2|2,0:0|0:0|0:0,0:0:0:0:
109,170,53805,2,0,P|142:189|192:192,1,75,2|2,0:0|0:0,0:0:0:0:
235,121,54305,5,2,3:2:0:0:
235,121,54388,1,0,3:2:0:0:
235,121,54472,2,0,B|282:117|311:149|311:149|324:106|367:91,1,168.750006437302,6|2,3:2|0:0,0:0:0:0:
423,19,55138,1,2,0:0:0:0:
423,19,55638,5,2,3:2:0:0:
496,71,55805,2,0,P|484:110|475:169,1,84.3750032186509,6|0,3:2|0:0,0:0:0:0:
479,171,56138,2,0,P|452:161|407:152,1,56.2500021457673,2|0,3:2|0:0,0:0:0:0:
348,202,56472,1,2,3:2:0:0:
397,276,56638,1,8,0:3:0:0:
397,276,56722,1,8,0:3:0:0:
397,276,56805,2,0,P|392:293|387:321,3,28.1250010728836,4|4|4|4,0:3|0:3|0:3|0:3,0:0:0:0:
376,319,57138,6,0,P|439:314|496:373,2,150,6|2|2,3:2|3:2|3:2,0:0:0:0:
299,380,57972,2,0,P|278:374|261:365,1,37.5,10|8,0:0|0:0,0:0:0:0:
252,353,58138,2,0,P|258:312|271:276,1,75,2|10,3:2|0:0,0:0:0:0:
348,222,58472,1,2,3:2:0:0:
277,155,58638,5,10,0:0:0:0:
277,155,58722,1,8,0:0:0:0:
277,155,58805,2,0,P|237:181|169:170,1,112.5,2|8,3:2|0:0,0:0:0:0:
164,160,59138,2,0,P|170:121|184:83,1,75,2|10,3:2|0:0,0:0:0:0:
103,28,59472,2,0,P|91:63|84:100,1,75,2|10,3:2|0:0,0:0:0:0:
23,176,59805,6,0,P|41:226|49:291,1,112.5,2|8,3:2|0:0,0:0:0:0:
37,300,60138,2,0,P|78:288|113:284,1,75,2|8,3:2|0:0,0:0:0:0:
189,226,60472,1,2,3:2:0:0:
248,302,60638,2,0,P|242:321|238:349,1,37.5,10|8,0:0|0:0,0:0:0:0:
245,357,60805,2,0,P|286:369|321:373,1,75,2|10,3:2|0:0,0:0:0:0:
391,308,61138,5,2,3:2:0:0:
481,345,61305,1,10,0:0:0:0:
481,345,61388,1,8,0:0:0:0:
481,345,61472,2,0,P|490:290|460:244,1,112.5,2|8,3:2|0:0,0:0:0:0:
443,237,61805,2,0,P|450:195|461:149,1,75,2|10,3:2|0:0,0:0:0:0:
377,106,62138,1,2,3:2:0:0:
308,176,62305,1,10,0:0:0:0:
224,125,62472,6,0,P|219:98|212:74,3,44.999998626709,2|2|2|2,1:2|1:2|1:2|1:2,0:0:0:0:
323,0,63138,6,0,P|318:27|311:51,3,44.999998626709,2|2|2|2,1:2|1:2|1:2|1:2,0:0:0:0:
236,202,63805,6,0,P|193:173|149:170,1,89.999997253418,2|2,1:2|1:2,0:0:0:0:
144,155,64138,6,0,P|99:161|64:187,1,89.999997253418,2|2,1:2|1:2,0:0:0:0:
46,185,64472,6,0,P|17:223|9:274,1,101.249996910095,2|0,1:2|0:0,0:0:0:0:
0,290,64805,6,0,P|80:284|116:334,1,146.249993305207,4|0,0:3|0:0,0:0:0:0:
111,351,65138,6,0,B|155:348|184:373|184:373|200:341|247:330,1,150,6|8,3:2|0:3,0:0:0:0:
193,245,65638,2,0,P|195:226|201:208,1,37.5,4|4,0:3|0:3,0:0:0:0:
215,195,65805,6,0,P|250:201|294:217,1,75,8|8,0:0|0:0,0:0:0:0:
295,221,66055,1,8,0:0:0:0:
299,231,66138,1,8,0:0:0:0:
384,278,66305,1,8,0:0:0:0:
390,268,66388,1,8,0:0:0:0:
393,257,66472,1,6,3:2:0:0:
497,65,67638,5,4,0:3:0:0:
497,65,67722,1,4,0:3:0:0:
497,65,67805,2,0,P|453:106|393:98,1,112.5,6|0,3:2|0:0,0:0:0:0:
387,113,68138,2,0,P|380:70|371:35,1,75,10|0,0:0|0:0,0:0:0:0:
281,0,68472,1,2,3:2:0:0:
218,73,68638,1,2,3:2:0:0:
276,151,68805,2,0,P|265:204|257:268,1,112.5,10|0,0:0|0:0,0:0:0:0:
246,277,69138,6,0,P|321:276|370:338,2,150,2|10|2,3:2|0:0|3:2,0:0:0:0:
195,361,69972,1,0,3:2:0:0:
100,338,70138,2,0,P|43:345|6:306,1,112.5,10|0,0:0|0:0,0:0:0:0:
4,289,70472,5,6,3:2:0:0:
43,200,70638,2,0,L|34:160,2,37.5,2|0|10,3:2|0:0|0:0,0:0:0:0:
135,232,70972,2,0,B|178:225|207:249|207:249|220:212|269:196,1,150,2|2,3:2|3:2,0:0:0:0:
304,114,71472,1,8,0:0:0:0:
224,57,71638,6,0,P|275:12|355:30,1,150,6|0,3:2|3:0,0:0:0:0:
447,17,72138,2,0,P|432:64|420:137,1,112.5,12|0,0:0|0:0,0:0:0:0:
426,142,72472,5,10,0:0:0:0:
477,224,72638,2,0,P|493:216|518:210,2,37.5,2|0|10,3:2|0:0|0:0,0:0:0:0:
407,293,72972,1,4,0:3:0:0:
407,293,73055,1,4,0:3:0:0:
407,293,73138,2,0,P|368:277|330:270,1,75,6|2,3:2|0:0,0:0:0:0:
260,208,73472,5,10,0:0:0:0:
183,267,73638,1,2,0:0:0:0:
118,193,73805,2,0,P|80:236|86:299,1,112.5,2|0,3:2|3:2,0:0:0:0:
75,308,74138,6,0,B|111:310|146:279|146:279|176:305|213:301|213:301|215:342|238:368,1,225,14|0,0:0|3:0,0:0:0:0:
335,381,74805,1,8,0:0:0:0:
397,305,74972,5,8,0:3:0:0:
397,305,75055,1,8,0:3:0:0:
397,305,75138,2,0,P|358:296|313:275,1,75,8|4,0:3|0:3,0:0:0:0:
283,193,75472,2,0,P|305:188|326:180,3,37.5,4|4|8|8,0:3|0:3|0:0|0:0,0:0:0:0:
339,188,75805,6,0,P|347:147|358:104,1,75,6|2,3:2|3:2,0:0:0:0:
293,38,76138,1,10,0:0:0:0:
208,86,76305,6,0,P|199:45|189:2,1,75,6|2,3:2|3:2,0:0:0:0:
112,70,76638,1,10,0:0:0:0:
50,145,76805,6,0,P|82:151|124:168,1,75,6|2,3:2|3:2,0:0:0:0:
184,240,77138,2,0,P|147:247|112:261,1,75,10|6,0:0|3:2,0:0:0:0:
52,338,77472,1,2,3:2:0:0:
140,378,77638,1,10,0:0:0:0:
222,326,77805,6,0,P|242:330|266:341,3,37.5,10|8|10|8,0:0|0:0|0:0|0:0,0:0:0:0:
274,352,78138,2,0,P|291:345|309:341,3,37.5,10|8|10|8,0:0|0:0|0:0|0:0,0:0:0:0:
325,324,78472,6,0,P|384:380|459:359,2,150,6|8|2,3:2|0:0|3:2,0:0:0:0:
411,279,79305,1,0,0:0:0:0:
354,199,79472,2,0,P|364:165|373:115,1,75,8|2,0:0|0:0,0:0:0:0:
393,31,79805,6,0,P|359:66|286:58,1,112.5,2|0,3:2|0:0,0:0:0:0:
282,75,80138,2,0,P|242:57|185:54,1,75,10|0,0:0|0:0,0:0:0:0:
116,28,80472,2,0,P|123:61|131:108,1,75,2|0,3:2|0:0,0:0:0:0:
174,183,80805,6,0,P|129:137|50:164,1,146.249993305207,12|0,0:0|0:0,0:0:0:0:
39,157,81138,6,0,P|33:217|15:288,1,112.5,6|0,3:2|0:0,0:0:0:0:
8,281,81472,2,0,P|44:286|88:300,1,75,8|2,0:0|0:0,0:0:0:0:
159,355,81805,2,0,B|196:314|245:332|245:332|258:363|293:375,1,150,2|8,3:2|0:0,0:0:0:0:
354,304,82305,5,2,0:0:0:0:
437,354,82472,2,0,P|452:320|450:272,1,75,2|0,3:2|0:0,0:0:0:0:
472,186,82805,2,0,P|426:226|369:214,1,112.5,10|0,0:0|0:0,0:0:0:0:
363,208,83138,6,0,P|341:211|326:218,2,37.5,10|8|8,0:0|0:0|3:2,0:0:0:0:
320,119,83472,2,0,P|302:111|284:109,2,37.5,8|8|0,0:0|0:0|3:2,0:0:0:0:
385,46,83805,6,0,P|349:9|279:12,1,112.5,6|0,3:2|0:0,0:0:0:0:
279,21,84138,2,0,P|243:42|195:37,1,75,10|0,0:0|0:0,0:0:0:0:
118,7,84472,2,0,P|130:57|139:134,1,112.5,2|0,3:2|0:0,0:0:0:0:
132,136,84805,1,10,0:0:0:0:
53,194,84972,6,0,B|92:207|105:248|105:248|132:224|180:228,1,150,6|0,3:2|0:0,0:0:0:0:
268,211,85472,2,0,P|258:245|250:289,1,75,10|0,0:0|0:0,0:0:0:0:
244,381,85805,2,0,P|286:357|353:353,1,112.5,2|0,3:2|0:0,0:0:0:0:
362,338,86138,2,0,P|394:363|433:367,1,75,10|0,0:0|0:0,0:0:0:0:
507,311,86472,6,0,P|485:258|488:191,1,112.5,6|0,3:2|0:0,0:0:0:0:
495,185,86805,2,0,P|459:196|412:200,1,75,10|0,0:0|0:0,0:0:0:0:
329,231,87138,2,0,P|363:184|346:125,1,112.5,2|0,3:2|0:0,0:0:0:0:
338,117,87472,1,10,0:0:0:0:
268,50,87638,6,0,B|224:36|190:62|208:72|177:98|128:87,1,150,6|2,3:2|0:0,0:0:0:0:
57,23,88138,2,0,P|34:53|39:102,1,75,14|2,0:0|0:0,0:0:0:0:
3,182,88472,2,0,P|26:187|51:200,3,37.5,10|8|10|8,0:0|0:0|0:0|0:0,0:0:0:0:
54,207,88805,2,0,P|71:200|89:196,3,37.5,8|8|4|4,0:3|0:3|0:3|0:3,0:0:0:0:
107,187,89138,6,0,B|93:237|78:285|78:285|105:292|136:309,1,150,6|8,3:2|0:0,0:0:0:0:
191,370,89638,1,2,0:0:0:0:
191,370,89722,1,0,0:0:0:0:
191,370,89805,2,0,P|229:359|266:356,1,75,2|0,3:2|0:0,0:0:0:0:
342,297,90138,1,8,0:0:0:0:
258,247,90305,1,2,0:0:0:0:
328,179,90472,6,0,P|316:141|311:101,1,75,2|0,3:2|0:0,0:0:0:0:
375,33,90805,2,0,P|430:23|474:77,1,112.5,10|0,0:0|0:0,0:0:0:0:
485,68,91138,2,0,P|473:106|468:146,1,75,2|0,3:2|0:0,0:0:0:0:
505,231,91472,2,0,P|464:237|431:249,1,75,12|0,0:0|0:0,0:0:0:0:
386,334,91805,6,0,B|352:294|299:309|299:309|287:339|262:346,1,150,6|8,3:2|0:0,0:0:0:0:
168,371,92305,1,2,0:0:0:0:
168,371,92388,1,0,0:0:0:0:
168,371,92472,2,0,P|135:356|91:348,1,75,2|0,3:2|0:0,0:0:0:0:
34,273,92805,1,8,0:0:0:0:
116,220,92972,1,2,0:0:0:0:
45,152,93138,6,0,P|95:116|154:130,1,112.5,2|0,3:2|0:0,0:0:0:0:
158,111,93472,2,0,P|194:139|229:140,1,75,10|0,0:0|0:0,0:0:0:0:
285,67,93805,2,0,P|279:49|268:32,2,37.5,10|8|0,0:0|0:0|3:0,0:0:0:0:
374,106,94138,2,0,P|381:89|386:59,2,37.5,8|8|0,0:0|0:0|3:2,0:0:0:0:
459,156,94472,6,0,P|394:133|331:219,1,168.750006437302,6|0,3:2|3:0,0:0:0:0:
330,210,95055,1,0,3:0:0:0:
334,221,95138,6,0,B|379:235|387:277|387:277|419:249|459:260,1,150,14|2,0:0|3:2,0:0:0:0:
502,340,95638,1,14,0:2:0:0:
311,384,95972,6,0,P|314:365|321:343,2,37.5,8|8|8,0:3|0:3|0:3,0:0:0:0:
236,320,96305,1,8,0:3:0:0:
142,347,96472,2,0,P|136:310|127:272,1,75,4|4,0:3|0:3,0:0:0:0:
59,202,96805,5,4,0:3:0:0:
111,119,96972,1,4,0:3:0:0:
201,154,97138,6,0,P|237:144|279:139,1,75,14|0,0:0|3:0,0:0:0:0:
301,44,97472,6,0,P|265:54|223:59,1,75,14|0,0:0|3:0,0:0:0:0:
189,170,97805,6,0,P|225:160|267:155,1,75,14|0,0:0|3:0,0:0:0:0:
313,26,98138,6,0,P|277:36|235:41,1,75,14|0,0:0|3:0,0:0:0:0:
180,188,98472,5,6,3:2:0:0:
256,192,98555,12,8,100805,0:0:0:0:
486,358,101138,6,0,P|429:356|393:315,1,112.500004291535,6|2,3:2|0:0,0:0:0:0:
352,236,101638,2,0,P|295:238|259:279,1,112.500004291535,2|0,3:2|0:0,0:0:0:0:
211,352,102138,1,2,3:0:0:0:
211,352,102472,6,0,P|239:357|269:369,2,56.2500021457673,2|2|2,0:0|0:0|0:0,0:0:0:0:
140,296,102972,2,0,P|98:331|39:325,1,112.500004291535,2|2,0:0|3:2,0:0:0:0:
6,244,103472,2,0,P|16:219|24:182,1,56.2500021457673,10|2,0:0|3:2,0:0:0:0:
8,101,103805,6,0,P|61:101|104:146,1,112.500004291535,2|2,3:2|0:0,0:0:0:0:
168,200,104305,2,0,P|217:183|299:176,1,112.500004291535,2|0,3:2|0:0,0:0:0:0:
333,105,104805,1,2,3:0:0:0:
333,105,105138,6,0,P|328:74|320:43,1,56.2500021457673,2|2,0:0|0:0,0:0:0:0:
403,10,105471,2,0,P|409:37|413:65,1,56.2500021457673,2|2,0:0|0:0,0:0:0:0:
480,126,105805,1,2,3:2:0:0:
411,184,105972,2,0,P|470:180|511:221,1,112.500004291535,12|0,0:0|0:0,0:0:0:0:
438,271,106472,6,0,P|426:296|417:349,1,56.2500021457673,6|2,3:2|0:0,0:0:0:0:
344,374,106805,2,0,P|332:348|323:296,1,56.2500021457673,2|2,0:0|3:2,0:0:0:0:
246,365,107138,2,0,P|208:335|136:342,1,112.500004291535,2|2,0:0|3:0,0:0:0:0:
68,191,107805,6,0,P|35:211|-11:206,2,75,10|10|10,0:0|0:0|0:0,0:0:0:0:
77,195,108555,5,8,0:0:0:0:
85,199,108638,2,0,P|65:148|73:80,1,112.500004291535,6|0,3:2|0:0,0:0:0:0:
149,35,109138,6,0,P|181:41|225:56,1,75,10|0,0:0|3:0,0:0:0:0:
283,130,109472,2,0,P|246:137|206:151,1,75,10|0,0:0|3:0,0:0:0:0:
268,227,109805,1,10,0:0:0:0:
195,292,109972,2,0,P|176:284|156:279,2,37.5,0|0|14,3:0|3:0|0:0,0:0:0:0:
254,369,110305,5,0,3:0:0:0:
254,369,110388,1,0,3:0:0:0:
254,369,110472,2,0,P|310:345|376:353,1,112.5,14|0,0:0|0:0,0:0:0:0:
377,360,110805,2,0,P|360:307|365:233,1,112.5,14|0,0:0|0:0,0:0:0:0:
374,237,111138,6,0,P|411:244|446:256,1,75,8|8,0:3|0:3,0:0:0:0:
510,181,111472,1,4,0:3:0:0:
434,119,111638,1,4,0:3:0:0:
503,49,111805,6,0,P|457:40|423:24,1,84.3750032186509,14|2,3:2|0:0,0:0:0:0:
408,37,112138,2,0,P|376:50|333:52,1,56.2500021457673,8|2,0:0|0:0,0:0:0:0:
271,17,112472,2,0,P|303:65|289:132,1,112.500004291535,10|8,0:0|0:0,0:0:0:0:
131,186,113138,6,0,P|86:168|47:162,2,84.3750032186509,10|2|2,3:2|0:0|0:0,0:0:0:0:
208,140,113805,2,0,P|222:178|228:229,1,84.3750032186509,10|0,0:0|0:0,0:0:0:0:
240,235,114138,2,0,P|235:262|226:314,1,56.2500021457673,10|0,0:0|0:0,0:0:0:0:
156,343,114472,6,0,P|112:338|79:317,2,84.3750032186509,10|2|2,3:2|0:0|0:0,0:0:0:0:
236,384,115138,2,0,P|272:364|326:367,1,84.3750032186509,10|2,0:0|0:0,0:0:0:0:
331,372,115472,1,8,0:0:0:0:
418,354,115638,5,2,3:2:0:0:
418,354,115722,1,0,3:2:0:0:
418,354,115805,2,0,P|423:305|441:255,1,84.3750032186509,10|2,3:2|0:0,0:0:0:0:
448,261,116138,2,0,P|411:254|374:236,1,56.2500021457673,8|2,0:0|0:0,0:0:0:0:
341,170,116472,6,0,P|339:153|333:137,1,33.7499989700318,10|0,3:2|0:0,0:0:0:0:
320,124,116805,6,0,P|282:129|246:139,1,75,12|0,0:0|0:0,0:0:0:0:
158,117,117138,6,0,P|174:170|181:220,1,84.3750032186509,14|2,3:2|0:0,0:0:0:0:
173,218,117472,2,0,P|151:229|105:224,1,56.2500021457673,8|2,0:0|0:0,0:0:0:0:
42,276,117805,2,0,P|92:318|150:312,1,112.500004291535,10|8,0:0|0:0,0:0:0:0:
307,374,118472,6,0,P|344:360|398:359,2,84.3750032186509,10|2|2,3:2|0:0|0:0,0:0:0:0:
229,328,119138,2,0,P|232:299|242:265,1,56.2500021457673,10|2,0:0|0:0,0:0:0:0:
287,196,119472,1,8,0:0:0:0:
210,149,119638,5,2,3:2:0:0:
210,149,119722,1,8,0:0:0:0:
210,149,119805,2,0,B|163:165|152:209|152:209|123:181|75:187,1,168.750006437302,14|2,3:2|0:0,0:0:0:0:
8,126,120472,2,0,P|-1:68|35:28,1,112.500004291535,10|8,0:0|0:0,0:0:0:0:
117,58,120972,1,2,3:2:0:0:
198,5,121138,6,0,P|204:44|216:83,1,75,14|0,0:0|0:0,0:0:0:0:
294,134,121472,2,0,P|300:95|312:56,1,75,14|0,0:0|3:0,0:0:0:0:
403,31,121805,1,14,0:0:0:0:
458,111,121972,1,0,3:0:0:0:
387,178,122138,2,0,P|396:212|402:259,1,75,14|8,0:0|0:0,0:0:0:0:
397,261,122388,1,8,0:0:0:0:
390,270,122472,6,0,P|458:268|509:345,2,150,6|2|2,3:2|3:2|3:2,0:0:0:0:
321,340,123305,2,0,P|302:348|277:352,1,37.5,10|8,0:0|0:0,0:0:0:0:
268,345,123472,2,0,P|256:305|253:263,1,75,2|10,3:2|0:0,0:0:0:0:
307,190,123805,5,2,3:2:0:0:
235,123,123972,1,10,0:0:0:0:
235,123,124055,1,8,0:0:0:0:
235,123,124138,2,0,P|178:116|131:156,1,112.5,2|8,3:2|0:0,0:0:0:0:
116,148,124472,2,0,P|128:182|136:236,1,75,2|10,3:2|0:0,0:0:0:0:
61,285,124805,1,2,3:2:0:0:
114,366,124972,5,10,0:0:0:0:
114,366,125055,1,8,0:0:0:0:
114,366,125138,2,0,P|159:331|216:339,1,112.5,2|8,3:2|0:0,0:0:0:0:
230,328,125472,2,0,P|276:375|335:366,1,112.5,2|8,3:2|0:0,0:0:0:0:
337,365,125805,1,2,3:2:0:0:
434,363,125972,2,0,P|432:341|424:321,1,37.5,10|8,0:0|0:0,0:0:0:0:
414,315,126138,2,0,P|421:278|432:231,1,75,2|10,3:2|0:0,0:0:0:0:
507,180,126472,5,2,3:2:0:0:
431,119,126638,1,10,0:0:0:0:
431,119,126722,1,8,0:0:0:0:
431,119,126805,2,0,P|385:153|319:138,1,112.5,2|8,3:2|0:0,0:0:0:0:
314,135,127138,2,0,P|302:98|297:57,1,75,2|10,3:2|0:0,0:0:0:0:
213,10,127472,1,2,3:2:0:0:
143,77,127638,1,10,0:0:0:0:
54,43,127805,6,0,P|49:22|46:-2,3,44.999998626709,2|2|2|2,1:2|1:2|1:2|1:2,0:0:0:0:
227,123,128472,6,0,P|224:145|219:167,3,44.999998626709,2|2|2|2,1:2|1:2|1:2|1:2,0:0:0:0:
43,277,129138,6,0,P|88:278|132:247,1,89.999997253418,2|2,1:2|1:2,0:0:0:0:
131,237,129472,6,0,P|175:269|221:275,1,89.999997253418,2|2,1:2|1:2,0:0:0:0:
227,269,129805,6,0,P|243:313|274:346,1,89.999997253418,2|0,1:2|0:0,0:0:0:0:
281,364,130138,6,0,P|346:318|422:342,1,146.249993305207,4|0,0:3|0:0,0:0:0:0:
422,343,130472,6,0,B|445:333|474:328|474:328|461:277|449:208,1,150,14|12,0:0|0:0,0:0:0:0:
381,168,130972,1,0,3:0:0:0:
287,193,131138,2,0,P|277:227|269:278,1,75,12|0,0:0|3:0,0:0:0:0:
187,212,131472,2,0,P|193:175|203:139,1,75,12|0,0:0|3:0,0:0:0:0:
127,81,131805,6,0,P|96:95|50:99,2,75,6|2|2,1:2|1:2|1:2,0:0:0:0:
201,15,132638,6,0,P|220:27|244:31,1,37.5,2|2,1:2|1:2,0:0:0:0:
312,91,132972,5,2,1:2:0:0:
312,91,133055,1,0,1:0:0:0:
312,91,133138,2,0,P|363:52|427:70,1,112.5,6|0,3:2|0:0,0:0:0:0:
421,70,133472,2,0,P|429:101|436:146,1,75,10|0,0:0|0:0,0:0:0:0:
501,216,133805,1,2,3:2:0:0:
417,266,133972,1,2,3:2:0:0:
446,358,134138,2,0,P|391:362|347:329,1,112.5,10|0,0:0|0:0,0:0:0:0:
329,329,134472,6,0,P|316:293|311:241,1,75,2|0,3:2|0:0,0:0:0:0:
236,193,134805,2,0,P|223:229|218:281,1,75,10|0,0:0|0:0,0:0:0:0:
176,361,135138,2,0,P|140:356|91:337,1,75,2|0,3:2|3:2,0:0:0:0:
20,291,135472,2,0,P|78:292|114:231,1,112.5,10|0,0:0|0:0,0:0:0:0:
116,235,135805,5,6,3:2:0:0:
41,172,135972,2,0,P|21:163|-2:157,2,37.5,2|0|10,3:2|0:0|0:0,0:0:0:0:
126,125,136305,2,0,P|180:127|241:89,1,112.5,2|0,3:2|0:0,0:0:0:0:
248,103,136638,2,0,P|238:62|233:16,1,75,2|8,3:2|0:0,0:0:0:0:
329,53,136972,6,0,B|373:61|406:38|406:38|413:75|447:99,1,150,6|0,3:2|3:0,0:0:0:0:
509,166,137472,2,0,P|459:153|401:196,1,112.5,12|0,0:0|0:0,0:0:0:0:
403,199,137805,5,10,0:0:0:0:
473,266,137972,2,0,P|491:271|515:283,2,37.5,2|0|10,3:2|0:0|0:0,0:0:0:0:
389,316,138305,1,4,0:3:0:0:
389,316,138388,1,4,0:3:0:0:
389,316,138472,2,0,P|347:323|302:342,1,75,6|2,3:2|0:0,0:0:0:0:
231,381,138805,5,10,0:0:0:0:
162,311,138972,1,2,0:0:0:0:
217,230,139138,2,0,P|230:175|181:125,1,112.5,2|0,3:2|3:2,0:0:0:0:
183,143,139472,6,0,B|244:177|294:122|267:110|316:60|380:92,1,225,14|0,0:0|3:0,0:0:0:0:
353,185,140138,1,8,0:0:0:0:
440,228,140305,5,8,0:3:0:0:
440,228,140388,1,8,0:3:0:0:
440,228,140472,2,0,P|428:265|423:312,1,75,8|4,0:3|0:3,0:0:0:0:
352,367,140805,2,0,P|349:348|342:328,3,37.5,4|4|8|8,0:3|0:3|0:0|0:0,0:0:0:0:
326,321,141138,6,0,P|289:334|250:340,1,75,6|2,3:2|3:2,0:0:0:0:
185,269,141472,1,10,0:0:0:0:
169,173,141638,6,0,P|205:179|241:191,1,75,6|2,3:2|3:2,0:0:0:0:
332,156,141972,1,10,0:0:0:0:
413,208,142138,6,0,P|419:171|429:134,1,75,6|2,3:2|3:2,0:0:0:0:
347,82,142472,2,0,P|341:119|331:156,1,75,10|6,0:0|3:2,0:0:0:0:
255,217,142805,1,2,3:2:0:0:
328,280,142972,1,10,0:0:0:0:
248,335,143138,6,0,P|223:339|196:348,3,37.5,10|8|10|8,0:0|0:0|0:0|0:0,0:0:0:0:
195,356,143472,2,0,P|176:351|158:348,3,37.5,10|8|10|8,0:0|0:0|0:0|0:0,0:0:0:0:
141,333,143805,6,0,P|81:377|12:359,2,150,6|8|2,3:2|0:0|3:2,0:0:0:0:
61,275,144638,1,0,0:0:0:0:
129,203,144805,2,0,P|118:165|115:126,1,75,8|2,0:0|0:0,0:0:0:0:
38,68,145138,6,0,P|78:30|133:29,1,112.5,2|0,3:2|0:0,0:0:0:0:
151,22,145472,2,0,P|188:49|229:50,1,75,10|0,0:0|0:0,0:0:0:0:
311,31,145805,2,0,P|306:69|295:107,1,75,2|0,3:2|0:0,0:0:0:0:
224,175,146138,6,0,P|269:228|346:210,1,146.249993305207,12|0,0:0|0:0,0:0:0:0:
347,199,146472,6,0,P|388:168|447:176,1,112.5,6|0,3:2|0:0,0:0:0:0:
464,174,146805,2,0,P|451:212|445:261,1,75,8|2,0:0|0:0,0:0:0:0:
504,325,147138,2,0,B|466:338|448:373|448:373|417:349|368:353,1,150,2|8,3:2|0:0,0:0:0:0:
295,301,147638,5,2,0:0:0:0:
232,375,147805,2,0,P|196:360|157:354,1,75,2|0,3:2|0:0,0:0:0:0:
65,376,148138,2,0,P|35:334|62:267,1,112.5,10|0,0:0|0:0,0:0:0:0:
61,264,148472,6,0,P|56:239|47:220,2,37.5,10|8|8,0:0|0:0|3:2,0:0:0:0:
149,221,148805,2,0,P|156:202|159:176,2,37.5,8|8|0,0:0|0:0|3:2,0:0:0:0:
202,303,149138,6,0,P|257:314|311:266,1,112.5,6|0,3:2|0:0,0:0:0:0:
321,284,149472,2,0,P|310:245|306:204,1,75,10|0,0:0|0:0,0:0:0:0:
376,142,149805,2,0,P|411:156|456:163,1,75,2|0,3:2|0:0,0:0:0:0:
498,79,150138,1,10,0:0:0:0:
423,16,150305,6,0,B|378:3|348:31|364:35|330:67|285:54,1,150,6|0,3:2|0:0,0:0:0:0:
193,21,150805,2,0,P|209:76|216:143,1,112.5,10|0,0:0|0:0,0:0:0:0:
204,143,151138,2,0,P|166:135|129:122,1,75,2|0,3:2|0:0,0:0:0:0:
70,200,151472,2,0,P|107:207|145:221,1,75,10|0,0:0|0:0,0:0:0:0:
194,301,151805,6,0,P|243:275|306:279,1,112.5,6|0,3:2|0:0,0:0:0:0:
314,269,152138,2,0,P|323:303|329:347,1,75,10|0,0:0|0:0,0:0:0:0:
421,374,152472,2,0,P|462:345|461:281,1,112.5,2|0,3:2|0:0,0:0:0:0:
453,270,152805,1,10,0:0:0:0:
472,174,152972,6,0,B|433:166|399:188|399:188|383:149|342:139,1,150,6|2,3:2|0:0,0:0:0:0:
257,180,153472,1,14,0:0:0:0:
295,269,153638,1,2,0:0:0:0:
229,341,153805,6,0,P|209:333|186:329,3,37.5,10|8|10|8,0:0|0:0|0:0|0:0,0:0:0:0:
176,342,154138,2,0,P|157:346|140:352,3,37.5,8|8|4|4,0:3|0:3|0:3|0:3,0:0:0:0:
129,368,154472,6,0,P|68:375|19:309,1,150,6|0,3:2|3:2,0:0:0:0:
20,212,154972,1,10,0:0:0:0:
20,212,155055,1,8,0:0:0:0:
20,212,155138,2,0,P|57:230|97:240,1,75,2|8,3:2|0:0,0:0:0:0:
174,190,155472,1,0,3:2:0:0:
132,102,155638,2,0,P|108:107|88:113,1,37.5,10|8,0:0|0:0,0:0:0:0:
83,125,155805,6,0,P|70:90|67:42,1,75,2|8,3:2|0:0,0:0:0:0:
149,1,156138,2,0,P|186:34|256:32,1,112.5,2|8,3:2|0:0,0:0:0:0:
259,51,156472,2,0,P|322:0|391:29,1,150,2|4,3:2|3:2,0:0:0:0:
478,5,156972,5,8,0:0:0:0:
478,5,157055,1,8,0:0:0:0:
478,5,157138,2,0,P|461:79|445:155,1,150,6|0,3:2|3:2,0:0:0:0:
500,233,157638,1,10,0:0:0:0:
500,233,157722,1,8,0:0:0:0:
500,233,157805,2,0,P|463:237|418:256,1,75,2|8,3:2|0:0,0:0:0:0:
332,228,158138,1,0,3:2:0:0:
356,322,158305,2,0,P|353:341|348:360,1,37.5,10|8,0:0|0:0,0:0:0:0:
336,372,158472,6,0,P|299:368|254:349,1,75,2|8,3:2|0:0,0:0:0:0:
168,377,158805,2,0,P|187:323|198:262,1,112.5,2|8,3:2|0:0,0:0:0:0:
187,254,159138,1,2,3:2:0:0:
99,210,159305,1,8,0:0:0:0:
99,210,159388,1,8,0:0:0:0:
99,210,159472,2,0,P|95:188|91:169,3,37.5,8|8|2|0,0:0|0:0|3:2|0:0,0:0:0:0:
82,152,159805,6,0,P|170:156|207:86,1,168.750006437302,6|0,3:2|3:0,0:0:0:0:
204,84,160388,5,0,3:0:0:0:
199,76,160472,2,0,P|258:61|327:138,1,150,14|2,0:0|3:2,0:0:0:0:
267,194,160972,1,14,0:0:0:0:
418,316,161305,6,0,P|435:310|461:305,2,37.5,8|8|8,0:3|0:3|0:3,0:0:0:0:
345,381,161638,1,8,0:3:0:0:
268,319,161805,2,0,P|278:282|283:245,1,75,4|4,0:3|0:3,0:0:0:0:
215,175,162138,1,4,0:3:0:0:
139,237,162305,1,4,0:3:0:0:
44,211,162472,5,14,0:0:0:0:
44,211,162638,2,0,P|34:174|29:137,1,75,10|0,0:0|3:2,0:0:0:0:
120,101,162972,1,10,0:0:0:0:
112,4,163138,2,0,P|146:17|195:29,1,75,10|0,0:0|3:0,0:0:0:0:
256,95,163472,6,0,P|284:86|311:82,1,56.25,10|0,0:0|0:0,0:0:0:0:
324,72,163805,6,0,P|329:47|344:13,2,50,8|8|8,0:3|0:3|0:3,0:0:0:0:
396,113,164138,6,0,P|423:96|461:89,2,50,4|4|4,0:3|0:3|0:3,0:0:0:0:
403,196,164472,6,0,P|462:207|502:242,2,100,14|14|14,0:0|0:0|0:0,0:0:0:0:
356,301,165138,6,0,B|314:321|303:373|303:373|277:338|237:339,1,168.750006437302,6|0,3:2|0:0,0:0:0:0:
160,384,165805,2,0,P|132:372|106:367,1,56.2500021457673,10|0,0:0|0:0,0:0:0:0:
53,294,166138,2,0,P|80:288|106:277,1,56.2500021457673,2|0,0:0|0:0,0:0:0:0:
171,214,166472,6,0,P|159:179|154:139,1,56.2500021457673,2|8,0:0|0:0,0:0:0:0:
98,90,166805,2,0,P|46:123|0:112,2,112.500004291535,2|10|2,3:2|0:0|0:0,0:0:0:0:
153,19,167638,5,8,0:0:0:0:
153,19,167722,1,8,0:0:0:0:
153,19,167805,2,0,B|201:-2|243:33|227:42|265:72|309:56,1,168.750006437302,2|0,3:2|0:0,0:0:0:0:
398,53,168472,2,0,P|406:26|411:-1,1,56.2500021457673,10|0,0:0|0:0,0:0:0:0:
488,45,168805,2,0,P|479:71|474:99,1,56.2500021457673,2|0,0:0|0:0,0:0:0:0:
510,181,169138,6,0,P|462:189|419:208,1,84.3750032186509,2|0,0:0|0:0,0:0:0:0:
417,217,169472,2,0,P|406:243|401:283,1,56.2500021457673,2|0,3:2|0:0,0:0:0:0:
399,360,169805,2,0,P|359:344|318:338,1,84.3750032186509,10|0,0:0|0:0,0:0:0:0:
303,349,170138,2,0,P|280:354|260:361,3,28.1250010728836,10|8|8|8,0:0|0:0|0:0|0:0,0:0:0:0:
262,368,170472,6,0,P|235:364|200:351,1,56.2500021457673,2|8,3:2|0:0,0:0:0:0:
158,279,170805,2,0,P|185:274|212:265,1,56.2500021457673,2|8,3:2|0:0,0:0:0:0:
302,264,171138,2,0,P|332:218|320:164,1,112.500004291535,10|2,0:0|0:0,0:0:0:0:
271,89,171638,5,0,0:0:0:0:
271,89,171722,1,8,0:0:0:0:
271,89,171805,2,0,P|232:74|188:66,1,84.3750032186509,2|8,0:0|0:0,0:0:0:0:
171,69,172138,2,0,P|166:38|159:11,1,56.2500021457673,2|0,3:2|0:0,0:0:0:0:
83,63,172472,2,0,P|89:90|94:118,1,56.2500021457673,10|0,0:0|0:0,0:0:0:0:
35,186,172805,2,0,P|30:199|26:223,3,28.1250010728836,2|0|8|8,0:0|0:0|0:0|0:0,0:0:0:0:
19,225,173138,6,0,B|91:312|166:257|134:213|111:241,1,168.750006437302,2|0,3:2|0:0,0:0:0:0:
50,304,173805,2,0,P|54:338|66:371,1,56.2500021457673,10|0,0:0|0:0,0:0:0:0:
147,381,174138,2,0,P|173:371|209:366,1,56.2500021457673,2|0,0:0|0:0,0:0:0:0:
281,324,174472,6,0,P|316:348|361:352,1,84.3750032186509,2|0,0:0|0:0,0:0:0:0:
373,345,174805,1,6,3:2:0:0:
502,219,175138,6,0,P|471:224|437:234,1,56.2500021457673,10|8,0:0|0:0,0:0:0:0:
372,178,175472,1,10,0:0:0:0:
426,106,175638,1,8,0:0:0:0:
398,20,175805,6,0,B|357:28|342:65|342:65|291:87|251:46,1,168.750006437302,6|0,3:2|0:0,0:0:0:0:
180,100,176472,2,0,P|172:73|166:35,1,56.2500021457673,10|0,0:0|0:0,0:0:0:0:
87,2,176805,2,0,P|79:29|73:67,1,56.2500021457673,2|0,0:0|0:0,0:0:0:0:
14,124,177138,6,0,P|39:134|67:141,1,56.2500021457673,2|8,0:0|0:0,0:0:0:0:
123,212,177472,2,0,P|167:185|232:197,2,112.500004291535,2|10|2,3:2|0:0|0:0,0:0:0:0:
48,262,178305,5,8,0:0:0:0:
48,262,178388,1,8,0:0:0:0:
48,262,178472,2,0,B|62:311|68:364|68:364|99:354|136:352,1,168.750006437302,2|0,3:2|0:0,0:0:0:0:
210,308,179138,2,0,P|235:313|267:325,1,56.2500021457673,10|0,0:0|0:0,0:0:0:0:
337,376,179472,2,0,P|363:365|390:360,1,56.2500021457673,2|0,0:0|0:0,0:0:0:0:
468,312,179805,6,0,P|474:271|486:230,1,84.3750032186509,2|0,0:0|0:0,0:0:0:0:
500,220,180138,2,0,P|470:214|442:203,1,56.2500021457673,2|0,3:2|0:0,0:0:0:0:
380,142,180472,2,0,P|338:157|293:163,1,84.3750032186509,10|0,0:0|0:0,0:0:0:0:
285,174,180805,2,0,P|266:168|239:162,3,28.1250010728836,10|8|8|8,0:0|0:0|0:0|0:0,0:0:0:0:
237,171,181138,6,0,P|227:198|219:244,1,56.2500021457673,2|8,3:2|0:0,0:0:0:0:
146,276,181472,2,0,P|136:249|130:222,1,56.2500021457673,2|8,3:2|0:0,0:0:0:0:
44,192,181805,2,0,P|35:135|73:95,1,112.500004291535,10|2,0:0|0:0,0:0:0:0:
75,6,182305,5,0,0:0:0:0:
75,6,182388,1,8,0:0:0:0:
75,6,182472,2,0,P|111:27|157:39,1,84.3750032186509,2|8,0:0|0:0,0:0:0:0:
164,51,182805,2,0,P|193:42|225:37,1,56.2500021457673,2|0,3:2|0:0,0:0:0:0:
307,25,183138,2,0,P|302:51|296:86,1,56.2500021457673,10|0,0:0|0:0,0:0:0:0:
366,138,183472,2,0,P|369:154|374:181,3,28.1250010728836,2|0|8|8,0:0|0:0|0:0|0:0,0:0:0:0:
365,184,183805,6,0,P|447:189|456:267,1,168.750006437302,2|0,3:2|0:0,0:0:0:0:
501,341,184472,2,0,P|458:348|418:367,1,84.3750032186509,10|0,0:0|0:0,0:0:0:0:
410,380,184805,2,0,P|380:368|353:363,1,56.2500021457673,2|0,0:0|0:0,0:0:0:0:
292,299,185138,6,0,P|262:325|210:322,1,84.3750032186509,2|0,0:0|0:0,0:0:0:0:
204,316,185472,2,0,P|200:281|194:253,1,56.2500021457673,6|0,3:2|0:0,0:0:0:0:
139,189,185805,5,8,0:3:0:0:
56,226,185972,1,8,0:3:0:0:
63,315,186138,2,0,P|39:325|7:328,2,37.5000014305115,4|8|8,0:3|0:0|0:0,0:0:0:0:
81,329,186472,6,0,P|120:335|161:358,1,84.3750032186509,6|2,3:2|0:0,0:0:0:0:
171,372,186805,1,0,0:0:0:0:
259,355,186972,1,2,0:0:0:0:
230,269,187138,2,0,P|251:217|259:152,1,112.500004291535,10|0,0:0|0:0,0:0:0:0:
139,26,187805,6,0,P|152:66|158:115,1,84.3750032186509,2|2,0:0|0:0,0:0:0:0:
147,123,188138,2,0,P|115:132|87:135,1,56.2500021457673,0|2,3:2|0:0,0:0:0:0:
27,198,188472,1,10,0:0:0:0:
124,348,188805,2,0,P|126:330|133:303,3,28.1250010728836,0|0|8|8,0:0|0:0|0:0|0:0,0:0:0:0:
143,308,189138,6,0,P|182:312|224:331,1,84.3750032186509,2|2,3:2|0:0,0:0:0:0:
235,344,189472,1,0,0:0:0:0:
318,376,189638,2,0,P|347:368|381:363,1,56.2500021457673,2|10,0:0|0:0,0:0:0:0:
491,227,190138,1,2,0:0:0:0:
420,171,190305,2,0,P|423:155|427:141,1,28.1250010728836,2|8,0:0|0:0,0:0:0:0:
421,126,190472,6,0,P|465:124|508:98,2,84.3750032186509,2|2|2,0:0|0:0|0:0,0:0:0:0:
364,56,191138,2,0,P|326:36|284:35,1,84.3750032186509,10|0,0:0|0:0,0:0:0:0:
271,44,191472,2,0,P|267:59|261:91,3,28.1250010728836,8|8|8|8,0:0|0:0|0:0|0:0,0:0:0:0:
250,81,191805,6,0,P|262:124|267:180,1,84.3750032186509,2|2,3:2|0:0,0:0:0:0:
257,179,192138,2,0,P|226:188|189:190,1,56.2500021457673,0|2,0:0|0:0,0:0:0:0:
123,235,192472,2,0,P|79:202|26:216,1,112.500004291535,10|0,0:0|0:0,0:0:0:0:
122,367,193138,6,0,P|165:348|214:350,1,84.3750032186509,2|10,0:0|0:0,0:0:0:0:
216,358,193472,1,0,3:2:0:0:
303,337,193638,2,0,P|308:306|318:273,1,56.2500021457673,2|10,0:0|0:0,0:0:0:0:
485,222,194138,1,2,0:0:0:0:
450,138,194305,5,10,0:0:0:0:
450,138,194388,1,8,0:0:0:0:
450,138,194472,2,0,B|405:157|393:198|393:198|359:166|303:172,1,168.750006437302,2|2,3:2|0:0,0:0:0:0:
240,218,195138,2,0,P|217:162|225:107,1,112.500004291535,10|0,0:0|0:0,0:0:0:0:
289,50,195638,5,2,0:0:0:0:
374,91,195805,2,0,P|405:87|444:76,1,67.4999979400635,2|0,0:0|0:0,0:0:0:0:
510,140,196138,2,0,P|496:187|484:260,1,101.249996910095,2|0,3:2|0:0,0:0:0:0:
492,255,196472,5,14,0:0:0:0:
512,347,196638,1,8,0:0:0:0:
421,376,196805,2,0,P|404:368|379:363,3,33.7499989700318,8|8|4|4,0:3|0:3|0:3|0:3,0:0:0:0:
375,350,197138,6,0,P|321:384|262:364,2,112.500004291535,6|10|2,3:2|0:0|0:0,0:0:0:0:
433,280,197972,2,0,P|427:252|419:225,1,56.2500021457673,2|2,3:2|0:0,0:0:0:0:
340,181,198305,1,10,0:0:0:0:
274,243,198472,6,0,P|246:224|215:219,1,56.2500021457673,2|2,0:0|3:2,0:0:0:0:
151,166,198805,2,0,P|118:196|66:192,1,84.3750032186509,10|8,0:0|0:0,0:0:0:0:
64,189,199138,2,0,P|55:157|52:123,1,56.2500021457673,2|2,3:2|3:2,0:0:0:0:
6,55,199472,1,10,0:0:0:0:
77,1,199638,1,2,0:0:0:0:
158,38,199805,6,0,P|187:27|235:24,1,56.2500021457673,2|0,3:2|0:0,0:0:0:0:
280,82,200138,2,0,P|323:88|367:111,1,84.3750032186509,10|8,0:0|0:0,0:0:0:0:
368,122,200472,2,0,P|374:94|384:68,1,56.2500021457673,2|2,0:0|3:2,0:0:0:0:
459,117,200805,2,0,P|452:144|442:170,1,56.2500021457673,2|10,0:0|0:0,0:0:0:0:
492,246,201138,6,0,P|461:252|430:264,1,56.2500021457673,2|2,0:0|3:2,0:0:0:0:
393,339,201472,2,0,P|354:321|298:314,1,84.3750032186509,10|8,0:0|0:0,0:0:0:0:
296,319,201805,1,2,3:2:0:0:
206,330,201972,2,0,P|197:356|191:384,2,56.2500021457673,2|10|2,3:2|0:0|0:0,0:0:0:0:
147,260,202472,5,2,3:2:0:0:
279,138,202805,1,10,0:0:0:0:
109,77,203138,2,0,P|101:50|94:13,1,56.2500021457673,2|0,0:0|3:0,0:0:0:0:
18,70,203472,2,0,P|10:96|3:134,1,56.2500021457673,2|8,0:0|0:0,0:0:0:0:
33,209,203805,6,0,P|60:200|98:196,1,56.2500021457673,2|0,0:0|3:0,0:0:0:0:
174,218,204138,1,10,0:0:0:0:
235,151,204305,1,0,0:0:0:0:
235,151,204388,1,8,0:0:0:0:
235,151,204472,2,0,P|241:119|252:85,1,56.2500021457673,2|0,3:2|3:0,0:0:0:0:
323,145,204805,2,0,P|317:177|306:211,1,56.2500021457673,10|0,0:0|0:0,0:0:0:0:
243,260,205138,5,2,3:2:0:0:
367,384,205472,2,0,P|407:367|451:362,1,84.3750032186509,8|8,0:0|0:0,0:0:0:0:
463,369,205805,1,0,0:0:0:0:
511,292,205972,2,0,P|481:254|413:256,1,112.500004291535,0|8,3:0|0:0,0:0:0:0:
333,275,206472,6,0,P|323:295|316:327,2,37.5000014305115,6|8|8,3:2|0:3|0:3,0:0:0:0:
283,214,206805,6,0,P|260:221|230:239,2,44.999998626709,14|4|4,0:0|0:3|0:3,0:0:0:0:
332,151,207138,6,0,P|348:160|383:171,2,50,14|8|8,0:0|0:3|0:3,0:0:0:0:
297,79,207472,6,0,P|319:68|345:48,2,44.999998626709,4|4|4,0:3|0:3|0:3,0:0:0:0:
223,53,207805,5,6,0:0:0:0:
223,53,215805,6,0,P|185:67|141:72,1,75,14|2,0:0|3:2,0:0:0:0:
70,127,216138,1,2,3:2:0:0:
13,206,216305,6,0,P|50:211|85:224,1,75,14|2,0:0|3:2,0:0:0:0:
176,189,216638,1,2,3:2:0:0:
234,267,216805,6,0,P|227:306|214:347,1,75,14|2,0:0|3:2,0:0:0:0:
304,383,217138,2,0,P|310:346|321:310,1,75,2|14,3:2|0:0,0:0:0:0:
416,333,217472,5,2,3:2:0:0:
477,257,217638,1,2,3:2:0:0:
427,172,217805,2,0,P|430:155|436:132,3,37.5,10|8|10|8,0:0|0:0|0:0|0:0,0:0:0:0:
418,123,218138,2,0,P|414:104|410:86,3,37.5,10|8|10|8,0:0|0:0|0:0|0:0,0:0:0:0:
395,74,218472,6,0,P|484:70|513:9,2,150,6|8|2,3:2|0:0|3:2,0:0:0:0:
310,24,219305,1,0,0:0:0:0:
249,100,219472,2,0,P|264:135|270:178,1,75,8|2,0:0|0:0,0:0:0:0:
191,229,219805,6,0,P|148:198|88:198,1,112.5,2|0,3:2|0:0,0:0:0:0:
75,208,220138,2,0,P|64:246|59:292,1,75,10|0,0:0|0:0,0:0:0:0:
49,376,220472,2,0,P|85:376|118:357,1,75,2|0,3:2|0:0,0:0:0:0:
208,322,220805,6,0,B|247:334|262:367|262:367|293:348|335:352,1,146.249993305207,12|0,0:0|0:0,0:0:0:0:
347,366,221138,6,0,P|397:335|455:342,1,112.5,6|0,3:2|0:0,0:0:0:0:
460,352,221472,2,0,P|475:318|477:278,1,75,8|2,0:0|0:0,0:0:0:0:
442,189,221805,2,0,B|410:200|394:227|394:227|348:211|296:198,1,150,2|8,3:2|0:0,0:0:0:0:
235,264,222305,5,2,0:0:0:0:
283,348,222472,2,0,P|243:353|210:364,1,75,2|0,3:2|0:0,0:0:0:0:
116,335,222805,2,0,P|66:338|27:289,1,112.5,10|0,0:0|0:0,0:0:0:0:
34,275,223138,6,0,P|13:265|-4:261,2,37.5,10|8|8,0:0|0:0|3:2,0:0:0:0:
91,195,223472,2,0,P|81:171|66:151,2,37.5,8|8|0,0:0|0:0|3:2,0:0:0:0:
188,202,223805,6,0,P|206:153|216:86,1,112.5,6|0,3:2|0:0,0:0:0:0:
207,80,224138,2,0,P|243:86|279:99,1,75,10|0,0:0|0:0,0:0:0:0:
335,179,224472,2,0,P|370:165|406:159,1,75,2|0,3:2|0:0,0:0:0:0:
471,232,224805,1,10,0:0:0:0:
510,321,224972,6,0,B|470:317|438:338|438:338|426:301|387:283,1,150,6|0,3:2|0:0,0:0:0:0:
302,328,225472,2,0,P|257:324|194:360,1,112.5,10|0,0:0|0:0,0:0:0:0:
186,371,225805,2,0,P|148:367|113:348,1,75,2|0,3:2|0:0,0:0:0:0:
52,275,226138,2,0,P|89:271|122:254,1,75,10|0,0:0|0:0,0:0:0:0:
195,188,226472,6,0,P|178:129|174:70,1,112.5,6|0,3:2|0:0,0:0:0:0:
183,63,226805,2,0,P|221:44|267:60,1,75,10|0,0:0|0:0,0:0:0:0:
347,31,227138,2,0,P|331:85|315:159,1,112.5,2|0,3:2|0:0,0:0:0:0:
326,158,227472,1,10,0:0:0:0:
383,236,227638,6,0,B|487:209|487:209|467:232|454:270,1,150,6|2,3:2|0:0,0:0:0:0:
489,339,228138,1,14,0:0:0:0:
402,383,228305,1,2,0:0:0:0:
331,315,228472,6,0,P|312:319|294:326,3,37.5,10|8|10|8,0:0|0:0|0:0|0:0,0:0:0:0:
279,339,228805,2,0,P|261:332|243:328,3,37.5,8|8|4|4,0:3|0:3|0:3|0:3,0:0:0:0:
227,339,229138,6,0,B|171:347|131:358|131:358|127:326|118:289,1,150,6|0,3:2|3:2,0:0:0:0:
44,246,229638,1,10,0:0:0:0:
44,246,229722,1,8,0:0:0:0:
44,246,229805,2,0,P|57:212|65:169,1,75,2|8,3:2|0:0,0:0:0:0:
1,99,230138,1,0,3:2:0:0:
78,39,230305,6,0,P|96:47|122:53,1,37.5,10|8,0:0|0:0,0:0:0:0:
126,64,230472,2,0,P|164:56|217:46,1,75,2|8,3:2|0:0,0:0:0:0:
288,8,230805,2,0,P|323:62|294:122,1,112.5,2|8,3:2|0:0,0:0:0:0:
294,118,231138,2,0,B|334:101|368:132|352:139|386:165|431:149,1,150,2|4,3:2|3:2,0:0:0:0:
498,219,231638,2,0,P|492:238|486:274,1,37.5,8|8,0:0|0:0,0:0:0:0:
496,274,231805,6,0,P|438:254|371:306,1,150,6|0,3:2|3:2,0:0:0:0:
305,374,232305,1,10,0:0:0:0:
305,374,232388,1,8,0:0:0:0:
305,374,232472,2,0,P|269:358|222:352,1,75,2|8,3:2|0:0,0:0:0:0:
171,276,232805,1,0,3:2:0:0:
241,208,232972,2,0,P|237:187|233:165,1,37.5,10|8,0:0|0:0,0:0:0:0:
217,163,233138,6,0,P|227:99|242:54,1,112.5,2|8,3:2|0:0,0:0:0:0:
254,41,233472,2,0,P|213:32|173:18,1,75,2|8,3:2|0:0,0:0:0:0:
111,86,233805,1,2,3:2:0:0:
13,97,233972,1,8,0:0:0:0:
13,97,234055,1,8,0:0:0:0:
13,97,234138,2,0,P|19:116|24:151,3,37.5,8|8|2|0,0:0|0:0|3:2|0:0,0:0:0:0:
34,146,234472,6,0,P|20:177|14:220,1,75,14|0,0:0|3:0,0:0:0:0:
79,289,234805,2,0,P|113:274|160:268,1,75,12|0,0:0|3:0,0:0:0:0:
241,233,235138,5,14,0:0:0:0:
304,307,235305,1,0,3:2:0:0:
304,307,235388,1,0,3:2:0:0:
304,307,235472,1,10,0:0:0:0:
394,272,235638,1,6,3:2:0:0:
394,272,239805,6,0,P|429:259|470:254,2,75,12|0|0,0:0|3:0|3:0,0:0:0:0:
332,347,240305,2,0,P|296:333|259:329,1,75,12|0,0:0|3:0,0:0:0:0:
176,380,240638,1,0,3:0:0:0:
93,328,240805,6,0,P|89:303|85:286,3,37.5,12|8|8|8,0:0|0:0|0:3|0:3,0:0:0:0:
97,276,241138,1,12,0:0:0:0:
166,207,241305,2,0,P|181:213|204:220,1,37.5,0|0,3:0|3:0,0:0:0:0:
218,213,241472,2,0,P|233:179|243:137,1,75,12|0,0:0|3:0,0:0:0:0:
206,51,241805,5,14,0:0:0:0:
111,25,241972,5,8,0:3:0:0:
29,77,242138,5,4,0:3:0:0:
33,174,242305,5,4,0:3:0:0:
112,231,242472,6,0,P|148:219|188:214,1,75,6|2,3:2|0:0,0:0:0:0:
265,159,242805,1,10,0:0:0:0:
210,77,242972,2,0,P|214:58|220:40,1,37.5,2|2,0:0|0:0,0:0:0:0:
232,28,243138,2,0,P|268:40|308:45,1,75,2|2,3:2|3:2,0:0:0:0:
394,0,243472,1,10,0:0:0:0:
459,71,243638,1,2,0:0:0:0:
394,144,243805,6,0,P|403:178|410:228,1,75,2|2,3:2|0:0,0:0:0:0:
486,277,244138,1,10,0:0:0:0:
446,366,244305,2,0,P|464:371|485:381,2,37.5,2|2|2,0:0|0:0|3:2,0:0:0:0:
348,362,244638,1,2,3:2:0:0:
348,362,244805,2,0,P|313:377|276:379,1,75,10|2,0:0|0:0,0:0:0:0:
192,329,245138,6,0,P|199:288|208:248,1,75,6|2,3:2|0:0,0:0:0:0:
282,193,245472,1,10,0:0:0:0:
198,143,245638,1,2,0:0:0:0:
198,143,245722,1,2,0:0:0:0:
198,143,245805,2,0,P|162:158|110:164,1,75,2|2,3:2|3:2,0:0:0:0:
47,107,246138,1,10,0:0:0:0:
8,17,246305,6,0,B|47:23|81:2|81:2|92:38|137:62,1,150,6|2,3:2|3:2,0:0:0:0:
220,25,246805,1,10,0:0:0:0:
284,98,246972,2,0,P|303:91|326:84,2,37.5,2|2|2,0:0|0:0|0:0,0:0:0:0:
233,181,247305,1,6,3:2:0:0:
233,181,247472,2,0,P|244:219|249:259,1,75,8|4,0:3|0:3,0:0:0:0:
183,327,247805,6,0,P|150:311|105:304,1,75,14|2,0:0|3:2,0:0:0:0:
28,254,248138,1,14,0:0:0:0:
66,164,248305,2,0,P|62:141|51:113,2,37.5,2|2|14,3:2|3:2|0:0,0:0:0:0:
157,196,248638,1,2,3:2:0:0:
236,139,248805,1,14,0:0:0:0:
197,49,248972,1,2,3:2:0:0:
286,10,249138,6,0,P|320:23|370:33,1,75,14|2,0:0|3:2,0:0:0:0:
451,3,249472,1,14,0:0:0:0:
467,98,249638,2,0,P|486:92|518:86,2,37.5,2|2|14,3:2|0:0|0:0,0:0:0:0:
382,148,249972,1,2,3:2:0:0:
446,220,250138,2,0,P|451:239|456:264,3,37.5,14|8|8|8,0:0|0:0|0:3|0:3,0:0:0:0:
448,273,250472,5,8,0:3:0:0:
400,354,250638,2,0,P|374:339|320:333,1,67.4999979400635,2|2,0:0|0:0,0:0:0:0:
252,374,250972,2,0,P|217:312|249:250,1,134.999995880127,4|0,0:3|0:0,0:0:0:0:
326,219,251472,6,0,P|332:185|346:150,1,67.4999979400635,8|2,0:3|0:0,0:0:0:0:
270,95,251805,1,2,0:0:0:0:
183,133,251972,2,0,P|172:60|149:2,1,134.999995880127,4|2,0:3|3:2,0:0:0:0:
76,67,252472,6,0,P|39:80|-6:87,1,75,14|2,0:0|3:2,0:0:0:0:
20,182,252805,2,0,P|55:169|92:162,1,75,12|2,0:0|3:2,0:0:0:0:
163,229,253138,5,6,3:2:0:0:
256,192,253305,12,6,258138,0:0:0:0:
