osu file format v14

[General]
AudioFilename: audio.mp3
AudioLeadIn: 0
PreviewTime: 129847
Countdown: 0
SampleSet: Soft
StackLeniency: 0.4
Mode: 0
LetterboxInBreaks: 0
WidescreenStoryboard: 1

[Editor]
DistanceSpacing: 1
BeatDivisor: 4
GridSize: 16
TimelineZoom: 1.7

[Metadata]
Title:Kimi no Yozora Shoukaihan
TitleUnicode:キミノヨゾラ哨戒班
Artist:mary
ArtistUnicode:めありー
Creator:KeyWee
Version:Normal
Source:
Tags:orangestar cover Utaite Night Sky Patrol Of Tomorrow 歌い手 rock japanese vocaloid ia Asu j-rock jrock livermorium MikanseiP りする Risru 初音ミク Hatsune Miku
BeatmapID:2909381
BeatmapSetID:1409421

[Difficulty]
HPDrainRate:4
CircleSize:3
OverallDifficulty:4
ApproachRate:6
SliderMultiplier:1.2
SliderTickRate:1

[Events]
//Background and Video events
0,0,"mikumiku.png",0,0
//Break Periods
2,21641,25580
2,75966,84607
//Storyboard Layer 0 (Background)
//Storyboard Layer 1 (Fail)
//Storyboard Layer 2 (Pass)
//Storyboard Layer 3 (Foreground)
//Storyboard Layer 4 (Overlay)
//Storyboard Sound Samples

[TimingPoints]
685,324.324324324324,4,2,1,55,1,0
685,-117.647058823529,4,2,1,55,0,0
11063,-117.647058823529,4,2,1,75,0,0
21441,-117.647058823529,4,2,1,60,0,0
26630,-117.647058823529,4,2,1,75,0,0
34252,-100,4,2,1,90,0,1
55009,-100,4,2,1,90,0,0
75766,-100,4,2,1,90,0,0
85820,-111.111111111111,4,2,1,65,0,0
86306,-111.111111111111,4,2,1,70,0,0
117441,-111.111111111111,4,2,1,60,0,0
122630,-111.111111111111,4,2,1,75,0,0
130414,-99.9999999999999,4,2,1,90,0,1
151009,-99.9999999999999,4,2,1,90,0,0
156198,-99.9999999999999,4,2,1,90,0,1
161387,-99.9999999999999,4,2,1,90,0,0
171766,-99.9999999999999,4,2,1,90,0,0

[Colours]
Combo1 : 3,9,233
Combo2 : 10,184,241
Combo3 : 232,28,191
Combo4 : 183,33,220

[HitObjects]
59,171,522,5,2,0:0:0:0:
59,171,685,2,0,P|104:189|161:162,1,102.000001945496,2|2,0:2|0:2,0:0:0:0:
192,132,1171,1,2,0:0:0:0:
266,48,1495,2,0,P|309:29|358:49,2,102.000001945496,2|2|2,0:2|0:2|0:2,0:0:0:0:
192,132,2468,1,2,0:2:0:0:
192,132,2630,2,0,L|192:191,1,51.0000009727478,2|2,0:2|0:2,0:0:0:0:
245,282,3117,6,0,P|293:301|343:278,1,102.000001945496,2|2,0:2|0:2,0:0:0:0:
424,211,3766,1,2,0:2:0:0:
424,211,3928,2,0,L|424:151,1,51.0000009727478,2|2,0:2|0:2,0:0:0:0:
356,70,4414,2,0,P|308:50|258:78,1,102.000001945496,2|2,0:2|0:2,0:0:0:0:
173,140,5063,2,0,L|83:140,2,51.0000009727478,2|2|2,0:2|0:2|0:2,0:0:0:0:
265,203,5712,6,0,P|311:221|358:204,1,102.000001945496,2|2,0:2|0:2,0:0:0:0:
391,159,6198,1,2,0:2:0:0:
391,159,6360,2,0,L|391:30,2,102.000001945496,2|2|2,0:2|0:2|0:2,0:0:0:0:
390,271,7333,1,2,0:2:0:0:
297,333,7657,1,2,0:2:0:0:
297,333,7820,2,0,P|246:317|196:336,1,102.000001945496,2|2,0:2|0:2,0:0:0:0:
154,363,8306,6,0,L|154:230,1,102.000001945496,2|2,0:2|0:2,0:0:0:0:
154,204,8793,1,2,0:2:0:0:
154,204,8955,2,0,P|91:188|46:226,2,102.000001945496,2|2|2,0:2|0:2|0:2,0:0:0:0:
235,281,9928,1,2,0:2:0:0:
235,281,10090,1,2,0:2:0:0:
298,141,10576,2,0,L|370:141,2,51.0000009727478,2|2|2,0:2|0:2|0:2,0:0:0:0:
241,143,11063,5,6,3:2:0:0:
186,46,11387,2,0,L|105:46,1,51.0000009727478,2|2,3:2|0:2,0:0:0:0:
24,66,11874,2,0,L|24:151,1,51.0000009727478,2|2,0:2|3:2,0:0:0:0:
58,161,12198,2,0,L|58:282,1,102.000001945496,2|2,0:2|0:2,0:0:0:0:
130,356,12847,1,0,0:2:0:0:
130,356,13009,2,0,P|186:374|229:351,1,102.000001945496,2|2,3:2|3:2,0:0:0:0:
261,316,13495,6,0,P|307:298|353:317,1,102.000001945496,2|2,0:2|0:2,0:0:0:0:
469,318,14144,1,2,0:2:0:0:
469,318,14306,2,0,B|450:265|450:265|471:205,1,102.000001945496,2|2,3:2|3:2,0:0:0:0:
486,169,14793,2,0,B|505:116|505:116|484:56,1,102.000001945496,2|2,0:2|0:2,0:0:0:0:
392,128,15441,2,0,P|338:142|295:128,1,102.000001945496,2|2,0:2|0:2,0:0:0:0:
195,76,16090,6,0,B|143:58|143:58|65:87,1,102.000001945496,2|2,0:2|0:2,0:0:0:0:
47,96,16576,2,0,L|47:171,1,51.0000009727478,2|2,3:2|0:2,0:0:0:0:
81,191,16901,2,0,L|81:321,1,102.000001945496,2|2,3:2|3:2,0:0:0:0:
117,335,17387,2,0,B|168:353|168:353|247:328,2,102.000001945496,2|2|2,0:2|0:2|0:2,0:0:0:0:
170,237,18360,5,2,0:2:0:0:
170,237,18522,2,0,L|170:165,1,51.0000009727478,2|2,3:2|0:2,0:0:0:0:
266,125,19009,1,2,0:2:0:0:
266,125,19171,2,0,L|266:54,1,51.0000009727478,2|2,3:2|0:2,0:0:0:0:
365,22,19657,2,0,P|413:5|470:28,1,102.000001945496,2|2,0:2|0:2,0:0:0:0:
494,64,20144,2,0,L|494:195,1,102.000001945496,2|2,3:2|3:2,0:0:0:0:
458,209,20630,2,0,L|458:303,2,51.0000009727478,2|8|8,0:2|3:3|3:3,0:0:0:0:
408,182,21117,2,0,P|344:166|303:205,1,102.000001945496,4|2,3:3|3:2,0:0:0:0:
287,308,26630,6,0,P|209:338|147:302,1,153.000002918243,6|2,3:2|0:2,0:0:0:0:
79,222,27441,1,2,0:2:0:0:
79,109,27766,2,0,L|79:5,2,102.000001945496,2|2|2,0:2|0:2|0:2,0:0:0:0:
175,169,28739,1,2,0:2:0:0:
175,169,28901,2,0,L|245:169,1,51.0000009727478,2|2,3:2|0:2,0:0:0:0:
285,169,29225,5,2,3:2:0:0:
285,169,29387,1,2,0:2:0:0:
383,114,29712,2,0,L|383:63,1,51.0000009727478,2|2,0:2|3:2,0:0:0:0:
280,31,30198,1,2,3:2:0:0:
280,31,30360,1,2,0:2:0:0:
172,62,30684,2,0,L|172:113,1,51.0000009727478,2|2,0:2|3:2,0:0:0:0:
250,201,31171,1,2,3:2:0:0:
250,201,31333,2,0,L|250:269,2,51.0000009727478,0|2|0,0:2|3:2|0:2,0:0:0:0:
252,148,31820,5,2,3:2:0:0:
252,148,31982,1,2,0:2:0:0:
161,214,32306,2,0,L|161:285,1,51.0000009727478,2|2,0:2|3:2,0:0:0:0:
53,285,32793,1,2,3:2:0:0:
53,285,32955,1,2,0:2:0:0:
24,237,33117,6,0,L|24:163,1,51.0000009727478,0|2,3:2|0:2,0:0:0:0:
51,137,33441,2,0,L|51:63,2,51.0000009727478,2|2|10,3:2|0:2|3:2,0:0:0:0:
225,231,34252,6,0,B|285:231|285:231|295:226|295:226|379:226,1,120,6|0,3:2|3:2,0:0:0:0:
383,172,34739,1,8,0:2:0:0:
479,261,35063,2,0,B|511:314|511:314|481:367,1,120,2|8,3:2|0:2,0:0:0:0:
416,366,35549,2,0,B|363:366|363:366|349:370|349:370|260:370,1,120,2|2,3:2|3:2,0:0:0:0:
230,371,36036,2,0,L|230:311,2,60,10|2|2,0:2|0:2|3:2,0:0:0:0:
123,292,36684,2,0,L|123:222,1,60,8|2,0:2|3:2,0:0:0:0:
122,165,37009,6,0,P|179:146|258:190,1,120,2|10,0:2|0:2,0:0:0:0:
284,197,37495,2,0,P|340:215|395:196,1,120,2|2,0:2|3:2,0:0:0:0:
444,150,37982,1,8,0:2:0:0:
444,150,38144,2,0,L|444:72,2,60,2|0|2,3:2|0:0|3:2,0:0:0:0:
494,192,38630,2,0,B|494:247|494:247|487:264|487:264|487:354,1,120,10|0,0:2|3:2,0:0:0:0:
373,253,39279,1,10,0:2:0:0:
373,253,39441,6,0,P|304:233|257:270,1,120,6|0,3:2|3:2,0:0:0:0:
217,301,39928,2,0,B|163:328|163:328|88:287,1,120,8|2,0:2|3:2,0:0:0:0:
123,171,40576,1,10,0:2:0:0:
123,171,40739,2,0,P|191:145|229:175,1,120,2|2,3:2|3:2,0:0:0:0:
269,217,41225,2,0,B|328:216|328:216|337:222|337:222|407:222,1,120,10|0,0:2|3:2,0:0:0:0:
457,225,41712,1,2,3:2:0:0:
457,225,41874,1,10,0:2:0:0:
383,119,42198,5,2,0:0:0:0:
383,119,42360,2,0,L|306:119,1,60,2|10,3:2|0:2,0:0:0:0:
271,78,42684,2,0,P|194:58|141:106,2,120,2|2|2,0:2|3:2|3:2,0:0:0:0:
323,119,43495,1,12,0:2:0:0:
219,201,43820,1,12,0:2:0:0:
310,295,44144,2,0,L|370:295,2,60,0|8|8,3:2|0:2|0:2,0:0:0:0:
258,336,44630,6,0,B|227:353|189:338|206:331|162:314|123:342,1,120,6|0,3:2|3:2,0:0:0:0:
75,332,45117,1,8,0:2:0:0:
47,203,45441,2,0,B|21:147|21:147|58:62,1,120,2|10,3:2|0:2,0:0:0:0:
75,34,45928,2,0,L|171:34,1,60,2|0,3:2|0:0,0:0:0:0:
180,81,46252,2,0,L|180:154,2,60,2|10|2,3:2|0:2|0:2,0:0:0:0:
229,36,46739,2,0,P|286:15|360:64,1,120,2|8,3:2|0:2,0:0:0:0:
446,111,47387,6,0,B|446:171|446:171|440:180|440:180|441:240,1,120,2|10,0:2|0:2,0:0:0:0:
442,295,47874,2,0,P|371:315|322:279,2,120,2|2|2,0:2|3:2|3:2,0:0:0:0:
451,166,48847,1,2,3:2:0:0:
451,166,49009,2,0,B|424:154|386:164|397:174|359:185|325:166,1,120,10|0,0:2|3:2,0:0:0:0:
268,168,49495,2,0,L|268:80,1,60,2|10,3:2|0:2,0:0:0:0:
219,62,49820,6,0,P|128:48|101:75,1,120,6|2,3:2|3:2,0:0:0:0:
34,167,50468,1,2,0:2:0:0:
34,167,50630,2,0,B|34:224|34:224|28:230|28:230|28:311,1,120,2|10,3:2|0:2,0:0:0:0:
77,328,51117,2,0,P|132:347|188:329,1,120,2|2,3:2|3:2,0:0:0:0:
239,285,51603,1,10,0:2:0:0:
359,352,51928,1,0,3:2:0:0:
359,352,52090,2,0,L|359:279,1,60,2|10,3:2|0:2,0:0:0:0:
450,196,52576,6,0,P|388:174|328:209,1,120,2|10,0:2|0:2,0:0:0:0:
286,228,53063,1,2,0:2:0:0:
286,228,53225,2,0,L|286:312,2,60,2|2|8,3:2|3:2|0:0,0:0:0:0:
286,165,53712,1,2,3:2:0:0:
286,165,53874,1,12,0:2:0:0:
154,164,54198,1,12,0:2:0:0:
223,276,54522,2,0,L|293:276,1,60,8|8,0:2|0:2,0:0:0:0:
353,279,54847,1,8,0:2:0:0:
353,279,55009,5,4,3:2:0:0:
425,170,55333,1,0,3:2:0:0:
425,170,55495,2,0,L|425:91,1,60,12|2,0:2|0:1,0:0:0:0:
422,43,55820,2,0,P|365:65|300:37,1,120,0|8,3:2|0:2,0:0:0:0:
245,51,56306,1,2,0:1:0:0:
131,115,56630,1,2,0:1:0:0:
131,115,56793,2,0,L|131:191,1,60,8|2,0:2|0:1,0:0:0:0:
156,235,57117,2,0,B|209:235|209:235|217:239|217:239|275:239,1,120,0|8,3:2|0:2,0:0:0:0:
340,238,57603,5,2,0:1:0:0:
443,159,57928,1,2,0:1:0:0:
443,159,58090,2,0,L|443:81,1,60,8|2,0:2|0:1,0:0:0:0:
390,59,58414,2,0,P|319:41|261:78,1,120,0|8,3:2|0:2,0:0:0:0:
224,96,58901,2,0,P|168:115|112:96,1,120,2|2,0:1|0:1,0:0:0:0:
56,62,59387,1,8,0:2:0:0:
15,187,59712,2,0,L|15:275,1,60,0|2,3:2|3:1,0:0:0:0:
59,303,60036,1,8,0:2:0:0:
59,303,60198,6,0,P|114:322|170:303,1,120,4|0,3:2|3:2,0:0:0:0:
213,252,60684,1,12,0:2:0:0:
215,122,61009,2,0,L|215:7,2,60,0|2|8,3:2|0:1|0:2,0:0:0:0:
268,160,61495,2,0,P|337:176|404:139,1,120,2|2,0:1|0:1,0:0:0:0:
431,116,61982,1,8,0:2:0:0:
452,246,62306,2,0,L|527:245,2,60,0|2|8,3:2|0:1|0:2,0:0:0:0:
424,306,62793,6,0,B|359:306|359:306|348:312|348:312|258:312,1,120,2|2,0:1|0:1,0:0:0:0:
261,262,63279,2,0,P|204:241|135:276,1,120,8|0,0:2|3:2,0:0:0:0:
68,345,63928,1,8,0:2:0:0:
68,345,64090,2,0,B|68:283|68:283|71:277|71:277|71:194,1,120,2|2,0:1|0:1,0:0:0:0:
71,159,64576,1,8,0:2:0:0:
71,26,64901,2,0,L|177:26,1,60,0|2,3:2|3:1,0:0:0:0:
189,66,65225,1,8,0:2:0:0:
189,66,65387,5,4,3:2:0:0:
288,166,65712,1,0,3:2:0:0:
288,166,65874,2,0,P|308:102|285:47,2,120,12|0|8,0:2|3:2|0:2,0:0:0:0:
243,214,66684,2,0,P|223:278|246:333,1,120,2|2,0:1|0:1,0:0:0:0:
293,365,67171,1,8,0:2:0:0:
395,282,67495,2,0,L|481:282,2,60,0|2|8,3:2|0:1|0:2,0:0:0:0:
353,230,67982,6,0,B|353:172|353:172|348:164|348:164|348:86,1,120,2|2,0:1|0:1,0:0:0:0:
293,74,68468,2,0,P|220:55|160:100,1,120,8|0,0:2|3:2,0:0:0:0:
74,150,69117,1,8,0:2:0:0:
74,150,69279,2,0,B|55:180|68:218|76:207|88:245|66:278,1,120,2|2,0:1|0:1,0:0:0:0:
73,332,69766,1,8,0:2:0:0:
182,259,70090,2,0,L|182:188,2,60,0|2|8,3:2|3:1|0:2,0:0:0:0:
226,307,70576,6,0,P|272:325|353:300,1,120,4|0,3:2|3:2,0:0:0:0:
381,258,71063,1,12,0:2:0:0:
323,139,71387,2,0,L|256:138,1,60,0|2,3:2|0:1,0:0:0:0:
207,175,71712,1,8,0:2:0:0:
207,175,71874,2,0,L|82:175,1,120,2|2,0:1|0:1,0:0:0:0:
28,144,72360,1,8,0:2:0:0:
146,86,72684,2,0,L|146:15,2,60,0|2|8,3:2|0:1|0:2,0:0:0:0:
184,140,73171,6,0,B|240:140|240:140|246:135|246:135|312:135,1,120,2|2,0:1|0:1,0:0:0:0:
368,134,73657,1,8,0:2:0:0:
451,236,73982,2,0,L|451:312,1,60,0|2,3:2|0:1,0:0:0:0:
399,336,74306,1,8,0:2:0:0:
399,336,74468,2,0,P|337:357|271:332,1,120,2|2,0:1|0:1,0:0:0:0:
233,302,74955,1,8,0:2:0:0:
120,234,75279,2,0,L|120:156,2,60,0|8|8,3:2|3:2|3:2,0:0:0:0:
120,300,75766,1,4,3:2:0:0:
180,117,85657,5,8,0:0:0:0:
180,117,85820,2,0,L|108:117,2,53.9999983520508,8|4|0,3:3|3:3|3:2,0:0:0:0:
225,155,86306,6,0,B|282:155|282:155|289:152|289:152|354:152,1,107.999996704102,6|10,3:2|0:2,0:0:0:0:
380,116,86793,1,2,0:2:0:0:
453,209,87117,2,0,L|453:278,1,53.9999983520508,2|10,0:2|0:2,0:0:0:0:
454,322,87441,1,2,0:2:0:0:
350,264,87766,1,2,0:2:0:0:
247,323,88090,2,0,P|194:340|142:320,1,107.999996704102,2|0,0:2|0:2,0:0:0:0:
99,286,88576,1,8,0:2:0:0:
64,172,88901,6,0,L|-2:172,2,53.9999983520508,0|2|10,3:2|0:2|0:2,0:0:0:0:
105,129,89387,2,0,P|171:113|221:136,1,107.999996704102,2|2,0:2|0:2,0:0:0:0:
313,179,90036,1,2,0:2:0:0:
313,179,90198,2,0,P|364:192|415:175,1,107.999996704102,0|8,3:0|0:2,0:0:0:0:
361,68,90847,1,0,3:0:0:0:
361,68,91009,2,0,L|361:7,1,53.9999983520508,2|10,0:2|0:2,0:0:0:0:
272,93,91495,6,0,P|208:111|172:93,1,107.999996704102,6|10,3:2|0:2,0:0:0:0:
121,64,91982,1,2,0:2:0:0:
48,157,92306,1,2,0:2:0:0:
127,245,92630,2,0,B|186:245|186:245|193:241|193:241|254:241,2,107.999996704102,2|2|2,0:2|0:2|0:2,0:0:0:0:
67,242,93441,2,0,L|67:170,1,53.9999983520508,0|0,3:2|0:2,0:0:0:0:
36,136,93766,2,0,L|36:58,1,53.9999983520508,8|2,0:2|0:2,0:0:0:0:
64,30,94090,6,0,P|131:14|178:42,1,107.999996704102,2|10,3:2|0:2,0:0:0:0:
206,70,94576,1,2,0:2:0:0:
148,174,94901,1,2,0:2:0:0:
208,282,95225,1,2,0:2:0:0:
208,282,95387,2,0,L|285:282,1,53.9999983520508,0|0,3:0|0:2,0:0:0:0:
311,314,95712,1,8,0:2:0:0:
399,234,96036,2,0,L|478:234,2,53.9999983520508,2|2|10,3:2|0:2|0:2,0:0:0:0:
352,199,96522,6,0,P|336:142|354:90,2,107.999996704102,2|2|2,0:2|0:2|0:2,0:0:0:0:
434,284,97495,2,0,L|434:353,2,53.9999983520508,0|10|2,0:2|0:2|0:2,0:0:0:0:
352,199,98144,1,2,0:2:0:0:
352,199,98306,2,0,L|352:126,2,53.9999983520508,10|2|2,0:2|0:2|3:2,0:0:0:0:
249,258,98955,1,8,0:2:0:0:
147,195,99279,6,0,P|75:179|41:202,1,107.999996704102,2|10,3:2|0:2,0:0:0:0:
3,233,99766,2,0,B|3:286|3:286|7:290|7:290|7:365,1,107.999996704102,2|2,0:2|0:2,0:0:0:0:
125,332,100414,2,0,P|175:353|232:328,1,107.999996704102,2|0,0:2|0:2,0:0:0:0:
259,288,100901,1,10,0:2:0:0:
259,288,101063,2,0,B|258:229|258:229|262:226|262:226|262:166,1,107.999996704102,2|2,0:2|0:2,0:0:0:0:
160,131,101712,1,2,0:2:0:0:
160,131,101874,6,0,P|99:147|39:121,1,107.999996704102,4|8,3:2|0:2,0:0:0:0:
106,29,102522,1,2,3:2:0:0:
223,68,102847,1,10,0:2:0:0:
223,68,103009,2,0,B|286:68|286:68|289:70|289:70|342:70,1,107.999996704102,2|2,0:2|0:2,0:0:0:0:
389,71,103495,1,8,0:2:0:0:
478,149,103820,2,0,L|478:226,1,53.9999983520508,2|2,3:2|0:2,0:0:0:0:
418,305,104306,6,0,P|360:325|305:299,1,107.999996704102,2|2,0:2|0:2,0:0:0:0:
268,277,104793,2,0,L|190:277,1,53.9999983520508,10|2,0:2|0:2,0:0:0:0:
154,277,105117,1,2,3:2:0:0:
55,335,105441,1,10,0:2:0:0:
55,335,105603,2,0,B|55:278|55:278|52:274|52:274|52:214,1,107.999996704102,2|2,0:2|0:2,0:0:0:0:
79,174,106090,1,10,0:2:0:0:
79,174,106252,2,0,L|79:105,1,53.9999983520508,2|0,0:2|3:2,0:0:0:0:
54,65,106576,1,2,0:2:0:0:
165,23,106901,6,0,P|218:4|276:25,1,107.999996704102,2|2,0:2|0:2,0:0:0:0:
318,45,107387,1,10,0:2:0:0:
386,142,107712,1,2,3:2:0:0:
319,241,108036,1,10,0:2:0:0:
319,241,108198,2,0,P|265:260|208:239,1,107.999996704102,2|2,0:2|0:2,0:0:0:0:
161,226,108684,2,0,B|161:174|161:174|164:166|164:166|164:100,1,107.999996704102,10|2,0:2|3:2,0:0:0:0:
239,26,109333,1,8,0:2:0:0:
305,124,109657,6,0,P|379:137|423:110,2,107.999996704102,2|10|0,3:2|0:2|3:2,0:0:0:0:
220,40,110630,2,0,L|152:40,1,53.9999983520508,8|2,0:0|0:2,0:0:0:0:
123,82,110955,2,0,B|66:82|66:82|64:80|64:80|2:80,1,107.999996704102,0|10,3:2|0:2,0:0:0:0:
96,166,111603,1,0,3:0:0:0:
41,273,111928,1,8,0:2:0:0:
41,273,112090,6,0,P|88:295|157:264,1,107.999996704102,2|2,0:2|0:2,0:0:0:0:
188,246,112576,1,10,0:2:0:0:
290,306,112901,1,2,3:2:0:0:
394,246,113225,1,10,0:2:0:0:
394,246,113387,2,0,B|394:191|394:191|388:185|388:185|388:126,1,107.999996704102,2|2,0:2|0:2,0:0:0:0:
350,94,113874,2,0,P|293:80|241:102,1,107.999996704102,10|2,0:2|3:2,0:0:0:0:
152,167,114522,1,8,0:2:0:0:
253,228,114847,6,0,L|253:336,1,107.999996704102,2|10,3:2|0:2,0:0:0:0:
305,363,115333,2,0,B|353:363|353:363|362:359|362:359|417:359,1,107.999996704102,2|2,0:2|0:2,0:0:0:0:
469,336,115820,1,10,0:2:0:0:
469,336,115982,1,2,0:2:0:0:
465,217,116306,2,0,L|395:217,1,53.9999983520508,2|10,0:2|0:2,0:0:0:0:
364,254,116630,2,0,P|303:274|255:245,1,107.999996704102,2|8,0:2|0:2,0:0:0:0:
181,181,117279,5,8,3:3:0:0:
181,181,117441,1,4,3:2:0:0:
0,235,118739,1,8,0:2:0:0:
0,235,118901,1,8,0:2:0:0:
160,303,120036,6,0,P|198:318|276:296,1,107.999996704102,10|2,0:0|0:0,0:0:0:0:
345,220,120684,2,0,L|345:147,2,53.9999983520508,2|2|2,0:0|0:0|0:0,0:0:0:0:
379,268,121171,2,0,P|416:286|493:257,1,107.999996704102,2|10,0:0|0:0,0:0:0:0:
477,152,121820,2,0,L|477:74,2,53.9999983520508,2|8|10,0:0|0:0|0:0,0:0:0:0:
427,185,122306,1,12,3:2:0:0:
316,142,122630,6,0,B|264:142|264:142|259:138|259:138|192:138,1,107.999996704102,6|8,3:2|0:2,0:0:0:0:
145,238,123279,2,0,B|93:238|93:238|88:234|88:234|21:234,1,107.999996704102,0|10,3:2|0:2,0:0:0:0:
27,115,123928,2,0,P|5:69|23:10,1,107.999996704102,0|8,3:2|0:2,0:0:0:0:
137,16,124576,2,0,P|158:61|140:120,1,107.999996704102,0|10,3:2|0:2,0:0:0:0:
109,165,125063,1,2,0:2:0:0:
109,165,125225,6,0,L|109:234,1,53.9999983520508,2|2,3:2|0:2,0:0:0:0:
196,307,125712,1,2,0:2:0:0:
196,307,125874,1,2,3:2:0:0:
267,210,126198,2,0,L|337:210,1,53.9999983520508,10|2,0:2|0:2,0:0:0:0:
424,267,126684,1,2,0:2:0:0:
424,267,126847,1,10,0:2:0:0:
426,152,127171,1,2,3:2:0:0:
426,152,127333,2,0,L|426:74,2,53.9999983520508,0|10|0,0:2|0:2|0:2,0:0:0:0:
371,177,127820,6,0,P|321:194|271:176,1,107.999996704102,0|8,3:0|2:2,0:0:0:0:
225,147,128306,1,0,3:0:0:0:
225,147,128468,2,0,L|225:14,1,107.999996704102,0|8,3:0|0:0,0:0:0:0:
121,98,129117,6,0,L|67:98,1,53.9999983520508,8|8,3:0|3:0,0:0:0:0:
7,99,129441,2,0,L|7:38,2,53.9999983520508,8|8|10,0:0|0:0|3:2,0:0:0:0:
241,221,130414,6,0,P|173:242|123:213,1,120,6|8,3:2|0:2,0:0:0:0:
186,101,131063,2,0,L|186:15,2,60,0|0|10,3:0|3:2|0:2,0:0:0:0:
251,98,131549,2,0,B|311:99|311:99|329:105|329:105|384:105,1,120,2|0,3:2|3:2,0:0:0:0:
430,105,132036,1,8,0:2:0:0:
366,206,132360,2,0,L|367:291,1,60,2|2,3:2|3:2,0:0:0:0:
326,310,132684,1,10,0:2:0:0:
326,310,132847,6,0,P|281:333|204:295,1,120,2|0,3:2|3:2,0:0:0:0:
165,282,133333,1,8,0:2:0:0:
105,178,133657,2,0,L|105:105,2,60,0|2|10,3:2|3:2|0:2,0:0:0:0:
66,224,134144,2,0,B|66:277|66:277|63:287|63:287|63:357,1,120,2|0,3:2|3:2,0:0:0:0:
125,360,134630,1,10,2:2:0:0:
125,360,134793,2,0,P|180:338|240:364,1,120,2|2,3:2|3:2,3:0:0:0:
321,258,135441,6,0,B|262:277|262:277|198:252,1,120,6|2,3:2|3:2,0:0:0:0:
172,199,135928,2,0,L|172:125,1,60,10|2,0:2|0:2,0:0:0:0:
174,73,136252,1,2,3:2:0:0:
295,137,136576,1,10,0:2:0:0:
295,137,136739,2,0,B|362:137|362:137|368:140|368:140|432:140,1,120,2|2,3:2|3:2,0:0:0:0:
458,189,137225,2,0,L|458:258,1,60,10|2,0:2|0:2,0:0:0:0:
458,314,137549,1,2,3:2:0:0:
335,340,137874,1,10,0:2:0:0:
335,340,138036,6,0,B|350:308|337:274|327:285|311:242|335:199,1,120,2|2,3:2|3:2,0:0:0:0:
370,175,138522,2,0,L|452:175,2,60,10|2|2,0:2|0:2|3:2,0:0:0:0:
396,45,139171,2,0,L|325:45,1,60,10|2,0:2|3:2,0:0:0:0:
270,46,139495,1,12,0:2:0:0:
179,142,139820,1,14,0:2:0:0:
72,64,140144,2,0,L|72:-1,2,60,2|10|10,3:2|0:2|0:2,0:0:0:0:
34,118,140630,6,0,P|14:167|31:230,1,120,6|0,3:2|3:2,0:0:0:0:
70,279,141117,1,12,0:2:0:0:
197,312,141441,2,0,L|197:375,2,60,0|0|10,3:2|3:2|0:2,0:0:0:0:
244,265,141928,2,0,P|308:243|361:272,1,120,2|0,3:2|3:2,0:0:0:0:
405,305,142414,1,8,0:2:0:0:
477,194,142739,2,0,L|477:106,1,60,0|0,3:2|3:2,0:0:0:0:
434,91,143063,1,10,0:2:0:0:
434,91,143225,6,0,P|373:70|311:104,1,120,2|0,3:2|3:2,0:0:0:0:
267,125,143712,1,8,0:2:0:0:
172,30,144036,2,0,L|91:30,1,60,0|0,3:2|3:2,0:0:0:0:
50,33,144360,1,10,0:2:0:0:
50,33,144522,2,0,P|32:96|63:162,1,120,2|0,3:2|3:2,0:0:0:0:
91,204,145009,1,10,0:2:0:0:
91,204,145171,2,0,P|110:264|79:332,1,120,0|2,0:2|3:2,0:0:0:0:
216,352,145820,6,0,P|197:292|228:224,1,120,6|2,3:2|3:2,0:0:0:0:
240,182,146306,2,0,L|240:95,1,60,10|2,0:2|0:2,0:0:0:0:
277,67,146630,2,0,B|331:46|331:46|396:69,1,120,2|10,3:2|0:2,0:0:0:0:
448,97,147117,1,2,3:2:0:0:
451,232,147441,1,2,3:2:0:0:
451,232,147603,2,0,L|451:311,2,60,10|2|2,0:2|0:2|3:2,0:0:0:0:
405,184,148090,2,0,L|405:105,2,60,2|10|2,3:2|0:2|3:2,0:0:0:0:
293,254,148739,5,2,3:2:0:0:
293,254,148901,2,0,L|209:254,1,60,10|2,0:2|0:2,0:0:0:0:
173,226,149225,2,0,B|111:207|111:207|46:229,1,120,2|10,3:2|0:2,0:0:0:0:
39,356,149874,2,0,L|128:356,1,60,12|2,0:2|3:2,0:0:0:0:
144,307,150198,1,14,0:2:0:0:
144,307,150360,1,2,3:2:0:0:
204,333,150522,2,0,B|261:333|261:333|264:329|264:329|342:329,1,120,10|10,0:2|0:2,0:0:0:0:
388,323,151009,6,0,P|410:260|377:194,1,120,4|0,3:2|3:2,0:0:0:0:
345,167,151495,1,8,0:2:0:0:
227,107,151820,2,0,B|204:169|204:169|237:239,1,120,0|8,3:2|0:2,0:0:0:0:
259,274,152306,2,0,P|321:255|384:281,2,120,2|2|2,0:1|0:1|0:1,0:0:0:0:
136,315,153279,1,2,0:1:0:0:
136,315,153441,2,0,L|136:231,1,60,8|2,0:2|0:1,0:0:0:0:
88,209,153766,6,0,B|67:152|67:152|98:77,1,120,0|8,3:0|0:2,0:0:0:0:
221,96,154414,2,0,B|244:153|244:153|212:230,1,120,0|8,3:2|0:2,0:0:0:0:
176,255,154901,1,2,0:1:0:0:
176,255,155063,2,0,P|232:233|299:255,1,120,0|8,3:0|0:2,0:0:0:0:
374,342,155712,2,0,B|374:280|374:280|378:274|378:274|378:213,1,120,0|8,3:2|0:2,0:0:0:0:
379,157,156198,5,4,3:2:0:0:
273,77,156522,1,0,3:2:0:0:
273,77,156684,2,0,P|210:99|155:72,2,120,12|0|8,0:2|3:2|0:2,0:0:0:0:
392,19,157657,2,0,P|372:83|404:144,1,120,0|8,3:2|0:2,0:0:0:0:
455,244,158306,2,0,P|475:299|456:355,1,120,0|8,3:2|0:2,0:0:0:0:
338,296,158955,5,12,0:2:0:0:
225,365,159279,1,12,0:2:0:0:
156,252,159603,1,12,0:2:0:0:
268,182,159927,1,12,0:2:0:0:
338,296,160252,2,0,P|405:316|479:282,1,120,8|0,0:2|3:2,0:0:0:0:
456,170,160901,2,0,P|389:150|315:184,1,120,0|0,3:2|3:2,0:0:0:0:
282,191,161387,6,0,B|221:214|221:214|162:187,1,120,4|0,3:2|3:2,0:0:0:0:
113,159,161874,1,12,0:0:0:0:
113,159,162036,1,2,0:1:0:0:
207,67,162360,1,2,0:1:0:0:
207,67,162522,2,0,P|267:45|326:73,1,120,8|0,0:0|3:0,0:0:0:0:
365,109,163009,2,0,B|365:166|365:166|369:169|369:169|369:248,2,120,2|2|2,0:1|0:1|0:1,0:0:0:0:
243,56,163982,1,2,0:1:0:0:
243,56,164144,6,0,L|159:56,1,60,2|2,3:2|0:2,0:0:0:0:
127,90,164468,2,0,L|127:150,1,60,8|2,0:0|0:1,0:0:0:0:
172,198,164793,2,0,P|197:263|158:332,1,120,2|8,3:2|0:0,0:0:0:0:
38,316,165441,2,0,P|13:251|52:182,1,120,0|8,3:0|0:0,0:0:0:0:
126,100,166090,2,0,L|202:100,1,60,0|2,3:0|3:1,0:0:0:0:
240,146,166414,1,8,0:0:0:0:
240,146,166576,6,0,B|298:166|298:166|385:135,1,120,4|0,3:2|3:0,0:0:0:0:
412,116,167063,1,12,0:0:0:0:
488,221,167387,2,0,P|507:279|481:341,1,120,0|8,3:0|0:0,0:0:0:0:
425,337,167874,1,2,0:1:0:0:
425,337,168036,2,0,B|370:337|370:337|365:342|365:342|291:342,1,120,0|8,3:0|0:0,0:0:0:0:
213,248,168684,2,0,P|192:192|211:136,1,120,0|8,3:0|0:0,0:0:0:0:
249,84,169171,1,2,0:1:0:0:
249,84,169333,6,0,L|340:84,2,60,2|2|8,3:2|0:2|0:0,0:0:0:0:
195,41,169820,1,2,0:1:0:0:
195,41,169982,1,0,3:0:0:0:
105,137,170306,1,8,3:2:0:0:
139,204,170468,1,6,3:2:0:0:
139,204,170630,6,0,B|139:265|139:265|137:268|137:268|137:353,2,120,0|2|2,3:0|3:2|3:2,0:0:0:0:
201,177,171441,1,2,3:2:0:0:
201,177,171603,2,2,P|230:168|274:188,1,60,10|6,0:2|3:2,0:0:0:0:
