osu file format v14

[General]
AudioFilename: audio.mp3
AudioLeadIn: 0
PreviewTime: 129847
Countdown: 0
SampleSet: Soft
StackLeniency: 0.4
Mode: 0
LetterboxInBreaks: 0
WidescreenStoryboard: 1

[Editor]
DistanceSpacing: 1.5
BeatDivisor: 4
GridSize: 16
TimelineZoom: 1.7

[Metadata]
Title:Kimi no Yozora Shoukaihan
TitleUnicode:キミノヨゾラ哨戒班
Artist:mary
ArtistUnicode:めありー
Creator:KeyWee
Version:Livermorium's Endless Journey Through the Bright Night Sky
Source:
Tags:orangestar cover Utaite Night Sky Patrol Of Tomorrow 歌い手 rock japanese vocaloid ia Asu j-rock jrock livermorium MikanseiP りする Risru 初音ミク Hatsune Miku
BeatmapID:2906125
BeatmapSetID:1409421

[Difficulty]
HPDrainRate:6
CircleSize:4.2
OverallDifficulty:9
ApproachRate:9.3
SliderMultiplier:1.9
SliderTickRate:1

[Events]
//Background and Video events
0,0,"mikumiku.png",0,0
//Break Periods
2,75966,83063
//Storyboard Layer 0 (Background)
//Storyboard Layer 1 (Fail)
//Storyboard Layer 2 (Pass)
//Storyboard Layer 3 (Foreground)
//Storyboard Layer 4 (Overlay)
//Storyboard Sound Samples

[TimingPoints]
685,324.324324324324,4,2,1,55,1,0
685,-153.846153846154,4,2,1,55,0,0
11063,-117.647058823529,4,2,1,70,0,0
15684,-117.647058823529,4,2,1,5,0,0
15766,-117.647058823529,4,2,1,70,0,0
16009,-117.647058823529,4,2,1,5,0,0
16090,-117.647058823529,4,2,1,70,0,0
17144,-117.647058823529,4,2,1,5,0,0
17225,-117.647058823529,4,2,1,70,0,0
21441,-200,4,2,1,60,0,0
22657,-200,4,2,1,5,0,0
22739,-166.666666666667,4,2,1,60,0,0
23955,-166.666666666667,4,2,1,5,0,0
24036,-166.666666666667,4,2,1,60,0,0
25252,-166.666666666667,4,2,1,5,0,0
25333,-166.666666666667,4,2,1,60,0,0
25901,-166.666666666667,4,2,1,5,0,0
25982,-166.666666666667,4,2,1,60,0,0
26549,-166.666666666667,4,2,1,5,0,0
26630,-111.111111111111,4,2,1,75,0,0
29225,-100,4,2,1,75,0,0
34252,-90.9090909090909,4,2,1,90,0,1
35793,-90.9090909090909,4,2,1,5,0,1
35874,-90.9090909090909,4,2,1,90,0,1
40982,-90.9090909090909,4,2,1,5,0,1
41063,-90.9090909090909,4,2,1,90,0,1
46171,-90.9090909090909,4,2,1,5,0,1
46252,-90.9090909090909,4,2,1,90,0,1
50063,-90.9090909090909,4,2,1,5,0,1
50144,-90.9090909090909,4,2,1,90,0,1
51360,-90.9090909090909,4,2,1,5,0,1
51441,-90.9090909090909,4,2,1,90,0,1
55009,-90.9090909090909,4,2,1,90,0,0
75766,-90.9090909090909,4,2,1,90,0,0
83712,-90.9090909090909,4,2,1,65,0,0
86306,-117.647058823529,4,2,1,70,0,0
91739,-117.647058823529,4,2,1,5,0,0
91820,-117.647058823529,4,2,1,70,0,0
107063,-111.111111111111,4,1,1,70,0,0
116793,-111.111111111111,4,2,1,70,0,0
117441,-133.333333333333,4,2,1,60,0,0
117603,-133.333333333333,4,2,2,40,0,0
118739,-133.333333333333,4,2,1,60,0,0
119063,-133.333333333333,4,2,2,40,0,0
120036,-133.333333333333,4,2,1,60,0,0
120360,-133.333333333333,4,2,2,40,0,0
121333,-133.333333333333,4,2,1,60,0,0
121657,-133.333333333333,4,2,2,40,0,0
121982,-133.333333333333,4,2,1,60,0,0
122306,-125,4,2,1,70,0,0
122549,-125,4,2,1,5,0,0
122630,-111.111111111111,4,2,1,75,0,0
127820,-111.111111111111,4,2,1,50,0,0
128144,-111.111111111111,4,2,1,75,0,0
128225,-111.111111111111,4,2,1,50,0,0
128468,-111.111111111111,4,2,1,70,0,0
129117,-111.111111111111,4,2,1,85,0,0
129766,-111.111111111111,4,2,1,75,0,0
130414,-90.9090909090909,4,2,1,90,0,1
130657,-90.9090909090909,4,2,1,5,0,1
130739,-90.9090909090909,4,2,1,90,0,1
133090,-90.9090909090909,4,2,1,5,0,1
133171,-90.9090909090909,4,2,1,90,0,1
136982,-90.9090909090909,4,2,1,5,0,1
137063,-90.9090909090909,4,2,1,90,0,1
138279,-90.9090909090909,4,2,1,5,0,1
138360,-90.9090909090909,4,2,1,90,0,1
151009,-90.9090909090909,4,2,1,90,0,0
153847,-90.9090909090909,4,2,1,5,0,0
153928,-90.9090909090909,4,2,1,90,0,0
155144,-90.9090909090909,4,2,1,5,0,0
155225,-90.9090909090909,4,2,1,90,0,0
156198,-90.9090909090909,4,2,1,90,0,1
156522,-90.9090909090909,4,1,1,90,0,1
158630,-90.9090909090909,4,2,1,90,0,1
161387,-90.9090909090909,4,2,1,90,0,0
171684,-90.9090909090909,4,2,1,5,0,0
171766,-90.9090909090909,4,2,1,90,0,0

[Colours]
Combo1 : 3,9,233
Combo2 : 10,184,241
Combo3 : 232,28,191
Combo4 : 183,33,220

[HitObjects]
62,188,522,5,2,0:0:0:0:
62,188,685,2,0,B|122:161|123:220|194:189,1,123.499994346619,2|2,0:2|0:2,0:0:0:0:
242,250,1171,2,0,P|218:212|220:134,1,123.499994346619,2|2,0:2|0:2,0:0:0:0:
460,57,1820,2,0,P|417:71|456:48,1,123.499994346619,2|2,0:2|0:2,0:0:0:0:
460,57,2468,5,2,0:2:0:0:
506,154,2630,2,0,P|507:188|500:220,2,61.7499971733095,2|2|2,0:2|0:2|0:2,0:0:0:0:
414,178,3117,2,0,P|371:192|410:169,1,123.499994346619,2|2,0:2|0:2,0:0:0:0:
414,178,3766,5,2,0:2:0:0:
460,275,3928,2,0,P|461:309|454:341,2,61.7499971733095,2|2|2,0:2|0:2|0:2,0:0:0:0:
367,296,4414,2,0,B|332:303|309:279|309:279|285:304|256:299,1,123.499994346619,2|2,0:2|0:2,0:0:0:0:
58,142,5063,5,2,0:2:0:0:
143,169,5225,1,2,0:2:0:0:
58,142,5387,1,2,0:2:0:0:
100,64,5712,6,0,P|143:113|137:182,1,123.499994346619,2|2,0:2|0:2,0:0:0:0:
96,281,6198,1,2,0:2:0:0:
96,281,6360,2,0,P|132:281|159:271,1,61.7499971733095,2|0,0:2|0:2,0:0:0:0:
233,330,6684,2,0,P|269:330|296:340,1,61.7499971733095,2|0,0:2|0:2,0:0:0:0:
376,241,7009,6,0,P|333:255|372:232,1,123.499994346619,2|2,0:2|0:2,0:0:0:0:
376,241,7657,1,2,0:2:0:0:
476,191,7820,1,2,0:2:0:0:
382,129,7982,1,2,0:2:0:0:
476,191,8144,1,2,0:2:0:0:
376,241,8306,6,0,P|297:248|257:267,1,123.499994346619,2|2,0:2|0:2,0:0:0:0:
187,321,8793,1,2,0:2:0:0:
187,321,8955,2,0,P|181:266|135:212,1,123.499994346619,2|2,0:2|0:2,0:0:0:0:
54,172,9441,1,2,0:2:0:0:
163,92,9603,6,0,B|196:78|226:96|217:102|251:122|284:107,1,123.499994346619,2|2,0:2|0:2,0:0:0:0:
407,50,10090,1,2,0:2:0:0:
407,50,10576,6,0,L|405:117,2,61.7499971733095,2|2|2,0:2|0:2|0:2,0:0:0:0:
470,184,11063,6,0,P|390:206|326:167,1,161.500003080368,6|2,3:2|3:2,0:0:0:0:
172,48,11549,2,0,P|218:33|258:41,1,80.750001540184,2|0,0:2|3:2,0:0:0:0:
112,119,11874,1,2,0:2:0:0:
112,119,12036,1,2,3:2:0:0:
186,247,12198,6,0,B|223:222|223:222|217:103,1,161.500003080368,2|2,0:2|0:2,0:0:0:0:
46,72,12684,2,0,P|31:115|37:150,1,80.750001540184,2|0,3:2|0:2,0:0:0:0:
186,247,13009,1,2,3:2:0:0:
78,219,13171,1,2,0:2:0:0:
138,332,13333,1,2,3:2:0:0:
228,160,13495,6,0,L|147:153,1,80.750001540184,2|0,0:2|3:2,0:0:0:0:
266,253,13820,2,0,L|185:246,1,80.750001540184,2|0,0:2|3:2,0:0:0:0:
304,346,14144,1,2,0:2:0:0:
363,229,14306,2,0,P|364:184|346:146,1,80.750001540184,2|2,3:2|0:2,0:0:0:0:
266,253,14630,1,2,3:2:0:0:
420,353,14793,6,0,P|419:303|486:217,1,161.500003080368,2|2,0:2|0:2,0:0:0:0:
511,314,15279,1,0,3:2:0:0:
349,136,15441,6,0,B|372:127|399:140|399:140|396:131|396:131|426:145|455:136,1,121.125002310276,2|0,0:2|0:2,0:0:0:0:
512,75,15766,6,0,P|478:98|503:62,1,121.125002310276,2|0,0:2|0:2,0:0:0:0:
492,80,16090,5,2,0:2:0:0:
351,213,16252,2,0,P|359:173|347:133,1,80.750001540184,4|2,3:2|0:2,0:0:0:0:
225,39,16576,1,2,3:2:0:0:
249,188,16739,1,2,0:2:0:0:
338,47,16901,2,0,B|310:26|310:26|217:40,1,121.125002310276,2|0,3:2|0:2,0:0:0:0:
152,78,17225,1,2,3:2:0:0:
249,188,17387,6,0,B|207:182|207:182|202:185|202:185|165:181,1,80.750001540184,2|0,0:2|3:2,0:0:0:0:
72,84,17712,2,0,B|114:78|114:78|119:81|119:81|156:77,1,80.750001540184,2|0,0:2|3:2,0:0:0:0:
80,222,18036,2,0,B|38:216|38:216|33:219|33:219|-4:215,1,80.750001540184,2|0,0:2|3:2,0:0:0:0:
72,84,18360,5,2,0:2:0:0:
249,188,18522,1,2,3:2:0:0:
144,290,18684,2,0,P|187:280|218:259,1,80.750001540184,2|0,0:2|3:2,0:0:0:0:
72,84,19009,5,2,0:2:0:0:
249,188,19171,1,2,3:2:0:0:
144,290,19333,2,0,P|187:280|218:259,1,80.750001540184,2|0,0:2|3:2,0:0:0:0:
294,66,19657,6,0,P|256:88|219:93,1,80.750001540184,2|0,0:2|3:2,0:0:0:0:
72,84,19982,1,2,0:2:0:0:
155,213,20144,6,0,B|157:172|157:172|153:166|153:166|157:124,1,80.750001540184,2|2,3:2|0:2,0:0:0:0:
231,15,20468,1,2,3:2:0:0:
273,169,20630,1,2,0:2:0:0:
156,133,20793,5,8,3:3:0:0:
156,133,20955,1,8,3:3:0:0:
296,68,21117,1,4,3:3:0:0:
296,68,21279,1,4,3:3:0:0:
273,169,21441,6,0,B|294:198|290:234|265:263|265:263|217:253|173:282|161:332|190:376|240:388|272:361|272:361|259:362|249:357,1,356.25,0|0,3:2|0:2,0:0:0:0:
333,325,22739,6,0,B|385:278|445:248|495:278|496:337|496:337|444:378|394:347|385:278|394:209,1,427.499986953736,0|0,3:2|0:2,0:0:0:0:
427,147,24036,6,0,B|383:129|339:155|339:155|340:139|340:139|283:160|230:139|206:93|208:34|247:-14|313:-16|352:19,1,427.499986953736,0|0,3:2|0:2,0:0:0:0:
302,73,25333,6,0,B|214:100|195:44|103:76,1,199.499993911743,0|0,3:2|0:2,0:0:0:0:
107,150,25982,6,0,B|196:118|215:174|303:147,1,199.499993911743,0|0,3:2|0:2,0:0:0:0:
368,105,26630,6,0,P|381:153|367:195,1,85.4999973907472,4|0,3:2|0:2,0:0:0:0:
263,281,26955,1,2,3:2:0:0:
263,281,27117,2,0,P|301:273|347:270,1,85.4999973907472,2|0,0:0|3:0,0:0:0:0:
206,352,27441,2,0,P|167:344|122:341,1,85.4999973907472,2|0,0:0|3:0,0:0:0:0:
36,252,27766,6,0,P|34:299|32:341,1,85.4999973907472,2|0,0:0|3:0,0:0:0:0:
123,151,28090,2,0,P|125:198|127:240,1,85.4999973907472,2|0,0:0|3:0,0:0:0:0:
16,90,28414,2,0,P|14:137|12:179,1,85.4999973907472,2|0,0:0|3:0,0:0:0:0:
36,252,28739,1,2,0:0:0:0:
123,151,28901,1,2,3:2:0:0:
16,90,29063,1,2,0:0:0:0:
191,190,29225,5,2,3:2:0:0:
281,103,29387,2,0,P|238:76|195:66,1,95,2|0,0:2|3:2,0:0:0:0:
191,190,29712,5,2,0:2:0:0:
316,189,29874,2,0,P|304:140|281:102,1,95,2|0,3:2|0:2,0:0:0:0:
191,190,30198,5,2,3:2:0:0:
279,275,30360,2,0,P|305:232|315:189,1,95,2|0,0:2|3:2,0:0:0:0:
191,190,30684,5,2,0:2:0:0:
192,310,30847,2,0,P|240:298|278:275,1,95,2|0,3:2|0:2,0:0:0:0:
195,97,31171,6,0,B|191:144|191:144|195:149|195:149|191:190,1,95,2|0,3:2|0:2,0:0:0:0:
395,296,31495,2,0,B|391:249|391:249|395:244|395:244|391:203,1,95,2|0,3:2|0:2,0:0:0:0:
300,58,31820,5,2,3:2:0:0:
190,189,31982,2,0,L|90:186,1,95,2|0,0:2|3:2,0:0:0:0:
300,58,32306,5,2,0:2:0:0:
200,203,32468,2,0,L|100:200,1,95,2|0,3:2|0:2,0:0:0:0:
300,58,32793,5,2,3:2:0:0:
210,217,32955,2,0,L|110:214,1,95,2|0,0:2|3:2,0:0:0:0:
19,64,33279,5,2,0:2:0:0:
106,115,33441,1,2,3:2:0:0:
202,32,33603,1,2,0:2:0:0:
256,288,33766,5,8,3:2:0:0:
256,288,34252,6,0,B|350:266|323:341|422:313|422:313|402:308|383:297,1,209.000006378174,6|0,3:2|3:2,0:0:0:0:
186,335,34739,2,0,P|174:279|198:226,1,104.500003189087,8|0,0:2|0:2,0:0:0:0:
296,132,35063,5,2,3:2:0:0:
122,162,35225,1,2,3:2:0:0:
191,40,35387,1,8,0:2:0:0:
400,223,35549,6,0,B|409:172|409:172|397:121|397:121|411:62,1,156.750004783631,2|0,3:2|0:2,0:0:0:0:
478,34,35874,1,2,3:2:0:0:
296,132,36036,1,10,0:2:0:0:
400,223,36198,1,2,0:2:0:0:
409,69,36360,5,2,3:2:0:0:
226,172,36522,1,0,3:2:0:0:
394,299,36684,1,8,0:2:0:0:
296,132,36847,6,0,B|307:23,1,104.500003189087,2|2,3:2|0:2,0:0:0:0:
243,267,37171,1,2,3:2:0:0:
400,223,37333,1,10,0:2:0:0:
231,72,37495,6,0,B|177:67|177:67|171:71|171:71|115:67,1,104.500003189087,2|0,0:2|3:2,0:0:0:0:
23,276,37820,2,0,B|77:271|77:271|83:275|83:275|139:271,1,104.500003189087,2|8,3:2|0:2,0:0:0:0:
50,54,38144,6,0,B|24:16|24:16|4:80|57:101|31:177,1,209.000006378174,2|2,3:2|3:2,0:0:0:0:
190,351,38630,2,0,P|232:308|242:257,1,104.500003189087,10|0,0:2|0:2,0:0:0:0:
200,88,38955,5,0,3:2:0:0:
345,169,39117,1,0,3:2:0:0:
125,271,39279,1,10,0:2:0:0:
403,93,39441,6,0,B|335:81|335:81|280:100|280:100|194:87,1,209.000006378174,6|0,3:2|3:2,0:0:0:0:
447,186,39928,2,0,L|319:164,1,104.500003189087,8|0,0:2|0:2,0:0:0:0:
125,271,40252,5,2,3:2:0:0:
330,306,40414,1,0,3:2:0:0:
199,87,40576,1,10,0:2:0:0:
184,368,40739,6,0,P|156:305|200:226,1,156.750004783631,2|0,3:2|0:2,0:0:0:0:
259,196,41063,1,2,3:2:0:0:
63,86,41225,2,0,L|59:194,1,104.500003189087,10|0,0:2|0:2,0:0:0:0:
184,368,41549,5,0,3:2:0:0:
57,285,41712,1,2,3:2:0:0:
259,196,41874,2,0,B|286:185|286:185|361:207,1,104.500003189087,10|0,0:2|3:2,0:0:0:0:
503,73,42198,6,0,B|476:84|476:84|401:62,1,104.500003189087,2|2,0:0|3:2,0:0:0:0:
174,89,42522,1,10,0:2:0:0:
259,196,42684,2,0,P|299:153|312:108,1,104.500003189087,2|0,0:2|3:2,0:0:0:0:
218,284,43009,2,0,P|276:292|320:276,1,104.500003189087,2|8,3:2|0:2,0:0:0:0:
174,89,43333,1,2,3:2:0:0:
398,221,43495,5,12,0:2:0:0:
111,189,43657,1,0,3:2:0:0:
412,223,43820,5,12,0:2:0:0:
132,301,43982,1,0,3:2:0:0:
378,78,44144,6,0,L|389:134,1,52.2500015945435,0|0,3:2|0:2,0:0:0:0:
435,316,44306,1,8,0:2:0:0:
435,316,44387,1,8,0:2:0:0:
435,316,44468,2,0,L|381:297,1,52.2500015945435,8|0,0:2|0:2,0:0:0:0:
200,246,44630,6,0,B|201:194|201:194|174:150|174:150|174:89|174:89|207:125,1,209.000006378174,6|0,3:2|3:2,0:0:0:0:
301,337,45117,2,0,B|253:329|253:329|247:334|247:334|199:328,1,104.500003189087,8|0,0:2|0:2,0:0:0:0:
0,138,45441,6,0,B|48:130|48:130|54:135|54:135|102:129,1,104.500003189087,2|0,3:2|3:2,0:0:0:0:
284,107,45766,1,10,0:2:0:0:
52,294,45928,6,0,B|20:324|20:324|33:211,1,156.750004783631,2|0,3:2|0:2,0:0:0:0:
0,138,46252,1,2,3:2:0:0:
191,199,46414,1,10,0:2:0:0:
52,294,46576,1,2,0:2:0:0:
174,113,46739,5,2,3:2:0:0:
225,371,46901,1,0,3:2:0:0:
33,212,47063,1,8,0:2:0:0:
208,285,47225,6,0,L|314:278,1,104.500003189087,2|2,3:2|0:2,0:0:0:0:
385,144,47549,1,2,3:2:0:0:
174,113,47712,1,10,0:2:0:0:
392,43,47874,6,0,P|400:96|381:149,1,104.500003189087,2|0,0:2|3:2,0:0:0:0:
174,113,48198,2,0,P|227:121|280:102,1,104.500003189087,2|8,3:2|0:2,0:0:0:0:
182,2,48522,6,0,B|154:42|154:42|161:97|161:97|174:114|174:114|167:131|167:131|175:195,1,209.000006378174,2|2,3:2|3:2,0:0:0:0:
10,321,49009,2,0,B|16:271|16:271|11:266|11:266|18:218,1,104.500003189087,10|0,0:2|0:2,0:0:0:0:
174,113,49333,5,0,3:2:0:0:
18,220,49495,1,2,3:2:0:0:
182,2,49657,1,10,0:2:0:0:
163,261,49820,6,0,B|51:251|51:251|14:216,1,156.750004783631,6|0,3:2|0:2,0:0:0:0:
1,146,50144,1,2,3:2:0:0:
254,91,50306,1,8,0:2:0:0:
163,261,50468,1,2,0:2:0:0:
182,2,50630,6,0,L|286:1,1,104.500003189087,2|0,3:2|3:2,0:0:0:0:
418,217,50955,1,10,0:2:0:0:
458,12,51117,6,0,B|434:50|459:86|467:81|491:119|465:162,1,156.750004783631,2|0,3:2|0:2,0:0:0:0:
418,217,51441,1,2,3:2:0:0:
149,92,51603,2,0,L|253:91,1,104.500003189087,10|0,0:2|0:2,0:0:0:0:
458,12,51928,5,0,3:2:0:0:
418,217,52090,1,2,3:2:0:0:
253,90,52252,1,10,0:2:0:0:
399,126,52414,1,0,3:2:0:0:
207,313,52576,5,2,0:2:0:0:
418,217,52739,1,2,3:2:0:0:
208,230,52901,5,10,0:2:0:0:
399,126,53063,1,2,0:2:0:0:
174,153,53225,5,2,3:2:0:0:
346,55,53387,2,0,P|395:42|451:52,1,104.500003189087,2|8,3:2|0:2,0:0:0:0:
208,230,53712,1,2,3:2:0:0:
482,127,53874,5,12,0:2:0:0:
267,295,54036,1,2,3:2:0:0:
346,55,54198,5,12,0:2:0:0:
351,328,54360,1,2,3:2:0:0:
264,20,54522,5,8,0:2:0:0:
219,17,54603,1,8,0:2:0:0:
175,30,54684,1,8,0:2:0:0:
135,49,54766,1,8,0:2:0:0:
102,83,54847,2,0,L|169:87,1,52.2500015945435,8|8,0:2|0:2,0:0:0:0:
399,126,55009,6,0,B|420:123|446:112|446:112|412:168|353:179|294:170,1,209.000006378174,4|0,3:2|3:2,0:0:0:0:
62,333,55495,2,0,L|56:225,1,104.500003189087,12|2,0:2|0:1,0:0:0:0:
228,283,55820,2,0,L|234:175,1,104.500003189087,0|2,3:2|0:1,0:0:0:0:
347,344,56144,5,8,0:2:0:0:
200,101,56306,2,0,B|248:75|300:112|286:120|347:149|401:124,1,209.000006378174,2|2,0:1|0:1,0:0:0:0:
347,344,56793,2,0,P|392:314|409:267,1,104.500003189087,8|2,0:2|0:1,0:0:0:0:
156,249,57117,2,0,P|201:277|251:274,1,104.500003189087,0|2,3:2|0:1,0:0:0:0:
118,78,57441,1,8,0:2:0:0:
58,269,57603,6,0,B|42:220|88:177|88:177|154:197|155:248,1,209.000006378174,2|2,0:1|0:1,0:0:0:0:
21,96,58090,2,0,P|72:72|120:78,1,104.500003189087,8|2,0:2|0:1,0:0:0:0:
319,185,58414,2,0,P|268:209|220:203,1,104.500003189087,0|2,3:2|0:1,0:0:0:0:
432,55,58739,5,8,0:2:0:0:
326,282,58901,2,0,B|329:205|329:205|319:185|319:185|331:164|331:164|335:77,1,209.000006378174,2|2,0:1|0:1,0:0:0:0:
467,305,59387,2,0,L|471:196,1,104.500003189087,8|2,0:2|0:1,0:0:0:0:
432,55,59712,1,0,3:1:0:0:
259,116,59874,1,2,3:1:0:0:
471,201,60036,1,8,0:2:0:0:
179,50,60198,6,0,B|150:96|153:146|187:191|187:191|132:216,1,209.000006378174,4|0,3:2|3:2,0:0:0:0:
363,123,60684,2,0,L|255:115,1,104.500003189087,12|2,0:2|0:1,0:0:0:0:
430,274,61009,2,0,L|322:282,1,104.500003189087,0|2,3:2|0:1,0:0:0:0:
495,95,61333,1,8,0:2:0:0:
210,287,61495,6,0,B|159:293|115:256|115:256|72:294|17:280,1,209.000006378174,2|2,0:1|0:1,0:0:0:0:
196,86,61982,2,0,P|212:151|193:201,1,104.500003189087,8|2,0:2|0:1,0:0:0:0:
40,182,62306,2,0,P|24:117|43:67,1,104.500003189087,0|2,3:2|0:1,0:0:0:0:
196,86,62630,1,8,0:2:0:0:
299,301,62793,6,0,B|315:352|315:352|344:277|344:277|342:269|342:269|367:203,1,209.000006378174,2|2,0:1|0:1,0:0:0:0:
274,11,63279,2,0,P|318:44|374:52,1,104.500003189087,8|2,0:2|0:1,0:0:0:0:
104,44,63603,2,0,P|148:77|204:85,1,104.500003189087,0|2,3:2|0:1,0:0:0:0:
0,156,63928,1,8,0:2:0:0:
200,346,64090,6,0,B|227:259|161:276|198:177|198:177|196:204|199:217,1,209.000006378174,2|2,0:1|0:1,0:0:0:0:
17,319,64576,2,0,L|134:309,1,104.500003189087,8|2,0:2|0:1,0:0:0:0:
376,177,64901,1,0,3:2:0:0:
304,324,65063,1,2,3:1:0:0:
216,92,65225,1,8,0:2:0:0:
418,299,65387,6,0,B|424:223|424:223|405:171|405:171|416:85,1,209.000006378174,4|0,3:2|3:2,0:0:0:0:
168,14,65874,2,0,B|220:0|220:0|273:21,1,104.500003189087,12|2,0:2|0:1,0:0:0:0:
264,170,66198,2,0,B|212:184|212:184|159:163,1,104.500003189087,0|2,3:2|0:1,0:0:0:0:
168,14,66522,1,8,0:2:0:0:
64,244,66684,6,0,B|48:293|48:293|15:229|15:229|51:132,1,209.000006378174,2|2,0:1|0:1,0:0:0:0:
203,347,67171,2,0,L|192:243,1,104.500003189087,8|2,0:2|0:1,0:0:0:0:
326,61,67495,2,0,L|313:165,1,104.500003189087,0|2,3:2|0:1,0:0:0:0:
166,42,67820,1,8,0:2:0:0:
317,241,67982,6,0,B|356:242|382:204|382:204|409:276|478:292,1,209.000006378174,2|2,0:1|0:1,0:0:0:0:
425,65,68468,2,0,P|376:48|325:62,1,104.500003189087,8|2,0:0|0:1,0:0:0:0:
218,237,68793,2,0,P|267:254|318:240,1,104.500003189087,0|2,3:0|0:1,0:0:0:0:
327,62,69117,1,8,0:2:0:0:
98,110,69279,6,0,P|42:154|55:282,1,209.000006378174,2|2,0:1|0:1,0:0:0:0:
238,347,69766,1,8,0:2:0:0:
109,208,69928,1,2,0:1:0:0:
244,74,70090,1,0,3:2:0:0:
218,237,70252,1,2,3:1:0:0:
390,88,70414,1,8,0:2:0:0:
98,60,70576,6,0,B|244:74|244:74|281:130,1,209.000006378174,4|0,3:2|3:2,0:0:0:0:
365,324,71063,2,0,B|340:343|340:343|258:331,1,104.500003189087,12|2,0:2|0:1,0:0:0:0:
426,164,71387,2,0,B|454:176|454:176|485:253,1,104.500003189087,0|2,3:2|0:1,0:0:0:0:
256,191,71712,1,8,0:2:0:0:
474,31,71874,6,0,B|363:6|393:91|273:64,1,209.000006378174,2|2,0:1|0:1,0:0:0:0:
127,14,72360,1,8,0:2:0:0:
256,191,72522,1,2,0:1:0:0:
46,197,72684,2,0,B|51:144|51:144|46:139|46:139|52:91,1,104.500003189087,0|2,3:2|0:1,0:0:0:0:
142,292,73009,1,8,0:2:0:0:
221,85,73171,6,0,B|182:66|143:110|141:154|191:182|256:191,1,209.000006378174,2|2,0:1|0:1,0:0:0:0:
445,162,73657,1,8,0:2:0:0:
320,292,73820,1,2,0:1:0:0:
363,95,73982,1,0,3:2:0:0:
428,258,74144,1,2,0:1:0:0:
462,70,74306,1,8,0:2:0:0:
320,292,74468,6,0,B|265:286|265:286|218:303|218:303|159:297|159:297|199:275,1,209.000006378174,2|2,0:1|0:1,0:0:0:0:
343,197,74955,1,8,0:2:0:0:
149,152,75117,1,2,0:1:0:0:
244,0,75279,5,0,3:2:0:0:
282,145,75441,1,8,3:2:0:0:
320,292,75603,1,8,3:2:0:0:
244,0,75766,5,4,3:2:0:0:
160,223,83712,5,0,3:2:0:0:
381,124,83874,1,8,0:2:0:0:
322,207,84360,5,8,3:3:0:0:
367,307,84847,5,4,3:3:0:0:
271,348,85333,5,0,3:2:0:0:
271,348,85657,5,8,0:2:0:0:
367,307,85820,1,8,3:3:0:0:
322,207,85982,1,4,3:3:0:0:
381,124,86144,1,0,3:2:0:0:
257,50,86306,6,0,B|191:53|191:53|188:59|188:59|94:64,1,161.500003080368,6|10,3:2|0:2,0:0:0:0:
84,217,86793,2,0,P|132:193|171:194,1,80.750001540184,2|0,0:2|3:2,0:0:0:0:
256,341,87117,1,2,0:2:0:0:
139,273,87279,1,10,0:2:0:0:
280,166,87441,6,0,L|269:249,1,80.750001540184,2|0,0:2|3:2,0:0:0:0:
409,374,87766,2,0,L|398:291,1,80.750001540184,2|8,0:2|0:2,0:0:0:0:
256,341,88090,1,2,0:2:0:0:
380,208,88252,1,0,3:2:0:0:
280,166,88414,1,0,0:2:0:0:
380,208,88576,1,8,0:2:0:0:
280,166,88739,6,0,B|241:152|241:152|197:160,1,80.750001540184,2|0,0:2|3:2,0:0:0:0:
88,189,89063,1,2,0:2:0:0:
146,68,89225,1,10,0:2:0:0:
84,200,89387,2,0,P|80:243|97:280,1,80.750001540184,2|0,0:2|3:2,0:0:0:0:
65,108,89712,2,0,P|25:126|3:159,1,80.750001540184,2|8,0:2|0:2,0:0:0:0:
146,68,90036,6,0,B|206:62|206:62|253:86|253:86|305:81,1,161.500003080368,2|0,0:2|0:2,0:0:0:0:
404,152,90522,2,0,P|397:106|408:67,1,80.750001540184,8|0,0:2|0:2,0:0:0:0:
329,196,90847,1,0,3:2:0:0:
482,113,91009,1,2,0:2:0:0:
446,274,91171,1,10,0:2:0:0:
404,152,91333,1,2,0:2:0:0:
391,338,91495,6,0,B|353:357|353:357|270:348,1,121.125002310276,6|0,3:2|0:2,0:0:0:0:
209,311,91820,1,10,0:2:0:0:
329,196,91982,2,0,L|324:281,1,80.750001540184,2|0,0:2|3:2,0:0:0:0:
209,311,92306,2,0,L|204:226,1,80.750001540184,2|8,0:2|0:2,0:0:0:0:
298,111,92630,6,0,P|341:106|387:122,1,80.750001540184,2|0,0:2|3:2,0:0:0:0:
480,274,92955,1,2,0:2:0:0:
329,196,93117,1,8,0:2:0:0:
496,113,93279,2,0,L|478:287,1,161.500003080368,2|0,0:2|0:2,0:0:0:0:
329,196,93766,1,8,0:2:0:0:
479,273,93928,6,0,B|435:269|435:269|432:273|432:273|396:271,1,80.750001540184,2|2,0:2|3:2,0:0:0:0:
205,272,94252,1,2,0:2:0:0:
329,196,94414,1,10,0:2:0:0:
155,208,94576,2,0,P|128:244|124:287,1,80.750001540184,2|0,0:2|3:2,0:0:0:0:
255,338,94901,2,0,P|282:302|286:259,1,80.750001540184,2|8,0:2|0:2,0:0:0:0:
203,134,95225,6,0,B|167:105|127:119|128:128|84:146|47:122,1,161.500003080368,2|0,0:2|0:2,0:0:0:0:
171,5,95712,2,0,L|252:12,1,80.750001540184,8|2,0:2|0:2,0:0:0:0:
316,180,96036,1,2,3:2:0:0:
203,134,96198,1,2,0:2:0:0:
334,91,96360,1,10,0:2:0:0:
220,235,96522,6,0,L|133:228,1,80.750001540184,2|4,0:0|3:2,0:0:0:0:
227,362,96847,2,0,L|314:355,1,80.750001540184,2|8,0:0|0:2,0:0:0:0:
428,254,97171,2,0,L|341:247,1,80.750001540184,2|0,0:0|3:2,0:0:0:0:
220,235,97495,1,0,0:2:0:0:
321,168,97657,1,10,0:2:0:0:
156,90,97820,6,0,P|147:188|141:263,1,161.500003080368,2|2,0:2|0:2,0:0:0:0:
71,151,98306,1,10,0:2:0:0:
220,235,98468,1,2,0:2:0:0:
53,321,98630,2,0,P|56:282|62:238,1,80.750001540184,2|0,3:2|0:2,0:0:0:0:
156,90,98955,1,8,0:2:0:0:
71,151,99117,5,2,0:2:0:0:
240,119,99279,1,2,3:2:0:0:
88,35,99441,1,2,0:2:0:0:
148,193,99603,1,10,0:2:0:0:
220,34,99766,2,0,P|264:33|299:52,1,80.750001540184,2|0,0:2|3:2,0:0:0:0:
458,130,100090,2,0,P|414:129|379:148,1,80.750001540184,2|8,0:2|0:2,0:0:0:0:
280,264,100414,6,0,P|338:256|442:293,1,161.500003080368,2|0,0:2|0:2,0:0:0:0:
344,357,100901,1,10,0:2:0:0:
203,303,101063,2,0,P|194:264|209:216,1,80.750001540184,2|0,0:2|3:2,0:0:0:0:
168,54,101387,1,2,0:2:0:0:
300,137,101549,1,8,0:2:0:0:
121,216,101712,1,2,0:2:0:0:
222,122,101874,6,0,B|270:113|300:139|300:139|330:114|374:124,2,161.500003080368,4|8|2,3:2|0:2|3:2,0:0:0:0:
121,216,102684,1,2,0:2:0:0:
280,264,102847,1,10,0:2:0:0:
106,332,103009,6,0,L|18:325,1,80.750001540184,2|0,0:2|3:2,0:0:0:0:
0,153,103333,2,0,L|88:146,1,80.750001540184,2|8,0:2|0:2,0:0:0:0:
216,43,103657,1,0,0:2:0:0:
200,176,103820,1,2,3:2:0:0:
217,31,103982,2,0,L|129:24,1,80.750001540184,2|8,0:2|0:2,0:0:0:0:
352,32,104306,6,0,P|341:82|418:154,1,161.500003080368,2|2,0:2|0:2,0:0:0:0:
403,238,104793,1,10,0:2:0:0:
421,72,104955,1,2,0:2:0:0:
266,149,105117,1,2,3:2:0:0:
412,153,105279,1,2,0:2:0:0:
275,229,105441,1,10,0:2:0:0:
421,72,105603,6,0,L|412:152,1,80.750001540184,2|0,0:2|3:2,0:0:0:0:
284,309,105928,1,2,0:2:0:0:
403,238,106090,1,10,0:2:0:0:
266,149,106252,6,0,L|257:55,1,80.750001540184,2|0,0:2|3:2,0:2:0:0:
275,229,106576,1,2,0:2:0:0:
412,153,106739,1,8,0:2:0:0:
284,309,106901,1,2,0:2:0:0:
170,152,107063,6,0,L|79:144,1,85.4999973907472,4|2,3:2|0:2,0:2:0:0:
68,142,107306,1,2,0:2:0:0:
51,140,107387,1,10,0:2:0:0:
163,42,107549,1,2,0:2:0:0:
178,39,107630,1,2,0:2:0:0:
194,36,107712,2,0,L|242:47,1,42.7499986953736,2|0,3:2|0:2,0:2:0:0:
349,107,107874,2,0,L|301:118,1,42.7499986953736,2|0,0:2|0:2,0:2:0:0:
170,152,108036,2,0,L|218:163,1,42.7499986953736,10|0,0:2|0:2,0:2:0:0:
367,242,108198,6,0,L|281:236,1,85.4999973907472,2|0,0:2|3:2,0:2:0:0:
169,315,108522,1,2,0:2:0:0:
141,341,108603,1,0,0:2:0:0:
104,350,108684,1,10,0:2:0:0:
67,340,108766,1,0,0:2:0:0:
40,313,108847,1,0,0:2:0:0:
30,277,108928,1,0,0:2:0:0:
39,240,109009,5,2,3:2:0:0:
84,226,109090,1,0,0:2:0:0:
113,190,109171,1,0,0:2:0:0:
116,143,109252,1,0,0:2:0:0:
90,103,109333,1,8,0:2:0:0:
46,87,109414,1,0,0:2:0:0:
1,99,109495,6,0,L|44:103,1,42.7499986953736,2|0,0:2|0:2,0:2:0:0:
124,10,109657,2,0,L|168:5,1,42.7499986953736,2|0,3:2|0:2,0:2:0:0:
113,190,109820,2,0,L|157:185,1,42.7499986953736,2|0,0:2|0:2,0:2:0:0:
282,83,109982,2,0,L|329:93,1,42.7499986953736,10|0,0:2|0:2,0:2:0:0:
382,275,110144,5,2,0:2:0:0:
344,296,110225,1,0,0:2:0:0:
302,288,110306,1,0,3:2:0:0:
275,256,110387,1,0,0:2:0:0:
275,213,110468,1,2,0:2:0:0:
302,180,110549,1,0,0:2:0:0:
344,173,110630,1,8,0:2:0:0:
382,194,110712,1,0,0:2:0:0:
396,234,110793,5,2,0:2:0:0:
446,252,110874,1,0,0:2:0:0:
494,227,110955,1,0,3:2:0:0:
508,175,111036,1,0,0:2:0:0:
479,130,111117,2,0,L|436:132,1,42.7499986953736,2|0,0:2|0:2,0:2:0:0:
336,25,111279,2,0,L|379:27,1,42.7499986953736,10|0,0:2|0:2,0:2:0:0:
234,121,111441,5,2,0:2:0:0:
204,151,111522,1,0,0:2:0:0:
163,158,111603,1,0,3:2:0:0:
125,140,111684,1,0,0:2:0:0:
104,103,111766,1,0,0:2:0:0:
109,61,111847,1,0,0:2:0:0:
138,30,111928,1,10,0:2:0:0:
179,21,112009,1,0,0:2:0:0:
217,38,112090,1,2,0:2:0:0:
187,239,112252,6,0,L|96:242,1,85.4999973907472,4|2,3:2|0:2,0:2:0:0:
84,242,112495,1,2,0:2:0:0:
66,243,112576,1,10,0:2:0:0:
180,343,112739,1,2,0:2:0:0:
163,345,112820,1,2,0:2:0:0:
146,347,112901,2,0,L|102:352,1,42.7499986953736,2|0,3:2|0:2,0:2:0:0:
302,248,113063,2,0,L|261:230,1,42.7499986953736,2|0,0:2|0:2,0:2:0:0:
486,240,113225,2,0,L|459:204,1,42.7499986953736,10|0,0:2|0:2,0:2:0:0:
376,357,113387,6,0,L|384:266,1,85.4999973907472,2|0,0:2|3:2,0:2:0:0:
312,93,113712,1,2,0:2:0:0:
320,50,113793,1,0,0:2:0:0:
359,30,113874,1,10,0:2:0:0:
397,47,113955,1,0,0:2:0:0:
408,90,114036,1,0,0:2:0:0:
383,124,114117,1,0,0:2:0:0:
339,126,114198,5,2,3:2:0:0:
312,93,114279,1,0,0:2:0:0:
270,87,114360,1,0,0:2:0:0:
232,108,114441,1,0,0:2:0:0:
219,147,114522,1,8,0:2:0:0:
233,188,114603,1,0,0:2:0:0:
269,209,114684,2,0,L|323:205,1,42.7499986953736,2|0,0:2|0:2,0:2:0:0:
162,300,114847,5,2,3:2:0:0:
122,311,114928,1,0,0:2:0:0:
81,299,115009,1,0,0:2:0:0:
53,268,115090,1,0,0:2:0:0:
45,226,115171,2,0,L|50:179,1,42.7499986953736,10|0,0:2|0:2,0:2:0:0:
111,0,115333,5,2,0:2:0:0:
149,16,115414,1,0,0:2:0:0:
168,55,115495,1,0,3:2:0:0:
159,96,115576,1,0,0:2:0:0:
125,121,115657,2,0,L|84:113,1,42.7499986953736,2|0,0:2|0:2,0:2:0:0:
277,57,115820,2,0,L|318:49,1,42.7499986953736,10|0,0:2|0:2,0:2:0:0:
181,209,115982,5,2,0:2:0:0:
181,256,116063,1,0,0:2:0:0:
206,295,116144,1,0,3:2:0:0:
249,315,116225,1,0,0:2:0:0:
295,308,116306,2,0,L|301:258,1,42.7499986953736,2|0,0:2|0:2,0:2:0:0:
398,118,116468,2,0,L|404:168,1,42.7499986953736,10|0,0:2|0:2,0:2:0:0:
499,307,116630,1,2,0:2:0:0:
492,328,116712,1,0,0:2:0:0:
481,345,116793,5,8,3:2:0:0:
425,306,116874,1,8,0:2:0:0:
413,239,116955,1,8,0:2:0:0:
436,175,117036,1,8,0:2:0:0:
398,118,117117,5,8,3:3:0:0:
330,128,117198,1,8,3:3:0:0:
295,186,117279,1,8,3:3:0:0:
235,219,117360,1,8,3:3:0:0:
171,201,117441,6,0,L|168:125,1,71.2500027179719,4|0,3:2|0:0,0:0:0:0:
91,109,117684,1,0,0:0:0:0:
91,109,117766,2,0,L|94:185,1,71.2500027179719,0|0,0:2|0:0,0:0:0:0:
42,241,118009,1,0,0:0:0:0:
42,241,118090,2,0,L|45:317,1,71.2500027179719,0|0,0:2|0:0,0:0:0:0:
114,358,118333,1,0,0:0:0:0:
114,358,118414,2,0,L|190:355,1,71.2500027179719,0|0,0:2|0:0,0:0:0:0:
331,161,118739,5,8,0:2:0:0:
279,354,118901,1,8,0:2:0:0:
331,161,119063,6,0,L|408:157,1,71.2500027179719,0|0,0:0|0:0,0:0:0:0:
424,233,119306,1,0,0:0:0:0:
424,233,119387,2,0,L|347:237,1,71.2500027179719,0|0,0:0|0:0,0:0:0:0:
377,311,119630,1,0,0:0:0:0:
377,311,119712,2,0,L|454:307,1,71.2500027179719,0|0,0:0|0:0,0:0:0:0:
215,233,120036,5,8,0:0:0:0:
402,157,120198,1,8,0:0:0:0:
215,233,120360,6,0,L|142:227,1,71.2500027179719,0|0,0:0|0:0,0:0:0:0:
87,172,120603,1,0,0:0:0:0:
87,172,120684,2,0,L|93:99,1,71.2500027179719,0|0,0:0|0:0,0:0:0:0:
156,50,120928,1,0,0:0:0:0:
156,50,121009,2,0,L|229:56,1,71.2500027179719,0|0,0:0|0:0,0:0:0:0:
402,157,121333,5,8,0:0:0:0:
184,141,121495,1,8,0:0:0:0:
402,157,121657,6,0,L|404:228,1,71.2500027179719,0|0,0:0|0:0,0:0:0:0:
404,228,121901,1,0,0:0:0:0:
404,228,121982,5,8,0:0:0:0:
294,66,122144,1,8,0:0:0:0:
235,264,122306,6,0,P|262:296|247:257,1,114,12|0,3:2|0:0,0:0:0:0:
252,278,122630,6,0,B|173:246|161:326|81:295,1,170.999994781494,6|8,3:2|0:2,0:0:0:0:
10,201,123117,1,0,0:2:0:0:
127,124,123279,2,0,P|136:82|122:42,1,85.4999973907472,0|0,3:2|0:2,0:0:0:0:
219,182,123603,1,10,0:2:0:0:
50,89,123766,1,2,0:2:0:0:
219,182,123928,6,0,L|309:175,1,85.4999973907472,0|0,3:2|0:2,0:0:0:0:
384,45,124252,2,0,L|294:38,1,85.4999973907472,8|0,0:2|0:2,0:0:0:0:
411,166,124576,1,0,3:2:0:0:
231,94,124739,1,2,0:2:0:0:
339,233,124901,1,10,0:2:0:0:
384,45,125063,1,2,0:2:0:0:
219,182,125225,5,2,3:2:0:0:
403,289,125387,2,0,L|501:281,1,85.4999973907472,2|8,0:2|0:2,0:2:0:0:
208,173,125712,5,2,0:2:0:0:
392,280,125874,2,0,L|490:272,1,85.4999973907472,2|0,3:2|0:2,0:2:0:0:
197,164,126198,5,10,0:2:0:0:
381,271,126360,2,0,L|479:263,1,85.4999973907472,2|0,0:2|3:2,0:2:0:0:
184,156,126684,5,2,0:2:0:0:
368,263,126846,2,0,L|466:255,1,85.4999973907472,10|0,0:2|0:2,0:2:0:0:
150,79,127171,6,0,P|198:74|243:91,1,85.4999973907472,2|0,3:2|0:2,0:0:0:0:
154,299,127495,2,0,P|106:304|61:287,1,85.4999973907472,10|0,0:2|0:2,0:0:0:0:
221,177,127820,5,0,3:0:0:0:
249,199,127901,1,0,3:0:0:0:
266,231,127982,1,0,3:0:0:0:
269,267,128063,1,0,3:0:0:0:
272,303,128144,1,8,2:2:0:0:
293,332,128225,1,0,3:0:0:0:
326,347,128306,1,0,3:0:0:0:
362,343,128387,1,0,3:0:0:0:
390,320,128468,5,0,3:0:0:0:
385,274,128549,1,0,3:0:0:0:
414,239,128630,1,0,3:0:0:0:
459,235,128711,1,0,3:0:0:0:
495,264,128792,1,8,2:2:0:0:
499,309,128873,1,0,3:0:0:0:
470,344,128954,1,0,3:0:0:0:
424,348,129035,1,0,3:0:0:0:
390,320,129117,5,0,3:0:0:0:
385,264,129198,1,0,3:0:0:0:
419,220,129279,1,0,3:0:0:0:
439,168,129360,1,0,3:0:0:0:
427,113,129441,5,8,0:0:0:0:
384,65,129522,1,8,0:0:0:0:
320,60,129603,1,8,0:0:0:0:
265,92,129684,1,8,0:0:0:0:
250,155,129765,5,10,3:2:0:0:
250,155,130414,6,0,B|166:142|187:209|102:197,1,156.750004783631,6|0,3:2|0:0,0:0:0:0:
44,246,130739,2,0,P|26:197|45:150,1,104.500003189087,8|0,0:2|0:2,0:0:0:0:
160,24,131063,5,0,3:2:0:0:
235,239,131225,1,0,3:2:0:0:
413,55,131387,1,10,0:2:0:0:
307,86,131549,6,0,B|387:77|387:77|436:99|436:99|513:89,1,209.000006378174,2|0,3:2|3:2,0:0:0:0:
467,298,132036,2,0,P|414:278|363:286,1,104.500003189087,8|0,0:2|0:2,0:0:0:0:
125,176,132360,5,2,3:2:0:0:
265,353,132522,1,2,3:2:0:0:
229,115,132684,1,10,0:2:0:0:
67,295,132847,6,0,B|95:334|95:334|126:165,1,209.000006378174,2|0,3:2|3:0,0:0:0:0:
405,151,133333,2,0,P|360:176|307:170,1,104.500003189087,8|0,0:2|0:2,0:0:0:0:
148,23,133657,5,0,3:2:0:0:
229,115,133820,1,2,3:2:0:0:
34,227,133982,1,10,0:2:0:0:
242,110,134144,6,0,B|288:81|288:81|252:46|198:23|146:24,1,209.000006378174,2|0,3:2|3:2,0:0:0:0:
15,136,134630,1,10,0:2:0:0:
161,231,134793,1,2,0:2:0:0:
347,11,134955,5,2,3:2:0:0:
93,108,135117,1,2,3:2:0:0:
321,192,135279,1,10,0:2:0:0:
166,341,135441,6,0,B|138:308|138:308|148:245|148:245|160:230|160:230|154:212|154:212|165:140,1,209.000006378174,6|2,3:2|3:2,0:0:0:0:
313,88,135928,1,10,0:2:0:0:
377,278,136090,1,2,0:2:0:0:
251,222,136252,5,2,3:2:0:0:
391,163,136414,1,2,3:2:0:0:
183,51,136576,1,10,0:2:0:0:
432,19,136739,6,0,B|472:9|472:9|436:65|471:123,1,156.750004783631,2|0,3:2|0:2,0:0:0:0:
511,181,137063,1,2,3:2:0:0:
311,333,137225,1,10,0:2:0:0:
460,278,137387,1,2,0:2:0:0:
303,143,137549,5,2,3:2:0:0:
410,358,137712,1,2,3:2:0:0:
166,297,137874,1,10,0:2:0:0:
382,176,138036,6,0,P|377:104|307:56,1,156.750004783631,2|0,3:2|0:0,0:0:0:0:
303,143,138360,1,2,3:2:0:0:
447,31,138522,1,10,0:2:0:0:
316,223,138684,1,2,0:2:0:0:
135,34,138847,2,0,B|182:27|182:27|188:31|188:31|239:25,1,104.500003189087,2|0,3:2|3:2,0:0:0:0:
382,176,139171,1,10,0:2:0:0:
228,112,139333,1,2,3:2:0:0:
227,327,139495,5,12,0:2:0:0:
403,86,139657,1,2,3:2:0:0:
119,177,139820,5,14,0:2:0:0:
403,269,139982,1,2,3:2:0:0:
228,27,140144,5,2,3:2:0:0:
274,180,140306,1,8,3:2:0:0:
320,333,140468,1,8,3:2:0:0:
228,112,140630,6,0,P|277:99|334:120,1,104.500003189087,6|0,3:2|0:0,0:0:0:0:
403,269,140955,1,0,3:2:0:0:
228,28,141117,1,12,0:2:0:0:
274,180,141279,1,0,0:2:0:0:
350,47,141441,5,0,3:2:0:0:
155,92,141603,1,0,3:2:0:0:
136,86,141684,1,0,3:0:0:0:
117,79,141766,1,10,0:2:0:0:
349,217,141928,6,0,B|401:237|442:211|442:211|484:230|484:230|515:210|515:210|499:214|478:209,1,209.000006378174,2|0,3:2|3:2,0:0:0:0:
279,137,142414,1,8,0:2:0:0:
375,330,142576,1,0,0:2:0:0:
272,127,142739,5,0,3:2:0:0:
260,324,142901,1,0,3:2:0:0:
258,344,142982,1,0,3:0:0:0:
256,364,143063,1,10,0:2:0:0:
265,117,143225,6,0,B|230:103|184:123|184:123|154:189|77:178,1,209.000006378174,2|0,3:2|3:2,0:0:0:0:
50,38,143712,1,8,0:2:0:0:
236,243,143874,1,0,0:2:0:0:
107,103,144036,5,0,3:2:0:0:
72,298,144198,1,0,3:2:0:0:
53,305,144279,1,0,3:0:0:0:
34,312,144360,1,10,0:2:0:0:
236,243,144522,6,0,B|266:222|303:233|303:233|301:300|352:330|352:330|347:312|351:293,1,209.000006378174,2|0,3:2|3:2,0:0:0:0:
500,211,145009,1,10,0:2:0:0:
318,131,145171,1,2,0:2:0:0:
446,54,145333,5,2,3:2:0:0:
349,306,145495,1,2,3:2:0:0:
236,106,145657,1,10,0:2:0:0:
379,176,145820,6,0,B|404:133|404:133|335:122|335:122|318:131|318:131|303:119|303:119|238:107,1,209.000006378174,6|2,3:2|3:2,0:0:0:0:
30,203,146306,2,0,P|81:213|119:249,1,104.500003189087,10|2,0:2|0:2,0:0:0:0:
249,207,146630,5,2,3:2:0:0:
43,290,146793,1,2,3:2:0:0:
135,78,146955,1,10,0:2:0:0:
213,316,147117,6,0,B|267:309|267:309|272:314|272:314|323:308,1,104.500003189087,2|0,3:2|0:0,0:0:0:0:
468,156,147441,1,2,3:2:0:0:
408,276,147603,1,10,0:2:0:0:
370,116,147766,1,2,0:2:0:0:
314,308,147928,5,2,3:2:0:0:
287,57,148090,1,2,3:2:0:0:
508,270,148252,1,10,0:2:0:0:
388,198,148414,6,0,B|332:206|296:160|296:160|260:207|201:191,1,209.000006378174,2|2,3:2|3:2,0:0:0:0:
54,35,148901,1,10,0:2:0:0:
231,120,149063,1,2,0:2:0:0:
155,267,149225,2,0,P|107:246|56:250,1,104.500003189087,2|0,3:2|3:2,0:0:0:0:
3,115,149549,1,10,0:2:0:0:
181,38,149712,1,2,3:2:0:0:
93,326,149874,5,12,0:2:0:0:
117,94,150036,1,2,3:2:0:0:
236,363,150198,5,14,0:2:0:0:
231,120,150360,1,2,3:2:0:0:
379,328,150522,5,10,0:2:0:0:
403,283,150603,1,8,0:2:0:0:
391,234,150684,1,8,0:2:0:0:
348,207,150765,1,8,0:2:0:0:
298,217,150847,2,0,L|300:270,1,52.2500015945435,10|8,0:2|0:2,0:0:0:0:
450,71,151009,6,0,P|499:101|409:120,1,209.000006378174,4|0,3:2|3:2,0:2:0:0:
261,33,151495,1,8,0:2:0:0:
348,207,151657,1,2,0:1:0:0:
130,212,151820,1,0,3:2:0:0:
305,119,151982,1,2,0:1:0:0:
42,153,152144,1,8,0:2:0:0:
217,274,152306,6,0,P|236:223|227:163,1,104.500003189087,2|0,0:1|3:2,0:2:0:0:
61,328,152630,1,2,0:1:0:0:
212,363,152793,2,0,P|264:349|308:307,1,104.500003189087,8|2,0:2|0:1,0:2:0:0:
396,150,153117,1,0,3:2:0:0:
465,351,153279,1,2,0:1:0:0:
217,274,153441,1,8,0:2:0:0:
476,266,153603,6,0,B|489:224|467:194|467:194|490:163|475:115,1,156.750004783631,2|0,0:1|0:2,0:2:0:0:
432,52,153928,1,2,0:1:0:0:
361,242,154090,1,8,0:2:0:0:
222,108,154252,1,2,0:1:0:0:
202,103,154333,1,0,0:2:0:0:
182,98,154414,1,0,3:2:0:0:
396,150,154576,1,2,0:1:0:0:
258,10,154739,1,8,0:2:0:0:
361,242,154901,6,0,B|284:265|289:191|208:215,1,156.750004783631,2|0,0:1|0:2,0:2:0:0:
141,248,155225,1,2,0:1:0:0:
309,131,155387,1,8,0:2:0:0:
233,302,155549,1,2,0:1:0:0:
224,320,155630,1,0,0:2:0:0:
215,339,155712,1,0,3:2:0:0:
53,196,155874,1,2,3:1:0:0:
361,242,156036,1,8,0:2:0:0:
169,122,156198,6,0,B|129:90|129:90|141:255,1,209.000006378174,4|0,3:2|3:2,0:2:0:0:
80,330,156603,1,0,0:2:0:0:
80,330,156684,2,0,L|135:325,1,52.2500015945435,12|0,0:2|0:2,0:2:0:0:
53,196,156847,2,0,L|0:191,1,52.2500015945435,2|0,0:1|0:2,0:2:0:0:
233,253,157009,5,0,3:2:0:0:
269,237,157090,1,0,1:2:0:0:
284,201,157171,1,2,1:1:0:0:
269,164,157252,1,0,1:2:0:0:
233,148,157333,1,8,1:2:0:0:
195,164,157414,1,0,1:2:0:0:
180,201,157495,1,2,1:1:0:0:
195,237,157576,1,0,1:2:0:0:
233,253,157657,5,0,3:2:0:0:
247,289,157739,1,0,1:2:0:0:
232,326,157820,1,2,1:1:0:0:
195,341,157901,1,0,1:1:0:0:
158,326,157982,1,8,1:2:0:0:
143,289,158063,1,0,1:2:0:0:
158,253,158144,1,2,1:1:0:0:
195,237,158225,1,0,1:1:0:0:
233,253,158306,5,0,3:0:0:0:
280,273,158387,1,0,3:0:0:0:
332,273,158468,1,2,3:1:0:0:
379,251,158549,1,0,3:0:0:0:
413,212,158630,5,8,2:0:0:0:
432,153,158711,1,8,2:0:0:0:
425,90,158792,1,10,2:1:0:0:
394,36,158873,1,8,2:0:0:0:
344,0,158955,5,12,0:2:0:0:
202,287,159118,1,0,3:2:0:0:
425,90,159279,5,12,0:2:0:0:
139,206,159442,1,0,3:2:0:0:
414,212,159603,5,12,0:2:0:0:
144,106,159766,1,0,3:2:0:0:
332,273,159928,5,12,0:2:0:0:
226,39,160090,1,0,3:2:0:0:
202,287,160252,5,8,0:2:0:0:
152,314,160333,1,8,3:3:0:0:
96,304,160414,1,8,3:3:0:0:
60,261,160495,1,8,3:3:0:0:
60,205,160576,5,0,3:2:0:0:
96,162,160657,1,0,3:2:0:0:
152,152,160739,1,0,3:2:0:0:
202,180,160820,1,0,3:2:0:0:
251,209,160901,5,0,3:2:0:0:
307,199,160983,1,0,3:2:0:0:
343,156,161064,1,0,3:2:0:0:
343,100,161145,1,0,3:2:0:0:
307,56,161225,2,0,L|252:63,1,52.2500015945435,0|0,3:2|3:2,0:2:0:0:
459,215,161387,6,0,B|485:171|485:171|480:119|480:119|468:100|468:100|478:79|478:79|473:18,1,209.000006378174,4|0,3:2|3:2,0:2:0:0:
263,312,161874,2,0,B|312:308|312:308|317:314|317:314|372:310,1,104.500003189087,12|2,0:0|0:1,0:0:0:0:
138,205,162198,1,0,3:0:0:0:
268,100,162360,1,2,0:1:0:0:
263,312,162522,1,8,0:0:0:0:
62,139,162684,1,2,0:1:0:0:
57,351,162847,6,0,P|103:325|127:267,1,104.500003189087,0|2,3:0|0:1,0:0:0:0:
130,68,163171,2,0,P|84:94|60:152,1,104.500003189087,8|2,0:0|0:1,0:0:0:0:
332,171,163495,1,0,3:0:0:0:
138,205,163657,1,2,0:1:0:0:
253,286,163820,1,8,0:0:0:0:
219,93,163982,1,2,0:1:0:0:
418,238,164144,5,2,3:2:0:0:
414,258,164225,1,2,0:2:0:0:
410,278,164306,1,2,0:2:0:0:
436,112,164468,1,8,0:0:0:0:
236,189,164630,1,2,0:1:0:0:
326,25,164793,1,2,3:2:0:0:
346,29,164874,1,2,0:0:0:0:
366,33,164955,1,2,0:2:0:0:
219,93,165117,1,8,0:0:0:0:
334,152,165279,1,2,0:1:0:0:
125,141,165441,6,0,P|111:88|127:39,1,104.500003189087,0|2,3:0|0:1,0:0:0:0:
334,251,165766,2,0,P|348:198|332:149,1,104.500003189087,8|2,0:0|0:1,0:0:0:0:
70,297,166090,1,0,3:0:0:0:
266,201,166252,1,2,3:1:0:0:
2,123,166414,1,8,0:0:0:0:
184,341,166576,6,0,B|263:328|263:328|316:349|316:349|389:339,1,209.000006378174,4|0,3:2|3:0,0:0:0:0:
501,112,167063,1,12,0:0:0:0:
334,251,167225,1,2,0:1:0:0:
269,33,167387,2,0,B|321:27|321:27|373:52,1,104.500003189087,0|2,3:0|0:1,0:0:0:0:
477,248,167712,1,8,0:0:0:0:
310,107,167874,1,2,0:1:0:0:
184,341,168036,6,0,P|166:288|182:235,1,104.500003189087,0|2,3:0|0:1,0:0:0:0:
36,99,168360,1,8,0:0:0:0:
225,179,168522,1,2,0:1:0:0:
52,240,168684,1,0,3:0:0:0:
183,64,168847,1,2,0:1:0:0:
266,287,169009,1,8,0:0:0:0:
127,143,169171,1,2,0:2:0:0:
372,77,169333,6,0,B|364:127|364:127|368:133|368:133|361:180,1,104.500003189087,0|2,3:2|0:2,0:0:0:0:
394,254,169576,1,2,0:0:0:0:
394,254,169657,2,0,L|455:261,1,52.2500015945435,10|0,0:0|0:0,0:0:0:0:
259,137,169820,2,0,L|198:144,1,52.2500015945435,2|0,0:2|0:0,0:0:0:0:
465,151,169982,2,0,L|456:99,1,52.2500015945435,2|0,3:2|0:0,0:0:0:0:
266,287,170144,2,0,L|274:235,1,52.2500015945435,2|0,0:2|0:0,0:0:0:0:
301,8,170306,1,10,0:0:0:0:
394,254,170468,1,6,3:2:0:0:
168,78,170630,5,0,3:0:0:0:
113,46,170711,1,0,3:0:0:0:
51,57,170793,1,0,3:0:0:0:
11,105,170874,1,0,3:0:0:0:
11,168,170955,1,2,3:2:0:0:
51,216,171036,1,0,3:0:0:0:
113,227,171117,1,0,3:0:0:0:
168,195,171198,1,0,3:0:0:0:
223,163,171279,1,2,3:2:0:0:
285,174,171360,1,0,3:0:0:0:
332,221,171441,1,2,3:2:0:0:
331,283,171522,1,0,3:0:0:0:
290,329,171603,6,0,L|235:322,1,52.2500015945435,10|0,0:2|0:0,0:0:0:0:
512,0,171765,1,6,3:2:0:0:
