osu file format v14

[General]
AudioFilename: audio.mp3
AudioLeadIn: 0
PreviewTime: 129847
Countdown: 0
SampleSet: Soft
StackLeniency: 0.4
Mode: 0
LetterboxInBreaks: 0
WidescreenStoryboard: 1

[Editor]
DistanceSpacing: 0.5
BeatDivisor: 4
GridSize: 32
TimelineZoom: 1.7

[Metadata]
Title:Kimi no Yozora Shoukaihan
TitleUnicode:キミノヨゾラ哨戒班
Artist:mary
ArtistUnicode:めありー
Creator:KeyWee
Version:Insane
Source:
Tags:orangestar cover Utaite Night Sky Patrol Of Tomorrow 歌い手 rock japanese vocaloid ia Asu j-rock jrock livermorium MikanseiP りする Risru 初音ミク Hatsune Miku
BeatmapID:2909380
BeatmapSetID:1409421

[Difficulty]
HPDrainRate:5
CircleSize:4
OverallDifficulty:7.5
ApproachRate:9
SliderMultiplier:1.6
SliderTickRate:1

[Events]
//Background and Video events
0,0,"mikumiku.png",0,0
//Break Periods
2,75965,85009
//Storyboard Layer 0 (Background)
//Storyboard Layer 1 (Fail)
//Storyboard Layer 2 (Pass)
//Storyboard Layer 3 (Foreground)
//Storyboard Layer 4 (Overlay)
//Storyboard Sound Samples

[TimingPoints]
685,324.324324324324,4,2,1,100,1,0
685,-125,4,2,1,55,0,0
11063,-111.111111111111,4,2,1,70,0,0
21441,-166.666666666667,4,2,1,60,0,0
26630,-111.111111111111,4,2,1,75,0,0
34252,-90.9090909090908,4,2,1,85,0,1
54522,-90.9090909090908,4,2,1,85,0,0
55009,-83.3333333333333,4,2,1,85,0,0
75766,-83.3333333333333,4,2,1,85,0,0
85657,-83.3333333333333,4,2,1,65,0,0
85820,-83.3333333333333,4,2,1,65,0,0
86306,-105.263157894737,4,2,1,70,0,0
117441,-142.857142857143,4,2,1,60,0,0
122630,-111.111111111111,4,2,1,75,0,0
127820,-99.9999999999999,4,2,1,75,0,0
130414,-83.3333333333333,4,2,1,85,0,1
151009,-83.3333333333333,4,2,1,85,0,0
156198,-83.3333333333333,4,1,1,85,0,1
160901,-83.3333333333333,4,2,1,85,0,1
161387,-83.3333333333333,4,2,1,85,0,0
171766,-83.3333333333333,4,2,1,85,0,0

[Colours]
Combo1 : 3,9,233
Combo2 : 10,184,241
Combo3 : 232,28,191
Combo4 : 183,33,220

[HitObjects]
88,148,522,5,2,0:0:0:0:
88,148,685,2,0,P|133:129|218:149,1,128,2|0,0:2|0:2,0:0:0:0:
277,190,1171,2,0,L|272:274,1,64,2|0,0:2|0:0,0:0:0:0:
360,303,1495,2,0,L|356:239,1,64,2|0,0:2|0:0,0:0:0:0:
422,178,1820,6,0,B|417:118|417:118|421:104|421:104|415:26,2,128,2|2|2,0:2|0:2|0:2,0:0:0:0:
503,235,2630,1,2,0:2:0:0:
503,235,2793,1,2,0:2:0:0:
422,178,2955,1,2,0:2:0:0:
352,244,3117,6,0,B|321:258|289:244|289:244|282:247|282:247|252:235|219:250,2,128,2|2|2,0:2|0:2|0:2,0:0:0:0:
422,178,3928,2,0,L|417:98,1,64,2|2,0:2|0:2,0:0:0:0:
348,47,4252,1,2,0:2:0:0:
348,47,4414,6,0,P|282:75|224:42,1,128,2|2,0:2|0:2,0:0:0:0:
133,132,5063,1,2,0:2:0:0:
133,132,5225,1,2,0:2:0:0:
133,132,5387,2,0,L|129:61,1,64,2|0,0:2|0:0,0:0:0:0:
42,25,5712,6,0,L|30:175,1,128,2|2,0:2|0:2,0:0:0:0:
68,243,6198,1,2,0:2:0:0:
68,243,6360,2,0,P|108:230|150:250,1,64,2|0,0:2|0:2,0:0:0:0:
257,271,6684,2,0,P|217:284|175:264,1,64,2|0,0:2|0:2,0:0:0:0:
207,188,7009,6,0,B|246:171|246:171|347:192,2,128,2|2|2,0:2|0:2|0:2,0:0:0:0:
148,263,7820,1,2,0:2:0:0:
148,263,7982,2,0,L|161:334,1,64,2|2,0:2|0:2,0:0:0:0:
251,354,8306,6,0,B|284:341|319:353|319:353|324:350|324:350|363:363|397:343,1,128,2|2,0:2|0:2,0:0:0:0:
456,237,8793,1,2,0:2:0:0:
456,237,8955,2,0,L|452:306,1,64,2|0,0:2|0:0,0:0:0:0:
365,175,9279,2,0,L|368:238,1,64,2|0,0:2|0:2,0:0:0:0:
464,109,9603,6,0,L|455:249,1,128,2|2,0:2|0:2,0:0:0:0:
450,323,10090,2,0,P|390:345|324:310,1,128,2|0,0:2|0:0,0:0:0:0:
269,268,10576,1,2,0:2:0:0:
189,356,10739,1,2,0:2:0:0:
140,218,10901,1,2,0:2:0:0:
47,314,11063,6,0,B|32:273|32:273|58:155,1,143.999995605469,6|2,3:2|3:2,0:0:0:0:
124,97,11549,2,0,L|107:19,1,71.9999978027344,2|0,0:2|0:0,0:0:0:0:
226,78,11874,2,0,L|210:148,1,71.9999978027344,2|2,0:2|3:2,0:0:0:0:
262,253,12198,5,2,0:2:0:0:
262,253,12279,1,0,0:0:0:0:
262,253,12360,2,0,P|304:263|349:247,1,71.9999978027344,0|2,0:0|0:2,0:0:0:0:
367,103,12684,2,0,P|337:134|328:181,1,71.9999978027344,2|0,3:2|0:2,0:0:0:0:
452,260,13009,2,0,P|439:218|403:187,2,71.9999978027344,2|2|2,3:2|0:2|3:2,0:0:0:0:
342,358,13495,6,0,L|432:344,1,71.9999978027344,2|0,0:2|3:2,0:0:0:0:
241,269,13820,2,0,L|312:280,1,71.9999978027344,2|0,0:2|3:0,0:0:0:0:
152,363,14144,1,2,0:2:0:0:
152,363,14225,1,0,0:0:0:0:
152,363,14306,2,0,L|223:351,1,71.9999978027344,2|2,3:2|0:2,0:0:0:0:
241,269,14630,1,2,3:2:0:0:
81,221,14793,6,0,L|71:317,1,71.9999978027344,2|0,0:2|3:0,0:0:0:0:
157,142,15117,2,0,L|167:238,1,71.9999978027344,2|0,0:2|3:2,0:0:0:0:
29,75,15441,2,0,B|91:66|91:66|111:69|111:69|204:54,1,143.999995605469,2|2,0:2|0:2,0:0:0:0:
244,9,15928,1,0,3:0:0:0:
298,127,16090,1,2,0:2:0:0:
298,127,16171,1,0,0:0:0:0:
298,127,16252,5,4,3:2:0:0:
380,48,16414,1,2,0:2:0:0:
437,189,16576,1,2,3:2:0:0:
390,73,16739,1,2,0:2:0:0:
445,209,16901,2,0,L|480:294,1,71.9999978027344,2|0,3:2|0:0,0:0:0:0:
342,340,17225,1,2,3:2:0:0:
342,340,17387,6,0,L|429:334,1,71.9999978027344,2|0,0:2|3:2,0:0:0:0:
270,298,17712,2,0,L|321:227,1,71.9999978027344,2|0,0:2|3:2,0:0:0:0:
196,331,18036,2,0,B|178:273|178:273|181:251|181:251|158:167,1,143.999995605469,2|2,0:2|0:2,0:0:0:0:
66,120,18522,5,2,3:2:0:0:
148,48,18684,2,0,L|228:48,1,71.9999978027344,2|0,0:2|3:2,0:0:0:0:
66,120,19009,1,2,0:2:0:0:
169,28,19171,1,2,3:2:0:0:
169,28,19333,2,0,L|241:28,1,71.9999978027344,2|0,0:2|3:2,0:0:0:0:
137,202,19657,6,0,B|179:209|179:209|248:193|248:193|304:202,1,143.999995605469,2|2,0:2|0:2,0:0:0:0:
348,260,20144,2,0,P|339:305|356:349,1,71.9999978027344,2|2,3:2|0:2,0:0:0:0:
440,286,20468,2,0,P|449:241|432:197,1,71.9999978027344,2|2,3:2|0:2,0:0:0:0:
375,102,20793,5,8,3:3:0:0:
352,234,20955,1,8,3:3:0:0:
230,64,21117,1,4,3:3:0:0:
254,209,21279,1,4,3:3:0:0:
393,82,21441,6,0,B|430:33|496:63|514:90|524:168|433:261,1,287.999991210938,2|2,3:2|0:0,0:0:0:0:
382,304,22576,6,0,L|324:297,1,47.9999985351563,2|0,0:0|3:0,0:0:0:0:
261,266,22901,1,2,0:0:0:0:
261,266,23063,1,2,0:0:0:0:
184,295,23225,1,2,0:0:0:0:
112,266,23387,6,0,B|123:181|123:181|131:167|131:167|146:56,1,191.999994140625,2|2,0:0|3:2,0:0:0:0:
211,25,24198,1,2,0:0:0:0:
290,77,24360,1,2,0:0:0:0:
380,45,24522,1,2,0:0:0:0:
454,99,24684,1,2,0:0:0:0:
454,99,24847,6,0,B|437:125|437:125|443:209,1,95.9999970703126,2|2,0:0|0:0,0:0:0:0:
445,294,25333,2,0,L|336:278,1,95.9999970703126,0|2,3:2|0:0,0:0:0:0:
278,196,25820,1,2,0:0:0:0:
278,196,25982,2,0,L|387:180,1,95.9999970703126,0|2,3:2|0:0,0:0:0:0:
414,114,26468,1,2,0:0:0:0:
290,34,26630,6,0,L|285:113,1,71.9999978027344,6|0,3:2|0:0,0:0:0:0:
186,105,26955,1,2,3:2:0:0:
186,105,27117,2,0,L|181:33,1,71.9999978027344,2|0,0:2|3:2,0:0:0:0:
79,36,27441,2,0,L|74:115,1,71.9999978027344,2|0,0:2|3:2,0:0:0:0:
105,212,27766,6,0,P|71:196|29:190,1,71.9999978027344,2|0,0:2|3:2,0:0:0:0:
188,204,28090,2,0,P|178:167|156:131,1,71.9999978027344,2|0,0:2|3:2,0:0:0:0:
251,254,28414,2,0,P|272:223|285:182,1,71.9999978027344,2|0,0:2|3:2,0:0:0:0:
341,306,28739,1,2,0:2:0:0:
400,206,28901,1,2,3:2:0:0:
426,348,29063,1,2,0:2:0:0:
394,177,29225,5,2,3:2:0:0:
251,254,29387,2,0,L|236:162,1,71.9999978027344,2|0,0:2|3:2,0:0:0:0:
371,199,29712,1,2,0:2:0:0:
228,276,29874,2,0,L|213:184,1,71.9999978027344,2|0,3:2|0:2,0:0:0:0:
271,86,30198,1,2,3:2:0:0:
125,148,30360,6,0,L|110:232,1,71.9999978027344,2|0,0:2|3:2,0:0:0:0:
296,75,30684,1,2,0:2:0:0:
150,137,30846,2,0,L|135:221,1,71.9999978027344,2|0,3:2|0:2,0:0:0:0:
32,83,31171,2,0,L|47:167,1,71.9999978027344,2|0,3:2|0:2,0:0:0:0:
133,236,31495,1,2,3:2:0:0:
42,346,31657,1,0,0:2:0:0:
153,213,31820,5,2,3:2:0:0:
42,346,31982,2,0,L|128:357,1,71.9999978027344,2|0,0:2|0:0,0:0:0:0:
180,192,32306,1,2,0:2:0:0:
305,324,32468,2,0,L|219:335,1,71.9999978027344,2|0,3:2|0:0,0:0:0:0:
369,192,32793,1,2,3:2:0:0:
391,314,32955,1,2,0:2:0:0:
498,253,33117,5,0,3:2:0:0:
364,162,33279,1,2,0:2:0:0:
391,314,33441,1,2,3:2:0:0:
359,136,33603,1,2,0:2:0:0:
396,341,33765,1,10,3:2:0:0:
275,265,34252,6,0,B|191:276|191:276|176:273|176:273|89:283,1,176.000005371094,6|0,3:2|3:2,0:0:0:0:
23,217,34739,2,0,B|14:196|14:196|23:115,1,88.000002685547,8|0,0:2|0:2,0:0:0:0:
134,70,35063,1,2,3:2:0:0:
219,158,35225,1,0,0:0:0:0:
117,52,35387,1,8,0:2:0:0:
267,20,35549,6,0,B|348:32|348:32|366:25|366:25|456:35,1,176.000005371094,2|2,3:2|3:2,0:0:0:0:
508,155,36036,1,10,0:2:0:0:
468,40,36198,1,2,0:2:0:0:
444,218,36360,2,0,B|426:345|426:345|448:288,1,176.000005371094,2|8,3:2|0:2,0:0:0:0:
319,252,36847,1,2,3:2:0:0:
319,252,37009,6,0,L|224:261,1,88.000002685547,2|2,0:2|3:2,0:0:0:0:
172,341,37333,1,10,0:2:0:0:
78,213,37495,2,0,B|73:237|73:237|91:311,1,88.000002685547,2|0,0:2|3:2,0:0:0:0:
96,123,37820,2,0,B|101:99|101:99|83:25,1,88.000002685547,2|8,3:2|0:2,0:0:0:0:
173,156,38144,6,0,P|242:198|328:150,1,176.000005371094,2|2,3:2|3:2,0:0:0:0:
433,47,38630,2,0,B|411:21|411:21|412:54|412:54|417:179,1,176.000005371094,10|0,0:2|3:2,0:0:0:0:
491,292,39117,1,0,3:2:0:0:
418,193,39279,1,10,0:2:0:0:
395,332,39441,6,0,B|344:346|344:346|254:332|254:332|203:345,1,176.000005371094,6|0,3:2|3:2,0:0:0:0:
127,230,39928,1,8,0:2:0:0:
223,340,40090,1,0,0:2:0:0:
52,313,40252,2,0,B|55:258|55:258|52:252|52:252|55:195|55:195|57:193|57:193|61:126,1,176.000005371094,2|10,3:2|0:2,0:0:0:0:
121,46,40739,6,0,P|184:102|279:73,1,176.000005371094,2|2,3:2|3:2,0:0:0:0:
334,27,41225,1,10,0:2:0:0:
396,119,41387,1,0,0:2:0:0:
509,97,41549,2,0,L|392:117,1,88.000002685547,0|2,3:2|3:2,0:0:0:0:
368,210,41874,2,0,L|455:196,1,88.000002685547,10|0,0:2|0:0,0:0:0:0:
296,128,42198,5,2,0:0:0:0:
229,239,42360,1,2,3:2:0:0:
308,107,42522,1,10,0:2:0:0:
215,261,42684,2,0,L|223:366,1,88.000002685547,2|0,0:2|0:0,0:0:0:0:
126,359,43009,2,0,B|120:279|120:279|111:260|111:260|106:171,1,176.000005371094,2|2,3:2|3:2,0:0:0:0:
24,137,43495,5,12,0:2:0:0:
24,137,43657,1,0,3:2:0:0:
137,84,43820,1,12,0:2:0:0:
137,84,43982,1,0,3:2:0:0:
254,153,44144,5,0,3:2:0:0:
247,4,44306,1,8,0:2:0:0:
255,185,44468,1,8,0:2:0:0:
346,60,44630,6,0,P|404:31|503:79,1,176.000005371094,6|0,3:2|3:2,0:0:0:0:
446,232,45117,1,8,0:2:0:0:
512,102,45279,1,0,0:2:0:0:
435,255,45441,2,0,B|399:276|399:276|256:255,1,176.000005371094,2|10,3:2|0:2,0:0:0:0:
140,118,45928,6,0,P|209:80|249:168,1,176.000005371094,2|2,3:2|3:2,0:0:0:0:
175,263,46414,1,10,0:2:0:0:
140,118,46576,1,2,0:2:0:0:
183,292,46739,2,0,B|223:322|272:299|262:289|314:266|359:298,1,176.000005371094,2|8,3:2|0:2,0:0:0:0:
451,351,47225,1,2,3:2:0:0:
469,181,47387,5,2,0:2:0:0:
350,293,47549,1,2,3:2:0:0:
490,161,47712,1,10,0:2:0:0:
392,103,47874,2,0,L|291:120,1,88.000002685547,2|0,0:2|3:2,0:0:0:0:
209,214,48198,2,0,L|310:197,1,88.000002685547,2|8,3:2|0:2,0:0:0:0:
239,55,48522,6,0,B|151:49|151:49|137:54|137:54|49:48,1,176.000005371094,2|2,3:2|3:2,0:0:0:0:
48,187,49009,2,0,L|141:171,1,88.000002685547,10|0,0:2|0:0,0:0:0:0:
239,55,49333,1,0,3:2:0:0:
217,231,49495,1,2,3:2:0:0:
134,172,49657,1,10,0:2:0:0:
168,356,49820,6,0,B|214:341|214:341|274:360,1,88.000002685547,6|0,3:2|0:0,0:0:0:0:
340,305,50144,2,0,B|420:338|420:338|524:304,1,176.000005371094,2|2,3:2|0:2,0:0:0:0:
475,142,50630,2,0,L|491:242,2,88.000002685547,2|0|10,3:2|0:0|0:2,0:0:0:0:
472,35,51117,6,0,B|388:47|388:47|379:55|379:55|267:73,1,176.000005371094,2|2,3:2|3:2,0:0:0:0:
224,182,51603,1,10,0:2:0:0:
272,74,51766,1,0,0:2:0:0:
135,55,51928,2,0,L|143:155,1,88.000002685547,0|2,3:2|3:2,0:0:0:0:
51,109,52252,2,0,B|48:189|48:189|40:203|40:203|37:290,1,176.000005371094,10|2,0:2|0:2,0:0:0:0:
166,359,52739,5,2,3:2:0:0:
37,279,52901,1,10,0:2:0:0:
179,225,53063,1,2,0:2:0:0:
164,384,53225,1,2,3:2:0:0:
181,197,53387,2,0,L|188:101,2,88.000002685547,2|8|2,3:2|0:0|3:2,0:0:0:0:
315,304,53874,5,12,0:2:0:0:
179,225,54036,1,2,3:2:0:0:
305,209,54198,1,12,0:2:0:0:
235,345,54360,1,2,3:2:0:0:
386,342,54522,5,8,0:2:0:0:
403,341,54603,1,8,0:2:0:0:
420,340,54684,1,8,0:2:0:0:
437,339,54766,1,8,0:2:0:0:
454,338,54847,1,8,0:2:0:0:
471,337,54928,1,8,0:0:0:0:
485,336,55009,6,0,B|498:292|498:292|460:185|460:185|478:135|478:135,1,191.999994140625,4|0,3:2|3:2,0:0:0:0:
397,73,55495,2,0,L|499:76,1,95.9999970703126,12|2,0:2|0:1,0:0:0:0:
382,164,55820,2,0,L|280:161,1,95.9999970703126,0|2,3:2|0:1,0:0:0:0:
207,104,56144,1,8,0:2:0:0:
146,258,56306,6,0,B|197:289|252:262|236:256|290:230|364:269,1,191.999994140625,2|2,0:1|0:1,0:0:0:0:
427,336,56793,2,0,L|412:235,1,95.9999970703126,8|2,0:2|0:1,0:0:0:0:
512,181,57117,2,0,L|497:275,1,95.9999970703126,0|2,3:2|0:1,0:0:0:0:
396,171,57441,1,8,0:2:0:0:
345,316,57603,6,0,P|245:334|193:250,1,191.999994140625,2|2,0:1|0:1,0:0:0:0:
161,179,58090,1,8,0:2:0:0:
126,317,58252,1,2,0:1:0:0:
31,206,58414,2,0,L|54:314,1,95.9999970703126,0|2,3:2|0:1,0:0:0:0:
27,174,58739,1,8,0:2:0:0:
115,114,58901,6,0,P|161:97|215:121,1,95.9999970703126,2|0,0:1|3:0,0:0:0:0:
338,173,59225,1,2,0:1:0:0:
338,173,59387,2,0,P|292:190|238:166,1,95.9999970703126,8|2,0:2|0:1,0:0:0:0:
290,27,59712,1,0,3:2:0:0:
256,149,59874,1,2,3:1:0:0:
297,4,60036,1,8,0:2:0:0:
249,175,60198,6,0,B|260:254|260:254|268:267|268:267|279:365,1,191.999994140625,4|0,3:2|3:2,0:0:0:0:
54,322,60684,2,0,P|107:336|153:306,1,95.9999970703126,12|2,0:2|0:1,0:0:0:0:
138,218,61009,2,0,P|85:204|39:234,1,95.9999970703126,0|2,3:2|0:1,0:0:0:0:
160,296,61333,1,8,0:2:0:0:
256,214,61495,6,0,B|305:187|305:187|451:216,1,191.999994140625,2|2,0:1|0:1,0:0:0:0:
494,363,61982,2,0,L|511:263,1,95.9999970703126,8|2,0:2|0:1,0:0:0:0:
454,118,62306,2,0,L|437:218,2,95.9999970703126,0|2|8,3:2|0:1|0:2,0:0:0:0:
387,44,62793,6,0,P|294:14|211:73,1,191.999994140625,2|2,0:1|0:1,0:0:0:0:
142,146,63279,1,8,0:2:0:0:
26,124,63441,1,2,0:1:0:0:
170,152,63603,2,0,L|296:172,2,95.9999970703126,0|2|8,3:2|0:1|0:2,0:0:0:0:
82,58,64090,5,2,0:1:0:0:
190,77,64252,2,0,L|306:96,1,95.9999970703126,0|2,3:0|0:1,0:0:0:0:
426,137,64576,2,0,L|312:157,1,95.9999970703126,8|2,0:2|0:1,0:0:0:0:
279,228,64901,1,0,3:2:0:0:
329,349,65063,1,2,3:1:0:0:
271,207,65225,1,8,0:2:0:0:
214,365,65387,6,0,B|117:353|117:353|122:351|122:351|19:337,1,191.999994140625,4|0,3:2|3:2,0:0:0:0:
9,207,65874,1,12,0:2:0:0:
91,261,66036,1,2,0:1:0:0:
193,133,66198,2,0,L|175:245,1,95.9999970703126,0|2,3:2|0:1,0:0:0:0:
197,105,66522,1,8,0:2:0:0:
83,41,66684,6,0,B|162:22|162:22|198:30|198:30|288:10,1,191.999994140625,2|2,0:1|0:1,0:0:0:0:
318,97,67171,2,0,B|329:122|329:122|321:227,1,95.9999970703126,8|2,0:2|0:1,0:0:0:0:
419,266,67495,2,0,B|408:241|408:241|413:172,1,95.9999970703126,0|2,3:2|0:1,0:0:0:0:
497,106,67820,1,8,0:2:0:0:
371,33,67982,5,2,0:1:0:0:
371,33,68144,2,0,P|317:46|268:16,1,95.9999970703126,0|2,3:0|0:1,0:0:0:0:
129,87,68468,2,0,P|173:70|218:84,1,95.9999970703126,8|2,0:2|0:1,0:0:0:0:
305,196,68793,1,0,3:2:0:0:
182,216,68955,1,2,0:1:0:0:
341,190,69117,1,8,0:2:0:0:
271,315,69279,5,2,0:1:0:0:
149,220,69441,2,0,L|37:235,1,95.9999970703126,0|2,3:0|0:1,0:0:0:0:
172,129,69766,2,0,L|60:144,1,95.9999970703126,8|2,0:2|0:1,0:0:0:0:
149,44,70090,1,0,3:2:0:0:
256,123,70252,1,2,3:1:0:0:
329,71,70414,1,8,0:2:0:0:
427,158,70576,6,0,B|411:243|411:243|399:254|399:254|379:366,1,191.999994140625,4|0,3:2|3:2,0:0:0:0:
298,308,71063,2,0,P|250:295|196:319,1,95.9999970703126,12|2,0:2|0:1,0:0:0:0:
53,346,71387,2,0,P|101:359|155:335,1,95.9999970703126,0|2,3:2|0:1,0:0:0:0:
210,228,71712,1,8,0:2:0:0:
89,169,71874,6,0,B|174:163|174:163|199:147|199:147|306:143,1,191.999994140625,2|2,0:1|0:1,0:0:0:0:
338,201,72360,1,8,0:2:0:0:
389,80,72522,1,2,0:1:0:0:
329,227,72684,2,0,L|331:336,1,95.9999970703126,0|2,3:2|0:1,0:0:0:0:
225,210,73009,1,8,0:2:0:0:
170,320,73171,6,0,B|130:294|85:316|101:322|45:348|11:321|11:321|29:328|58:318,1,191.999994140625,2|2,0:1|0:1,0:0:0:0:
102,235,73657,2,0,P|120:186|94:128,1,95.9999970703126,8|2,0:2|0:1,0:0:0:0:
24,58,73982,1,0,3:2:0:0:
4,175,74144,1,2,0:1:0:0:
29,32,74306,1,8,0:2:0:0:
103,136,74468,5,2,0:1:0:0:
131,10,74630,2,0,L|239:20,1,95.9999970703126,0|2,3:0|0:1,0:0:0:0:
347,99,74955,2,0,L|239:109,1,95.9999970703126,8|2,0:2|0:1,0:0:0:0:
401,33,75279,5,0,3:2:0:0:
414,176,75441,1,8,3:2:0:0:
251,107,75603,1,8,3:2:0:0:
264,250,75765,1,4,3:2:0:0:
48,284,85657,5,8,0:0:0:0:
35,142,85820,1,8,3:3:0:0:
44,256,85982,1,4,3:3:0:0:
136,189,86144,1,0,3:2:0:0:
124,328,86306,6,0,B|167:308|167:308|283:329,1,151.999995941162,6|10,3:2|0:2,0:0:0:0:
334,220,86793,2,0,L|360:323,1,75.9999979705811,2|0,0:2|3:2,0:0:0:0:
451,160,87117,1,2,0:2:0:0:
433,246,87279,1,10,0:2:0:0:
353,135,87441,6,0,L|265:152,1,75.9999979705811,2|0,0:2|3:2,0:0:0:0:
157,72,87766,2,0,L|245:89,1,75.9999979705811,2|8,0:2|0:2,0:0:0:0:
158,173,88090,2,0,B|48:194|48:194|98:173,1,151.999995941162,2|0,0:2|0:2,0:0:0:0:
134,313,88576,1,8,0:2:0:0:
158,173,88739,1,2,0:2:0:0:
217,272,88901,6,0,L|310:275,2,75.9999979705811,0|2|10,3:2|0:2|0:2,0:0:0:0:
155,145,89387,2,0,B|112:127|112:127|78:144|78:144|0:144,2,151.999995941162,2|2|2,0:2|0:2|0:2,0:0:0:0:
246,99,90198,5,0,3:0:0:0:
246,99,90360,1,0,0:2:0:0:
332,168,90522,1,8,0:2:0:0:
332,168,90684,1,0,0:2:0:0:
425,116,90847,1,0,3:2:0:0:
425,116,91009,1,2,0:2:0:0:
505,185,91171,2,0,L|500:278,1,75.9999979705811,10|2,0:2|0:2,0:0:0:0:
388,361,91495,6,0,B|393:292|393:292|403:276|403:276|409:189,1,151.999995941162,6|10,3:2|0:2,0:0:0:0:
251,207,91982,2,0,L|349:183,1,75.9999979705811,2|0,0:2|3:2,0:0:0:0:
195,283,92306,2,0,L|268:301,1,75.9999979705811,2|8,0:2|0:2,0:0:0:0:
93,223,92630,6,0,L|253:181,2,151.999995941162,2|2|2,0:2|0:2|0:2,0:0:0:0:
8,95,93441,1,0,3:2:0:0:
25,176,93603,1,0,0:2:0:0:
127,23,93766,1,8,0:2:0:0:
110,104,93928,1,2,0:2:0:0:
261,164,94090,6,0,P|209:151|134:209,1,151.999995941162,2|10,3:2|0:2,0:0:0:0:
193,311,94576,2,0,L|297:325,1,75.9999979705811,2|0,0:2|3:2,0:0:0:0:
386,261,94901,2,0,L|282:247,1,75.9999979705811,2|8,0:2|0:2,0:0:0:0:
423,347,95225,1,2,0:2:0:0:
480,258,95387,5,0,3:0:0:0:
480,258,95549,1,0,0:2:0:0:
427,170,95712,1,8,0:2:0:0:
427,170,95874,1,2,0:2:0:0:
479,77,96036,5,2,3:2:0:0:
427,170,96198,1,2,0:2:0:0:
330,126,96360,1,10,0:2:0:0:
253,199,96522,6,0,P|212:226|117:189,1,151.999995941162,2|2,0:2|0:2,0:0:0:0:
196,54,97009,1,8,0:2:0:0:
196,54,97171,2,0,L|189:140,1,75.9999979705811,2|0,0:2|3:2,0:0:0:0:
283,196,97495,1,0,0:2:0:0:
344,144,97657,1,10,0:2:0:0:
403,232,97820,6,0,L|396:318,1,75.9999979705811,2|0,0:2|0:0,0:0:0:0:
283,196,98144,1,2,0:2:0:0:
283,196,98306,2,0,L|276:271,1,75.9999979705811,10|2,0:2|0:2,0:0:0:0:
175,342,98630,2,0,B|170:276|170:276|176:259|176:259|170:182,1,151.999995941162,2|8,3:2|0:2,0:0:0:0:
88,92,99117,1,2,0:2:0:0:
230,44,99279,6,0,L|149:30,2,75.9999979705811,2|2|10,3:2|0:2|0:2,0:0:0:0:
280,120,99766,2,0,P|331:131|367:111,1,75.9999979705811,2|0,0:2|3:2,0:0:0:0:
493,84,100090,2,0,P|442:73|406:93,1,75.9999979705811,2|8,0:2|0:2,0:0:0:0:
372,217,100414,1,2,0:2:0:0:
372,217,100576,6,0,P|407:244|499:180,1,151.999995941162,0|10,3:0|0:2,0:0:0:0:
385,60,101063,2,0,L|373:167,1,75.9999979705811,2|0,0:2|3:2,0:0:0:0:
284,107,101387,2,0,L|292:182,1,75.9999979705811,2|8,0:2|0:2,0:0:0:0:
200,151,101712,1,2,0:2:0:0:
200,151,101874,6,0,B|192:216|192:216|183:230|183:230|172:315,1,151.999995941162,4|8,3:2|0:2,0:0:0:0:
108,335,102360,1,0,0:0:0:0:
254,257,102522,2,0,L|351:272,2,75.9999979705811,2|2|10,3:2|0:2|0:2,0:0:0:0:
122,186,103009,2,0,L|25:201,1,75.9999979705811,2|0,0:2|3:2,0:0:0:0:
154,84,103333,6,0,P|230:66|285:133,1,151.999995941162,2|0,0:2|0:2,0:0:0:0:
303,190,103820,1,2,3:2:0:0:
368,93,103982,1,2,0:2:0:0:
288,216,104144,1,8,0:2:0:0:
388,303,104306,6,0,L|489:283,1,75.9999979705811,2|0,0:2|0:0,0:0:0:0:
388,209,104630,1,2,0:2:0:0:
304,319,104793,1,10,0:2:0:0:
190,280,104955,2,0,B|153:269|153:269|64:281|64:281|29:268,1,151.999995941162,2|2,0:2|0:2,0:0:0:0:
24,166,105441,1,10,0:2:0:0:
24,166,105603,6,0,L|129:151,1,75.9999979705811,2|0,0:2|0:0,0:0:0:0:
128,58,105928,2,0,L|52:47,2,75.9999979705811,2|10|2,0:2|0:2|0:2,0:0:0:0:
206,147,106414,1,0,3:2:0:0:
242,75,106576,1,2,0:2:0:0:
172,216,106739,1,8,0:2:0:0:
314,163,106901,6,0,B|363:146|363:146|483:171,1,151.999995941162,2|2,0:2|0:2,0:0:0:0:
488,248,107306,1,2,0:2:0:0:
488,248,107387,2,0,L|485:330,1,75.9999979705811,10|2,0:2|0:2,0:0:0:0:
371,229,107712,2,0,L|374:311,2,75.9999979705811,2|2|10,3:2|0:2|0:2,0:0:0:0:
301,327,108198,6,0,P|245:359|153:330,1,151.999995941162,2|2,0:2|0:2,0:0:0:0:
103,225,108684,2,0,L|100:307,1,75.9999979705811,10|0,0:2|0:2,0:0:0:0:
188,259,109009,2,0,B|190:191|190:191|184:182|184:182|185:76,1,151.999995941162,2|8,3:2|0:2,0:0:0:0:
63,51,109495,1,2,0:2:0:0:
63,51,109657,6,0,P|54:96|66:127,1,75.9999979705811,2|2,3:2|0:2,0:0:0:0:
159,177,109982,1,10,0:2:0:0:
39,210,110144,2,0,B|45:275|45:275|42:290|42:290|49:370,1,151.999995941162,2|2,0:2|0:2,0:0:0:0:
163,264,110630,1,8,0:0:0:0:
163,264,110793,6,0,P|218:299|309:255,1,151.999995941162,2|2,0:2|0:2,0:0:0:0:
363,169,111279,1,10,0:2:0:0:
363,169,111441,2,0,L|354:71,2,75.9999979705811,2|0|2,0:2|0:0|0:2,0:0:0:0:
433,231,111928,1,8,0:2:0:0:
354,331,112090,6,0,B|320:353|320:353|190:329,1,151.999995941162,2|2,0:2|0:2,0:0:0:0:
156,268,112495,1,0,0:2:0:0:
156,268,112576,2,0,P|145:222|162:177,1,75.9999979705811,10|2,0:2|0:2,0:0:0:0:
226,91,112901,2,0,P|237:137|220:182,2,75.9999979705811,2|2|10,3:2|0:2|0:2,0:0:0:0:
96,55,113387,6,0,B|92:125|92:125|97:144|97:144|92:222,1,151.999995941162,2|2,0:2|0:2,0:0:0:0:
39,274,113874,2,0,P|29:323|53:367,1,75.9999979705811,10|0,0:2|0:2,0:0:0:0:
144,291,114198,2,0,P|195:261|297:312,1,151.999995941162,2|8,3:2|0:2,0:0:0:0:
341,350,114684,1,2,0:2:0:0:
462,226,114847,6,0,L|456:316,1,75.9999979705811,2|0,3:2|0:0,0:0:0:0:
366,179,115171,1,10,0:2:0:0:
366,179,115252,1,0,0:0:0:0:
366,179,115333,2,0,L|372:269,1,75.9999979705811,2|0,0:2|3:2,0:0:0:0:
468,135,115657,2,0,L|462:225,2,75.9999979705811,2|10|2,0:2|0:2|0:2,0:0:0:0:
391,47,116144,6,0,P|346:32|302:53,1,75.9999979705811,0|2,3:2|0:2,0:0:0:0:
223,95,116468,2,0,P|186:101|151:87,1,75.9999979705811,10|2,0:2|0:2,0:0:0:0:
14,31,116793,1,8,3:2:0:0:
14,31,116874,1,8,0:2:0:0:
14,31,116955,2,0,L|19:81,1,37.9999989852906,8|8,0:2|0:0,0:0:0:0:
84,126,117117,1,8,3:3:0:0:
84,126,117198,1,8,3:3:0:0:
84,126,117279,2,0,L|80:163,1,37.9999989852906,8|0,3:3|3:2,0:0:0:0:
53,244,117441,5,4,3:2:0:0:
53,244,117603,2,0,P|115:268|169:233,2,111.999996582031
223,83,118739,5,8,0:2:0:0:
223,83,118901,2,0,B|217:123|217:123|230:164|230:164|226:213,2,111.999996582031,8|0|0,0:2|0:0|0:0,0:0:0:0:
348,49,119874,5,2,3:2:0:0:
348,49,119955,1,0,3:0:0:0:
348,49,120036,2,0,L|331:161,2,111.999996582031,10|2|2,0:0|0:0|0:0,0:0:0:0:
420,212,120847,2,0,L|407:132,1,55.9999982910157,2|2,0:0|0:0,0:0:0:0:
425,242,121171,1,2,0:0:0:0:
260,202,121333,5,8,0:0:0:0:
240,334,121495,2,0,L|252:262,2,55.9999982910157,10|0|2,0:0|0:0|0:0,0:0:0:0:
126,254,121982,5,8,0:0:0:0:
237,360,122144,1,10,0:0:0:0:
371,312,122306,1,12,3:2:0:0:
54,154,122630,6,0,L|136:137,1,71.9999978027344,6|0,3:2|0:0,0:0:0:0:
101,220,122955,2,0,L|183:203,1,71.9999978027344,8|0,0:2|0:2,0:0:0:0:
149,285,123279,2,0,L|231:268,1,71.9999978027344,0|0,3:2|0:2,0:0:0:0:
272,157,123603,1,10,0:2:0:0:
315,288,123766,1,2,0:2:0:0:
480,171,123928,6,0,L|409:156,1,71.9999978027344,0|0,3:2|0:2,0:0:0:0:
433,237,124253,2,0,L|362:222,1,71.9999978027344,8|0,0:2|0:2,0:0:0:0:
385,302,124577,2,0,L|314:287,2,71.9999978027344,0|2|10,3:2|0:2|0:2,0:0:0:0:
247,182,125063,1,2,0:2:0:0:
178,261,125225,5,2,3:2:0:0:
247,182,125387,2,0,L|240:90,1,71.9999978027344,2|8,0:2|0:2,0:0:0:0:
178,261,125712,1,2,0:2:0:0:
264,166,125874,2,0,L|257:74,1,71.9999978027344,2|0,3:2|0:2,0:0:0:0:
303,242,126198,5,10,0:2:0:0:
177,177,126360,2,0,L|170:79,1,71.9999978027344,2|0,0:2|3:2,0:0:0:0:
303,242,126684,1,2,0:2:0:0:
153,166,126846,2,0,L|146:68,1,71.9999978027344,10|0,0:2|0:2,0:0:0:0:
272,6,127171,1,2,3:2:0:0:
369,133,127333,2,0,L|376:35,1,71.9999978027344,0|10,0:2|3:2,3:0:0:0:
236,205,127657,1,0,0:0:0:0:
372,286,127820,6,0,P|415:300|455:279,1,80,0|0,3:0|3:0,0:0:0:0:
219,191,128144,2,0,P|176:177|136:198,1,80,8|0,2:2|3:0,0:0:0:0:
189,287,128468,2,0,L|296:289,1,80,0|0,3:0|3:0,0:0:0:0:
82,137,128793,2,0,L|-25:135,1,80,8|0,0:0|3:0,0:0:0:0:
44,228,129117,5,8,3:0:0:0:
125,61,129279,1,8,3:0:0:0:
190,199,129441,1,8,0:0:0:0:
115,40,129603,1,8,0:0:0:0:
201,222,129766,1,10,3:2:0:0:
361,42,130414,6,0,B|350:91|350:91|370:183|370:183|356:236,1,191.999994140625,6|8,3:2|0:2,0:0:0:0:
328,330,130901,1,0,0:2:0:0:
211,245,131063,1,0,3:0:0:0:
351,347,131225,1,0,3:2:0:0:
188,228,131387,1,10,0:2:0:0:
105,319,131549,6,0,B|122:278|104:233|104:233|111:222|111:222|84:173|113:118,1,191.999994140625,2|0,3:2|3:2,0:0:0:0:
284,74,132036,1,8,0:2:0:0:
136,66,132198,1,0,0:2:0:0:
312,76,132360,2,0,L|429:83,2,95.9999970703126,2|2|10,3:2|3:2|0:2,0:0:0:0:
136,66,132847,6,0,P|63:60|28:162,1,191.999994140625,2|0,3:2|3:2,0:0:0:0:
60,249,133333,2,0,B|71:284|71:284|55:343,1,95.9999970703126,8|0,0:2|0:2,0:0:0:0:
53,224,133657,1,0,3:2:0:0:
160,300,133820,1,2,3:2:0:0:
257,217,133982,1,10,0:2:0:0:
139,317,134144,6,0,B|223:340|223:340|245:337|245:337|347:360,1,191.999994140625,2|0,3:2|3:2,0:0:0:0:
469,268,134630,1,10,0:2:0:0:
469,268,134793,2,0,L|456:367,1,95.9999970703126,2|2,0:2|3:2,0:0:0:0:
371,177,135117,2,0,L|384:276,1,95.9999970703126,2|10,3:2|0:2,0:0:0:0:
289,98,135441,6,0,B|275:174|275:174|265:191|265:191|250:288,1,191.999994140625,6|2,3:2|3:2,0:0:0:0:
108,335,135928,2,0,P|182:354|217:321,1,95.9999970703126,10|2,0:2|0:2,0:0:0:0:
162,209,136252,2,0,B|62:225,2,95.9999970703126,2|2|10,3:2|3:2|0:2,0:0:0:0:
223,69,136739,2,0,P|275:26|362:123,1,191.999994140625,2|2,3:2|3:2,0:0:0:0:
287,161,137225,1,10,0:2:0:0:
223,69,137387,1,2,0:2:0:0:
92,138,137549,2,0,L|193:150,2,95.9999970703126,2|2|10,3:2|3:2|0:2,0:0:0:0:
31,27,138036,6,0,B|16:105|16:105|17:123|17:123|-5:242,1,191.999994140625,2|2,3:2|3:2,0:0:0:0:
80,275,138522,1,10,0:2:0:0:
187,149,138684,1,2,0:2:0:0:
187,149,138847,2,0,P|230:113|357:164,1,191.999994140625,2|10,3:2|0:2,0:0:0:0:
395,220,139333,5,2,3:2:0:0:
499,83,139495,1,12,0:2:0:0:
469,262,139657,1,2,3:2:0:0:
382,141,139820,1,14,0:2:0:0:
412,320,139982,1,2,3:2:0:0:
392,126,140144,5,2,3:2:0:0:
294,258,140306,1,10,0:2:0:0:
403,113,140468,1,10,0:2:0:0:
412,320,140630,6,0,B|370:349|318:320|327:304|263:272|203:329,1,191.999994140625,6|0,3:2|3:2,0:0:0:0:
110,223,141117,1,12,0:2:0:0:
153,356,141279,1,0,0:2:0:0:
288,213,141441,2,0,L|186:220,1,95.9999970703126,0|0,3:2|3:2,0:0:0:0:
77,117,141766,1,10,0:2:0:0:
192,219,141928,6,0,L|384:207,1,191.999994140625,2|0,3:2|3:2,0:0:0:0:
438,20,142414,1,8,0:2:0:0:
401,127,142576,1,0,0:2:0:0:
479,226,142739,1,0,3:2:0:0:
384,107,142901,1,0,3:2:0:0:
496,248,143063,1,10,0:2:0:0:
343,192,143225,6,0,B|263:214|263:214|254:227|254:227|148:253,1,191.999994140625,2|0,3:2|3:2,0:0:0:0:
49,143,143712,2,0,P|35:193|52:244,1,95.9999970703126,8|0,0:2|0:2,0:0:0:0:
161,341,144036,2,0,P|175:291|158:240,1,95.9999970703126,0|0,3:2|3:2,0:0:0:0:
50,144,144360,1,10,0:2:0:0:
121,69,144522,6,0,B|211:59|211:59|217:65|217:65|335:54,1,191.999994140625,2|0,3:2|3:2,0:0:0:0:
381,145,145009,1,10,0:2:0:0:
499,35,145171,2,0,P|444:25|407:48,1,95.9999970703126,0|0,0:2|3:2,0:0:0:0:
292,153,145495,2,0,P|347:163|384:140,1,95.9999970703126,2|10,3:2|0:2,0:0:0:0:
243,73,145820,6,0,B|205:54|205:54|94:79|94:79|74:115,1,191.999994140625,6|2,3:2|3:2,0:0:0:0:
13,246,146306,1,10,0:2:0:0:
65,134,146468,1,2,0:2:0:0:
91,270,146630,2,0,L|107:371,2,95.9999970703126,2|2|10,3:2|3:2|0:2,0:0:0:0:
191,180,147117,6,0,L|176:292,1,95.9999970703126,2|0,3:2|0:0,0:0:0:0:
195,149,147441,1,2,3:2:0:0:
312,242,147603,1,10,0:2:0:0:
333,94,147766,1,2,0:2:0:0:
309,268,147928,2,0,L|296:371,2,95.9999970703126,2|2|10,3:2|3:2|0:2,0:0:0:0:
341,66,148414,6,0,B|380:47|380:47|361:203,1,191.999994140625,2|2,3:2|3:2,0:0:0:0:
406,260,148901,2,0,P|471:280|505:254,1,95.9999970703126,10|2,0:2|0:2,0:0:0:0:
271,131,149225,2,0,B|218:98|168:133|188:139|121:178|76:135,1,191.999994140625,2|10,3:2|0:2,0:0:0:0:
18,103,149712,1,2,3:2:0:0:
144,222,149874,5,12,0:2:0:0:
126,76,150036,1,2,3:2:0:0:
228,240,150198,1,14,0:2:0:0:
202,29,150360,1,2,3:2:0:0:
230,253,150522,5,10,0:2:0:0:
231,266,150603,1,8,0:2:0:0:
233,280,150684,1,8,0:2:0:0:
234,294,150765,1,8,0:2:0:0:
236,308,150846,1,10,0:2:0:0:
326,189,151009,6,0,B|374:172|374:172|466:222|466:222|475:275,1,191.999994140625,4|0,3:2|3:2,0:0:0:0:
323,303,151495,2,0,P|276:322|220:290,1,95.9999970703126,8|2,0:2|0:1,0:0:0:0:
123,242,151820,2,0,P|78:227|120:312,1,191.999994140625,0|8,3:2|0:2,0:0:0:0:
206,226,152306,6,0,B|217:142|217:142|211:119|211:119|222:21,1,191.999994140625,2|2,0:1|0:1,0:0:0:0:
387,99,152793,1,8,0:2:0:0:
220,36,152955,1,2,0:1:0:0:
171,137,153117,1,0,3:2:0:0:
358,104,153279,1,2,0:1:0:0:
145,143,153441,1,8,0:2:0:0:
279,237,153603,6,0,L|248:114,1,95.9999970703126,2|0,0:1|3:0,0:0:0:0:
183,245,153928,1,2,0:1:0:0:
301,312,154090,1,8,0:2:0:0:
250,117,154252,1,2,0:1:0:0:
169,267,154414,2,0,P|110:285|69:259,1,95.9999970703126,0|2,3:2|0:1,0:0:0:0:
23,174,154739,2,0,P|82:156|123:182,1,95.9999970703126,8|2,0:2|0:1,0:0:0:0:
169,267,154982,1,0,0:0:0:0:
169,267,155063,6,0,L|161:367,1,95.9999970703126,0|2,3:0|0:1,0:0:0:0:
255,143,155387,2,0,L|263:243,1,95.9999970703126,8|2,0:2|0:1,0:0:0:0:
252,108,155712,1,0,3:2:0:0:
369,188,155874,1,2,3:1:0:0:
451,84,156036,1,8,0:2:0:0:
446,241,156198,5,4,3:2:0:0:
446,241,156279,1,0,0:0:0:0:
446,241,156360,2,0,L|441:323,3,47.9999985351563,0|0|0|0,0:0|0:0|3:2|0:2,0:0:0:0:
367,357,156684,2,0,L|362:275,3,47.9999985351563,12|0|2|0,0:2|0:2|0:1|0:0,0:0:0:0:
281,240,157009,6,0,L|276:322,3,47.9999985351563,0|0|2|0,3:2|0:2|0:1|0:2,0:0:0:0:
202,356,157333,2,0,L|197:274,3,47.9999985351563,8|0|2|0,0:2|0:2|0:1|0:2,0:0:0:0:
132,250,157657,6,0,P|75:236|32:264,1,95.9999970703126,0|2,3:2|0:1,0:0:0:0:
202,356,157982,2,0,P|259:370|302:342,1,95.9999970703126,8|0,0:2|0:0,0:0:0:0:
291,225,158306,6,0,L|280:167,3,47.9999985351563,0|0|2|0,3:2|3:2|3:1|3:2,0:0:0:0:
190,255,158630,1,8,0:0:0:0:
161,280,158711,1,8,0:2:0:0:
123,286,158792,1,10,0:0:0:0:
86,272,158873,1,8,0:2:0:0:
65,240,158955,6,0,L|80:145,1,95.9999970703126,12|0,0:2|3:2,0:0:0:0:
190,60,159279,2,0,P|242:46|283:78,1,95.9999970703126,12|0,0:2|3:2,0:0:0:0:
348,183,159603,5,12,0:2:0:0:
386,50,159766,1,0,3:2:0:0:
486,255,159928,1,12,0:2:0:0:
448,122,160091,1,0,3:2:0:0:
365,270,160252,6,0,L|372:330,3,47.9999985351563,8|8|8|8,0:2|3:3|3:3|3:3,0:0:0:0:
259,251,160576,2,0,L|266:191,3,47.9999985351563,0|0|0|0,3:2|3:2|3:2|3:2,0:0:0:0:
189,323,160901,5,0,3:2:0:0:
170,326,160982,1,0,3:2:0:0:
151,330,161063,1,0,3:2:0:0:
132,334,161144,1,0,3:2:0:0:
113,338,161225,1,0,3:2:0:0:
10,220,161387,6,0,B|91:196|91:196|102:184|102:184|212:151,1,191.999994140625,4|0,3:2|3:2,0:0:0:0:
245,35,161874,1,12,0:0:0:0:
341,135,162036,2,0,P|286:191|178:133,1,191.999994140625,2|2,0:1|0:1,0:0:0:0:
245,35,162522,2,0,B|332:51|332:51|352:47|352:47|472:67,1,191.999994140625,8|0,0:0|3:0,0:0:0:0:
484,212,163009,6,0,P|467:155|485:111,1,95.9999970703126,2|8,0:1|0:0,0:0:0:0:
381,277,163333,2,0,L|492:291,1,95.9999970703126,2|0,0:1|3:0,0:0:0:0:
355,194,163657,2,0,L|244:180,1,95.9999970703126,2|8,0:1|0:0,0:0:0:0:
165,249,163982,1,2,0:1:0:0:
188,117,164144,5,2,3:2:0:0:
188,117,164225,1,2,0:2:0:0:
188,117,164306,2,0,L|195:62,2,47.9999985351563,2|0|8,0:2|0:0|0:0,0:0:0:0:
165,249,164630,1,2,0:1:0:0:
165,249,164712,1,0,0:1:0:0:
165,249,164793,6,0,L|276:232,1,95.9999970703126,2|2,3:2|0:2,0:0:0:0:
385,126,165117,2,0,L|274:143,1,95.9999970703126,8|2,0:0|0:1,0:0:0:0:
365,305,165441,6,0,L|380:199,1,95.9999970703126,0|2,3:0|0:1,0:0:0:0:
403,46,165766,1,8,0:0:0:0:
484,190,165928,1,2,0:1:0:0:
388,20,166090,1,0,3:0:0:0:
263,126,166252,1,2,3:1:0:0:
455,182,166414,1,8,0:0:0:0:
233,116,166576,6,0,B|146:132|146:132|120:124|120:124|36:139,1,191.999994140625,4|0,3:2|3:0,0:0:0:0:
20,246,167063,2,0,L|30:360,1,95.9999970703126,12|2,0:0|0:1,0:0:0:0:
149,234,167387,2,0,L|139:348,1,95.9999970703126,0|2,3:0|0:1,0:0:0:0:
152,204,167712,1,8,0:0:0:0:
249,334,167874,6,0,B|334:338|334:338|350:333|350:333|441:334,1,191.999994140625,2|2,0:1|0:1,0:0:0:0:
373,172,168360,2,0,P|356:238|383:276,1,95.9999970703126,8|2,0:0|0:1,0:0:0:0:
500,135,168684,2,0,P|513:180|493:223,1,95.9999970703126,0|2,3:0|0:1,0:0:0:0:
388,150,169009,1,8,0:0:0:0:
461,54,169171,1,2,0:1:0:0:
373,172,169333,5,2,3:2:0:0:
262,105,169495,1,2,0:2:0:0:
262,105,169576,1,0,0:0:0:0:
262,105,169657,1,8,0:0:0:0:
195,166,169820,1,2,0:1:0:0:
42,43,169982,2,0,B|47:157,1,95.9999970703126,0|2,3:0|0:1,0:0:0:0:
49,178,170225,1,0,0:0:0:0:
49,178,170306,1,8,3:2:0:0:
128,229,170468,1,6,3:2:0:0:
81,367,170630,6,0,L|78:307,3,47.9999985351563,0|0|0|0,3:0|3:0|3:0|3:0,0:0:0:0:
205,321,170955,2,0,L|210:258,3,47.9999985351563,2|0|0|0,3:2|3:0|3:0|3:0,0:0:0:0:
223,165,171279,5,2,3:2:0:0:
372,251,171441,1,2,3:2:0:0:
289,256,171603,1,10,2:2:0:0:
411,141,171766,1,14,3:2:0:0:
