osu file format v14

[General]
AudioFilename: audio.mp3
AudioLeadIn: 0
PreviewTime: 129847
Countdown: 0
SampleSet: Soft
StackLeniency: 0.4
Mode: 0
LetterboxInBreaks: 0
WidescreenStoryboard: 1

[Editor]
DistanceSpacing: 1.2
BeatDivisor: 4
GridSize: 16
TimelineZoom: 1.7

[Metadata]
Title:Kimi no Yozora Shoukaihan
TitleUnicode:キミノヨゾラ哨戒班
Artist:mary
ArtistUnicode:めありー
Creator:KeyWee
Version:Hard
Source:
Tags:orangestar cover Utaite Night Sky Patrol Of Tomorrow 歌い手 rock japanese vocaloid ia Asu j-rock jrock livermorium MikanseiP りする Risru 初音ミク Hatsune Miku
BeatmapID:2909379
BeatmapSetID:1409421

[Difficulty]
HPDrainRate:4.5
CircleSize:3.5
OverallDifficulty:6.5
ApproachRate:8
SliderMultiplier:1.4
SliderTickRate:1

[Events]
//Background and Video events
0,0,"mikumiku.png",0,0
//Break Periods
2,21641,25880
2,75966,84907
//Storyboard Layer 0 (Background)
//Storyboard Layer 1 (Fail)
//Storyboard Layer 2 (Pass)
//Storyboard Layer 3 (Foreground)
//Storyboard Layer 4 (Overlay)
//Storyboard Sound Samples

[TimingPoints]
685,324.324324324324,4,2,1,55,1,0
685,-105.263157894737,4,2,1,55,0,0
11063,-100,4,2,1,70,0,0
26630,-100,4,2,1,75,0,0
34252,-90.9090909090909,4,2,1,90,0,1
55009,-90.9090909090909,4,2,1,90,0,0
75766,-90.9090909090909,4,2,1,90,0,0
85820,-111.111111111111,4,2,1,65,0,0
86306,-100,4,2,1,70,0,0
117441,-111.111111111111,4,2,1,60,0,0
122630,-105.263157894737,4,2,1,75,0,0
130414,-90.9090909090909,4,2,1,90,0,1
151009,-90.9090909090909,4,2,1,90,0,0
156198,-90.9090909090909,4,2,1,90,0,1
161387,-90.9090909090909,4,2,1,90,0,0
171766,-90.9090909090909,4,2,1,90,0,0

[Colours]
Combo1 : 3,9,233
Combo2 : 10,184,241
Combo3 : 232,28,191
Combo4 : 183,33,220

[HitObjects]
118,77,522,5,2,0:0:0:0:
118,77,685,2,0,L|257:92,1,132.999996448517,2|2,0:2|0:2,0:0:0:0:
315,34,1171,2,0,B|375:39|375:39|390:46|390:46|451:53,2,132.999996448517,2|2|2,0:2|0:2|0:2,0:0:0:0:
201,153,2144,2,0,P|171:208|204:291,1,132.999996448517,2|2,0:2|0:2,0:0:0:0:
248,335,2630,2,0,L|314:327,2,66.4999982242585,2|2|2,0:2|0:2|0:2,0:0:0:0:
187,273,3117,6,0,B|122:281|122:281|115:287|115:287|27:298,2,132.999996448517,2|2|2,0:2|0:2|0:2,0:0:0:0:
234,200,3928,1,2,0:2:0:0:
234,200,4090,1,2,0:2:0:0:
177,135,4252,1,2,0:2:0:0:
177,135,4414,2,0,B|119:142|119:142|112:148|112:148|47:156,2,132.999996448517,2|2|2,0:2|0:2|0:2,0:0:0:0:
230,66,5225,1,2,0:2:0:0:
298,118,5387,2,0,L|394:106,1,66.4999982242585,2|0,0:2|0:0,0:0:0:0:
440,68,5712,6,0,B|463:97|450:137|450:137|454:142|454:142|438:186|463:217,1,132.999996448517,2|2,0:2|0:2,0:0:0:0:
421,275,6198,1,2,0:2:0:0:
421,275,6360,2,0,L|346:291,1,66.4999982242585,2|0,0:2|0:2,0:0:0:0:
298,353,6684,2,0,L|232:339,1,66.4999982242585,2|0,0:2|0:2,0:0:0:0:
173,275,7009,2,0,B|166:236|166:236|186:181|186:181|178:126,1,132.999996448517,2|2,0:2|0:2,0:0:0:0:
51,80,7657,1,2,0:2:0:0:
51,80,7820,2,0,L|42:11,2,66.4999982242585,2|2|2,0:2|0:2|0:2,0:0:0:0:
113,139,8306,6,0,B|181:129|181:129|190:131|190:131|256:123|255:120,1,132.999996448517,2|2,0:2|0:2,0:0:0:0:
308,64,8793,1,2,0:2:0:0:
308,64,8955,2,0,B|297:65|370:55|370:55|380:59|380:59|443:50,2,132.999996448517,2|2|2,0:2|0:2|0:2,0:0:0:0:
248,170,9928,1,2,0:2:0:0:
248,170,10090,1,2,0:2:0:0:
325,273,10576,5,2,0:2:0:0:
387,329,10738,1,2,0:2:0:0:
406,245,10901,1,2,0:2:0:0:
325,273,11063,6,0,B|286:285|286:285|220:275|220:275|168:288,1,140,6|2,3:2|3:2,0:0:0:0:
115,306,11549,1,2,0:2:0:0:
19,205,11874,2,0,L|109:182,1,70,2|2,0:2|3:2,0:0:0:0:
140,133,12198,2,0,B|204:147|204:147|205:150|205:150|278:167,1,140,2|2,0:2|0:2,0:0:0:0:
414,98,12847,1,0,0:2:0:0:
414,98,13009,2,0,L|420:21,2,70,2|2|2,3:2|0:2|3:2,0:0:0:0:
461,158,13495,6,0,B|442:187|442:187|437:300,1,140,2|2,0:2|0:2,0:0:0:0:
298,351,14144,1,2,0:2:0:0:
252,288,14306,2,0,L|260:195,2,70,2|2|2,3:2|0:2|3:2,0:0:0:0:
184,326,14793,2,0,P|119:350|57:303,1,140,2|2,0:2|0:2,0:0:0:0:
21,182,15441,2,0,B|41:149|28:117|28:117|32:116|32:116|13:77|38:39,2,140,2|2|2,0:2|0:2|0:2,0:0:0:0:
75,236,16252,6,0,L|155:231,1,70,4|2,3:2|0:2,0:0:0:0:
202,180,16576,1,2,3:2:0:0:
274,219,16739,1,2,0:2:0:0:
274,219,16901,2,0,B|351:214|351:214|359:209|359:209|431:205,1,140,2|2,3:2|3:2,0:0:0:0:
473,159,17387,2,0,P|496:92|453:24,2,140,2|2|2,0:2|0:2|0:2,0:0:0:0:
353,99,18360,5,2,0:2:0:0:
353,99,18522,2,0,L|346:26,1,70,2|2,3:2|0:2,0:0:0:0:
249,150,19009,1,2,0:2:0:0:
249,150,19171,2,0,L|242:77,1,70,2|2,3:2|0:2,0:0:0:0:
148,202,19657,6,0,B|152:264|152:264|147:281|147:281|153:367,1,140,2|2,0:2|0:2,0:0:0:0:
224,372,20144,1,2,3:2:0:0:
295,339,20306,1,2,0:2:0:0:
295,339,20468,2,0,L|287:240,1,70,2|2,3:2|0:2,0:0:0:0:
333,205,20793,2,0,L|344:110,2,70,8|8|4,3:3|3:3|3:3,0:0:0:0:
396,257,21279,1,4,3:3:0:0:
396,257,21441,1,2,3:2:0:0:
352,64,26630,6,0,P|294:38|214:77,1,140,6|2,3:2|3:2,0:0:0:0:
159,116,27117,2,0,P|95:141|32:115,2,140,2|2|2,0:2|0:2|0:2,0:0:0:0:
237,29,28090,2,0,B|308:39|308:39|318:35|318:35|398:46,2,140,2|2|2,0:2|0:2|0:2,0:0:0:0:
165,71,28901,1,2,3:2:0:0:
165,71,29063,1,2,0:2:0:0:
217,143,29225,5,2,3:2:0:0:
217,143,29387,2,0,L|210:233,1,70,2|0,0:2|3:2,0:0:0:0:
147,266,29712,1,2,0:2:0:0:
147,266,29874,2,0,L|154:356,1,70,2|0,3:2|0:2,0:0:0:0:
231,376,30198,5,2,3:2:0:0:
231,376,30360,2,0,L|314:368,1,70,2|0,0:2|3:2,0:0:0:0:
321,291,30684,1,2,0:2:0:0:
321,291,30846,2,0,L|238:283,1,70,2|0,3:2|0:2,0:0:0:0:
218,205,31171,1,2,3:2:0:0:
218,205,31333,5,0,0:2:0:0:
275,134,31495,1,2,3:2:0:0:
218,63,31657,1,0,0:2:0:0:
286,1,31820,5,2,3:2:0:0:
286,1,31982,1,2,0:2:0:0:
384,117,32306,1,2,0:2:0:0:
384,117,32468,1,2,3:2:0:0:
505,20,32793,1,2,3:2:0:0:
505,20,32955,1,2,0:2:0:0:
505,20,33117,6,0,L|499:103,1,70,0|2,3:2|0:2,0:0:0:0:
444,162,33441,1,2,3:2:0:0:
489,240,33603,1,2,0:2:0:0:
435,314,33766,1,10,3:2:0:0:
435,314,34252,6,0,B|399:334|350:312|359:308|316:284|262:326,1,154.000004699707,6|0,3:2|3:2,0:0:0:0:
192,348,34739,2,0,L|101:330,1,77.0000023498536,8|0,0:2|0:2,0:0:0:0:
84,243,35063,1,2,3:2:0:0:
84,243,35225,2,0,L|102:152,1,77.0000023498536,0|8,0:0|0:2,0:0:0:0:
168,95,35549,6,0,B|202:86|202:86|287:105|287:105|353:89,1,154.000004699707,2|2,3:2|3:2,0:0:0:0:
415,121,36036,1,10,0:2:0:0:
386,219,36198,1,2,0:2:0:0:
386,219,36360,2,0,B|407:261|407:261|392:376,1,154.000004699707,2|8,3:2|0:2,0:0:0:0:
315,311,36847,1,2,3:2:0:0:
315,311,37009,6,0,P|222:333|168:306,1,154.000004699707,2|10,0:2|0:2,0:0:0:0:
101,239,37495,2,0,B|81:203|96:171|96:171|91:165|91:165|109:121|86:79,1,154.000004699707,2|2,0:2|3:2,0:0:0:0:
184,48,37982,1,8,0:2:0:0:
184,48,38144,2,0,B|212:83|212:83|185:199,1,154.000004699707,2|2,3:2|3:2,0:0:0:0:
252,264,38630,2,0,P|345:242|399:269,1,154.000004699707,10|0,0:2|3:2,0:0:0:0:
479,318,39117,1,0,3:2:0:0:
499,223,39279,1,10,0:2:0:0:
499,223,39441,1,6,3:2:0:0:
426,96,39766,5,0,3:2:0:0:
346,48,39928,1,8,0:2:0:0:
284,114,40090,1,0,0:2:0:0:
284,114,40252,2,0,B|246:133|246:133|158:120|158:120|110:139,1,154.000004699707,2|10,3:2|0:2,0:0:0:0:
57,176,40739,6,0,L|70:257,1,77.0000023498536,2|0,3:2|0:0,0:0:0:0:
145,303,41063,1,2,3:2:0:0:
145,303,41225,2,0,B|186:284|235:301|228:308|265:327|316:298,1,154.000004699707,10|0,0:2|3:2,0:0:0:0:
356,237,41712,1,2,3:2:0:0:
356,237,41874,2,0,L|343:160,1,77.0000023498536,10|0,0:2|0:0,0:0:0:0:
263,114,42198,6,0,L|276:37,2,77.0000023498536,2|2|10,0:0|3:2|0:2,0:0:0:0:
247,205,42684,2,0,B|240:252|240:252|264:320|264:320|254:374,2,154.000004699707,2|2|2,0:2|3:2|3:2,0:0:0:0:
263,114,43495,5,12,0:2:0:0:
263,114,43657,1,0,3:2:0:0:
200,52,43820,1,12,0:2:0:0:
200,52,43982,1,0,3:2:0:0:
120,99,44144,2,0,L|27:88,2,77.0000023498536,0|8|8,3:2|0:2|0:2,0:0:0:0:
149,186,44630,6,0,B|234:196|234:196|237:193|237:193|331:203,1,154.000004699707,6|0,3:2|3:2,0:0:0:0:
383,157,45117,2,0,L|388:59,1,77.0000023498536,8|0,0:2|0:2,0:0:0:0:
471,44,45441,1,2,3:2:0:0:
471,44,45603,2,0,L|466:142,1,77.0000023498536,0|10,0:0|0:2,0:0:0:0:
467,213,45928,6,0,B|442:235|386:216|391:209|339:188|305:219,1,154.000004699707,2|2,3:2|3:2,0:0:0:0:
234,249,46414,1,10,0:2:0:0:
234,249,46576,2,0,L|233:340,1,77.0000023498536,2|2,0:2|3:2,0:0:0:0:
151,370,46901,1,0,0:0:0:0:
151,370,47063,1,8,0:2:0:0:
70,325,47225,1,2,3:2:0:0:
70,325,47387,6,0,B|70:250|70:250|75:236|75:236|76:156,1,154.000004699707,2|10,0:2|0:2,0:0:0:0:
122,91,47874,2,0,B|166:60|206:92|196:103|236:116|283:93,1,154.000004699707,2|2,0:2|3:2,0:0:0:0:
350,58,48360,1,8,0:2:0:0:
350,58,48522,6,0,P|429:28|503:71,1,154.000004699707,2|2,3:2|3:2,0:0:0:0:
466,144,49009,2,0,B|450:183|450:183|464:300,1,154.000004699707,10|0,0:2|3:2,0:0:0:0:
390,350,49495,1,2,3:2:0:0:
307,308,49657,1,10,0:2:0:0:
307,308,49820,6,0,B|324:266|324:266|307:146,1,154.000004699707,6|2,3:2|3:2,0:0:0:0:
225,118,50306,1,8,0:2:0:0:
144,162,50468,1,2,0:2:0:0:
144,162,50630,2,0,P|95:140|3:183,1,154.000004699707,2|10,3:2|0:2,0:0:0:0:
7,269,51117,6,0,L|20:364,1,77.0000023498536,2|0,3:2|0:0,0:0:0:0:
107,315,51441,1,2,3:2:0:0:
107,315,51603,2,0,P|156:337|248:294,1,154.000004699707,10|0,0:2|3:2,0:0:0:0:
290,220,52090,1,2,3:2:0:0:
290,220,52252,2,0,L|279:143,1,77.0000023498536,10|0,0:2|3:2,0:0:0:0:
360,99,52576,6,0,L|370:22,2,77.0000023498536,2|2|10,0:2|3:2|0:2,0:0:0:0:
403,181,53063,1,2,0:2:0:0:
496,161,53225,1,2,3:2:0:0:
496,161,53387,2,0,B|486:226|486:226|491:238|491:238|478:323,1,154.000004699707,2|2,3:2|3:2,0:0:0:0:
393,340,53874,5,12,0:2:0:0:
393,340,54036,1,2,3:2:0:0:
322,289,54198,1,12,0:2:0:0:
322,289,54360,1,2,3:2:0:0:
235,322,54522,2,0,L|235:363,2,38.5000011749268,8|8|8,0:2|0:2|0:2,0:0:0:0:
162,260,54847,1,8,0:2:0:0:
162,260,55009,6,0,B|183:221|183:221|184:83,1,154.000004699707,4|0,3:2|3:2,0:0:0:0:
112,52,55495,2,0,L|22:51,2,77.0000023498536,12|2|0,0:2|0:1|3:2,0:0:0:0:
198,17,55982,1,2,0:1:0:0:
258,94,56144,1,8,0:2:0:0:
258,94,56306,6,0,B|321:96|321:96|335:105|335:105|441:109,1,154.000004699707,2|2,0:1|0:1,0:0:0:0:
475,173,56793,1,8,0:2:0:0:
418,245,56955,1,2,0:1:0:0:
418,245,57117,2,0,L|433:353,2,77.0000023498536,0|2|8,3:2|0:1|0:2,0:0:0:0:
349,183,57603,6,0,P|296:152|201:190,1,154.000004699707,2|2,0:1|0:1,0:0:0:0:
140,236,58090,1,8,0:2:0:0:
140,236,58252,2,0,L|59:223,2,77.0000023498536,2|0|2,0:1|3:2|0:1,0:0:0:0:
188,315,58739,1,8,0:2:0:0:
188,315,58901,6,0,B|263:328|263:328|277:325|277:325|374:343,1,154.000004699707,2|2,0:1|0:1,0:0:0:0:
409,276,59387,1,8,0:2:0:0:
409,276,59549,1,2,0:1:0:0:
353,201,59712,2,0,L|371:93,2,77.0000023498536,0|2|8,3:2|3:1|0:2,0:0:0:0:
271,244,60198,6,0,P|190:262|135:210,1,154.000004699707,4|0,3:2|3:2,0:0:0:0:
87,144,60684,1,12,0:2:0:0:
142,69,60847,1,2,0:1:0:0:
142,69,61009,2,0,L|235:79,1,77.0000023498536,0|2,3:2|0:1,0:0:0:0:
286,139,61333,1,8,0:2:0:0:
286,139,61495,6,0,B|298:172|298:172|284:264|284:264|301:311,1,154.000004699707,2|2,0:1|0:1,0:0:0:0:
368,342,61982,2,0,P|418:354|463:323,2,77.0000023498536,8|2|0,0:2|0:1|3:2,0:0:0:0:
292,288,62468,2,0,P|242:276|197:307,1,77.0000023498536,2|8,0:1|0:2,0:0:0:0:
133,318,62793,6,0,B|118:281|118:281|133:199|133:199|120:146,1,154.000004699707,2|2,0:1|0:1,0:0:0:0:
80,88,63279,1,8,0:2:0:0:
139,17,63441,1,2,0:1:0:0:
210,75,63603,2,0,L|319:68,2,77.0000023498536,0|2|8,3:2|0:1|0:2,0:0:0:0:
157,151,64090,6,0,P|132:212|180:300,1,154.000004699707,2|2,0:1|0:1,0:0:0:0:
239,343,64576,1,8,0:2:0:0:
323,300,64739,1,2,0:1:0:0:
323,300,64901,2,0,L|324:217,2,77.0000023498536,0|2|8,3:2|3:1|0:2,0:0:0:0:
399,352,65387,6,0,B|422:323|422:323|424:233|424:233|449:191,1,154.000004699707,4|0,3:2|3:2,0:0:0:0:
502,143,65874,1,12,0:2:0:0:
502,143,66036,2,0,P|435:112|358:154,1,154.000004699707,2|2,0:1|0:1,0:0:0:0:
297,204,66522,1,8,0:2:0:0:
297,204,66684,2,0,P|230:236|149:189,1,154.000004699707,2|2,0:1|0:1,0:0:0:0:
228,142,67171,2,0,L|225:60,2,77.0000023498536,8|2|0,0:2|0:1|3:2,0:0:0:0:
161,206,67657,1,2,0:1:0:0:
85,161,67820,1,8,0:2:0:0:
85,161,67982,6,0,B|69:194|69:194|73:289|73:289|47:331,1,154.000004699707,2|2,0:1|0:1,0:0:0:0:
131,368,68468,2,0,P|186:378|219:358,1,77.0000023498536,8|2,0:2|0:1,0:0:0:0:
274,309,68793,1,0,3:2:0:0:
274,309,68955,1,2,0:1:0:0:
237,229,69117,1,8,0:2:0:0:
237,229,69279,6,0,B|278:205|328:226|319:235|367:260|411:221,1,154.000004699707,2|2,0:1|0:1,0:0:0:0:
429,154,69766,2,0,L|422:76,2,77.0000023498536,8|2|0,0:2|0:1|3:2,0:0:0:0:
493,227,70252,1,2,3:1:0:0:
493,227,70414,2,0,L|499:303,1,77.0000023498536,8|4,0:2|3:2,0:0:0:0:
325,203,70901,5,0,3:2:0:0:
325,203,71063,2,0,L|241:209,1,77.0000023498536,12|2,0:2|0:1,0:0:0:0:
192,134,71387,2,0,L|188:45,2,77.0000023498536,0|2|8,3:2|0:1|0:2,0:0:0:0:
136,213,71874,6,0,B|141:284|141:284|136:288|136:288|142:379,1,154.000004699707,2|2,0:1|0:1,0:0:0:0:
220,317,72360,2,0,P|266:306|303:322,1,77.0000023498536,8|2,0:2|0:1,0:0:0:0:
376,354,72684,1,0,3:2:0:0:
376,354,72847,1,2,0:1:0:0:
462,321,73009,1,8,0:2:0:0:
462,321,73171,6,0,B|446:279|446:279|461:167,1,154.000004699707,2|2,0:1|0:1,0:0:0:0:
423,86,73657,2,0,P|371:77|334:93,1,77.0000023498536,8|2,0:2|0:1,0:0:0:0:
265,124,73982,2,0,P|227:131|190:121,1,77.0000023498536,0|2,3:2|0:1,0:0:0:0:
144,43,74306,1,8,0:2:0:0:
144,43,74468,6,0,P|102:87|129:181,1,154.000004699707,2|2,0:1|0:1,0:0:0:0:
167,241,74955,2,0,L|155:325,2,77.0000023498536,8|2|0,0:2|0:1|3:2,0:0:0:0:
255,191,75441,1,8,3:2:0:0:
255,191,75603,1,8,3:2:0:0:
324,258,75766,1,4,3:2:0:0:
356,295,85657,5,8,0:0:0:0:
356,295,85820,2,0,L|351:369,2,62.9999980773926,8|4|0,3:3|3:3|3:2,0:0:0:0:
413,244,86306,6,0,B|415:185|415:185|422:171|422:171|425:99,1,140,6|10,3:2|0:2,0:0:0:0:
368,52,86793,2,0,L|298:35,1,70,2|0,0:2|3:2,0:0:0:0:
236,79,87117,1,2,0:2:0:0:
287,143,87279,1,10,0:2:0:0:
287,143,87441,2,0,P|314:205|277:295,1,140,2|2,0:2|0:2,0:0:0:0:
243,329,87928,1,8,0:2:0:0:
177,285,88090,1,2,0:2:0:0:
177,285,88252,2,0,L|91:296,2,70,0|0|8,3:0|0:2|0:2,0:0:0:0:
243,329,88739,1,2,0:2:0:0:
325,316,88901,6,0,L|395:303,2,70,0|2|10,3:2|0:2|0:2,0:0:0:0:
303,234,89387,2,0,B|237:220|237:220|228:211|228:211|153:194,1,140,2|2,0:2|0:2,0:0:0:0:
91,81,90036,1,2,0:2:0:0:
91,81,90198,2,0,P|148:114|232:83,1,140,0|8,3:0|0:2,0:0:0:0:
267,39,90684,2,0,P|337:13|399:45,1,140,0|2,0:2|0:2,0:0:0:0:
453,86,91171,1,10,0:2:0:0:
430,161,91333,1,2,0:2:0:0:
430,161,91495,6,0,L|431:240,1,70,6|0,3:2|0:0,0:0:0:0:
387,294,91820,1,10,0:2:0:0:
387,294,91982,2,0,P|328:323|256:300,1,140,2|2,0:2|0:2,0:0:0:0:
139,213,92630,2,0,B|150:182|137:147|137:147|142:147|142:147|124:98|151:61,1,140,2|2,0:2|0:2,0:0:0:0:
203,36,93117,1,8,0:0:0:0:
263,83,93279,2,0,B|327:76|327:76|332:69|332:69|418:60,1,140,2|0,0:2|0:2,0:0:0:0:
459,110,93766,1,8,0:2:0:0:
447,189,93928,1,2,0:2:0:0:
447,189,94090,6,0,P|400:218|302:192,1,140,2|10,3:2|0:2,0:0:0:0:
252,168,94576,2,0,P|179:149|117:183,1,140,2|2,0:2|0:2,0:0:0:0:
67,228,95063,2,0,L|80:318,1,70,8|2,0:2|0:2,0:0:0:0:
139,360,95387,1,0,3:0:0:0:
139,360,95549,1,0,0:2:0:0:
215,319,95712,1,8,0:2:0:0:
215,319,95874,1,2,0:2:0:0:
279,360,96036,2,0,L|367:361,2,70,2|2|10,3:2|0:2|0:2,0:0:0:0:
215,319,96522,6,0,P|189:250|233:170,1,140,2|2,0:2|0:2,0:0:0:0:
348,121,97171,2,0,B|359:149|359:149|339:234|339:234|353:284,1,140,2|0,0:2|0:2,0:0:0:0:
302,319,97657,1,10,0:2:0:0:
224,324,97820,2,0,P|156:354|85:302,1,140,2|2,0:2|0:2,0:0:0:0:
32,291,98306,1,10,0:2:0:0:
53,219,98468,1,2,0:2:0:0:
53,219,98630,2,0,L|36:122,2,70,2|0|8,3:2|0:2|0:2,0:0:0:0:
127,253,99117,1,2,0:2:0:0:
127,253,99279,6,0,B|159:260|159:260|235:239|235:239|284:247,1,140,2|10,3:2|0:2,0:0:0:0:
334,214,99766,1,2,0:2:0:0:
309,77,100090,1,2,0:2:0:0:
309,77,100252,1,8,0:2:0:0:
244,119,100414,2,0,B|217:131|217:131|121:119|121:119|90:129,1,140,2|0,0:2|0:2,0:0:0:0:
36,143,100901,1,10,0:2:0:0:
36,143,101063,2,0,L|39:222,1,70,2|0,0:2|3:2,0:0:0:0:
101,257,101387,2,0,L|94:329,2,70,2|8|2,0:2|0:2|0:2,0:0:0:0:
148,195,101874,6,0,B|191:170|230:196|216:203|267:221|303:190,1,140,4|8,3:2|0:2,0:0:0:0:
348,161,102360,1,0,0:0:0:0:
348,161,102522,2,0,L|352:83,2,70,2|2|10,3:2|0:2|0:2,0:0:0:0:
421,184,103009,2,0,B|417:249|417:249|422:262|422:262|416:356,1,140,2|2,0:2|0:2,0:0:0:0:
355,365,103495,1,8,0:2:0:0:
355,365,103657,1,0,0:2:0:0:
284,332,103820,2,0,L|205:337,1,70,2|2,3:2|0:2,0:0:0:0:
169,207,104306,6,0,B|155:169|169:134|169:134|165:129|165:129|182:89|153:50,1,140,2|2,0:2|0:2,0:0:0:0:
103,26,104793,1,10,0:2:0:0:
34,60,104955,2,0,L|41:149,1,70,2|2,0:2|3:2,0:0:0:0:
81,194,105279,2,0,L|88:284,1,70,2|10,0:2|0:2,0:0:0:0:
45,329,105603,2,0,P|100:303|187:326,1,140,2|2,0:2|0:2,0:0:0:0:
258,350,106090,1,10,0:2:0:0:
258,350,106252,2,0,P|298:359|356:341,1,70,2|0,0:2|3:2,0:0:0:0:
400,316,106576,1,2,0:2:0:0:
484,345,106739,1,8,0:2:0:0:
484,345,106901,5,2,0:2:0:0:
428,186,107225,2,0,L|436:133,2,35,2|2|10,0:2|0:2|0:2,0:0:0:0:
354,217,107549,1,2,0:2:0:0:
292,160,107712,2,0,L|303:68,2,70,2|2|10,3:2|0:2|0:2,0:0:0:0:
225,207,108198,2,0,P|162:235|80:188,1,140,2|2,0:2|0:2,0:0:0:0:
39,161,108684,2,0,L|49:72,1,70,10|0,0:2|0:2,0:0:0:0:
97,32,109009,2,0,B|127:26|127:26|207:55|207:55|262:44,1,140,2|8,3:2|0:2,0:0:0:0:
310,69,109495,1,2,0:2:0:0:
310,69,109657,6,0,L|403:42,2,70,2|2|10,3:2|0:2|0:2,0:0:0:0:
276,138,110144,2,0,B|290:173|290:173|271:253|271:253|282:297,1,140,2|2,0:2|0:2,0:0:0:0:
234,338,110630,1,8,0:0:0:0:
234,338,110793,2,0,P|186:356|82:330,1,140,2|2,0:2|0:2,0:0:0:0:
31,307,111279,1,10,0:2:0:0:
68,239,111441,2,0,L|66:157,2,70,2|0|2,0:2|0:0|0:2,0:0:0:0:
140,279,111928,1,8,0:2:0:0:
140,279,112090,5,2,0:2:0:0:
235,158,112414,2,0,L|238:93,2,35,2|0|10,0:2|0:2|0:2,0:0:0:0:
304,192,112739,1,2,0:2:0:0:
373,158,112901,2,0,L|382:63,2,70,2|2|10,3:2|0:2|0:2,0:0:0:0:
435,202,113387,6,0,B|429:263|429:263|436:284|436:284|430:366,1,140,2|2,0:2|0:2,0:0:0:0:
359,367,113874,2,0,L|271:358,1,70,10|0,0:2|0:2,0:0:0:0:
249,293,114198,2,0,B|228:254|251:212|252:218|269:172|237:126,1,140,2|8,3:2|0:2,0:0:0:0:
224,89,114684,1,2,0:2:0:0:
224,89,114847,5,2,3:2:0:0:
76,121,115171,1,10,0:2:0:0:
76,121,115333,2,0,B|85:156|85:156|72:238|72:238|83:287,1,140,2|2,0:2|0:2,0:0:0:0:
116,330,115820,1,10,0:2:0:0:
116,330,115982,2,0,P|172:354|265:316,1,140,2|2,0:2|0:2,0:0:0:0:
311,292,116468,1,10,0:2:0:0:
311,292,116630,6,0,L|302:194,1,70,2|8,0:2|3:2,0:0:0:0:
230,198,116955,2,0,L|223:267,1,70,8|8,0:2|3:3,0:0:0:0:
146,312,117279,1,8,3:3:0:0:
146,312,117360,1,8,3:3:0:0:
146,312,117441,6,0,B|133:228|133:228|125:222|125:222|112:119,2,188.999994232178,4|0|0,3:2|0:0|0:0,0:0:0:0:
268,245,118739,2,0,P|334:220|432:287,2,188.999994232178,8|0|0,0:2|0:0|0:0,0:0:0:0:
146,312,120036,6,0,B|90:333|90:333|22:308,1,125.999996154785,10|2,0:0|0:0,0:0:0:0:
67,177,120684,2,0,L|-11:185,2,62.9999980773926,2|2|2,0:0|0:0|0:0,0:0:0:0:
116,106,121171,1,2,0:0:0:0:
116,106,121333,2,0,L|194:98,1,62.9999980773926,8|10,0:0|0:0,0:0:0:0:
311,182,121820,1,2,0:0:0:0:
311,182,121982,2,0,L|233:174,1,62.9999980773926,8|10,0:0|0:0,0:0:0:0:
180,224,122306,2,0,L|106:216,1,62.9999980773926,12|2,3:2|0:0,0:0:0:0:
73,291,122630,6,0,B|147:298|147:298|156:304|156:304|231:311,2,132.999996448517,6|8|0,3:2|0:2|3:2,0:0:0:0:
33,213,123441,2,0,L|41:134,1,66.4999982242585,0|10,0:2|0:2,0:0:0:0:
107,92,123766,1,2,0:2:0:0:
107,92,123928,2,0,B|181:99|181:99|190:105|190:105|265:112,2,132.999996448517,0|8|0,3:2|0:2|3:2,0:0:0:0:
40,148,124739,1,2,0:2:0:0:
91,224,124901,1,10,0:2:0:0:
91,224,125063,1,2,0:2:0:0:
43,297,125225,5,2,3:2:0:0:
43,297,125387,2,0,L|47:363,1,66.4999982242585,2|8,0:2|0:2,0:0:0:0:
138,357,125712,1,2,0:2:0:0:
138,357,125874,2,0,L|144:273,1,66.4999982242585,2|0,3:2|0:2,0:0:0:0:
232,283,126198,1,10,0:2:0:0:
232,283,126360,6,0,L|236:349,1,66.4999982242585,2|0,0:2|3:2,0:0:0:0:
326,362,126684,1,2,0:2:0:0:
326,362,126846,2,0,L|330:295,1,66.4999982242585,10|0,0:2|0:2,0:0:0:0:
391,244,127171,1,2,3:2:0:0:
391,244,127333,2,0,L|379:151,1,66.4999982242585,0|10,0:2|0:2,0:0:0:0:
319,128,127657,1,0,0:0:0:0:
365,62,127820,6,0,L|440:69,2,66.4999982242585,0|0|8,3:0|3:0|2:2,0:0:0:0:
308,14,128306,1,0,3:0:0:0:
308,14,128468,2,0,L|233:7,2,66.4999982242585,0|0|8,3:0|3:0|0:0,0:0:0:0:
365,62,128955,1,0,3:0:0:0:
328,134,129117,5,8,3:0:0:0:
328,134,129279,1,8,3:0:0:0:
377,203,129441,1,8,0:0:0:0:
377,203,129603,1,8,0:0:0:0:
339,274,129766,1,10,3:2:0:0:
84,343,130414,6,0,B|95:304|95:304|73:227|73:227|86:173,1,154.000004699707,6|8,3:2|0:2,0:0:0:0:
111,109,130901,1,0,0:2:0:0:
111,109,131063,2,0,L|87:6,2,77.0000023498536,0|0|10,3:0|3:2|0:2,0:0:0:0:
175,174,131549,6,0,B|215:200|251:191|245:176|286:162|336:182,1,154.000004699707,2|0,3:2|3:2,0:0:0:0:
404,222,132036,2,0,L|395:307,2,77.0000023498536,8|0|2,0:2|0:2|3:2,0:0:0:0:
464,152,132522,1,2,3:2:0:0:
418,71,132684,1,10,0:2:0:0:
418,71,132847,6,0,B|381:61|381:61|301:83|301:83|250:71,1,154.000004699707,2|0,3:2|3:2,0:0:0:0:
181,47,133333,1,8,0:2:0:0:
181,47,133495,2,0,L|90:67,1,77.0000023498536,0|0,0:2|3:2,0:0:0:0:
58,142,133819,1,2,3:2:0:0:
136,201,133982,1,10,0:2:0:0:
136,201,134144,6,0,B|155:241|138:287|138:287|141:284|141:284|125:327|147:367,1,154.000004699707,2|0,3:2|3:2,0:0:0:0:
230,373,134630,1,10,0:2:0:0:
230,373,134793,2,0,L|308:367,1,77.0000023498536,2|2,0:2|3:2,0:0:0:0:
398,354,135117,1,2,3:2:0:0:
348,282,135279,1,10,0:2:0:0:
348,282,135441,1,6,3:2:0:0:
259,119,135766,6,0,L|181:113,2,77.0000023498536,2|10|2,3:2|0:2|0:2,0:0:0:0:
345,86,136252,2,0,L|423:92,2,77.0000023498536,2|2|10,3:2|3:2|0:2,0:0:0:0:
290,10,136739,6,0,B|214:6|214:6|204:15|204:15|114:8,1,154.000004699707,2|2,3:2|3:2,0:0:0:0:
72,73,137225,1,10,0:2:0:0:
99,161,137387,1,2,0:2:0:0:
43,234,137549,2,0,L|35:317,2,77.0000023498536,2|2|10,3:2|3:2|0:2,0:0:0:0:
99,161,138036,6,0,P|164:132|247:182,1,154.000004699707,2|2,3:2|3:2,0:0:0:0:
301,236,138522,1,10,0:2:0:0:
301,236,138684,1,2,0:2:0:0:
384,196,138847,2,0,L|376:115,2,77.0000023498536,2|0|10,3:2|3:2|0:2,0:0:0:0:
453,265,139333,1,2,3:2:0:0:
453,265,139495,5,12,0:2:0:0:
392,334,139657,1,2,3:2:0:0:
392,334,139820,2,0,L|309:343,1,77.0000023498536,14|2,0:2|3:2,0:0:0:0:
232,302,140144,1,2,3:2:0:0:
144,330,140306,1,10,0:2:0:0:
108,244,140468,1,10,0:2:0:0:
194,210,140630,6,0,B|212:178|212:178|198:92|198:92|219:40,1,154.000004699707,6|0,3:2|3:2,0:0:0:0:
295,28,141117,2,0,P|384:5|439:66,1,154.000004699707,12|0,0:2|3:2,0:0:0:0:
475,118,141603,5,0,3:2:0:0:
420,197,141766,1,10,0:2:0:0:
420,197,141928,2,0,L|426:274,2,77.0000023498536,2|0|0,3:2|0:0|3:2,0:0:0:0:
342,146,142414,2,0,B|316:138|316:138|214:152|214:152|171:138,1,154.000004699707,8|0,0:2|3:2,0:0:0:0:
104,111,142901,1,0,3:2:0:0:
29,165,143063,1,10,0:2:0:0:
29,165,143225,6,0,B|13:212|34:243|34:243|31:244|31:244|52:276|31:321,1,154.000004699707,2|0,3:2|3:2,0:0:0:0:
122,278,143712,2,0,P|211:252|277:297,1,154.000004699707,8|0,0:2|3:2,0:0:0:0:
323,336,144198,1,0,3:2:0:0:
405,308,144360,1,10,0:2:0:0:
405,308,144522,6,0,B|412:239|412:239|419:225|419:225|427:152,1,154.000004699707,2|0,3:2|3:2,0:0:0:0:
435,71,145009,2,0,L|530:79,2,77.0000023498536,10|0|0,0:2|0:2|3:2,0:0:0:0:
368,18,145495,2,0,L|290:10,1,77.0000023498536,2|10,3:2|0:2,0:0:0:0:
222,60,145820,1,6,3:2:0:0:
140,210,146144,5,2,3:2:0:0:
140,210,146306,2,0,L|145:295,2,77.0000023498536,10|2|2,0:2|0:2|3:2,0:0:0:0:
201,151,146793,1,2,3:2:0:0:
201,151,146955,1,10,0:2:0:0:
281,177,147117,6,0,P|332:198|435:163,1,154.000004699707,2|2,3:2|3:2,0:0:0:0:
397,92,147603,2,0,L|407:15,2,77.0000023498536,10|2|2,0:2|0:2|3:2,0:0:0:0:
424,172,148090,1,2,3:2:0:0:
386,247,148252,1,10,0:2:0:0:
433,325,148414,6,0,P|373:339|300:280,1,154.000004699707,2|2,3:2|3:2,0:0:0:0:
248,211,148901,2,0,L|273:126,1,77.0000023498536,10|2,0:2|0:2,0:0:0:0:
230,53,149225,2,0,P|173:4|99:15,1,154.000004699707,2|10,3:2|0:2,0:0:0:0:
36,77,149712,5,2,3:2:0:0:
77,156,149874,1,12,0:2:0:0:
77,156,150036,1,2,3:2:0:0:
29,243,150198,1,14,0:2:0:0:
29,243,150360,1,2,3:2:0:0:
87,314,150522,2,0,L|74:371,2,38.5000011749268,10|8|8,0:2|0:2|0:2,0:0:0:0:
163,262,150847,1,10,0:2:0:0:
242,309,151009,6,0,P|322:337|401:300,1,154.000004699707,4|0,3:2|3:2,0:0:0:0:
428,233,151495,1,8,0:2:0:0:
393,152,151657,1,2,0:1:0:0:
393,152,151820,2,0,P|313:124|234:161,1,154.000004699707,0|8,3:2|0:2,0:0:0:0:
177,201,152306,6,0,P|104:223|34:195,2,154.000004699707,2|2|2,0:1|0:1|0:1,0:0:0:0:
250,146,153117,1,0,3:2:0:0:
333,184,153279,2,0,L|340:264,2,77.0000023498536,2|8|2,0:1|0:2|0:1,0:0:0:0:
399,118,153766,6,0,L|405:41,2,77.0000023498536,0|2|8,3:0|0:1|0:2,0:0:0:0:
333,184,154252,2,0,L|340:264,1,77.0000023498536,2|0,0:1|3:2,0:0:0:0:
276,328,154576,2,0,L|196:335,1,77.0000023498536,2|8,0:1|0:2,0:0:0:0:
126,276,154901,6,0,B|149:241|149:241|134:110,1,154.000004699707,2|2,0:1|0:1,0:0:0:0:
185,51,155387,1,8,0:2:0:0:
259,105,155549,1,2,0:1:0:0:
259,105,155712,2,0,P|312:77|416:106,1,154.000004699707,0|8,3:2|0:2,0:0:0:0:
480,140,156198,6,0,B|471:175|471:175|492:266|492:266|485:303,1,154.000004699707,4|0,3:2|3:2,0:0:0:0:
400,322,156684,2,0,L|412:376,2,38.5000011749268,12|0|2,0:2|0:2|0:1,0:0:0:0:
327,263,157009,1,0,3:2:0:0:
246,308,157171,1,2,0:1:0:0:
155,264,157333,2,0,L|138:188,1,77.0000023498536,8|2,0:2|0:1,0:0:0:0:
175,95,157657,5,0,3:2:0:0:
175,95,157820,1,2,0:1:0:0:
253,156,157982,2,0,L|241:210,2,38.5000011749268,8|0|0,0:2|0:0|0:0,0:0:0:0:
335,100,158306,1,0,3:2:0:0:
335,100,158468,1,2,3:1:0:0:
406,170,158630,2,0,L|422:245,1,77.0000023498536,8|10,0:2|0:1,0:0:0:0:
379,338,158955,5,12,0:2:0:0:
379,338,159117,1,0,3:2:0:0:
289,305,159279,1,12,0:2:0:0:
289,305,159441,1,0,3:2:0:0:
201,349,159603,1,12,0:2:0:0:
201,349,159765,1,0,3:2:0:0:
109,307,159928,2,0,L|111:224,1,77.0000023498536,12|0,0:2|3:2,0:0:0:0:
174,152,160252,6,0,L|266:157,2,77.0000023498536,8|8|0,0:2|3:3|3:2,0:0:0:0:
95,88,160739,1,0,3:2:0:0:
175,29,160901,2,0,L|250:31,2,38.5000011749268,0|0|0,3:2|3:2|3:2,0:0:0:0:
95,88,161225,1,0,3:2:0:0:
174,152,161387,6,0,B|194:191|178:231|178:231|183:234|183:234|165:281|191:323,1,154.000004699707,4|0,3:2|3:2,0:0:0:0:
252,368,161874,1,12,0:0:0:0:
332,308,162036,2,0,B|371:329|371:329|488:309,1,154.000004699707,2|2,0:1|0:1,0:0:0:0:
476,210,162522,2,0,B|437:189|437:189|320:209,1,154.000004699707,8|0,0:0|3:0,0:0:0:0:
236,166,163009,6,0,L|154:181,1,77.0000023498536,2|8,0:1|0:0,0:0:0:0:
87,110,163333,2,0,L|11:96,2,77.0000023498536,2|0|2,0:1|3:0|0:1,0:0:0:0:
163,45,163820,1,8,0:0:0:0:
234,114,163982,1,2,0:1:0:0:
318,60,164144,6,0,L|325:5,2,38.5000011749268,2|2|2,3:2|0:2|0:2,0:0:0:0:
376,141,164468,1,8,0:0:0:0:
323,225,164630,1,2,0:1:0:0:
359,318,164793,2,0,L|354:356,2,38.5000011749268,2|2|2,3:2|0:2|0:2,0:0:0:0:
409,231,165117,1,8,0:0:0:0:
376,141,165279,1,2,0:1:0:0:
323,225,165441,6,0,P|248:253|168:212,1,154.000004699707,0|8,3:0|0:0,0:0:0:0:
99,170,165928,1,2,0:1:0:0:
99,170,166090,2,0,L|108:82,2,77.0000023498536,0|2|8,3:0|3:1|0:0,0:0:0:0:
24,236,166576,6,0,P|78:272|176:233,1,154.000004699707,4|0,3:2|3:0,0:0:0:0:
227,176,167063,1,12,0:0:0:0:
317,217,167225,1,2,0:1:0:0:
400,161,167387,2,0,L|408:73,2,77.0000023498536,0|2|8,3:0|0:1|0:0,0:0:0:0:
476,225,167874,6,0,P|422:261|324:222,1,154.000004699707,2|2,0:1|0:1,0:0:0:0:
258,182,168360,1,8,0:0:0:0:
186,252,168522,1,2,0:1:0:0:
96,207,168684,2,0,L|33:217,2,38.5000011749268,0|0|2,3:0|0:0|0:1,0:0:0:0:
117,108,169009,1,8,0:0:0:0:
117,108,169171,6,0,L|215:92,1,77.0000023498536,2|2,0:1|3:2,0:0:0:0:
291,80,169495,2,0,L|284:41,2,38.5000011749268,2|0|8,0:2|0:0|0:0,0:0:0:0:
362,151,169820,1,2,0:1:0:0:
362,151,169982,2,0,L|452:136,2,77.0000023498536,0|2|8,3:0|0:1|0:0,0:0:0:0:
305,233,170468,6,0,B|233:244|233:244|229:242|229:242|136:256,1,154.000004699707,6|0,3:2|3:0,0:0:0:0:
77,188,170955,2,0,L|67:86,2,77.0000023498536,2|0|2,3:2|3:0|3:2,0:0:0:0:
19,269,171441,1,2,3:2:0:0:
96,331,171603,1,10,0:2:0:0:
153,254,171766,1,6,3:2:0:0:
