osu file format v14

[General]
AudioFilename: audio.mp3
AudioLeadIn: 0
PreviewTime: 129847
Countdown: 0
SampleSet: Soft
StackLeniency: 0.7
Mode: 0
LetterboxInBreaks: 0
WidescreenStoryboard: 0

[Editor]
DistanceSpacing: 0.3
BeatDivisor: 4
GridSize: 16
TimelineZoom: 1.7

[Metadata]
Title:Kimi no Yozora Shoukaihan
TitleUnicode:キミノヨゾラ哨戒班
Artist:mary
ArtistUnicode:めありー
Creator:KeyWee
Version:Expert
Source:
Tags:orangestar cover Utaite Night Sky Patrol Of Tomorrow 歌い手 rock japanese vocaloid ia Asu j-rock jrock livermorium MikanseiP りする Risru 初音ミク Hatsune Miku
BeatmapID:2906124
BeatmapSetID:1409421

[Difficulty]
HPDrainRate:5.5
CircleSize:4
OverallDifficulty:8.5
ApproachRate:9.1
SliderMultiplier:1.8
SliderTickRate:1

[Events]
//Background and Video events
0,0,"mikumiku.png",0,0
//Break Periods
2,75965,85009
//Storyboard Layer 0 (Background)
//Storyboard Layer 1 (Fail)
//Storyboard Layer 2 (Pass)
//Storyboard Layer 3 (Foreground)
//Storyboard Layer 4 (Overlay)
//Storyboard Sound Samples

[TimingPoints]
685,324.324324324324,4,2,1,100,1,0
685,-133.333333333333,4,2,1,55,0,0
11063,-111.111111111111,4,2,1,70,0,0
11793,-111.111111111111,4,2,1,5,0,0
11874,-111.111111111111,4,2,1,70,0,0
14063,-111.111111111111,4,2,1,5,0,0
14144,-111.111111111111,4,2,1,70,0,0
16009,-111.111111111111,4,2,1,5,0,0
16090,-111.111111111111,4,2,1,70,0,0
18279,-111.111111111111,4,2,1,5,0,0
18360,-111.111111111111,4,2,1,70,0,0
21441,-166.666666666666,4,2,1,60,0,0
24036,-166.666666666666,4,2,1,60,0,0
26630,-111.111111111111,4,2,1,75,0,0
26874,-111.111111111111,4,2,1,5,0,0
26955,-111.111111111111,4,2,1,75,0,0
34252,-90.9090909090908,4,2,1,85,0,1
34495,-90.9090909090908,4,2,1,5,0,1
34576,-90.9090909090908,4,2,1,85,0,1
35793,-90.9090909090908,4,2,1,5,0,1
35874,-90.9090909090908,4,2,1,85,0,1
40495,-90.9090909090908,4,2,1,5,0,1
40576,-90.9090909090908,4,2,1,85,0,1
40982,-90.9090909090908,4,2,1,5,0,1
41063,-90.9090909090908,4,2,1,85,0,1
42117,-90.9090909090908,4,2,1,5,0,1
42198,-90.9090909090908,4,2,1,85,0,1
42928,-90.9090909090908,4,2,1,5,0,1
43009,-90.9090909090908,4,2,1,85,0,1
43252,-90.9090909090908,4,2,1,5,0,1
43333,-90.9090909090908,4,2,1,85,0,1
45684,-90.9090909090908,4,2,1,5,0,1
45766,-90.9090909090908,4,2,1,85,0,1
46171,-90.9090909090908,4,2,1,5,0,1
46252,-90.9090909090908,4,2,1,85,0,1
50063,-90.9090909090908,4,2,1,5,0,1
50144,-90.9090909090908,4,2,1,85,0,1
50874,-90.9090909090908,4,2,1,5,0,1
50955,-90.9090909090908,4,2,1,85,0,1
53630,-90.9090909090908,4,2,1,5,0,1
53712,-90.9090909090908,4,2,1,85,0,1
54522,-90.9090909090908,4,2,1,85,0,0
55009,-76.9230769230769,4,2,1,85,0,0
55252,-76.9230769230769,4,2,1,5,0,0
55333,-76.9230769230769,4,2,1,85,0,0
56549,-76.9230769230769,4,2,1,5,0,0
56630,-76.9230769230769,4,2,1,85,0,0
57847,-76.9230769230769,4,2,1,5,0,0
57928,-76.9230769230769,4,2,1,85,0,0
61739,-76.9230769230769,4,2,1,5,0,0
61820,-76.9230769230769,4,2,1,85,0,0
63036,-76.9230769230769,4,2,1,5,0,0
63117,-76.9230769230769,4,2,1,85,0,0
66928,-76.9230769230769,4,2,1,5,0,0
67009,-76.9230769230769,4,2,1,85,0,0
68225,-76.9230769230769,4,2,1,5,0,0
68306,-76.9230769230769,4,2,1,85,0,0
70820,-76.9230769230769,4,2,1,5,0,0
70901,-76.9230769230769,4,2,1,85,0,0
72117,-76.9230769230769,4,2,1,5,0,0
72198,-76.9230769230769,4,2,1,85,0,0
73414,-76.9230769230769,4,2,1,5,0,0
73495,-76.9230769230769,4,2,1,85,0,0
75766,-76.9230769230769,4,2,1,85,0,0
85657,-125,4,2,1,65,0,0
86306,-111.111111111111,4,2,1,70,0,0
91739,-111.111111111111,4,2,1,5,0,0
91820,-111.111111111111,4,2,1,70,0,0
96766,-111.111111111111,4,2,1,5,0,0
96847,-111.111111111111,4,2,1,70,0,0
98063,-111.111111111111,4,2,1,5,0,0
98144,-111.111111111111,4,2,1,70,0,0
100657,-111.111111111111,4,2,1,5,0,0
100739,-111.111111111111,4,2,1,70,0,0
105847,-111.111111111111,4,2,1,5,0,0
105928,-111.111111111111,4,2,1,70,0,0
107144,-111.111111111111,4,2,1,5,0,0
107225,-111.111111111111,4,2,1,70,0,0
108441,-111.111111111111,4,2,1,5,0,0
108522,-111.111111111111,4,2,1,70,0,0
110712,-111.111111111111,4,2,1,5,0,0
110793,-111.111111111111,4,2,1,70,0,0
112333,-111.111111111111,4,2,1,5,0,0
112414,-111.111111111111,4,2,1,70,0,0
115090,-111.111111111111,4,2,1,5,0,0
115171,-111.111111111111,4,2,1,70,0,0
117441,-125,4,2,1,60,0,0
122630,-105.263157894737,4,2,1,75,0,0
130414,-86.9565217391304,4,2,1,85,0,1
131144,-86.9565217391304,4,2,1,5,0,1
131225,-86.9565217391304,4,2,1,85,0,1
131793,-86.9565217391304,4,2,1,5,0,1
131874,-86.9565217391304,4,2,1,85,0,1
135684,-86.9565217391304,4,2,1,5,0,1
135766,-86.9565217391304,4,2,1,85,0,1
136982,-86.9565217391304,4,2,1,5,0,1
137063,-86.9565217391304,4,2,1,85,0,1
146063,-86.9565217391304,4,2,1,5,0,1
146144,-86.9565217391304,4,2,1,85,0,1
149468,-86.9565217391304,4,2,1,5,0,1
149549,-86.9565217391304,4,2,1,85,0,1
151009,-86.9565217391304,4,2,1,85,0,0
156036,-86.9565217391304,4,2,1,85,0,1
156198,-86.9565217391304,4,1,1,85,0,1
158306,-86.9565217391304,4,2,1,85,0,1
161387,-76.9230769230769,4,2,1,85,0,0
166576,-83.3333333333333,4,2,1,85,0,0
168117,-83.3333333333333,4,2,1,5,0,0
168198,-83.3333333333333,4,2,1,85,0,0
171766,-83.3333333333333,4,2,1,85,0,0

[Colours]
Combo1 : 3,9,233
Combo2 : 10,184,241
Combo3 : 232,28,191
Combo4 : 183,33,220

[HitObjects]
64,144,522,5,2,0:0:0:0:
64,144,685,2,0,P|104:171|202:137,1,135.000005149842,2|2,0:2|0:2,0:0:0:0:
234,73,1171,2,0,P|214:135|245:194,1,135.000005149842,2|2,0:2|0:2,0:0:0:0:
327,293,1820,2,0,B|222:310|222:310|258:311,1,135.000005149842,2|2,0:2|0:2,0:0:0:0:
403,182,2468,1,2,0:2:0:0:
403,182,2630,2,0,L|490:196,1,67.5000025749208,2|2,0:2|0:2,0:0:0:0:
340,123,2955,1,2,0:2:0:0:
340,123,3117,6,0,B|295:141|295:141|190:111,1,135.000005149842,2|2,0:2|0:2,0:0:0:0:
96,28,3766,1,2,0:2:0:0:
96,28,3928,2,0,P|103:78|88:111,1,67.5000025749208,2|2,0:2|0:2,0:0:0:0:
51,157,4252,1,2,0:2:0:0:
51,157,4414,2,0,B|31:202|31:202|51:296,1,135.000005149842,2|2,0:2|0:2,0:0:0:0:
283,213,5063,5,2,0:2:0:0:
205,194,5225,1,2,0:2:0:0:
127,176,5387,1,2,0:2:0:0:
211,306,5712,6,0,B|252:289|252:289|370:309,1,135.000005149842,2|2,0:2|0:2,0:0:0:0:
418,250,6198,1,2,0:2:0:0:
418,250,6360,2,0,P|428:212|418:168,1,67.5000025749208,2|0,0:2|0:2,0:0:0:0:
350,137,6684,2,0,L|268:141,1,67.5000025749208,2|0,0:2|0:2,0:0:0:0:
227,58,7009,2,0,P|253:118|211:197,1,135.000005149842,2|2,0:2|0:2,0:0:0:0:
157,233,7495,1,0,0:0:0:0:
157,233,7657,6,0,L|83:222,2,67.5000025749208,2|2|2,0:2|0:2|0:2,0:0:0:0:
218,302,8144,1,2,0:2:0:0:
299,254,8306,6,0,B|344:277|344:277|442:251,1,135.000005149842,2|2,0:2|0:2,0:0:0:0:
417,163,8793,1,2,0:2:0:0:
417,163,8955,2,0,L|339:183,1,67.5000025749208,2|0,0:2|0:0,0:0:0:0:
243,95,9279,2,0,L|321:115,1,67.5000025749208,2|0,0:2|0:2,0:0:0:0:
204,167,9603,2,0,P|167:130|194:34,1,135.000005149842,2|2,0:2|0:2,0:0:0:0:
221,177,10090,1,2,0:2:0:0:
26,282,10576,5,2,0:2:0:0:
62,161,10739,1,2,0:2:0:0:
125,297,10901,1,2,0:2:0:0:
236,189,11063,6,0,L|149:199,1,80.9999975280763,6|0,3:2|0:0,0:0:0:0:
245,108,11387,1,2,3:2:0:0:
294,246,11549,2,0,P|338:266|423:238,1,121.499996292114,2|0,0:2|0:0,0:0:0:0:
432,229,11874,1,2,0:2:0:0:
354,162,12036,1,2,3:2:0:0:
453,75,12198,6,0,L|348:84,1,80.9999975280763,2|0,0:2|0:0,0:0:0:0:
265,165,12522,2,0,P|178:199|109:139,1,161.999995056153,2|0,0:2|0:2,0:0:0:0:
70,98,13009,1,2,3:2:0:0:
36,233,13171,1,2,0:2:0:0:
77,69,13333,1,2,3:2:0:0:
30,260,13495,6,0,L|9:353,1,80.9999975280763,2|0,0:2|3:2,0:0:0:0:
114,269,13820,2,0,B|153:256|153:256|234:286,1,121.499996292114,2|0,0:2|0:0,0:0:0:0:
258,295,14144,1,2,0:2:0:0:
334,236,14306,1,2,3:2:0:0:
421,339,14468,1,2,0:2:0:0:
318,217,14630,1,2,3:2:0:0:
468,172,14793,6,0,L|449:266,1,80.9999975280763,2|0,0:2|3:0,0:0:0:0:
347,70,15117,2,0,L|363:149,1,80.9999975280763,2|0,0:2|3:2,0:0:0:0:
227,213,15441,2,0,L|243:133,1,80.9999975280763,2|0,0:2|3:0,0:0:0:0:
97,33,15766,2,0,L|122:158,1,121.499996292114,2|0,0:2|0:2,0:0:0:0:
129,183,16090,1,2,0:2:0:0:
179,66,16252,5,4,3:2:0:0:
239,230,16414,1,2,0:2:0:0:
129,183,16576,1,2,3:2:0:0:
67,313,16739,1,2,0:2:0:0:
67,313,16820,1,0,0:0:0:0:
67,313,16901,2,0,L|167:290,1,80.9999975280763,2|0,3:2|0:0,0:0:0:0:
228,364,17225,1,2,3:2:0:0:
341,171,17387,6,0,L|332:259,1,80.9999975280763,2|0,0:2|3:2,0:0:0:0:
443,102,17712,2,0,L|451:182,1,80.9999975280763,2|0,0:2|3:2,0:0:0:0:
222,82,18036,2,0,B|283:53|283:53|346:86,1,121.499996292114,2|0,0:2|0:0,0:0:0:0:
359,91,18360,5,2,0:2:0:0:
313,209,18522,1,2,3:2:0:0:
169,193,18684,2,0,L|55:181,1,80.9999975280763,2|0,0:2|3:2,0:0:0:0:
362,105,19009,5,2,0:2:0:0:
311,224,19171,1,2,3:2:0:0:
167,208,19333,2,0,L|53:196,1,80.9999975280763,2|0,0:2|3:2,0:0:0:0:
6,310,19657,6,0,B|43:290|83:306|83:306|80:297|80:297|123:312|153:296,1,161.999995056153,2|2,0:2|0:2,0:0:0:0:
232,342,20063,1,0,0:0:0:0:
232,342,20144,2,0,L|312:350,1,80.9999975280763,2|2,3:2|0:2,0:0:0:0:
455,261,20468,2,0,L|374:269,1,80.9999975280763,2|2,3:2|0:2,0:0:0:0:
272,94,20793,1,8,3:3:0:0:
243,252,20955,1,8,3:3:0:0:
391,65,21117,1,4,3:3:0:0:
403,179,21279,1,4,3:3:0:0:
256,79,21441,6,0,B|197:47|133:85|170:114|92:137|42:105|42:105|68:113|101:94,1,269.999991760254,2|0,3:2|0:0,0:0:0:0:
222,157,22414,1,2,0:0:0:0:
222,157,22576,2,0,L|294:166,1,53.9999983520508,0|0,0:0|3:0,0:0:0:0:
199,242,22901,5,2,0:0:0:0:
199,242,23063,1,2,0:0:0:0:
172,325,23225,1,2,0:0:0:0:
172,325,23387,2,0,B|203:345|244:331|244:331|250:334|250:334|287:316|333:334,1,161.999995056153,2|0,0:0|0:2,0:0:0:0:
362,348,24036,5,2,3:2:0:0:
456,371,24198,1,2,0:0:0:0:
462,278,24360,1,2,0:0:0:0:
462,278,24522,1,2,0:0:0:0:
463,184,24684,1,2,0:0:0:0:
463,184,24847,2,0,B|426:163|426:163|343:188,1,107.999996704102,2|2,0:0|0:0,0:0:0:0:
288,215,25333,6,0,L|282:288,2,53.9999983520508,0|2|2,3:2|0:0|0:0,0:0:0:0:
225,146,25820,2,0,L|231:73,1,53.9999983520508,2|0,0:0|3:2,0:0:0:0:
70,139,26144,1,2,0:0:0:0:
142,120,26306,1,2,0:0:0:0:
91,65,26468,1,2,0:0:0:0:
2,240,26630,6,0,P|62:218|126:254,1,121.499996292114,6|0,3:2|0:0,0:0:0:0:
134,257,26955,1,2,3:2:0:0:
229,327,27117,2,0,L|138:341,1,80.9999975280763,2|0,0:2|3:2,0:0:0:0:
290,257,27441,2,0,L|199:239,1,80.9999975280763,2|0,0:2|3:2,0:0:0:0:
308,177,27766,6,0,L|377:219,1,80.9999975280763,2|0,0:2|3:2,0:0:0:0:
273,87,28090,2,0,L|353:88,1,80.9999975280763,2|0,0:2|3:2,0:0:0:0:
178,38,28414,2,0,L|249:-1,1,80.9999975280763,2|0,0:2|3:2,0:0:0:0:
197,120,28739,1,2,0:2:0:0:
66,196,28901,1,2,3:2:0:0:
104,85,29063,1,2,0:2:0:0:
135,321,29225,5,2,3:2:0:0:
66,196,29387,2,0,L|168:181,1,80.9999975280763,2|0,0:2|3:2,0:0:0:0:
140,349,29712,1,2,0:2:0:0:
58,169,29874,2,0,L|160:154,1,80.9999975280763,2|0,3:2|0:2,0:0:0:0:
352,136,30198,5,2,3:2:0:0:
286,265,30360,2,0,L|184:250,1,80.9999975280763,2|0,0:2|3:2,0:0:0:0:
361,115,30684,1,2,0:2:0:0:
277,294,30847,2,0,L|175:279,1,80.9999975280763,2|0,3:2|0:2,0:0:0:0:
370,91,31171,5,2,3:2:0:0:
432,220,31333,1,0,0:2:0:0:
252,89,31495,1,2,3:2:0:0:
451,42,31657,1,0,0:2:0:0:
312,273,31820,5,2,3:2:0:0:
252,89,31982,1,2,0:2:0:0:
259,65,32306,5,2,0:2:0:0:
188,328,32468,1,2,3:2:0:0:
192,354,32793,5,2,3:2:0:0:
112,42,32955,1,2,0:2:0:0:
33,266,33117,5,0,3:2:0:0:
219,214,33279,1,2,0:2:0:0:
35,138,33441,1,2,3:2:0:0:
120,357,33603,1,2,0:2:0:0:
304,180,33766,5,10,3:2:0:0:
120,267,33928,1,2,0:0:0:0:
174,129,34090,1,2,0:0:0:0:
286,344,34252,6,0,B|336:325|336:325|446:369,1,148.50000453186,6|0,3:2|0:0,0:0:0:0:
455,375,34576,1,0,3:2:0:0:
407,168,34739,2,0,P|385:220|409:271,1,99.0000030212403,8|0,0:2|0:2,0:0:0:0:
453,98,35063,2,0,B|394:67|334:96|365:127|299:149|248:109|248:109,1,198.000006042481,2|8,3:2|0:2,0:0:0:0:
407,168,35549,6,0,P|385:220|448:289,1,148.50000453186,2|0,3:2|0:2,0:0:0:0:
470,293,35874,1,2,3:2:0:0:
345,210,36036,1,10,0:2:0:0:
289,286,36198,1,2,0:2:0:0:
147,171,36360,1,2,3:2:0:0:
45,309,36522,1,0,3:2:0:0:
161,152,36684,1,8,0:2:0:0:
242,345,36847,1,2,3:2:0:0:
345,210,37009,6,0,L|235:181,1,99.0000030212403,2|2,0:2|3:2,0:0:0:0:
363,334,37333,1,10,0:2:0:0:
363,334,37495,2,0,L|473:305,1,99.0000030212403,2|0,0:2|3:2,0:0:0:0:
249,184,37820,2,0,L|358:213,1,99.0000030212403,2|8,3:2|0:2,0:0:0:0:
108,364,38144,6,0,B|262:327|262:327|178:323,1,198.000006042481,2|2,3:2|3:2,0:0:0:0:
53,161,38630,2,0,B|-19:236|46:310|46:310|29:281|48:249,1,198.000006042481,10|0,0:2|3:2,0:0:0:0:
189,198,39117,1,0,3:2:0:0:
27,155,39279,1,10,0:2:0:0:
178,72,39441,6,0,B|232:45|290:80|254:112|331:144|383:101,1,198.000006042481,6|0,3:2|3:2,0:0:0:0:
468,59,39928,1,8,0:2:0:0:
348,216,40090,1,0,0:2:0:0:
468,59,40252,2,0,B|453:33|453:33|460:166,1,148.50000453186,2|0,3:2|0:0,0:0:0:0:
462,185,40576,1,10,0:2:0:0:
325,318,40739,6,0,B|338:193|338:193|354:230,1,148.50000453186,2|0,3:2|0:0,0:0:0:0:
359,246,41063,1,2,3:2:0:0:
208,132,41225,2,0,L|223:245,1,99.0000030212403,10|0,0:2|0:2,0:0:0:0:
22,303,41549,1,0,3:2:0:0:
74,153,41712,1,2,3:2:0:0:
19,321,41874,6,0,B|85:328|85:328|103:326|103:326|183:333,1,148.50000453186,10|0,0:2|0:0,0:0:0:0:
201,335,42198,1,2,0:0:0:0:
261,169,42360,1,2,3:2:0:0:
335,332,42522,1,10,0:2:0:0:
497,123,42684,6,0,P|427:84|357:112,1,148.50000453186,2|0,0:2|0:0,0:0:0:0:
335,121,43009,2,0,P|265:139|204:101,1,148.50000453186,2|0,3:2|0:0,0:0:0:0:
181,73,43333,1,2,3:2:0:0:
289,19,43495,5,12,0:2:0:0:
254,216,43657,1,0,3:2:0:0:
97,145,43820,1,12,0:2:0:0:
145,352,43982,1,0,3:2:0:0:
246,242,44144,5,0,3:2:0:0:
29,292,44306,1,8,0:2:0:0:
88,168,44468,1,8,0:2:0:0:
145,352,44630,6,0,B|235:339|235:339|255:343|255:343|361:325,1,198.000006042481,6|0,3:2|3:2,0:0:0:0:
406,189,45117,1,8,0:2:0:0:
417,356,45279,1,0,0:2:0:0:
335,150,45441,2,0,B|287:166|287:166|180:140,1,148.50000453186,2|0,3:2|0:0,0:0:0:0:
157,135,45766,1,10,0:2:0:0:
291,38,45928,6,0,P|381:21|430:79,1,148.50000453186,2|0,3:2|0:2,0:0:0:0:
440,81,46252,1,2,3:2:0:0:
362,242,46414,1,10,0:2:0:0:
429,103,46576,1,2,0:2:0:0:
495,335,46739,2,0,B|455:301|392:332|410:341|340:369|285:314,1,198.000006042481,2|8,3:2|0:2,0:0:0:0:
202,152,47225,1,2,3:2:0:0:
134,321,47387,5,2,0:2:0:0:
52,180,47549,1,2,3:2:0:0:
148,344,47712,1,10,0:2:0:0:
224,81,47874,2,0,P|285:62|325:85,1,99.0000030212403,2|0,0:2|3:2,0:0:0:0:
258,247,48198,2,0,P|197:266|157:243,1,99.0000030212403,2|8,3:2|0:2,0:0:0:0:
40,73,48522,6,0,B|92:24|163:67|129:80|192:119|254:59,1,198.000006042481,2|2,3:2|3:2,0:0:0:0:
383,50,49009,2,0,B|348:9|294:40|285:101|338:160,1,198.000006042481,10|0,0:2|3:2,0:0:0:0:
416,205,49495,1,2,3:2:0:0:
278,122,49657,1,10,0:2:0:0:
212,245,49820,6,0,B|221:360|221:360|240:314,1,148.50000453186,6|0,3:2|0:2,0:0:0:0:
250,298,50144,1,2,3:2:0:0:
81,161,50306,1,8,0:2:0:0:
63,324,50468,1,2,0:2:0:0:
190,63,50630,2,0,L|208:222,1,148.50000453186,2|0,3:2|0:0,0:0:0:0:
212,245,50955,1,10,0:2:0:0:
363,68,51117,6,0,P|310:47|246:72,1,99.0000030212403,2|0,3:2|0:0,0:0:0:0:
310,215,51441,1,2,3:2:0:0:
310,215,51603,2,0,L|296:333,1,99.0000030212403,10|0,0:2|0:2,0:0:0:0:
160,272,51928,1,0,3:2:0:0:
341,206,52090,1,2,3:2:0:0:
145,143,52252,2,0,L|159:261,1,99.0000030212403,10|0,0:2|3:2,0:0:0:0:
248,96,52576,5,2,0:2:0:0:
65,178,52739,1,2,3:2:0:0:
271,193,52901,1,10,0:2:0:0:
42,89,53063,1,2,0:2:0:0:
132,308,53225,1,2,3:2:0:0:
132,308,53387,2,0,B|201:297|201:297|207:290|207:290|293:275,1,148.50000453186,2|0,3:2|0:0,0:0:0:0:
308,268,53712,1,2,3:2:0:0:
360,174,53874,5,12,0:2:0:0:
410,326,54036,1,2,3:2:0:0:
453,105,54198,1,12,0:2:0:0:
404,357,54360,1,2,3:2:0:0:
326,105,54522,5,8,0:2:0:0:
298,79,54603,1,8,0:2:0:0:
264,61,54684,1,8,0:2:0:0:
227,54,54765,1,8,0:2:0:0:
190,58,54846,1,8,0:2:0:0:
155,72,54927,1,8,0:0:0:0:
126,94,55009,6,0,B|108:141|108:141|124:225|124:225|104:280,1,175.499991966248,4|0,3:2|0:0,0:0:0:0:
94,299,55333,1,0,3:2:0:0:
326,199,55495,2,0,L|202:159,1,116.999994644165,12|2,0:2|0:1,0:0:0:0:
439,282,55820,2,0,L|323:314,1,116.999994644165,0|2,3:2|0:1,0:0:0:0:
214,163,56144,1,8,0:2:0:0:
56,334,56306,6,0,B|95:318|95:318|255:352,1,175.499991966248,2|0,0:1|0:0,0:0:0:0:
242,350,56630,1,2,0:1:0:0:
214,163,56793,1,8,0:2:0:0:
238,319,56955,1,2,0:1:0:0:
420,236,57117,2,0,L|300:218,1,116.999994644165,0|2,3:2|0:1,0:0:0:0:
240,50,57441,1,8,0:2:0:0:
219,258,57603,6,0,B|226:178|226:178|234:161|234:161|239:74,1,175.499991966248,2|0,0:1|0:0,0:0:0:0:
240,50,57928,1,2,0:1:0:0:
40,111,58090,2,0,P|103:93|169:127,1,116.999994644165,8|2,0:2|0:1,0:0:0:0:
328,256,58414,2,0,P|265:274|199:240,1,116.999994644165,0|2,3:2|0:1,0:0:0:0:
359,96,58739,1,8,0:2:0:0:
416,291,58901,1,2,0:1:0:0:
359,96,59063,5,0,3:0:0:0:
269,196,59225,1,2,0:1:0:0:
95,110,59387,2,0,P|153:93|205:128,1,116.999994644165,8|2,0:2|0:1,0:0:0:0:
269,196,59712,5,0,3:2:0:0:
383,69,59874,1,2,3:1:0:0:
249,219,60036,1,8,0:2:0:0:
416,291,60198,6,0,B|371:272|317:297|335:307|276:339|225:302|225:302|246:309|278:301,1,233.999989288331,4|0,3:2|3:2,0:0:0:0:
70,167,60684,2,0,L|80:297,1,116.999994644165,12|2,0:2|0:1,0:0:0:0:
156,143,61009,1,0,3:2:0:0:
1,102,61171,1,2,0:1:0:0:
192,67,61333,1,8,0:2:0:0:
228,279,61495,6,0,B|91:255|91:255|134:244,1,175.499991966248,2|0,0:1|0:0,0:0:0:0:
166,236,61820,1,2,0:1:0:0:
356,190,61982,1,8,0:2:0:0:
278,155,62144,1,2,0:1:0:0:
464,112,62306,1,0,3:2:0:0:
464,112,62468,2,0,B|487:168|487:168|467:220,1,116.999994644165,2|8,0:1|0:2,0:0:0:0:
219,85,62793,6,0,B|296:70|296:70|312:71|312:71|405:51,1,175.499991966248,2|0,0:1|0:0,0:0:0:0:
430,42,63117,1,2,0:1:0:0:
384,223,63279,2,0,L|397:346,1,116.999994644165,8|2,0:2|0:1,0:0:0:0:
281,163,63603,2,0,L|268:279,1,116.999994644165,0|2,3:2|0:1,0:0:0:0:
291,86,63928,1,8,0:2:0:0:
188,267,64090,1,2,0:1:0:0:
24,203,64252,6,0,P|86:184|147:226,1,116.999994644165,0|2,3:0|0:1,0:0:0:0:
294,268,64576,2,0,P|240:287|187:266,1,116.999994644165,8|2,0:2|0:1,0:0:0:0:
124,111,64901,1,0,3:2:0:0:
78,281,65063,1,2,3:1:0:0:
131,83,65225,1,8,0:2:0:0:
69,315,65387,6,0,B|130:287|183:315|183:315|195:312|195:312|245:340|338:306,1,233.999989288331,4|0,3:2|3:2,0:0:0:0:
377,138,65874,2,0,B|372:196|372:196|365:208|365:208|359:272,1,116.999994644165,12|2,0:2|0:1,0:0:0:0:
469,360,66198,2,0,B|464:311|464:311|457:297|457:297|452:244,1,116.999994644165,0|2,3:2|0:1,0:0:0:0:
343,325,66522,1,8,0:2:0:0:
490,168,66684,6,0,B|441:151|406:176|406:176|396:170|396:170|354:192|314:168,1,175.499991966248,2|0,0:1|0:0,0:0:0:0:
285,156,67009,1,2,0:1:0:0:
193,52,67171,2,0,P|216:109|185:175,1,116.999994644165,8|2,0:2|0:1,0:0:0:0:
84,311,67495,1,0,3:2:0:0:
0,170,67657,1,2,0:1:0:0:
199,159,67820,1,8,0:2:0:0:
103,28,67982,6,0,B|126:63|111:107|111:107|117:115|117:115|96:162|127:215,1,175.499991966248,2|0,0:1|0:0,0:0:0:0:
139,230,68306,1,2,0:1:0:0:
258,327,68468,1,8,0:2:0:0:
84,311,68630,1,2,0:1:0:0:
304,165,68793,2,0,P|235:141|196:161,1,116.999994644165,0|2,3:2|0:1,0:0:0:0:
256,249,69117,1,8,0:2:0:0:
365,112,69279,1,2,0:1:0:0:
365,112,69441,6,0,P|447:92|487:119,1,116.999994644165,0|2,3:0|0:1,0:0:0:0:
312,308,69766,2,0,P|263:333|195:305,1,116.999994644165,8|2,0:2|0:1,0:0:0:0:
163,122,70090,1,0,3:2:0:0:
104,316,70252,1,2,3:1:0:0:
171,94,70414,1,8,0:2:0:0:
256,249,70576,6,0,B|334:245|334:245|350:238|350:238|463:233,1,175.499991966248,4|0,3:2|0:0,0:0:0:0:
466,230,70901,1,0,3:2:0:0:
324,126,71063,2,0,L|446:148,1,116.999994644165,12|2,0:2|0:1,0:0:0:0:
204,80,71387,2,0,L|320:38,1,116.999994644165,0|2,3:2|0:1,0:0:0:0:
171,94,71712,1,8,0:2:0:0:
256,249,71874,6,0,B|224:243|224:243|120:272|120:272|62:255,1,175.499991966248,2|0,0:1|0:0,0:0:0:0:
54,252,72198,1,2,0:1:0:0:
35,114,72360,2,0,P|97:90|159:128,1,116.999994644165,8|2,0:2|0:1,0:0:0:0:
256,249,72684,2,0,P|310:266|362:242,1,116.999994644165,0|2,3:2|0:1,0:0:0:0:
378,47,73009,1,8,0:2:0:0:
435,276,73171,6,0,B|448:251|448:251|434:127|434:127|450:93,1,175.499991966248,2|0,0:1|0:0,0:0:0:0:
463,70,73495,1,2,0:1:0:0:
256,249,73657,2,0,P|324:269|377:247,1,116.999994644165,8|2,0:2|0:1,0:0:0:0:
239,128,73982,1,0,3:2:0:0:
165,298,74144,1,2,0:1:0:0:
374,235,74306,1,8,0:2:0:0:
217,113,74468,5,2,0:1:0:0:
217,113,74630,2,0,B|170:117|170:117|151:109|151:109|99:114,1,116.999994644165,0|2,3:0|0:1,0:0:0:0:
335,68,74955,2,0,L|220:20,1,116.999994644165,8|2,0:2|0:1,0:0:0:0:
374,235,75279,5,0,3:2:0:0:
435,48,75441,1,8,3:2:0:0:
366,263,75603,5,8,3:2:0:0:
443,23,75765,1,4,3:2:0:0:
212,170,85657,5,8,0:0:0:0:
372,220,85820,1,8,3:3:0:0:
270,262,85982,2,0,L|260:352,1,72,4|0,3:3|3:2,0:0:0:0:
368,190,86306,6,0,L|355:75,1,80.9999975280763,6|0,3:2|0:0,0:0:0:0:
505,20,86630,1,10,0:2:0:0:
496,48,86793,2,0,L|486:128,1,80.9999975280763,2|0,0:2|3:2,0:0:0:0:
368,190,87117,1,2,0:2:0:0:
485,163,87279,1,10,0:2:0:0:
368,190,87441,6,0,P|316:202|276:184,1,80.9999975280763,2|0,0:2|3:2,0:0:0:0:
204,148,87766,2,0,P|164:139|126:152,1,80.9999975280763,2|8,0:2|0:2,0:0:0:0:
66,363,88090,2,0,B|79:333|79:333|61:203,1,161.999995056153,2|0,0:2|0:2,0:0:0:0:
40,60,88576,1,8,0:2:0:0:
56,175,88739,1,2,0:2:0:0:
183,57,88901,5,0,3:2:0:0:
262,127,89063,1,2,0:2:0:0:
262,127,89225,1,10,0:2:0:0:
355,45,89387,2,0,L|273:33,1,80.9999975280763,2|0,0:2|3:2,0:0:0:0:
463,111,89712,2,0,L|382:123,1,80.9999975280763,2|8,0:2|0:2,0:0:0:0:
374,204,90036,1,2,0:2:0:0:
374,204,90198,6,0,L|384:123,1,80.9999975280763,0|0,3:0|0:2,0:0:0:0:
299,282,90522,2,0,L|289:201,1,80.9999975280763,8|0,0:2|0:2,0:0:0:0:
227,350,90847,1,0,3:2:0:0:
396,321,91009,1,2,0:2:0:0:
200,355,91171,2,0,L|92:373,1,80.9999975280763,10|2,0:2|0:2,0:0:0:0:
21,252,91495,6,0,B|76:251|76:251|91:260|91:260|146:259,1,121.499996292114,6|0,3:2|0:2,0:0:0:0:
164,258,91820,1,10,0:2:0:0:
64,98,91982,2,0,P|50:152|66:189,1,80.9999975280763,2|0,0:2|3:2,0:0:0:0:
186,39,92306,2,0,P|200:93|184:130,1,80.9999975280763,2|8,0:2|0:2,0:0:0:0:
164,258,92630,6,0,P|232:298|317:261,2,161.999995056153,2|2|2,0:2|0:2|0:2,0:0:0:0:
327,113,93441,2,0,L|321:196,1,80.9999975280763,0|0,3:2|0:2,0:0:0:0:
403,64,93766,2,0,L|408:144,1,80.9999975280763,8|2,0:2|0:2,0:0:0:0:
348,281,94090,6,0,P|446:262|498:315,1,161.999995056153,2|10,3:2|0:2,0:0:0:0:
293,361,94576,2,0,L|248:283,1,80.9999975280763,2|0,0:2|3:2,0:0:0:0:
162,321,94901,2,0,L|186:225,1,80.9999975280763,2|8,0:2|0:2,0:0:0:0:
203,147,95225,1,2,0:2:0:0:
252,290,95387,5,0,3:0:0:0:
83,246,95549,1,0,0:2:0:0:
203,147,95712,1,8,0:2:0:0:
203,147,95874,1,2,0:2:0:0:
151,355,96036,1,2,3:2:0:0:
18,195,96198,1,2,0:2:0:0:
62,358,96360,1,10,0:2:0:0:
11,169,96522,6,0,B|2:131|2:131|20:46,1,121.499996292114,2|0,0:2|0:0,0:0:0:0:
26,26,96847,2,0,P|74:37|133:16,1,80.9999975280763,2|8,0:2|0:2,0:0:0:0:
211,27,97171,2,0,L|196:123,1,80.9999975280763,2|0,0:2|3:2,0:0:0:0:
317,195,97495,1,0,0:2:0:0:
303,117,97657,1,10,0:2:0:0:
335,274,97820,6,0,P|375:294|472:269,1,121.499996292114,2|0,0:2|0:0,0:0:0:0:
472,269,98144,1,2,0:2:0:0:
303,117,98306,2,0,L|321:208,1,80.9999975280763,10|2,0:2|0:2,0:0:0:0:
408,50,98630,2,0,L|390:141,1,80.9999975280763,2|0,3:2|0:2,0:0:0:0:
492,37,98955,1,8,0:2:0:0:
512,154,99117,1,2,0:2:0:0:
368,225,99279,6,0,P|435:243|471:220,2,80.9999975280763,2|2|10,3:2|0:2|0:2,0:0:0:0:
278,162,99766,2,0,L|182:203,1,80.9999975280763,2|0,0:2|3:2,0:0:0:0:
133,140,100090,2,0,L|111:254,1,80.9999975280763,2|8,0:2|0:2,0:0:0:0:
24,228,100414,6,0,L|109:353,1,121.499996292114,2|0,0:2|0:0,0:0:0:0:
107,352,100739,1,0,0:2:0:0:
271,280,100901,1,10,0:2:0:0:
271,280,101063,2,0,L|191:264,1,80.9999975280763,2|0,0:2|3:2,0:0:0:0:
305,361,101387,2,0,L|384:345,1,80.9999975280763,2|8,0:2|0:2,0:0:0:0:
488,278,101712,1,2,0:2:0:0:
488,278,101874,6,0,B|468:241|484:199|484:199|478:189|478:189|492:154|477:121,1,161.999995056153,4|8,3:2|0:2,0:0:0:0:
334,52,102360,1,0,0:0:0:0:
334,52,102522,2,0,P|384:64|423:49,2,80.9999975280763,2|2|10,3:2|0:2|0:2,0:0:0:0:
247,89,103009,6,0,L|260:181,1,80.9999975280763,2|0,0:2|3:2,0:0:0:0:
159,237,103333,2,0,L|170:156,1,80.9999975280763,2|8,0:2|0:2,0:0:0:0:
44,97,103657,1,0,0:2:0:0:
61,212,103820,1,2,3:2:0:0:
61,212,103982,2,0,L|72:292,1,80.9999975280763,2|8,0:2|0:2,0:0:0:0:
166,363,104306,6,0,B|195:350|195:350|300:360|300:360|333:343,1,161.999995056153,2|2,0:2|0:2,0:0:0:0:
362,234,104793,1,10,0:2:0:0:
362,234,104955,2,0,P|304:226|272:242,1,80.9999975280763,2|2,0:2|3:2,0:0:0:0:
204,269,105279,2,0,P|165:278|126:268,1,80.9999975280763,2|10,0:2|0:2,0:0:0:0:
53,115,105603,6,0,L|51:242,1,121.499996292114,2|0,0:2|0:0,0:0:0:0:
50,252,105928,1,2,0:2:0:0:
149,180,106090,1,10,0:2:0:0:
225,323,106252,1,2,0:2:0:0:
137,157,106414,1,0,3:2:0:0:
309,199,106576,1,2,0:2:0:0:
212,348,106739,1,8,0:2:0:0:
320,178,106901,6,0,L|448:195,1,121.499996292114,2|0,0:2|0:0,0:0:0:0:
484,129,107225,1,2,0:2:0:0:
484,129,107306,1,2,0:2:0:0:
484,129,107387,2,0,L|493:47,1,80.9999975280763,10|2,0:2|0:2,0:0:0:0:
371,32,107712,2,0,L|379:112,1,80.9999975280763,2|2,3:2|0:2,0:0:0:0:
265,143,108036,1,10,0:2:0:0:
265,143,108198,6,0,P|219:167|134:133,1,121.499996292114,2|0,0:2|0:0,0:0:0:0:
130,135,108522,1,2,0:2:0:0:
4,21,108684,2,0,P|53:9|88:28,1,80.9999975280763,10|0,0:2|0:2,0:0:0:0:
98,206,109009,2,0,B|115:91|115:91|132:141,1,161.999995056153,2|8,3:2|0:2,0:0:0:0:
176,292,109495,1,2,0:2:0:0:
11,343,109657,6,0,L|98:354,2,80.9999975280763,2|2|10,3:2|0:2|0:2,0:0:0:0:
256,281,110144,2,0,L|176:292,1,80.9999975280763,2|0,0:2|3:2,0:0:0:0:
324,356,110468,2,0,L|453:371,1,121.499996292114,2|0,0:2|0:2,0:0:0:0:
472,375,110793,5,2,0:2:0:0:
348,252,110955,1,0,3:2:0:0:
485,168,111117,1,2,0:2:0:0:
424,282,111279,1,10,0:2:0:0:
498,139,111441,2,0,B|430:147|430:147|413:141|413:141|329:151,1,161.999995056153,2|2,0:2|0:2,0:0:0:0:
229,151,111928,1,8,0:2:0:0:
242,301,112090,6,0,B|254:269|254:269|232:168,1,121.499996292114,2|0,0:2|0:0,0:0:0:0:
132,133,112414,1,2,0:2:0:0:
132,133,112495,1,0,0:2:0:0:
132,133,112576,2,0,L|121:231,1,80.9999975280763,10|2,0:2|0:2,0:0:0:0:
23,75,112901,2,0,L|34:173,1,80.9999975280763,2|2,3:2|0:2,0:0:0:0:
48,313,113225,1,10,0:2:0:0:
48,313,113387,6,0,L|130:301,1,80.9999975280763,2|0,0:2|3:2,0:0:0:0:
276,349,113712,1,2,0:2:0:0:
276,349,113874,2,0,L|194:361,1,80.9999975280763,10|0,0:2|0:2,0:0:0:0:
247,227,114198,2,0,B|286:202|340:229|330:239|368:260|422:233,1,161.999995056153,2|8,3:2|0:2,0:0:0:0:
479,205,114684,1,2,0:2:0:0:
473,351,114847,6,0,L|478:219,1,121.499996292114,2|0,3:2|0:2,0:0:0:0:
479,205,115171,1,10,0:2:0:0:
314,282,115333,2,0,B|354:296|354:296|399:287,1,80.9999975280763,2|0,0:2|3:2,0:0:0:0:
236,162,115657,1,2,0:2:0:0:
191,328,115820,1,10,0:2:0:0:
244,130,115982,6,0,L|227:23,1,80.9999975280763,2|0,0:2|3:2,0:0:0:0:
143,109,116306,1,2,0:2:0:0:
319,26,116468,1,10,0:2:0:0:
114,123,116630,1,2,0:2:0:0:
13,55,116793,6,0,L|18:4,3,40.4999987640381,8|8|8|8,3:2|0:2|0:2|0:2,0:0:0:0:
114,123,117117,2,0,L|109:66,1,40.4999987640381,8|8,3:3|3:3,0:0:0:0:
18,218,117279,2,0,L|23:161,1,40.4999987640381,8|8,3:3|3:3,0:0:0:0:
115,301,117441,5,4,3:2:0:0:
115,301,117603,2,0,B|182:308|182:308|202:303|202:303|274:311,2,144,0|0|0,0:0|0:0|0:0,0:0:0:0:
320,190,118739,5,8,0:2:0:0:
320,190,118901,2,0,P|254:170|171:219,2,144,8|0|0,0:2|0:0|0:0,0:0:0:0:
402,324,119874,1,2,3:2:0:0:
402,324,119955,1,0,3:0:0:0:
402,324,120036,6,0,L|490:301,1,72,10|8,0:0|0:0,0:0:0:0:
311,303,120360,2,0,L|369:232,1,72,2|0,0:0|0:0,0:0:0:0:
231,335,120684,2,0,L|234:249,2,72,2|2|2,0:0|0:0|0:0,0:0:0:0:
123,187,121171,6,0,L|35:164,1,72,2|8,0:0|0:0,0:0:0:0:
214,166,121495,2,0,L|156:95,1,72,10|0,0:0|0:0,0:0:0:0:
294,198,121819,2,0,L|291:112,1,72,2|8,0:0|0:0,0:0:0:0:
296,287,122144,1,10,0:0:0:0:
413,111,122306,1,12,3:2:0:0:
282,309,122468,1,2,0:0:0:0:
106,156,122630,6,0,L|217:170,1,85.4999977169037,6|0,3:2|0:0,0:0:0:0:
77,191,122955,2,0,L|188:205,1,85.4999977169037,8|0,0:2|0:2,0:0:0:0:
45,225,123279,2,0,L|156:239,1,85.4999977169037,0|0,3:2|0:2,0:0:0:0:
215,105,123603,1,10,0:2:0:0:
319,253,123766,1,2,0:2:0:0:
376,83,123928,6,0,L|291:93,1,85.4999977169037,0|0,3:2|0:2,0:0:0:0:
405,118,124253,2,0,L|320:128,1,85.4999977169037,8|0,0:2|0:2,0:0:0:0:
437,152,124577,2,0,L|352:162,1,85.4999977169037,0|2,3:2|0:2,0:0:0:0:
319,253,124901,1,10,0:2:0:0:
209,110,125063,1,2,0:2:0:0:
128,246,125225,5,2,3:2:0:0:
209,110,125387,2,0,L|201:21,1,85.4999977169037,2|8,0:2|0:2,0:0:0:0:
128,246,125712,1,2,0:2:0:0:
224,85,125874,2,0,L|216:-4,1,85.4999977169037,2|0,3:2|0:2,0:0:0:0:
221,298,126198,5,10,0:2:0:0:
63,186,126360,2,0,L|70:100,1,85.4999977169037,2|0,0:2|3:2,0:0:0:0:
221,298,126684,1,2,0:2:0:0:
44,164,126847,2,0,L|51:78,1,85.4999977169037,10|0,0:2|0:2,0:0:0:0:
50,349,127171,5,2,3:2:0:0:
139,234,127333,1,0,0:2:0:0:
139,234,127495,2,0,L|146:319,1,85.4999977169037,10|0,0:2|0:2,0:0:0:0:
288,238,127820,6,0,L|290:190,3,42.7499988584519,0|0|0|0,3:0|3:0|3:0|3:0,3:0:0:0:
380,335,128144,2,0,L|378:287,3,42.7499988584519,8|0|0|0,2:2|3:0|3:0|3:0,3:0:0:0:
450,169,128468,6,0,L|448:211,3,42.7499988584519,0|0|0|0,3:0|3:0|3:0|3:0,3:0:0:0:
340,74,128793,2,0,L|402:78,1,42.7499988584519,8|0,0:0|3:0,0:0:0:0:
288,238,128955,2,0,L|226:242,1,42.7499988584519,0|0,3:0|3:0,3:0:0:0:
115,78,129117,5,8,3:0:0:0:
131,79,129198,1,8,3:0:0:0:
143,80,129279,1,8,3:0:0:0:
155,82,129360,1,8,3:0:0:0:
167,83,129441,5,8,0:0:0:0:
182,146,129522,1,8,0:0:0:0:
149,201,129603,1,8,0:0:0:0:
89,215,129684,1,8,0:0:0:0:
31,185,129766,1,10,3:2:0:0:
299,309,130414,6,0,L|169:303,1,103.500001974106,6|0,3:2|0:0,0:0:0:0:
343,158,130739,1,8,0:2:0:0:
445,339,130901,2,0,B|437:312|437:312|463:207|463:207|455:175,1,155.250002961159,0|0,0:2|0:0,0:0:0:0:
447,154,131225,1,0,3:2:0:0:
315,291,131387,1,10,0:2:0:0:
214,113,131549,6,0,B|284:104|284:104|302:87|302:87|393:75,1,155.250002961159,2|0,3:2|0:0,0:0:0:0:
397,74,131874,1,0,3:2:0:0:
276,228,132036,1,8,0:2:0:0:
182,46,132198,1,0,0:2:0:0:
62,178,132360,2,0,L|47:296,2,103.500001974106,2|2|10,3:2|3:2|0:2,0:0:0:0:
182,46,132847,6,0,P|252:42|208:148,1,207.000003948212,2|0,3:2|3:2,0:0:0:0:
62,178,133333,2,0,P|132:165|183:201,1,103.500001974106,8|0,0:2|0:2,0:0:0:0:
250,351,133657,1,0,3:2:0:0:
111,240,133820,1,2,3:2:0:0:
269,366,133982,1,10,0:2:0:0:
395,140,134144,6,0,B|375:189|375:189|409:364,1,207.000003948212,2|0,3:2|3:2,0:0:0:0:
463,201,134630,1,10,0:2:0:0:
193,257,134793,2,0,L|294:235,1,103.500001974106,2|2,0:2|3:2,0:0:0:0:
128,354,135117,2,0,L|26:332,1,103.500001974106,2|10,3:2|0:2,0:0:0:0:
167,139,135441,6,0,P|95:169|2:107,1,155.250002961159,6|0,3:2|0:0,0:0:0:0:
3,120,135766,1,2,3:2:0:0:
148,37,135928,1,10,0:2:0:0:
252,146,136090,1,2,0:2:0:0:
381,59,136252,2,0,L|503:71,1,103.500001974106,2|2,3:2|3:2,0:0:0:0:
373,219,136576,1,10,0:2:0:0:
303,53,136739,6,0,L|145:37,1,155.250002961159,2|0,3:2|0:2,0:0:0:0:
117,32,137063,1,2,3:2:0:0:
31,193,137225,1,10,0:2:0:0:
117,32,137387,1,2,0:2:0:0:
146,232,137549,2,0,L|162:344,1,103.500001974106,2|2,3:2|3:2,0:0:0:0:
117,32,137874,1,10,0:2:0:0:
146,232,138036,6,0,P|209:258|248:241,1,103.500001974106,2|0,3:2|0:0,0:0:0:0:
337,124,138360,2,0,L|231:116,2,103.500001974106,2|10|2,3:2|0:2|0:2,0:0:0:0:
407,272,138847,2,0,L|510:279,1,103.500001974106,2|0,3:2|3:2,0:0:0:0:
337,124,139171,1,10,0:2:0:0:
256,329,139333,1,2,3:2:0:0:
349,94,139495,5,12,0:2:0:0:
122,187,139657,1,2,3:2:0:0:
358,328,139820,1,14,0:2:0:0:
173,113,139982,1,2,3:2:0:0:
62,320,140144,5,2,3:2:0:0:
189,84,140306,1,10,0:2:0:0:
243,319,140468,1,10,0:2:0:0:
43,228,140630,6,0,B|16:180|46:135|46:135|43:128|43:128|76:71|33:9,1,207.000003948212,6|0,3:2|3:2,0:0:0:0:
111,185,141117,2,0,L|220:167,1,103.500001974106,12|0,0:2|0:2,0:0:0:0:
330,88,141441,1,0,3:2:0:0:
211,48,141603,1,0,3:2:0:0:
275,236,141766,1,10,0:2:0:0:
451,158,141928,6,0,B|362:157|362:157|343:165|343:165|220:157,1,207.000003948212,2|0,3:2|3:2,0:0:0:0:
215,295,142414,2,0,P|277:320|327:293,1,103.500001974106,8|0,0:2|0:2,0:0:0:0:
451,158,142739,1,0,3:2:0:0:
441,314,142901,1,0,3:2:0:0:
453,126,143063,1,10,0:2:0:0:
272,246,143225,6,0,B|255:205|255:205|271:79|271:79|255:45,1,207.000003948212,2|0,3:2|3:2,0:0:0:0:
303,246,143712,2,0,P|363:266|411:249,1,103.500001974106,8|0,0:2|0:2,0:0:0:0:
232,51,144036,2,0,P|172:31|124:48,1,103.500001974106,0|0,3:2|3:2,0:0:0:0:
79,229,144360,1,10,0:2:0:0:
25,141,144522,6,0,B|46:113|46:113|51:200|51:200|45:217|45:217|50:294|50:294,1,207.000003948212,2|0,3:2|3:2,0:0:0:0:
55,371,145009,1,10,0:2:0:0:
165,250,145171,1,0,0:2:0:0:
301,317,145333,1,0,3:2:0:0:
301,317,145495,2,0,L|273:204,1,103.500001974106,2|10,3:2|0:2,0:0:0:0:
379,382,145820,6,0,L|421:202,1,155.250002961159,6|0,3:2|0:0,0:0:0:0:
423,201,146144,1,2,3:2:0:0:
284,180,146306,1,10,0:2:0:0:
491,260,146468,1,2,0:2:0:0:
423,66,146630,2,0,L|432:173,2,103.500001974106,2|2|10,3:2|3:2|0:2,0:0:0:0:
284,180,147117,6,0,B|221:226|150:175|150:175|177:186|222:174,1,207.000003948212,2|2,3:2|3:2,0:0:0:0:
315,103,147603,1,10,0:2:0:0:
231,302,147766,1,2,0:2:0:0:
48,264,147928,2,0,P|27:216|61:160,2,103.500001974106,2|2|10,3:2|3:2|0:2,0:0:0:0:
122,340,148414,6,0,B|161:306|232:340|211:348|280:384|332:345,1,207.000003948212,2|2,3:2|3:2,0:0:0:0:
401,220,148901,2,0,L|393:334,1,103.500001974106,10|2,0:2|0:2,0:0:0:0:
480,221,149225,2,0,B|485:146|485:146|481:130|481:130|486:59,1,155.250002961159,2|0,3:2|0:0,0:0:0:0:
489,30,149549,5,10,0:2:0:0:
295,171,149712,1,2,3:2:0:0:
355,78,149874,5,12,0:2:0:0:
368,276,150036,1,2,3:2:0:0:
264,49,150198,5,14,0:2:0:0:
283,320,150360,1,2,3:2:0:0:
28,142,150522,5,10,0:2:0:0:
72,117,150603,1,8,0:2:0:0:
123,123,150684,1,8,0:2:0:0:
161,156,150766,1,8,0:2:0:0:
199,189,150847,1,10,0:2:0:0:
250,195,150928,1,8,0:2:0:0:
300,171,151009,6,0,B|287:59|287:59|311:20|311:20|324:110,1,207.000003948212,4|0,3:2|3:2,0:0:0:0:
363,232,151495,2,0,P|421:260|466:240,1,103.500001974106,8|2,0:2|0:1,0:0:0:0:
333,133,151820,1,0,3:2:0:0:
241,292,151982,1,2,0:1:0:0:
67,188,152144,2,0,L|188:174,1,103.500001974106,8|2,0:2|0:1,0:0:0:0:
228,89,152387,5,0,0:0:0:0:
228,89,152468,2,0,L|349:75,1,103.500001974106,0|2,3:2|0:1,0:0:0:0:
444,193,152793,1,8,0:2:0:0:
368,70,152955,1,2,0:1:0:0:
302,298,153117,1,0,3:2:0:0:
302,298,153279,2,0,P|358:321|427:284,2,103.500001974106,2|8|2,0:1|0:2|0:1,0:0:0:0:
163,186,153766,6,0,L|176:297,1,103.500001974106,0|2,3:0|0:1,0:0:0:0:
116,108,154090,2,0,L|62:226,1,103.500001974106,8|2,0:2|0:1,0:0:0:0:
221,56,154414,1,0,3:2:0:0:
44,47,154576,1,2,0:1:0:0:
163,186,154739,1,8,0:2:0:0:
234,29,154901,5,2,0:1:0:0:
234,29,154982,1,0,0:0:0:0:
234,29,155063,2,0,L|338:17,1,103.500001974106,0|2,3:0|0:1,0:0:0:0:
463,175,155387,2,0,P|485:119|460:54,1,103.500001974106,8|2,0:2|0:1,0:0:0:0:
345,221,155712,2,0,P|323:165|348:100,1,103.500001974106,0|2,3:2|3:1,0:0:0:0:
403,294,156036,1,8,0:2:0:0:
403,294,156117,1,0,0:0:0:0:
403,294,156198,6,0,L|392:357,1,51.7500009870529,4|0,3:2|0:0,0:0:0:0:
251,236,156360,2,0,L|242:185,1,51.7500009870529,0|0,0:0|0:0,0:0:0:0:
98,340,156522,5,0,3:2:0:0:
98,340,156603,1,0,0:2:0:0:
98,340,156684,1,12,0:2:0:0:
68,309,156765,1,0,0:2:0:0:
61,267,156846,1,2,0:1:0:0:
78,228,156927,1,0,0:0:0:0:
113,204,157009,6,0,L|175:214,3,51.7500009870529,0|0|2|0,3:2|0:2|0:1|0:2,0:0:0:0:
289,157,157333,2,0,L|227:167,3,51.7500009870529,8|0|2|0,0:2|0:2|0:1|0:2,0:0:0:0:
156,102,157657,5,0,3:2:0:0:
120,81,157738,1,0,0:2:0:0:
79,88,157819,1,2,0:1:0:0:
52,119,157900,1,0,0:2:0:0:
50,160,157981,1,8,0:2:0:0:
73,193,158062,1,0,0:2:0:0:
113,204,158143,1,2,0:1:0:0:
153,194,158225,1,0,0:2:0:0:
190,176,158306,5,0,3:2:0:0:
227,159,158387,1,0,3:2:0:0:
268,166,158468,1,2,3:1:0:0:
295,197,158549,1,0,3:2:0:0:
306,247,158630,5,8,0:2:0:0:
275,302,158711,1,8,0:2:0:0:
215,320,158792,1,10,0:1:0:0:
159,291,158873,1,8,0:2:0:0:
140,231,158954,5,12,0:2:0:0:
224,64,159117,1,0,3:2:0:0:
294,218,159279,5,12,0:2:0:0:
234,39,159441,1,0,3:2:0:0:
410,79,159603,5,12,0:2:0:0:
244,15,159765,1,0,3:2:0:0:
306,247,159928,5,12,0:2:0:0:
428,53,160090,1,0,3:2:0:0:
395,296,160252,5,8,0:2:0:0:
395,296,160333,1,8,3:3:0:0:
395,296,160414,1,8,3:3:0:0:
395,296,160495,1,8,3:3:0:0:
395,296,160576,5,0,3:2:0:0:
358,332,160657,1,0,3:2:0:0:
308,345,160738,1,0,3:2:0:0:
259,333,160819,1,0,3:2:0:0:
221,299,160901,1,0,3:2:0:0:
184,263,160982,1,0,3:2:0:0:
134,250,161063,1,0,3:2:0:0:
85,262,161144,1,0,3:2:0:0:
47,296,161225,1,0,3:2:0:0:
47,296,161306,1,0,3:2:0:0:
47,296,161387,6,0,B|30:349|30:349|24:163,1,233.999989288331,4|0,3:2|3:2,0:0:0:0:
136,63,161874,1,12,0:0:0:0:
196,233,162036,2,0,B|242:213|242:213|300:220|300:220|308:227|308:227|316:222|316:222|371:227|371:227|429:195,1,233.999989288331,2|2,0:1|0:1,0:0:0:0:
366,57,162522,2,0,P|260:37|248:144,1,233.999989288331,8|0,0:0|3:0,0:0:0:0:
368,148,163009,6,0,P|432:130|478:168,1,116.999994644165,2|8,0:1|0:0,0:0:0:0:
424,309,163333,2,0,P|360:327|314:289,1,116.999994644165,2|0,0:1|3:0,0:0:0:0:
224,164,163657,1,2,0:1:0:0:
179,299,163820,1,8,0:0:0:0:
232,139,163982,1,2,0:1:0:0:
270,353,164144,5,2,3:2:0:0:
270,353,164225,1,2,0:2:0:0:
270,353,164306,1,2,0:2:0:0:
71,207,164468,1,8,0:0:0:0:
41,286,164630,1,2,0:1:0:0:
103,129,164793,5,2,3:2:0:0:
103,129,164874,1,2,0:2:0:0:
103,129,164955,1,2,0:2:0:0:
209,214,165117,1,8,0:0:0:0:
13,137,165279,1,2,0:1:0:0:
179,36,165441,6,0,B|278:44|278:44|293:67,1,116.999994644165,0|2,3:0|0:1,0:0:0:0:
432,148,165766,2,0,B|333:140|333:140|318:117,1,116.999994644165,8|2,0:0|0:1,0:0:0:0:
460,63,166090,1,0,3:0:0:0:
405,234,166252,1,2,3:1:0:0:
323,125,166414,1,8,0:0:0:0:
352,350,166576,6,0,B|311:339|311:339|178:349|178:349|130:325,1,215.999993408203,4|0,3:2|3:0,0:0:0:0:
58,183,167063,2,0,L|65:318,1,107.999996704102,12|2,0:0|0:1,0:0:0:0:
207,107,167387,2,0,L|200:242,1,107.999996704102,0|2,3:0|0:1,0:0:0:0:
52,101,167712,1,8,0:0:0:0:
200,25,167874,6,0,B|251:27|251:27|315:60|315:60|400:61,1,161.999995056153,2|0,0:1|0:0,0:0:0:0:
391,61,168198,1,2,0:1:0:0:
356,227,168360,1,8,0:0:0:0:
469,94,168522,1,2,0:1:0:0:
490,255,168684,2,0,L|410:263,1,53.9999983520508,0|0,3:0|0:0,0:0:0:0:
311,138,168847,2,0,L|391:146,1,53.9999983520508,2|0,0:1|0:0,0:0:0:0:
312,304,169009,2,0,L|159:319,1,107.999996704102,8|2,0:0|0:1,0:0:0:0:
107,191,169333,5,2,3:2:0:0:
107,191,169414,1,2,0:2:0:0:
107,191,169495,1,2,0:2:0:0:
66,322,169657,1,8,0:0:0:0:
134,117,169820,1,2,0:1:0:0:
198,264,169982,5,0,3:0:0:0:
134,117,170144,1,2,0:1:0:0:
231,336,170306,1,8,0:0:0:0:
341,186,170468,1,6,3:2:0:0:
388,343,170630,5,0,3:0:0:0:
388,343,170712,1,0,3:0:0:0:
388,343,170793,2,0,L|372:283,1,53.9999983520508,0|0,3:0|3:0,0:0:0:0:
354,133,170955,5,2,3:2:0:0:
354,133,171037,1,0,3:0:0:0:
354,133,171118,2,0,L|340:185,1,53.9999983520508,0|0,3:0|3:0,0:0:0:0:
305,302,171279,1,2,3:2:0:0:
213,99,171441,1,2,3:2:0:0:
149,291,171603,1,10,0:2:0:0:
224,64,171766,1,6,3:2:0:0:
