osu file format v14

[General]
AudioFilename: audio.mp3
AudioLeadIn: 0
PreviewTime: 170635
Countdown: 0
SampleSet: Soft
StackLeniency: 0.7
Mode: 0
LetterboxInBreaks: 0
WidescreenStoryboard: 1

[Editor]
Bookmarks: 61263,173668
DistanceSpacing: 1.3
BeatDivisor: 4
GridSize: 32
TimelineZoom: 1.6

[Metadata]
Title:Henceforth
TitleUnicode:Henceforth
Artist:mary
ArtistUnicode:めありー
Creator:Hakku
Version:Hard
Source:
Tags:orangestar utaite japanese xahlt cover ボーカロイド ボカロ vocaloid IA j-pop jpop pop めありーちゃんねる
BeatmapID:2608889
BeatmapSetID:1240877

[Difficulty]
HPDrainRate:5
CircleSize:4
OverallDifficulty:6.7
ApproachRate:7.5
SliderMultiplier:1.4
SliderTickRate:1

[Events]
//Background and Video events
0,0,"EfOTKhQU0AEv4RB.jpg",0,0
//Break Periods
2,99228,109051
2,146531,157658
//Storyboard Layer 0 (Background)
//Storyboard Layer 1 (Fail)
//Storyboard Layer 2 (Pass)
//Storyboard Layer 3 (Foreground)
//Storyboard Layer 4 (Overlay)
//Storyboard Sound Samples

[TimingPoints]
509,379.746835443038,4,2,1,100,1,0
509,-125,4,2,1,50,0,0
12660,-125,4,2,1,60,0,0
24812,-125,4,2,1,70,0,0
36964,-125,4,2,1,60,0,0
61268,-100,4,2,1,85,0,0
85572,-100,4,2,1,70,0,0
109876,-125,4,2,1,50,0,0
122027,-200,4,2,1,50,0,0
122407,-125,4,2,1,60,0,0
164559,-125,4,2,1,70,0,0
167597,-125,4,2,1,75,0,0
169116,-125,4,2,1,80,0,0
170635,-125,4,2,1,80,0,0
173293,-125,4,2,1,90,0,0
173673,-100,4,2,1,85,0,0
207091,-100,4,2,1,70,0,0
219243,-200,4,2,1,85,0,0
222186,-200,4,2,1,5,0,0

[Colours]
Combo1 : 250,180,240
Combo2 : 110,190,225
Combo3 : 255,230,130
Combo4 : 128,128,192

[HitObjects]
469,305,509,6,0,P|426:327|358:294,1,112,10|8,0:1|0:1,0:0:0:0:
388,233,1078,1,2,0:0:0:0:
312,210,1268,2,0,B|257:207|276:257|190:251,1,112,10|8,0:1|0:1,0:0:0:0:
122,183,2027,2,0,L|134:62,1,112,10|8,0:1|0:1,0:0:0:0:
162,0,2597,1,2,0:0:0:0:
234,22,2787,2,0,B|272:23|272:23|292:38|292:38|346:36,1,112,10|8,0:1|0:1,0:0:0:0:
438,92,3546,6,0,P|420:118|416:197,1,112,10|8,0:1|0:1,0:0:0:0:
495,198,4116,1,2,0:0:0:0:
493,277,4306,2,0,L|372:291,1,112,10|8,0:1|0:1,0:0:0:0:
304,371,5065,2,0,L|183:357,1,112,10|8,0:1|0:1,0:0:0:0:
198,281,5635,1,2,0:0:0:0:
123,289,5825,2,0,P|111:240|142:178,1,112,10|8,0:1|0:1,0:0:0:0:
295,162,6584,6,0,B|350:159|331:209|417:203,1,112,10|8,0:1|0:1,0:0:0:0:
471,207,7154,1,2,0:0:0:0:
483,133,7344,2,0,P|507:88|491:26,1,112,10|8,0:1|0:1,0:0:0:0:
395,83,8103,2,0,B|353:87|353:87|329:98|329:98|285:106,1,112,10|8,0:1|0:1,0:0:0:0:
234,50,8673,1,2,0:0:0:0:
161,36,8863,2,0,B|119:31|119:31|95:20|95:20|51:12,1,112,10|8,0:1|0:1,0:0:0:0:
90,125,9622,6,0,P|115:163|96:238,1,112,10|8,0:1|0:1,0:0:0:0:
31,218,10192,1,2,0:0:0:0:
15,293,10382,2,0,L|128:308,1,112,10|8,0:1|0:1,0:0:0:0:
208,383,11141,2,0,L|321:368,1,112,10|8,0:1|0:1,0:0:0:0:
395,378,11711,1,2,0:0:0:0:
412,305,11901,2,0,B|382:279|382:279|411:192,1,112,10|8,0:1|0:1,0:0:0:0:
463,115,12660,6,0,B|407:103|413:152|339:129,1,112,10|8,0:1|0:1,0:0:0:0:
260,22,13420,2,0,L|247:80,1,56,10|2,0:1|0:0,0:0:0:0:
180,36,13800,2,0,L|167:94,1,56,10|2,0:1|0:0,0:0:0:0:
125,150,14179,6,0,P|83:123|10:149,1,112,10|8,0:1|0:1,0:0:0:0:
66,199,14749,1,2,0:0:0:0:
66,199,14939,2,0,B|54:238|54:238|32:260|32:260|18:310,1,112,10|8,0:1|0:1,0:0:0:0:
144,377,15698,6,0,P|177:357|255:378,1,112,10|10,0:1|0:1,0:0:0:0:
358,276,16458,2,0,L|344:338,1,56,10|2,0:1|0:0,0:0:0:0:
422,330,16838,2,0,L|408:392,1,56,10|2,0:1|0:0,0:0:0:0:
494,297,17217,5,8,0:1:0:0:
494,297,17407,2,0,L|491:233,1,56,2|10,0:0|0:1,0:0:0:0:
437,191,17787,1,2,0:0:0:0:
437,191,17977,2,0,B|410:156|410:156|436:91,1,112,10|8,0:1|0:1,0:0:0:0:
320,2,18736,6,0,B|261:-2|277:43|211:33,1,112,10|8,0:1|0:1,0:0:0:0:
170,90,19306,1,2,0:0:0:0:
170,90,19496,2,0,P|127:73|109:72,1,56,10|2,0:1|0:0,0:0:0:0:
59,117,19876,2,0,P|16:134|-2:135,1,56,10|2,0:1|0:0,0:0:0:0:
64,198,20255,6,0,L|187:213,1,112,10|8,0:1|0:1,0:0:0:0:
242,178,20825,1,2,0:0:0:0:
242,178,21015,2,0,P|250:209|205:282,1,112,10|8,0:1|0:1,0:0:0:0:
88,348,21774,6,0,L|152:359,1,56,10|2,0:1|0:0,0:0:0:0:
207,322,22154,2,0,L|271:311,1,56,10|2,0:1|0:0,0:0:0:0:
320,356,22534,2,0,B|367:363|367:363|391:355|391:355|439:362,1,112,10|10,0:1|0:1,0:0:0:0:
489,319,23103,1,2,0:0:0:0:
489,319,23293,5,8,0:1:0:0:
452,256,23483,2,0,P|446:224|454:193,2,56,2|10|2,0:0|0:1|0:0,0:0:0:0:
511,159,24053,2,0,L|389:145,1,112,8|8,0:1|0:1,0:0:0:0:
261,1,24812,6,0,P|233:48|252:114,1,112,14|10,0:1|0:3,0:0:0:0:
213,173,25382,1,0,0:0:0:0:
274,226,25572,1,2,0:0:0:0:
274,226,25762,1,2,0:0:0:0:
223,281,25952,2,0,L|165:269,1,56,10|2,0:3|0:0,0:0:0:0:
221,358,26331,6,0,P|257:348|289:344,1,56,2|0,0:0|0:0,0:0:0:0:
343,371,26711,2,0,P|379:381|411:385,1,56,10|0,0:3|0:0,0:0:0:0:
449,332,27091,1,2,0:0:0:0:
449,332,27281,1,2,0:0:0:0:
398,273,27471,2,0,L|404:205,1,56,10|2,0:3|0:0,0:0:0:0:
458,169,27850,6,0,P|488:127|471:66,1,112,2|10,0:0|0:3,0:0:0:0:
419,23,28420,1,0,0:0:0:0:
359,62,28610,1,2,0:0:0:0:
359,62,28800,1,2,0:0:0:0:
281,31,28990,2,0,L|285:91,1,56,10|2,0:3|0:0,0:0:0:0:
288,173,29369,6,0,P|252:157|222:152,1,56,2|0,0:0|0:0,0:0:0:0:
186,207,29749,2,0,P|150:191|120:186,1,56,10|0,0:3|0:0,0:0:0:0:
72,223,30129,1,2,0:0:0:0:
72,223,30319,1,2,0:0:0:0:
18,171,30509,2,0,P|2:135|-3:105,1,56,10|2,0:3|0:0,0:0:0:0:
25,51,30888,6,0,B|69:46|69:46|93:51|93:51|155:43,1,112,2|10,0:0|0:3,0:0:0:0:
197,84,31458,1,0,0:0:0:0:
250,34,31648,1,2,0:0:0:0:
250,34,31838,1,2,0:0:0:0:
314,67,32027,2,0,L|305:128,1,56,10|2,0:3|0:0,0:0:0:0:
330,193,32407,6,0,P|369:181|397:174,1,56,2|0,0:0|0:0,0:0:0:0:
436,270,32787,2,0,P|397:258|369:251,1,56,10|0,0:3|0:0,0:0:0:0:
336,311,33167,1,2,0:0:0:0:
336,311,33357,1,2,0:0:0:0:
280,264,33546,2,0,P|268:225|261:197,1,56,10|2,0:3|0:0,0:0:0:0:
225,314,33926,6,0,P|191:304|123:339,1,112,2|10,0:0|0:3,0:0:0:0:
64,376,34496,1,0,0:0:0:0:
21,317,34686,1,2,0:0:0:0:
21,317,34876,1,2,0:0:0:0:
69,263,35065,2,0,P|79:229|84:198,1,56,10|2,0:3|0:0,0:0:0:0:
45,141,35445,6,0,L|122:131,1,56,2|0,0:0|0:0,0:0:0:0:
152,82,35825,2,0,L|229:92,1,56,10|0,0:3|0:0,0:0:0:0:
268,47,36205,1,2,0:0:0:0:
268,47,36395,1,2,0:0:0:0:
321,96,36584,2,0,L|325:160,1,56,10|10,0:3|0:1,0:0:0:0:
306,222,36964,6,0,B|368:217|359:259|419:244,1,112,14|8,0:1|0:2,0:0:0:0:
456,187,37534,1,2,0:0:0:0:
428,119,37724,2,0,L|440:42,1,56,10|2,0:1|0:0,0:0:0:0:
360,76,38103,2,0,L|372:-1,1,56,10|2,0:2|0:0,0:0:0:0:
291,41,38483,6,0,B|249:45|249:45|230:55|230:55|170:61,1,112,10|8,0:1|0:2,0:0:0:0:
121,17,39053,1,2,0:0:0:0:
64,62,39243,2,0,P|41:111|64:180,1,112,10|8,0:1|0:2,0:0:0:0:
85,307,40002,6,0,L|151:301,1,56,10|2,0:1|0:0,0:0:0:0:
194,251,40382,2,0,B|249:239|244:295|310:272,1,112,10|10,0:2|0:1,0:0:0:0:
351,224,40952,1,2,0:0:0:0:
351,224,41141,2,0,B|362:184|362:184|357:157|357:157|367:110,1,112,10|8,0:2|0:1,0:0:0:0:
324,54,41711,6,0,L|261:49,1,56,2|8,0:0|0:2,0:0:0:0:
212,2,42091,1,2,0:0:0:0:
148,36,42281,2,0,B|116:72|116:72|142:154,1,112,8|8,0:1|0:2,0:0:0:0:
199,186,42850,1,2,0:0:0:0:
199,186,42945,1,2,0:0:0:0:
199,186,43040,6,0,P|245:164|307:188,1,112,10|8,0:1|0:2,0:0:0:0:
369,158,43610,1,2,0:0:0:0:
425,203,43800,2,0,L|413:267,1,56,10|2,0:1|0:0,0:0:0:0:
490,259,44179,2,0,L|478:323,1,56,10|2,0:2|0:0,0:0:0:0:
421,358,44559,6,0,B|379:362|379:362|360:372|360:372|300:378,1,112,10|8,0:1|0:2,0:0:0:0:
268,317,45129,1,2,0:0:0:0:
268,317,45319,2,0,L|208:324,1,56,10|0,0:1|0:0,0:0:0:0:
156,369,45698,2,0,L|96:362,1,56,8|2,0:2|0:0,0:0:0:0:
53,306,46078,5,10,0:1:0:0:
53,306,46268,1,2,0:0:0:0:
103,253,46458,2,0,L|110:184,1,56,10|2,0:2|0:0,0:0:0:0:
165,150,46838,2,0,P|203:167|282:131,1,112,10|10,0:1|0:2,0:0:0:0:
322,99,47407,1,2,0:0:0:0:
381,141,47597,6,0,L|374:204,1,56,10|2,0:1|0:0,0:0:0:0:
418,255,47977,1,8,0:2:0:0:
372,312,48167,1,2,0:0:0:0:
372,312,48262,1,2,0:0:0:0:
372,312,48357,2,0,P|317:288|262:316,1,112,8|8,0:1|0:2,0:0:0:0:
154,219,49116,6,0,L|143:103,1,112,14|8,0:1|0:2,0:0:0:0:
91,55,49686,1,2,0:0:0:0:
139,1,49876,2,0,L|201:10,1,56,10|2,0:1|0:0,0:0:0:0:
248,57,50255,2,0,L|310:48,1,56,10|2,0:2|0:0,0:0:0:0:
369,18,50635,6,0,B|400:-10|400:-10|435:4|481:13,1,112,10|8,0:1|0:2,0:0:0:0:
495,77,51205,1,2,0:0:0:0:
439,124,51395,2,0,P|418:181|443:234,1,112,8|8,0:1|0:2,0:0:0:0:
478,297,51964,1,2,0:0:0:0:
478,297,52059,1,2,0:0:0:0:
478,297,52154,6,0,L|413:302,1,56,10|2,0:1|0:0,0:0:0:0:
369,352,52534,1,10,0:2:0:0:
369,352,52724,1,2,0:0:0:0:
310,308,52914,2,0,B|255:296|260:352|194:329,1,112,10|10,0:1|0:2,0:0:0:0:
141,301,53483,1,2,0:0:0:0:
141,301,53673,6,0,L|130:180,1,112,8|8,0:1|0:2,0:0:0:0:
129,103,54243,1,2,0:0:0:0:
129,103,54338,1,2,0:0:0:0:
129,103,54433,2,0,P|168:122|243:93,1,112,10|8,0:1|0:2,0:0:0:0:
358,12,55192,6,0,B|369:52|369:52|364:79|364:79|374:126,1,112,10|8,0:1|0:2,0:0:0:0:
427,177,55762,1,2,0:0:0:0:
427,177,55952,2,0,L|491:170,1,56,10|2,0:1|0:0,0:0:0:0:
447,254,56331,2,0,L|383:247,1,56,10|2,0:2|0:0,0:0:0:0:
341,301,56711,6,0,P|304:276|234:289,1,112,10|10,0:1|0:2,0:0:0:0:
179,325,57281,1,2,0:0:0:0:
120,281,57471,2,0,B|109:241|109:241|114:214|114:214|104:167,1,112,10|8,0:1|0:2,0:0:0:0:
54,119,58040,1,0,0:0:0:0:
88,54,58230,6,0,L|147:66,1,56,10|2,0:1|0:0,0:0:0:0:
196,15,58610,1,10,0:2:0:0:
251,62,58800,2,0,P|296:33|356:49,1,112,2|2,0:0|0:0,0:0:0:0:
377,117,59369,1,10,0:2:0:0:
377,117,59559,1,2,0:0:0:0:
432,5,59749,5,8,0:1:0:0:
432,5,59939,2,0,L|423:76,1,56,2|8,0:0|0:2,0:0:0:0:
477,125,60319,1,2,0:0:0:0:
477,125,60414,1,2,0:0:0:0:
477,125,60509,2,0,P|457:183|481:237,1,112,8|10,0:1|0:2,0:0:0:0:
504,294,61078,1,0,0:0:0:0:
402,341,61268,6,0,B|323:334|351:399|249:382,1,140,14|8,0:1|0:2,0:0:0:0:
217,321,61838,1,2,0:0:0:0:
143,360,62027,2,0,L|69:347,1,70,10|2,0:1|0:0,0:0:0:0:
23,280,62407,2,0,L|97:267,1,70,10|2,0:2|0:0,0:0:0:0:
158,205,62787,6,0,P|187:217|236:206,1,70,10|0,0:1|0:0,0:0:0:0:
115,136,63167,2,0,P|144:124|193:135,1,70,10|0,0:2|0:0,0:0:0:0:
169,224,63547,2,0,P|250:244|316:215,1,140,10|8,0:1|0:2,0:0:0:0:
355,152,64116,1,2,0:0:0:0:
415,219,64306,6,0,L|486:206,2,70,10|2|10,0:1|0:0|0:2,0:0:0:0:
333,260,64876,2,0,P|261:229|184:263,1,140,2|2,0:0|0:0,0:0:0:0:
132,301,65445,1,10,0:2:0:0:
50,260,65635,6,0,L|75:115,1,140,2|2,0:0|0:0,0:0:0:0:
28,42,66205,1,10,0:2:0:0:
116,0,66395,1,2,0:0:0:0:
116,0,66490,1,2,0:0:0:0:
116,0,66584,1,10,0:1:0:0:
190,52,66774,2,0,L|262:40,1,70,2|10,0:0|0:2,0:0:0:0:
337,0,67154,1,2,0:0:0:0:
395,59,67344,6,0,B|382:108|382:108|388:141|388:141|376:198,1,140,8|8,0:1|0:2,0:0:0:0:
312,250,67914,1,2,0:0:0:0:
344,324,68103,2,0,L|418:311,1,70,10|2,0:1|0:0,0:0:0:0:
282,373,68483,2,0,L|208:360,1,70,10|2,0:2|0:0,0:0:0:0:
150,304,68863,6,0,L|141:224,1,70,10|0,0:1|0:0,0:0:0:0:
61,209,69243,2,0,L|68:290,1,70,10|0,0:2|0:0,0:0:0:0:
127,167,69622,2,0,B|170:191|170:191|276:165,1,140,10|8,0:1|0:2,0:0:0:0:
289,90,70192,1,2,0:0:0:0:
353,143,70382,6,0,P|363:180|369:220,1,70,10|2,0:1|0:0,0:0:0:0:
294,253,70762,2,0,P|284:290|278:330,1,70,10|2,0:2|0:0,0:0:0:0:
340,378,71141,2,0,P|382:368|419:363,1,70,10|2,0:1|0:0,0:0:0:0:
470,306,71521,1,10,0:2:0:0:
422,249,71711,1,2,0:0:0:0:
422,249,71806,1,2,0:0:0:0:
422,249,71901,6,0,B|395:217|395:217|433:108,1,140,10|8,0:1|0:2,0:0:0:0:
499,77,72471,1,2,0:0:0:0:
499,77,72565,1,2,0:0:0:0:
499,77,72660,2,0,L|411:63,1,70,10|0,0:1|0:0,0:0:0:0:
356,35,73040,1,8,0:2:0:0:
356,35,73420,6,0,P|322:70|222:56,1,140,14|8,0:1|0:2,0:0:0:0:
168,16,73990,1,2,0:0:0:0:
90,47,74179,2,0,P|99:92|105:126,1,70,10|2,0:1|0:0,0:0:0:0:
68,192,74559,2,0,P|23:183|-11:177,1,70,10|2,0:2|0:0,0:0:0:0:
55,278,74939,6,0,P|95:261|144:261,1,70,10|0,0:1|0:0,0:0:0:0:
181,318,75319,2,0,P|221:334|270:334,1,70,10|0,0:2|0:0,0:0:0:0:
317,290,75698,2,0,L|334:150,1,140,10|8,0:1|0:2,0:0:0:0:
392,90,76268,1,2,0:0:0:0:
326,37,76458,6,0,L|243:53,1,70,10|2,0:1|0:0,0:0:0:0:
181,12,76838,2,0,L|98:-4,1,70,10|2,0:2|0:0,0:0:0:0:
45,49,77217,1,10,0:1:0:0:
105,107,77407,2,0,B|134:146|134:146|101:245,1,140,2|2,0:0|0:0,0:0:0:0:
39,286,77977,5,10,0:1:0:0:
39,286,78167,1,2,0:0:0:0:
87,354,78357,1,10,0:2:0:0:
158,311,78546,1,2,0:0:0:0:
158,311,78641,1,2,0:0:0:0:
158,311,78736,2,0,P|197:334|290:303,1,140,10|10,0:1|0:2,0:0:0:0:
281,225,79306,1,2,0:0:0:0:
281,225,79401,1,2,0:0:0:0:
281,225,79496,6,0,B|270:174|270:174|279:135|279:135|267:81,1,140,10|8,0:1|0:2,0:0:0:0:
316,18,80065,1,2,0:0:0:0:
377,75,80255,2,0,L|453:65,1,70,10|2,0:1|0:0,0:0:0:0:
431,149,80635,1,10,0:2:0:0:
381,217,80825,1,2,0:0:0:0:
381,217,80920,1,2,0:0:0:0:
381,217,81015,6,0,L|305:207,1,70,10|0,0:1|0:0,0:0:0:0:
316,292,81395,2,0,L|240:282,1,70,10|0,0:2|0:0,0:0:0:0:
193,217,81774,2,0,B|116:200|131:261|51:243,1,140,10|8,0:1|0:2,0:0:0:0:
16,172,82344,1,2,0:0:0:0:
59,100,82534,6,0,L|133:116,1,70,10|2,0:1|0:0,0:0:0:0:
183,51,82914,1,10,0:2:0:0:
183,51,83103,1,2,0:0:0:0:
247,104,83293,2,0,P|290:79|383:110,1,140,10|8,0:1|0:2,0:0:0:0:
457,108,83863,2,0,L|444:187,1,70,2|8,0:0|0:1,0:0:0:0:
402,249,84243,5,2,0:0:0:0:
402,249,84433,1,10,0:2:0:0:
333,201,84622,1,2,0:0:0:0:
269,255,84812,2,0,L|276:326,1,70,8|2,0:1|0:0,0:0:0:0:
210,377,85192,1,10,0:2:0:0:
146,322,85382,1,2,0:0:0:0:
146,322,85477,1,2,0:0:0:0:
146,322,85572,6,0,B|74:314|93:371|2:359,1,140,14|10,0:1|0:2,0:0:0:0:
5,276,86141,1,2,0:0:0:0:
5,276,86331,2,0,L|17:207,1,70,10|0,0:1|0:0,0:0:0:0:
74,144,86711,1,10,0:2:0:0:
132,204,86901,1,2,0:0:0:0:
182,136,87091,6,0,P|223:159|255:162,1,70,10|0,0:1|0:0,0:0:0:0:
328,152,87471,1,10,0:2:0:0:
328,152,87565,1,2,0:0:0:0:
328,152,87660,1,2,0:0:0:0:
264,24,87850,2,0,L|259:96,1,70,10|0,0:1|0:0,0:0:0:0:
328,152,88230,1,10,0:2:0:0:
390,96,88420,1,2,0:0:0:0:
453,150,88610,6,0,L|441:227,1,70,10|0,0:1|0:0,0:0:0:0:
499,280,88990,1,10,0:2:0:0:
499,280,89179,1,2,0:0:0:0:
452,350,89369,2,0,L|381:337,1,70,10|0,0:1|0:0,0:0:0:0:
330,271,89749,2,0,L|259:284,1,70,10|2,0:2|0:0,0:0:0:0:
209,350,90129,6,0,B|160:347|160:347|127:364|127:364|69:360,1,140,10|8,0:1|0:2,0:0:0:0:
23,305,90698,1,2,0:0:0:0:
23,305,90793,1,2,0:0:0:0:
23,305,90888,2,0,L|39:218,1,70,10|0,0:1|0:0,0:0:0:0:
100,181,91268,1,10,0:2:0:0:
46,116,91458,1,0,0:0:0:0:
102,53,91648,6,0,L|180:70,1,70,10|0,0:1|0:0,0:0:0:0:
236,16,92027,1,10,0:2:0:0:
236,16,92217,1,0,0:0:0:0:
292,78,92407,2,0,P|336:63|376:61,1,70,10|2,0:1|0:0,0:0:0:0:
411,126,92787,1,10,0:2:0:0:
489,90,92977,1,2,0:0:0:0:
489,90,93167,6,0,L|504:232,1,140,10|8,0:1|0:2,0:0:0:0:
503,229,93641,1,2,0:0:0:0:
503,229,93736,1,2,0:0:0:0:
455,298,93926,2,0,L|385:281,1,70,10|0,0:1|0:0,0:0:0:0:
328,379,94306,2,0,L|398:362,1,70,10|0,0:2|0:0,0:0:0:0:
300,296,94686,6,0,P|256:324|164:298,1,140,10|10,0:1|0:2,0:0:0:0:
208,230,95255,1,0,0:0:0:0:
141,178,95445,2,0,L|131:105,1,70,10|0,0:1|0:0,0:0:0:0:
184,42,95825,2,0,L|257:52,1,70,10|0,0:2|0:0,0:0:0:0:
308,115,96205,6,0,L|448:98,1,140,10|8,0:1|0:2,0:0:0:0:
446,98,96679,1,2,0:0:0:0:
446,98,96774,1,2,0:0:0:0:
509,173,96964,1,10,0:1:0:0:
509,173,97154,1,2,0:0:0:0:
459,241,97344,1,10,0:2:0:0:
510,307,97534,1,2,0:0:0:0:
456,372,97724,1,6,0:0:0:0:
65,306,109876,6,0,P|111:279|176:304,1,112,10|8,0:1|0:1,0:0:0:0:
217,351,110445,1,2,0:0:0:0:
217,351,110635,2,0,L|279:341,1,56,10|2,0:1|0:0,0:0:0:0:
333,301,111015,2,0,L|395:311,1,56,10|2,0:1|0:0,0:0:0:0:
456,282,111395,6,0,B|490:254|490:254|474:168,1,112,10|8,0:1|0:1,0:0:0:0:
427,134,111964,1,2,0:0:0:0:
427,134,112154,2,0,B|393:106|393:106|409:20,1,112,10|8,0:1|0:1,0:0:0:0:
261,95,112914,6,0,L|200:83,1,56,10|2,0:1|0:0,0:0:0:0:
205,6,113293,2,0,L|144:18,1,56,10|2,0:1|0:0,0:0:0:0:
119,83,113673,2,0,P|70:62|1:92,1,112,10|10,0:1|0:1,0:0:0:0:
35,148,114243,6,0,L|39:208,1,56,2|10,0:0|0:1,0:0:0:0:
3,267,114622,2,0,L|-1:327,1,56,2|8,0:0|0:1,0:0:0:0:
62,368,115002,1,2,0:0:0:0:
62,368,115192,2,0,P|105:345|169:361,1,112,8|8,0:1|0:1,0:0:0:0:
269,256,115952,6,0,L|203:259,1,56,10|0,0:1|0:0,0:0:0:0:
157,211,116331,1,10,0:1:0:0:
205,156,116521,1,2,0:0:0:0:
156,102,116711,2,0,L|95:108,1,56,10|2,0:1|0:0,0:0:0:0:
191,38,117091,2,0,L|252:44,1,56,10|2,0:1|0:0,0:0:0:0:
314,15,117471,6,0,P|346:41|431:28,1,112,10|8,0:1|0:1,0:0:0:0:
481,12,118040,1,2,0:0:0:0:
481,12,118230,2,0,B|496:55|496:55|493:79|493:79|509:126,1,112,10|8,0:1|0:1,0:0:0:0:
439,235,118990,6,0,P|404:209|328:227,1,112,8|8,0:1|0:1,0:0:0:0:
289,342,119749,2,0,B|234:339|253:389|167:383,1,112,8|8,0:1|0:1,0:0:0:0:
88,292,120509,2,0,B|63:263|63:263|81:180,1,112,8|8,0:1|0:1,0:0:0:0:
128,137,121078,2,0,L|122:88,2,28,2|2|10,0:0|0:0|0:1,0:0:0:0:
186,181,121458,1,2,0:0:0:0:
243,136,121648,1,10,0:1:0:0:
243,136,121838,1,2,0:0:0:0:
306,212,122027,6,0,L|301:264,1,52.5,2|2,0:0|0:1,0:0:0:0:
314,290,122407,2,0,P|356:268|410:268,1,84,12|0,0:2|0:0,0:0:0:0:
416,292,122787,2,0,L|496:310,1,56,2|2,0:0|0:0,0:0:0:0:
418,372,123167,2,0,L|338:390,1,56,10|2,0:2|0:0,0:0:0:0:
317,327,123546,6,0,P|285:343|204:303,1,112,10|8,0:1|0:2,0:0:0:0:
243,252,124116,1,2,0:0:0:0:
243,252,124306,2,0,B|238:210|238:210|249:180|249:180|244:132,1,112,10|10,0:1|0:2,0:0:0:0:
279,79,124876,1,2,0:0:0:0:
279,79,125065,6,0,L|402:97,1,112,10|8,0:1|0:2,0:0:0:0:
447,49,125635,1,2,0:0:0:0:
504,93,125825,2,0,L|494:156,1,56,10|2,0:1|0:0,0:0:0:0:
448,204,126205,2,0,L|458:267,1,56,10|2,0:2|0:0,0:0:0:0:
492,322,126584,6,0,P|452:294|376:320,1,112,10|8,0:1|0:2,0:0:0:0:
349,364,127154,1,2,0:0:0:0:
349,364,127249,1,2,0:0:0:0:
349,364,127344,2,0,B|308:353|308:353|281:359|281:359|237:345,1,112,10|10,0:1|0:2,0:0:0:0:
177,382,127914,1,2,0:0:0:0:
125,330,128103,6,0,L|114:194,1,112,10|8,0:1|0:2,0:0:0:0:
143,150,128673,1,2,0:0:0:0:
143,150,128863,2,0,P|184:139|214:144,1,56,10|2,0:1|0:0,0:0:0:0:
236,208,129243,2,0,P|277:219|307:214,1,56,10|2,0:2|0:0,0:0:0:0:
323,213,129527,1,2,0:0:0:0:
323,213,129622,6,0,L|382:207,1,56,10|2,0:1|0:0,0:0:0:0:
425,151,130002,1,10,0:2:0:0:
387,87,130192,1,2,0:0:0:0:
387,87,130287,1,2,0:0:0:0:
387,87,130382,2,0,B|330:79|338:121|273:109,1,112,10|8,0:1|0:2,0:0:0:0:
171,13,131141,6,0,P|129:-9|55:17,1,112,10|10,0:1|0:2,0:0:0:0:
2,135,131901,2,0,L|14:265,1,112,10|10,0:1|0:2,0:0:0:0:
110,354,132660,2,0,B|146:331|146:331|229:358,1,112,10|8,0:1|0:2,0:0:0:0:
268,306,133230,1,2,0:0:0:0:
268,306,133325,1,2,0:0:0:0:
268,306,133420,2,0,L|331:296,1,56,10|2,0:1|0:0,0:0:0:0:
395,326,133800,1,10,0:2:0:0:
395,326,133990,1,2,0:0:0:0:
449,277,134179,6,0,L|455:186,1,84,10|0,0:1|0:0,0:0:0:0:
454,193,134559,1,12,0:2:0:0:
413,138,134749,1,2,0:0:0:0:
413,138,134939,2,0,L|345:148,1,56,10|2,0:1|0:0,0:0:0:0:
310,90,135319,2,0,L|242:80,1,56,8|2,0:2|0:0,0:0:0:0:
202,132,135698,6,0,L|211:205,1,56,10|0,0:1|0:0,0:0:0:0:
132,90,136078,2,0,L|123:163,1,56,10|0,0:2|0:0,0:0:0:0:
221,151,136458,2,0,L|236:268,1,112,10|10,0:1|0:2,0:0:0:0:
162,293,137027,1,2,0:0:0:0:
162,293,137217,6,0,B|116:287|116:287|101:276|101:276|52:271,1,112,10|8,0:1|0:2,0:0:0:0:
11,211,137787,1,2,0:0:0:0:
34,142,137977,2,0,L|96:135,1,56,10|2,0:1|0:0,0:0:0:0:
131,75,138357,2,0,L|193:82,1,56,10|2,0:2|0:0,0:0:0:0:
240,130,138736,6,0,L|231:203,1,56,10|0,0:1|0:0,0:0:0:0:
310,88,139116,2,0,L|319:161,1,56,10|0,0:2|0:0,0:0:0:0:
225,145,139496,2,0,L|210:262,1,112,10|8,0:1|0:2,0:0:0:0:
266,317,140065,1,2,0:0:0:0:
266,317,140160,1,2,0:0:0:0:
266,317,140255,6,0,P|301:297|374:318,1,112,10|8,0:1|0:2,0:0:0:0:
436,287,140825,1,2,0:0:0:0:
436,287,141015,2,0,L|452:219,1,56,10|2,0:1|0:0,0:0:0:0:
399,178,141395,2,0,L|383:110,1,56,10|2,0:2|0:0,0:0:0:0:
410,54,141774,6,0,L|471:62,1,56,10|2,0:1|0:0,0:0:0:0:
358,3,142154,2,0,L|297:11,1,56,10|2,0:2|0:0,0:0:0:0:
255,66,142534,2,0,P|212:40|145:55,1,112,10|8,0:1|0:2,0:0:0:0:
108,107,143103,1,2,0:0:0:0:
108,107,143198,1,2,0:0:0:0:
108,107,143293,6,0,L|112:220,1,112,10|8,0:1|0:2,0:0:0:0:
197,337,144053,2,0,B|244:330|244:330|270:339|270:339|323:330,1,112,10|8,0:1|0:2,0:0:0:0:
379,206,144812,6,0,P|339:180|258:198,1,112,10|8,0:1|0:2,0:0:0:0:
218,227,145382,1,0,0:0:0:0:
218,227,145572,2,0,L|232:296,1,56,10|2,0:1|0:0,0:0:0:0:
282,338,145952,1,10,0:2:0:0:
282,338,146141,1,2,0:0:0:0:
221,378,146331,1,12,0:1:0:0:
479,84,158483,6,0,B|438:78|438:78|417:84|417:84|367:76,1,112,12|8,0:1|0:1,0:0:0:0:
319,130,159053,1,2,0:0:0:0:
319,130,159243,2,0,L|249:122,1,56,8|0,0:1|0:0,0:0:0:0:
207,77,159622,2,0,L|137:85,1,56,8|2,0:1|0:0,0:0:0:0:
99,134,160002,6,0,L|119:258,1,112,8|8,0:1|0:1,0:0:0:0:
182,287,160572,1,0,0:0:0:0:
182,287,160762,2,0,P|212:274|239:271,1,56,10|2,0:1|0:0,0:0:0:0:
287,321,161141,2,0,P|317:334|344:337,1,56,8|0,0:1|0:0,0:0:0:0:
399,294,161521,6,0,B|429:273|429:273|417:184,1,112,8|8,0:1|0:1,0:0:0:0:
378,136,162091,1,2,0:0:0:0:
378,136,162281,2,0,L|314:143,1,56,8|0,0:1|0:0,0:0:0:0:
415,69,162660,2,0,L|479:76,1,56,8|2,0:1|0:0,0:0:0:0:
362,19,163040,6,0,B|324:28|324:28|292:18|292:18|246:30,1,112,8|8,0:1|0:1,0:0:0:0:
208,85,163610,1,0,0:0:0:0:
208,85,163800,2,0,L|146:74,1,56,10|2,0:1|0:0,0:0:0:0:
96,28,164179,2,0,L|34:39,1,56,8|0,0:1|0:0,0:0:0:0:
14,106,164559,6,0,L|6:164,1,56,10|0,0:3|0:0,0:0:0:0:
69,198,164939,2,0,L|77:256,1,56,10|0,0:3|0:0,0:0:0:0:
66,326,165319,2,0,L|-4:318,1,56,10|0,0:3|0:0,0:0:0:0:
109,384,165698,2,0,L|179:376,1,56,10|0,0:3|0:0,0:0:0:0:
203,315,166078,6,0,P|245:298|280:291,1,56,10|0,0:3|0:0,0:0:0:0:
312,340,166458,2,0,P|354:357|389:364,1,56,10|0,0:3|0:0,0:0:0:0:
418,310,166838,2,0,P|460:293|495:286,1,56,10|0,0:3|0:0,0:0:0:0:
374,248,167217,2,0,P|332:231|297:224,1,56,10|10,0:3|0:1,0:0:0:0:
281,166,167597,5,10,0:3:0:0:
281,166,167787,1,10,0:1:0:0:
321,106,167977,1,10,0:3:0:0:
321,106,168167,1,10,0:1:0:0:
261,64,168357,1,10,0:3:0:0:
261,64,168546,1,10,0:1:0:0:
220,125,168736,1,10,0:3:0:0:
169,72,168926,1,10,0:1:0:0:
169,72,169021,1,10,0:1:0:0:
169,72,169116,6,0,L|136:59,3,28,10|10|10|10,0:3|0:3|0:3|0:3,0:0:0:0:
134,102,169496,2,0,L|98:110,3,28,10|10|10|10,0:3|0:3|0:3|0:3,0:0:0:0:
99,73,169876,2,0,L|63:65,3,28,10|10|10|10,0:3|0:3|0:3|0:3,0:0:0:0:
64,103,170256,2,0,L|28:111,3,28,10|10|10|10,0:3|0:3|0:3|0:3,0:0:0:0:
39,132,170635,6,0,L|27:245,1,112,14|8,0:1|0:1,0:0:0:0:
77,296,171205,1,10,0:1:0:0:
35,356,171395,1,10,0:1:0:0:
101,384,171584,1,10,0:1:0:0:
222,313,171774,1,10,0:1:0:0:
150,330,171964,1,10,0:1:0:0:
90,200,173293,2,0,L|199:208,1,84,10|0,0:3|0:0,0:0:0:0:
217,191,173673,6,0,P|264:212|318:192,1,105,14|0,0:1|0:0,0:0:0:0:
312,196,174053,1,10,0:2:0:0:
372,128,174243,2,0,P|406:118|452:132,1,70,2|8,0:0|0:1,0:0:0:0:
508,183,174622,1,2,0:0:0:0:
508,183,174812,1,10,0:2:0:0:
452,255,175002,2,0,L|444:332,1,70,2|8,0:0|0:1,0:0:0:0:
374,382,175382,5,2,0:0:0:0:
303,324,175572,1,10,0:2:0:0:
232,381,175762,2,0,L|155:368,1,70,2|10,0:0|0:1,0:0:0:0:
115,291,176141,2,0,L|100:219,2,70,2|10|2,0:0|0:2|0:0,0:0:0:0:
183,230,176711,6,0,B|232:220|232:220|266:233|266:233|338:217,1,140,8|8,0:1|0:2,0:0:0:0:
377,151,177281,1,2,0:0:0:0:
320,79,177471,2,0,L|239:68,1,70,10|2,0:1|0:0,0:0:0:0:
385,18,177850,2,0,L|466:7,1,70,10|2,0:2|0:0,0:0:0:0:
501,87,178230,6,0,L|490:160,1,70,10|0,0:1|0:0,0:0:0:0:
409,198,178610,2,0,L|423:273,1,70,10|0,0:2|0:0,0:0:0:0:
476,339,178990,2,0,P|428:308|346:328,1,140,10|8,0:1|0:2,0:0:0:0:
281,383,179559,1,2,0:0:0:0:
281,383,179749,6,0,L|267:310,1,70,10|2,0:1|0:0,0:0:0:0:
176,312,180129,2,0,L|190:239,1,70,10|2,0:2|0:0,0:0:0:0:
248,173,180509,1,10,0:1:0:0:
185,107,180698,1,2,0:0:0:0:
255,49,180888,1,10,0:2:0:0:
176,2,181078,1,2,0:0:0:0:
176,2,181173,1,2,0:0:0:0:
176,2,181268,6,0,P|126:35|40:6,1,140,10|8,0:1|0:2,0:0:0:0:
8,98,181838,1,2,0:0:0:0:
8,98,181933,1,2,0:0:0:0:
8,98,182027,2,0,B|24:146|24:146|20:173|20:173|47:243,1,140,10|8,0:1|0:2,0:0:0:0:
9,316,182597,1,0,0:0:0:0:
75,378,182787,6,0,L|218:360,1,140,14|8,0:1|0:2,0:0:0:0:
262,283,183357,1,2,0:0:0:0:
262,283,183546,2,0,L|343:299,1,70,10|2,0:1|0:0,0:0:0:0:
223,197,183926,2,0,L|142:213,1,70,10|2,0:2|0:0,0:0:0:0:
92,143,184306,6,0,L|83:71,1,70,10|0,0:1|0:0,0:0:0:0:
173,58,184686,2,0,L|182:130,1,70,10|0,0:2|0:0,0:0:0:0:
255,181,185065,2,0,P|301:152|384:185,1,140,10|8,0:1|0:2,0:0:0:0:
345,262,185635,1,2,0:0:0:0:
345,262,185825,6,0,L|355:340,1,70,10|2,0:1|0:0,0:0:0:0:
429,382,186205,1,10,0:2:0:0:
429,382,186395,1,2,0:0:0:0:
491,316,186584,1,10,0:1:0:0:
491,316,186774,2,0,L|481:238,1,70,2|8,0:0|0:2,0:0:0:0:
425,174,187154,1,2,0:0:0:0:
359,236,187344,6,0,L|283:223,1,70,10|2,0:1|0:0,0:0:0:0:
234,151,187724,1,10,0:2:0:0:
155,197,187914,2,0,B|170:253|170:253|159:285|159:285|176:347,1,140,2|0,0:0|0:0,0:0:0:0:
95,381,188483,1,10,0:2:0:0:
19,329,188673,1,2,0:0:0:0:
19,329,188768,1,2,0:0:0:0:
19,329,188863,6,0,L|40:182,1,140,8|8,0:1|0:2,0:0:0:0:
0,108,189433,1,2,0:0:0:0:
52,34,189622,2,0,L|123:48,1,70,10|2,0:1|0:0,0:0:0:0:
182,134,190002,2,0,L|111:148,1,70,10|2,0:2|0:0,0:0:0:0:
211,54,190382,6,0,P|256:37|286:37,1,70,10|0,0:1|0:0,0:0:0:0:
330,111,190762,2,0,P|375:128|405:128,1,70,10|0,0:2|0:0,0:0:0:0:
246,137,191141,2,0,L|232:288,1,140,10|8,0:1|0:2,0:0:0:0:
284,352,191711,1,2,0:0:0:0:
353,292,191901,6,0,L|433:304,1,70,10|2,0:1|0:0,0:0:0:0:
487,238,192281,1,10,0:2:0:0:
487,238,192471,1,2,0:0:0:0:
428,168,192660,2,0,P|408:130|439:28,1,140,10|10,0:1|0:2,0:0:0:0:
342,6,193230,2,0,L|270:-3,1,70,2|8,0:0|0:1,0:0:0:0:
209,63,193610,5,2,0:0:0:0:
136,8,193800,1,10,0:2:0:0:
64,64,193990,2,0,L|69:139,1,70,2|8,0:0|0:1,0:0:0:0:
134,196,194369,1,2,0:0:0:0:
72,263,194559,1,10,0:2:0:0:
72,263,194749,1,0,0:0:0:0:
126,336,194939,6,0,P|178:308|260:340,1,140,14|8,0:1|0:2,0:0:0:0:
334,292,195509,1,2,0:0:0:0:
334,292,195698,2,0,L|327:216,1,70,10|2,0:1|0:0,0:0:0:0:
425,314,196078,2,0,L|418:390,1,70,10|2,0:2|0:0,0:0:0:0:
509,262,196458,6,0,L|503:184,1,70,10|0,0:1|0:0,0:0:0:0:
430,137,196838,2,0,L|436:59,1,70,10|0,0:2|0:0,0:0:0:0:
336,116,197217,2,0,L|330:194,1,70,10|0,0:1|0:0,0:0:0:0:
235,114,197597,2,0,L|241:36,1,70,10|2,0:2|0:0,0:0:0:0:
148,147,197977,6,0,B|99:137|99:137|63:145|63:145|5:134,1,140,10|10,0:1|0:2,0:0:0:0:
3,44,198546,1,0,0:0:0:0:
3,44,198736,2,0,L|78:33,1,70,10|0,0:1|0:0,0:0:0:0:
132,102,199116,1,10,0:2:0:0:
196,37,199306,1,0,0:0:0:0:
262,98,199496,6,0,L|250:244,1,140,10|10,0:1|0:2,0:0:0:0:
297,315,200065,1,0,0:0:0:0:
228,374,200255,2,0,L|151:378,1,70,10|0,0:1|0:0,0:0:0:0:
94,311,200635,1,10,0:2:0:0:
94,311,200825,1,0,0:0:0:0:
147,237,201015,6,0,P|182:255|278:220,1,140,14|8,0:1|0:2,0:0:0:0:
241,141,201584,1,2,0:0:0:0:
241,141,201774,2,0,L|233:66,1,70,10|2,0:1|0:0,0:0:0:0:
335,37,202154,2,0,L|327:112,1,70,10|2,0:2|0:0,0:0:0:0:
369,187,202534,6,0,L|443:178,1,70,10|0,0:1|0:0,0:0:0:0:
390,281,202914,2,0,L|316:272,1,70,10|0,0:2|0:0,0:0:0:0:
380,179,203293,2,0,L|454:170,1,70,10|0,0:1|0:0,0:0:0:0:
495,91,203673,1,8,0:2:0:0:
495,91,203863,1,0,0:2:0:0:
440,18,204053,5,14,0:1:0:0:
440,18,204148,1,2,0:0:0:0:
440,18,204243,1,2,0:0:0:0:
372,79,204433,2,0,P|328:51|239:84,1,140,10|10,0:2|0:1,0:0:0:0:
160,47,205002,1,0,0:0:0:0:
160,47,205192,2,0,L|151:122,1,70,10|0,0:2|0:0,0:0:0:0:
94,188,205572,6,0,B|105:235|105:235|94:267|94:267|112:333,1,140,10|10,0:1|0:2,0:0:0:0:
182,376,206141,1,2,0:0:0:0:
251,317,206331,2,0,L|335:328,1,70,10|0,0:1|0:0,0:0:0:0:
399,381,206711,1,10,0:2:0:0:
399,381,206901,1,0,0:0:0:0:
470,324,207091,6,0,P|494:273|458:190,1,140,14|8,0:1|0:2,0:0:0:0:
380,225,207660,1,0,0:0:0:0:
380,225,207850,2,0,L|304:209,1,70,8|0,0:1|0:0,0:0:0:0:
359,132,208230,2,0,L|283:116,1,70,8|0,0:2|0:0,0:0:0:0:
216,171,208610,6,0,L|140:187,1,70,8|0,0:1|0:0,0:0:0:0:
71,133,208990,1,8,0:2:0:0:
71,133,209179,1,0,0:0:0:0:
139,73,209369,2,0,L|216:88,1,70,8|0,0:1|0:0,0:0:0:0:
198,0,209749,2,0,L|275:15,1,70,8|0,0:2|0:0,0:0:0:0:
339,85,210129,5,10,0:1:0:0:
339,85,210224,1,2,0:0:0:0:
339,85,210319,1,2,0:0:0:0:
402,19,210509,1,8,0:2:0:0:
474,73,210698,1,0,0:0:0:0:
426,150,210888,2,0,L|385:140,2,35,10|2|2,0:1|0:0|0:0,0:0:0:0:
485,219,211268,2,0,L|491:299,1,70,8|0,0:2|0:0,0:0:0:0:
443,367,211648,6,0,P|393:343|348:339,1,70,8|0,0:1|0:0,0:0:0:0:
297,380,212027,1,8,0:2:0:0:
297,380,212217,1,0,0:0:0:0:
251,301,212407,2,0,L|165:295,1,70,8|0,0:1|0:0,0:0:0:0:
212,382,212787,2,0,L|126:376,1,70,8|0,0:2|0:0,0:0:0:0:
74,314,213167,5,10,0:1:0:0:
74,314,213262,1,2,0:0:0:0:
74,314,213357,1,2,0:0:0:0:
129,242,213546,2,0,L|136:169,1,70,8|0,0:2|0:0,0:0:0:0:
85,95,213926,2,0,L|40:101,3,35,10|2|2|2,0:1|0:0|0:0|0:0,0:0:0:0:
54,53,214306,2,0,L|9:59,3,35,8|2|2|2,0:2|0:0|0:0|0:0,0:0:0:0:
38,15,214686,6,0,L|129:25,1,70,8|0,0:1|0:0,0:0:0:0:
172,86,215065,2,0,L|178:122,2,35,10|2|2,0:2|0:0|0:0,0:0:0:0:
241,26,215445,2,0,L|317:36,1,70,8|0,0:1|0:0,0:0:0:0:
402,8,215825,1,8,0:2:0:0:
402,8,215920,1,2,0:0:0:0:
402,8,216015,6,0,P|429:53|393:144,1,140,2|0,0:0|0:0,0:0:0:0:
367,215,216584,1,10,0:2:0:0:
426,284,216774,1,0,0:0:0:0:
350,330,216964,2,0,L|272:321,1,70,8|0,0:1|0:0,0:0:0:0:
217,255,217344,2,0,L|139:264,1,70,10|0,0:2|0:0,0:0:0:0:
88,333,217724,6,0,L|80:370,3,35,10|2|2|2,0:1|0:0|0:0|0:0,0:0:0:0:
46,336,218103,2,0,L|37:240,1,70,10|2,0:2|0:0,0:0:0:0:
96,195,218483,2,0,L|105:142,3,35,10|2|2|2,0:1|0:0|0:0|0:0,0:0:0:0:
56,154,218863,2,0,L|47:101,3,35,10|2|2|2,0:2|0:0|0:0|0:0,0:0:0:0:
74,92,219243,1,6,0:0:0:0:
256,192,219338,12,0,222281,0:0:0:0:
