osu file format v14

[General]
AudioFilename: audio.mp3
AudioLeadIn: 0
PreviewTime: 54187
Countdown: 0
SampleSet: Soft
StackLeniency: 0.7
Mode: 0
LetterboxInBreaks: 0
WidescreenStoryboard: 0

[Editor]
Bookmarks: 91,13612,27133,40654,54175,67696,81217,94738
DistanceSpacing: 1.3
BeatDivisor: 8
GridSize: 8
TimelineZoom: 3.399999

[Metadata]
Title:KnOw ME (Original Mix)
TitleUnicode:KnOw ME (Original Mix)
Artist:marshmello
ArtistUnicode:marshmello
Creator:Pachiru
Version:Gabe's Easy
Source:
Tags:ayyri fireflyuh joytime trap gabe veus
BeatmapID:1396028
BeatmapSetID:651703

[Difficulty]
HPDrainRate:3
CircleSize:2.7
OverallDifficulty:2
ApproachRate:2.7
SliderMultiplier:0.699999999999999
SliderTickRate:1

[Events]
//Background and Video events
0,0,"KnOw ME.jpg",0,0
//Break Periods
//Storyboard Layer 0 (Background)
//Storyboard Layer 1 (Fail)
//Storyboard Layer 2 (Pass)
//Storyboard Layer 3 (Foreground)
//Storyboard Sound Samples

[TimingPoints]
103,422.535211267606,4,2,1,75,1,0
81229,-100,4,2,1,75,0,1
94750,-100,4,2,1,75,0,0

[Colours]
Combo1 : 192,192,192
Combo2 : 0,128,192
Combo3 : 128,128,128
Combo4 : 0,0,160

[HitObjects]
48,48,103,5,2,0:0:0:0:
224,104,948,2,0,L|120:118,1,105,2|2,0:0|0:0,0:0:0:0:
400,48,3483,5,2,0:0:0:0:
352,224,4328,2,0,L|337:120,1,105,2|2,0:0|0:0,0:0:0:0:
272,336,6018,1,2,0:0:0:0:
96,368,6863,6,0,P|48:368|0:288,1,140,2|2,0:0|0:0,0:0:0:0:
48,168,8342,1,2,0:0:0:0:
448,248,10243,6,0,L|444:108,1,140,2|2,0:0|0:0,0:0:0:0:
360,216,11722,1,2,0:0:0:0:
256,16,12779,1,2,0:0:0:0:
120,136,13624,6,0,L|260:140,1,140,4|2,0:3|0:0,0:0:0:0:
328,312,15314,2,0,L|188:308,1,140,0|2,0:0|0:0,0:0:0:0:
104,352,16581,1,8,0:0:0:0:
104,264,17004,6,0,L|100:124,1,140,4|2,0:3|0:0,0:0:0:0:
272,176,18694,2,0,P|337:196|401:171,1,140,0|2,0:0|0:0,0:0:0:0:
432,256,19962,1,0,0:0:0:0:
360,304,20384,6,0,P|294:284|230:309,1,140,4|2,0:3|0:0,0:0:0:0:
52,350,22074,2,0,P|71:284|46:220,1,140,0|2,0:0|0:0,0:0:0:0:
0,140,23342,1,8,0:0:0:0:
20,52,23764,6,0,B|64:52|64:52|112:76|112:76|154:76,1,140,4|2,0:3|0:0,0:0:0:0:
312,168,25455,2,0,B|268:168|268:168|220:192|220:192|177:192,1,140,0|2,0:0|0:0,0:0:0:0:
88,192,26722,1,0,0:0:0:0:
136,272,27145,6,0,B|173:301|173:301|265:301,1,140,4|2,0:3|0:0,0:0:0:0:
328,232,28412,1,8,0:0:0:0:
384,160,28835,2,0,P|436:160|456:168,2,69.9999999999999,0|8|2,0:0|0:0|0:0,0:0:0:0:
210,215,30525,6,0,P|110:215|71:199,1,140,4|2,0:3|0:0,0:0:0:0:
5,140,31793,1,8,0:0:0:0:
64,68,32215,2,0,L|148:72,1,69.9999999999999,0|8,0:0|0:0,0:0:0:0:
210,121,33060,2,0,L|294:125,1,69.9999999999999,2|0,0:0|0:0,0:0:0:0:
360,82,33905,6,0,P|407:132|404:201,1,140,4|2,0:3|0:0,0:0:0:0:
361,279,35173,1,8,0:0:0:0:
313,359,35595,2,0,L|233:343,2,69.9999999999999,0|0|2,0:0|0:0|0:0,0:0:0:0:
240,191,37286,6,0,L|89:160,1,140,4|2,0:3|0:0,0:0:0:0:
73,76,38553,1,8,0:0:0:0:
160,48,38976,2,0,L|228:61,1,69.9999999999999,0|8,0:0|0:0,0:0:0:0:
304,120,39821,2,0,L|372:133,1,69.9999999999999,2|0,0:0|0:0,0:0:0:0:
448,192,40666,6,0,P|464:232|456:264,2,69.9999999999999,8|8|8,0:1|0:1|0:1,0:0:0:0:
372,133,41933,1,8,0:1:0:0:
360,224,42356,2,0,B|352:296|352:296|304:352,1,140,8|8,0:1|0:1,0:0:0:0:
216,352,43624,1,8,0:0:0:0:
168,272,44046,6,0,L|181:204,2,69.9999999999999,8|8|8,0:1|0:1|0:1,0:0:0:0:
89,319,45314,1,8,0:1:0:0:
34,246,45736,2,0,P|10:206|10:174,1,69.9999999999999,8|8,0:1|0:1,0:0:0:0:
22,93,46581,2,0,P|62:69|94:69,1,69.9999999999999,8|8,0:1|0:0,0:0:0:0:
173,88,47426,6,0,L|253:96,1,69.9999999999999,8|8,0:1|0:1,0:0:0:0:
205,176,48272,2,0,L|285:184,1,69.9999999999999,8|8,0:1|0:1,0:0:0:0:
237,264,49117,2,0,L|317:272,1,69.9999999999999,8|8,0:1|0:1,0:0:0:0:
269,352,49963,2,0,L|349:360,1,69.9999999999999,8|8,0:1|0:1,0:0:0:0:
256,192,50807,12,0,52497,0:0:0:0:
352,352,54187,6,0,L|320:288,1,69.9999999999999,2|2,0:0|0:0,0:0:0:0:
384,225,55032,2,0,L|416:288,1,69.9999999999999,2|2,0:0|0:0,0:0:0:0:
480,224,55877,2,0,L|416:96,1,140,4|2,0:1|0:0,0:0:0:0:
372,20,57145,1,0,3:0:0:0:
288,56,57567,6,0,P|256:64|216:56,1,69.9999999999999,2|2,0:0|0:0,0:0:0:0:
132,28,58412,2,0,P|138:62|130:95,1,69.9999999999999,2|0,0:0|0:0,0:0:0:0:
80,172,59257,2,0,P|67:240|83:307,1,140,2|2,0:0|0:0,0:0:0:0:
140,380,60525,1,0,3:0:0:0:
224,344,60948,6,0,L|304:348,1,69.9999999999999,4|2,0:1|0:0,0:0:0:0:
329,263,61793,2,0,L|260:260,1,69.9999999999999,2|0,0:0|0:0,0:0:0:0:
299,177,62638,2,0,B|389:182|389:182|401:158|401:133,1,140,2|2,0:0|0:0,0:0:0:0:
373,47,63905,1,0,3:0:0:0:
287,79,64328,6,0,P|255:95|221:91,2,69.9999999999999,2|2|2,0:0|0:0|0:0,0:0:0:0:
373,47,65595,1,0,0:0:0:0:
455,86,66018,2,0,P|470:117|466:151,1,69.9999999999999,2|2,0:0|0:0,0:0:0:0:
404,218,66863,2,0,P|388:249|392:283,1,69.9999999999999,2|2,0:0|0:3,0:0:0:0:
445,356,67708,6,0,P|386:319|319:331,1,140,4|10,0:1|0:0,0:0:0:0:
231,351,68976,1,2,0:0:0:0:
152,304,69398,2,0,L|136:160,1,140,2|10,0:0|0:0,0:0:0:0:
88,88,70666,1,2,0:0:0:0:
168,40,71088,6,0,B|216:40|216:40|256:64|256:64|304:64,1,140,2|10,0:0|0:0,0:0:0:0:
368,128,72356,1,0,0:0:0:0:
304,192,72779,2,0,B|256:192|256:192|216:216|216:216|170:216,1,140,2|10,0:0|0:0,0:0:0:0:
104,280,74046,1,2,0:0:0:0:
168,344,74469,6,0,L|240:344,2,69.9999999999999,4|2|10,0:1|0:0|0:0,0:0:0:0:
104,280,75736,1,0,0:0:0:0:
44,212,76159,2,0,L|44:132,1,69.9999999999999,2|2,0:0|0:0,0:0:0:0:
132,124,77004,2,0,L|132:194,1,69.9999999999999,10|2,0:0|0:0,0:0:0:0:
220,176,77849,6,0,L|220:96,2,69.9999999999999,2|2|10,0:0|0:0|0:0,0:0:0:0:
196,264,79117,1,0,0:0:0:0:
220,352,79539,2,0,P|248:368|288:364,1,69.9999999999999,2|2,0:0|0:0,0:0:0:0:
352,304,80384,2,0,P|382:287|416:290,1,69.9999999999999,10|2,0:0|0:0,0:0:0:0:
488,344,81229,6,0,P|451:284|467:216,1,140,4|10,0:1|0:0,0:0:0:0:
512,140,82497,1,0,0:0:0:0:
420,136,82919,2,0,P|360:172|292:156,1,140,2|10,0:0|0:0,0:0:0:0:
204,168,84187,1,0,0:0:0:0:
256,244,84610,6,0,P|291:302|278:369,1,140,4|10,0:1|0:0,0:0:0:0:
200,320,85877,1,0,0:0:0:0:
128,264,86300,2,0,L|56:272,1,69.9999999999999,2|0,0:0|0:0,0:0:0:0:
28,184,87145,2,0,L|97:176,1,69.9999999999999,10|0,0:0|0:0,0:0:0:0:
140,96,87990,6,0,L|279:111,1,140,4|10,0:1|0:0,0:0:0:0:
360,68,89257,1,0,0:0:0:0:
368,160,89680,2,0,L|383:299,1,140,2|10,0:0|0:0,0:0:0:0:
328,372,90948,1,0,0:0:0:0:
288,292,91370,6,0,P|232:244|165:246,1,140,4|10,0:1|0:0,0:0:0:0:
84,284,92638,1,0,0:0:0:0:
92,192,93060,2,0,L|96:120,1,69.9999999999999,2|0,0:0|0:0,0:0:0:0:
183,86,93905,2,0,L|180:156,1,69.9999999999999,10|0,0:0|0:0,0:0:0:0:
168,244,94750,5,4,0:1:0:0:
