osu file format v14

[General]
AudioFilename: audio.mp3
AudioLeadIn: 0
PreviewTime: 54187
Countdown: 0
SampleSet: Soft
StackLeniency: 0.7
Mode: 0
LetterboxInBreaks: 0
WidescreenStoryboard: 0

[Editor]
Bookmarks: 103,13624,27145,40666,54187,67708,81229,94750
DistanceSpacing: 1.1
BeatDivisor: 4
GridSize: 32
TimelineZoom: 1.4

[Metadata]
Title:KnOw ME (Original Mix)
TitleUnicode:KnOw ME (Original Mix)
Artist:marshmello
ArtistUnicode:marshmello
Creator:Pachiru
Version:Ayyri's Normal
Source:
Tags:ayyri fireflyuh joytime trap gabe veus
BeatmapID:1382498
BeatmapSetID:651703

[Difficulty]
HPDrainRate:5
CircleSize:3.5
OverallDifficulty:5
ApproachRate:5
SliderMultiplier:1.05
SliderTickRate:1

[Events]
//Background and Video events
0,0,"KnOw ME.jpg",0,0
//Break Periods
//Storyboard Layer 0 (Background)
//Storyboard Layer 1 (Fail)
//Storyboard Layer 2 (Pass)
//Storyboard Layer 3 (Foreground)
//Storyboard Sound Samples

[TimingPoints]
103,422.535211267606,4,2,1,75,1,0
12779,-100,4,2,1,75,0,0
52074,-100,4,2,1,50,0,0
52497,-100,4,2,1,5,0,0
54187,-100,4,2,1,75,0,0
81229,-100,4,2,1,75,0,1
94750,-100,4,2,1,75,0,0

[Colours]
Combo1 : 192,192,192
Combo2 : 0,128,192
Combo3 : 128,128,128
Combo4 : 0,0,160

[HitObjects]
57,314,103,6,0,P|105:330|153:310,1,105,2|2,0:0|0:0,0:0:0:0:
199,276,736,1,2,0:0:0:0:
250,302,948,2,0,L|332:302,2,78.7499999999999,2|2|2,0:0|0:0|0:0,0:0:0:0:
250,302,3483,6,0,P|266:253|246:205,1,105,2|2,0:0|0:0,0:0:0:0:
211,160,4116,1,2,0:0:0:0:
237,109,4328,2,0,L|237:26,2,78.7499999999999,2|2|2,0:0|0:0|0:0,0:0:0:0:
211,160,6018,5,2,0:0:0:0:
245,204,6863,6,0,P|297:212|345:194,1,105,2|2,0:0|0:0,0:0:0:0:
393,160,7497,1,2,0:0:0:0:
432,201,7708,2,0,L|431:292,2,78.7499999999999,2|2|2,0:0|0:0|0:0,0:0:0:0:
432,201,10243,6,0,P|424:149|442:101,1,105,2|2,0:0|0:0,0:0:0:0:
477,53,10877,1,2,0:0:0:0:
436,14,11088,2,0,L|345:15,2,78.7499999999999,2|2|2,0:0|0:0|0:0,0:0:0:0:
477,53,12779,5,2,0:0:0:0:
441,101,13624,6,0,P|445:152|427:201,2,105,4|8|2,0:3|0:0|0:0,0:0:0:0:
409,53,14680,1,0,0:0:0:0:
311,114,15103,1,4,0:3:0:0:
311,114,15314,2,0,L|303:218,2,105,0|8|2,0:0|0:0|0:0,0:0:0:0:
230,46,16581,1,8,0:0:0:0:
230,46,16793,1,4,0:3:0:0:
230,46,17004,6,0,L|125:57,2,105,4|8|2,0:3|0:0|0:0,0:0:0:0:
275,81,18060,1,4,0:3:0:0:
192,161,18483,1,4,0:3:0:0:
191,161,18694,2,0,P|172:208|185:258,1,105,0|8,0:0|0:0,0:0:0:0:
300,267,19539,2,0,P|319:219|306:169,1,105,2|0,0:0|0:0,0:0:0:0:
274,121,20173,1,4,0:3:0:0:
274,121,20384,6,0,L|378:119,2,105,4|8|2,0:3|0:0|0:0,0:0:0:0:
233,79,21441,1,4,0:3:0:0:
127,125,21863,1,4,0:3:0:0:
127,125,22074,2,0,P|118:73|130:23,2,105,0|8|2,0:0|0:0|0:0,0:0:0:0:
201,227,23342,1,8,0:0:0:0:
201,227,23553,1,4,0:3:0:0:
201,227,23764,6,0,P|153:247|102:239,2,105,4|8|2,0:3|0:0|0:0,0:0:0:0:
244,188,24821,1,4,0:3:0:0:
332,261,25243,1,4,0:3:0:0:
332,261,25455,2,0,L|436:255,1,105,0|8,0:0|0:0,0:0:0:0:
404,144,26300,2,0,L|299:149,1,105,2|0,0:0|0:0,0:0:0:0:
242,140,26933,1,4,0:3:0:0:
183,131,27145,6,0,P|167:180|178:230,1,105,4|8,0:3|0:0,0:0:0:0:
216,281,27779,1,0,0:0:0:0:
216,281,27990,1,2,0:0:0:0:
322,236,28412,2,0,P|346:229|372:231,1,52.5,8|4,0:0|0:3,0:0:0:0:
420,264,28835,2,0,L|414:159,2,105,0|8|2,0:0|0:0|0:0,0:0:0:0:
338,346,30103,1,8,0:0:0:0:
338,346,30314,1,4,0:3:0:0:
338,346,30525,6,0,L|285:340,1,52.5,4|0,0:3|0:0,0:0:0:0:
233,365,30948,2,0,L|128:353,1,105,8|2,0:0|0:0,0:0:0:0:
71,253,31793,2,0,L|123:247,1,52.5,8|4,0:0|0:3,0:0:0:0:
160,203,32215,2,0,P|164:177|159:151,2,52.5,0|0|8,0:0|0:0|0:0,0:0:0:0:
228,296,33060,2,0,P|223:321|228:347,2,52.5,2|0|0,0:0|0:0|0:0,0:0:0:0:
255,245,33694,1,4,0:3:0:0:
255,245,33905,6,0,L|359:245,1,105,4|8,0:3|0:0,0:0:0:0:
406,288,34539,1,0,0:0:0:0:
406,288,34750,1,2,0:0:0:0:
451,181,35173,2,0,L|450:128,1,52.5,8|4,0:0|0:3,0:0:0:0:
411,85,35595,2,0,P|461:96|511:81,2,105,0|8|2,0:0|0:0|0:0,0:0:0:0:
317,36,36863,1,8,0:0:0:0:
317,36,37074,1,4,0:3:0:0:
317,36,37286,6,0,P|320:61|316:87,1,52.5,4|0,0:3|0:0,0:0:0:0:
296,136,37708,2,0,P|287:187|295:239,1,105,8|2,0:0|0:0,0:0:0:0:
363,319,38553,2,0,P|388:323|414:320,1,52.5,8|4,0:0|0:3,0:0:0:0:
463,301,38976,2,0,L|462:353,2,52.5,0|0|8,0:0|0:0|0:0,0:0:0:0:
511,195,39821,1,2,0:0:0:0:
281,222,40666,6,0,P|270:171|278:120,2,105,8|8|8,0:1|0:1|0:1,0:0:0:0:
189,291,41933,2,0,P|138:296|87:282,2,105,8|8|8,0:1|0:1|0:1,0:0:0:0:
281,222,43201,1,8,0:1:0:0:
384,274,43624,2,0,L|436:267,1,52.5,8|0,0:1|0:0,0:0:0:0:
482,233,44046,6,0,L|475:128,2,105,8|8|8,0:1|0:1|0:1,0:0:0:0:
374,276,45314,2,0,L|381:381,2,105,8|8|8,0:1|0:1|0:1,0:0:0:0:
273,219,46581,1,8,0:1:0:0:
373,160,47004,1,8,0:1:0:0:
272,103,47426,6,0,L|219:106,2,52.4999999999999,8|8|8,0:1|0:1|0:1,0:0:0:0:
373,160,48272,2,0,L|376:212,2,52.4999999999999,8|8|8,0:1|0:1|0:1,0:0:0:0:
272,103,49117,2,0,L|275:50,2,52.4999999999999,8|8|8,0:1|0:1|0:1,0:0:0:0:
373,160,49962,2,0,L|425:156,2,52.4999999999999,8|8|8,0:1|0:1|0:1,0:0:0:0:
256,192,50807,12,0,52497,0:0:0:0:
186,190,54187,5,2,0:0:0:0:
185,305,54609,1,2,0:0:0:0:
295,341,55032,1,2,0:0:0:0:
363,248,55454,1,2,0:0:0:0:
295,154,55877,5,4,3:1:0:0:
202,86,56300,1,0,3:0:0:0:
202,86,56511,2,0,P|152:77|106:101,1,105,2|2,0:0|0:0,0:0:0:0:
69,146,57145,2,0,L|64:198,1,52.5,2|0,3:0|0:0,0:0:0:0:
68,255,57567,5,2,3:0:0:0:
179,223,57990,1,2,3:0:0:0:
240,318,58412,2,0,P|278:330|317:326,2,78.7499999999999,2|2|2,3:0|3:0|3:0,0:0:0:0:
202,275,59257,2,0,L|196:168,1,105,2|0,3:0|3:0,0:0:0:0:
217,116,59891,2,0,P|265:96|316:103,1,105,2|2,0:0|0:0,0:0:0:0:
371,121,60525,2,0,P|396:114|419:101,1,52.4999999999999,2|0,3:0|0:0,0:0:0:0:
456,56,60948,5,4,3:1:0:0:
493,165,61370,1,2,3:0:0:0:
410,245,61793,2,0,L|411:323,2,78.7499999999999,2|2|2,3:0|3:0|3:0,0:0:0:0:
365,208,62638,2,0,P|316:225|264:218,1,105,2|0,3:0|3:0,0:0:0:0:
215,187,63272,2,0,L|212:291,1,105,2|2,0:0|0:0,0:0:0:0:
172,333,63905,2,0,P|141:334|111:326,1,52.4999999999999,2|0,3:0|0:0,0:0:0:0:
78,289,64328,5,2,3:0:0:0:
132,187,64750,1,2,3:0:0:0:
73,85,65173,2,0,P|35:79|-1:91,2,78.75,2|2|2,3:0|3:0|3:0,0:0:0:0:
123,116,66018,1,2,3:0:0:0:
223,60,66441,2,0,P|270:37|320:50,1,105,2|0,3:0|3:0,0:0:0:0:
367,92,67074,1,2,0:0:0:0:
367,92,67286,1,2,3:3:0:0:
420,194,67708,6,0,L|475:188,2,52.4999999999999,4|2|2,3:1|0:0|3:0,0:0:0:0:
335,221,68553,2,0,L|230:231,1,105,2|2,3:0|3:0,0:0:0:0:
187,269,69187,1,0,0:0:0:0:
133,248,69398,2,0,P|137:201|118:139,1,105,2|2,3:0|3:0,0:0:0:0:
80,104,70032,2,0,P|109:89|129:66,1,52.4999999999999,2|2,0:0|3:0,0:0:0:0:
162,33,70455,1,2,0:0:0:0:
204,71,70666,2,0,L|209:138,1,52.4999999999999,2|0,3:0|0:0,0:0:0:0:
238,172,71088,6,0,L|342:161,1,105,2|2,3:0|3:0,0:0:0:0:
434,91,71933,2,0,P|425:52|432:13,2,78.75,2|2|2,3:0|3:0|3:0,0:0:0:0:
471,135,72779,1,2,3:0:0:0:
477,250,73201,1,2,3:0:0:0:
477,250,73412,2,0,P|446:255|424:263,1,52.4999999999999,2|2,0:0|3:0,0:0:0:0:
382,299,73834,1,0,0:0:0:0:
382,299,74046,1,2,3:0:0:0:
309,208,74469,6,0,L|303:139,2,52.4999999999999,4|2|2,3:1|0:0|3:0,0:0:0:0:
259,312,75314,2,0,P|222:324|166:321,2,78.7499999999999,2|2|2,3:0|3:0|3:0,0:0:0:0:
290,263,76159,1,2,3:0:0:0:
248,155,76581,1,2,3:0:0:0:
284,110,76793,1,2,0:0:0:0:
284,110,77004,2,0,L|340:104,1,52.4999999999999,0|0,3:0|0:0,0:0:0:0:
391,120,77426,2,0,L|447:114,1,52.4999999999999,2|0,3:0|0:0,0:0:0:0:
493,143,77849,6,0,L|495:26,1,105,2|2,3:0|3:0,0:0:0:0:
382,5,78694,2,0,P|343:0|306:13,2,78.75,2|2|2,3:0|3:0|3:0,0:0:0:0:
414,52,79539,2,0,L|416:169,1,105,2|2,3:0|3:0,0:0:0:0:
461,192,80173,1,2,0:0:0:0:
461,192,80384,2,0,L|463:245,1,52.5,2|2,3:0|0:0,0:0:0:0:
421,284,80807,1,2,3:0:0:0:
354,189,81229,6,0,P|305:204|238:187,1,105,4|0,0:1|0:0,0:0:0:0:
204,163,81863,1,2,0:0:0:0:
155,194,82074,2,0,L|146:289,2,78.7499999999999,2|2|2,0:0|0:0|0:0,0:0:0:0:
116,151,82919,1,0,0:0:0:0:
143,38,83342,2,0,L|205:42,1,52.4999999999999,0|2,0:0|0:0,0:0:0:0:
252,36,83764,2,0,P|285:21|330:16,2,78.7499999999999,2|2|2,0:0|0:0|0:0,0:0:0:0:
222,86,84610,5,4,0:1:0:0:
285,181,85032,2,0,L|350:181,1,52.4999999999999,0|2,0:0|0:0,0:0:0:0:
383,146,85455,2,0,P|398:113|403:68,2,78.7499999999999,2|2|2,0:0|0:0|0:0,0:0:0:0:
380,203,86300,2,0,L|391:307,1,105,2|0,0:0|0:0,0:0:0:0:
357,353,86933,1,2,0:0:0:0:
302,371,87145,2,0,P|263:366|230:345,2,78.75,2|2|2,0:0|0:0|0:0,0:0:0:0:
317,264,87990,6,0,P|350:243|415:234,1,105,4|0,0:1|0:0,0:0:0:0:
468,253,88624,1,2,0:0:0:0:
458,196,88835,2,0,P|473:158|468:113,2,78.7499999999999,2|2|2,0:0|0:0|0:0,0:0:0:0:
414,233,89680,1,2,0:0:0:0:
338,145,90103,2,0,L|276:149,1,52.4999999999999,0|2,0:0|0:0,0:0:0:0:
237,116,90525,2,0,P|204:101|159:96,2,78.75,2|2|2,0:0|0:0|0:0,0:0:0:0:
247,172,91370,6,0,L|222:273,1,105,4|0,0:1|0:0,0:0:0:0:
188,321,92004,1,2,0:0:0:0:
188,320,92215,2,0,P|226:319|259:340,2,78.75,2|2|2,0:0|0:0|0:0,0:0:0:0:
137,349,93060,1,0,0:0:0:0:
60,261,93483,2,0,L|71:191,1,52.4999999999999,0|2,0:0|0:0,0:0:0:0:
103,163,93905,2,0,P|142:167|179:154,2,78.75,2|2|2,0:0|0:0|0:0,0:0:0:0:
65,121,94750,5,4,0:1:0:0:
