osu file format v14

[General]
AudioFilename: audio.mp3
AudioLeadIn: 0
PreviewTime: 54187
Countdown: 0
SampleSet: Soft
StackLeniency: 0.7
Mode: 0
LetterboxInBreaks: 0
WidescreenStoryboard: 0

[Editor]
DistanceSpacing: 1
BeatDivisor: 4
GridSize: 4
TimelineZoom: 1.9

[Metadata]
Title:KnOw ME (Original Mix)
TitleUnicode:KnOw ME (Original Mix)
Artist:marshmello
ArtistUnicode:marshmello
Creator:Pachiru
Version:Hard
Source:
Tags:ayyri fireflyuh joytime trap gabe veus
BeatmapID:1382018
BeatmapSetID:651703

[Difficulty]
HPDrainRate:5
CircleSize:4
OverallDifficulty:6
ApproachRate:7
SliderMultiplier:1.4
SliderTickRate:1

[Events]
//Background and Video events
0,0,"you dont know me kappa lol.jpg",0,0
//Break Periods
//Storyboard Layer 0 (Background)
//Storyboard Layer 1 (Fail)
//Storyboard Layer 2 (Pass)
//Storyboard Layer 3 (Foreground)
//Storyboard Sound Samples

[TimingPoints]
103,422.535211267606,4,2,1,75,1,0
1898,-100,4,2,1,50,0,0
2215,-100,4,2,1,25,0,0
3483,-100,4,2,1,75,0,0
5279,-100,4,2,1,50,0,0
5595,-100,4,2,1,25,0,0
6018,-100,4,2,1,75,0,0
8659,-100,4,2,1,50,0,0
8976,-100,4,2,1,25,0,0
10243,-100,4,2,1,75,0,0
12039,-100,4,2,1,50,0,0
12356,-100,4,2,1,25,0,0
12779,-100,4,2,1,75,0,0
13624,-83.3333333333333,4,2,1,75,0,0
40666,-100,4,2,1,75,0,0
52074,-100,4,2,1,50,0,0
52497,-100,4,2,1,20,0,0
54187,-100,4,2,1,75,0,0
81229,-83.3333333333333,4,2,1,75,0,1
94750,-100,4,2,1,75,0,0

[Colours]
Combo1 : 85,85,102
Combo2 : 153,85,85
Combo3 : 187,187,153
Combo4 : 221,85,85

[HitObjects]
108,192,103,5,2,0:0:0:0:
236,108,525,2,0,L|324:112,1,70,2|2,0:0|0:0,0:0:0:0:
368,68,948,2,0,P|384:108|348:172,1,105,2|2,0:0|0:0,0:0:0:0:
288,252,1581,2,0,P|272:292|308:356,2,105,2|2|2,0:0|0:0|0:0,0:0:0:0:
124,132,3483,5,2,0:0:0:0:
128,284,3905,2,0,P|116:336|100:376,1,70,2|2,0:0|0:0,0:0:0:0:
36,328,4328,2,0,P|52:272|60:196,1,105,2|2,0:0|0:0,0:0:0:0:
124,132,4962,2,0,P|109:81|101:29,2,105,2|2|2,0:0|0:0|0:0,0:0:0:0:
256,48,6018,1,2,0:0:0:0:
324,276,6863,5,2,0:0:0:0:
180,328,7286,2,0,L|272:340,1,70,2|2,0:0|0:0,0:0:0:0:
324,356,7708,2,0,P|376:340|400:288,1,105,2|2,0:0|0:0,0:0:0:0:
400,184,8342,2,0,P|413:134|458:108,2,105,2|2|2,0:0|0:0|0:0,0:0:0:0:
96,76,10243,5,2,0:0:0:0:
220,168,10666,2,0,B|292:164,1,70,2|2,0:0|0:0,0:0:0:0:
328,96,11088,2,0,L|432:103,1,105,2|2,0:0|0:0,0:0:0:0:
508,192,11722,2,0,P|496:244|504:296,2,105,2|2|2,0:0|0:0|0:0,0:0:0:0:
364,224,12779,1,2,0:0:0:0:
316,356,13201,2,0,L|385:361,1,70,0|0,0:0|0:0,0:0:0:0:
464,332,13624,6,0,L|472:248,1,83.9999974365235,4|0,0:3|0:0,0:0:0:0:
436,172,14046,2,0,L|444:88,1,83.9999974365235,8|0,0:0|0:0,0:0:0:0:
392,20,14469,2,0,B|340:40|340:40|212:24,1,167.999994873047,2|8,0:0|0:0,0:0:0:0:
156,72,15103,1,4,0:3:0:0:
172,156,15314,6,0,P|128:156|84:116,1,83.9999974365235
35,194,15736,2,0,P|56:229|55:271,1,83.9999974365235,8|0,0:0|0:0,0:0:0:0:
36,352,16159,2,0,B|116:332|116:332|200:352,1,167.999994873047,2|8,0:0|0:0,0:0:0:0:
268,300,16793,1,4,0:3:0:0:
336,354,17004,5,4,0:3:0:0:
336,354,17215,1,0,0:0:0:0:
404,304,17426,2,0,P|420:340|416:384,1,83.9999974365235,8|0,0:0|0:0,0:0:0:0:
500,384,17849,2,0,P|496:316|440:224,1,167.999994873047,8|8,0:0|0:0,0:0:0:0:
372,188,18483,1,4,0:3:0:0:
300,148,18694,6,0,P|293:105|322:45,2,83.9999974365235,0|0|8,0:0|0:0|0:0,0:0:0:0:
240,207,19328,1,0,0:0:0:0:
180,147,19539,1,2,0:0:0:0:
152,312,19962,2,0,P|108:296|80:252,1,83.9999974365235,0|4,0:0|0:3,0:0:0:0:
72,184,20384,6,0,L|100:104,1,83.9999974365235,4|0,0:3|0:0,0:0:0:0:
92,20,20807,2,0,L|172:48,1,83.9999974365235,8|0,0:0|0:0,0:0:0:0:
208,124,21229,2,0,P|264:96|364:124,1,167.999994873047,2|8,0:0|0:0,0:0:0:0:
421,181,21863,1,4,0:3:0:0:
361,240,22074,6,0,L|369:328,1,83.9999974365235,0|0,0:0|0:0,0:0:0:0:
304,376,22497,1,8,0:0:0:0:
304,376,22708,1,0,0:0:0:0:
244,316,22919,2,0,P|212:340|72:336,1,167.999994873047,2|8,0:0|0:0,0:0:0:0:
29,285,23553,1,4,0:3:0:0:
88,225,23764,6,0,L|176:224,1,83.9999974365235,4|0,0:3|0:0,0:0:0:0:
220,156,24187,2,0,L|282:217,1,83.9999974365235,8|0,0:0|0:0,0:0:0:0:
360,188,24610,2,0,L|328:368,1,167.999994873047,2|8,0:0|0:0,0:0:0:0:
256,312,25243,1,4,0:3:0:0:
180,352,25455,5,0,0:0:0:0:
180,352,25666,1,0,0:0:0:0:
108,312,25877,2,0,P|64:324|24:312,1,83.9999974365235,8|0,0:0|0:0,0:0:0:0:
64,240,26300,1,2,0:0:0:0:
92,76,26722,2,0,L|112:160,1,83.9999974365235,0|4,0:0|0:3,0:0:0:0:
148,236,27145,6,0,L|232:212,1,83.9999974365235,4|0,0:3|0:0,0:0:0:0:
264,136,27567,2,0,L|344:159,1,83.9999974365235,8|0,0:0|0:0,0:0:0:0:
356,244,27990,2,0,P|400:224|412:108,1,167.999994873047,2|8,0:0|0:0,0:0:0:0:
357,56,28624,1,4,0:3:0:0:
280,88,28835,6,0,L|196:80,1,83.9999974365235,0|0,0:0|0:0,0:0:0:0:
140,144,29257,2,0,L|86:78,1,83.9999974365235,8|0,0:0|0:0,0:0:0:0:
26,138,29680,2,0,B|84:208|84:208|72:296,1,167.999994873047,2|8,0:0|0:0,0:0:0:0:
133,343,30314,1,4,0:3:0:0:
200,292,30525,6,0,P|240:282|281:291,1,83.9999974365235,4|0,0:3|0:0,0:0:0:0:
244,368,30948,1,8,0:0:0:0:
244,368,31159,1,0,0:0:0:0:
200,292,31370,2,0,B|172:212|172:212|196:128,1,167.999994873047,2|8,0:0|0:0,0:0:0:0:
224,52,32004,1,4,0:3:0:0:
284,108,32215,6,0,L|368:108,1,83.9999974365235
404,184,32638,2,0,L|500:184,1,83.9999974365235,8|0,0:0|0:0,0:0:0:0:
488,268,33060,1,2,0:0:0:0:
488,100,33483,2,0,P|500:56|484:8,1,83.9999974365235,0|4,0:0|0:3,0:0:0:0:
401,13,33905,6,0,L|304:13,1,83.9999974365235,4|0,0:3|0:0,0:0:0:0:
252,68,34328,2,0,L|155:68,1,83.9999974365235,8|0,0:0|0:0,0:0:0:0:
100,20,34750,2,0,P|84:68|160:152,1,167.999994873047,2|8,0:0|0:0,0:0:0:0:
224,192,35384,1,4,0:3:0:0:
180,264,35595,6,0,P|172:312|184:352,1,83.9999974365235
265,345,36018,2,0,P|274:304|265:263,1,83.9999974365235,8|0,0:0|0:0,0:0:0:0:
312,192,36441,2,0,B|356:220|392:200|392:200|432:216|472:192,1,167.999994873047,2|8,0:0|0:0,0:0:0:0:
424,124,37074,1,4,0:3:0:0:
476,56,37286,5,4,0:3:0:0:
476,56,37497,1,0,0:0:0:0:
412,0,37708,2,0,L|324:8,1,83.9999974365235,8|0,0:0|0:0,0:0:0:0:
288,84,38131,2,0,P|216:32|128:36,1,167.999994873047,2|8,0:0|0:0,0:0:0:0:
64,68,38764,1,4,0:3:0:0:
16,140,38976,6,0,L|28:232,1,83.9999974365235,0|0,0:0|0:0,0:0:0:0:
112,212,39398,2,0,L|92:324,1,83.9999974365235,8|0,0:0|0:0,0:0:0:0:
80,376,39821,1,2,0:0:0:0:
97,294,40666,5,8,0:1:0:0:
208,208,41088,1,8,0:1:0:0:
308,308,41511,2,0,P|320:248|304:196,2,105,8|0|0,0:1|0:0|0:0,0:0:0:0:
344,368,42356,6,0,L|432:360,1,70,8|0,0:1|0:0,0:0:0:0:
463,311,42779,2,0,L|455:223,1,70,8|0,0:1|0:0,0:0:0:0:
432,216,43095,1,0,0:0:0:0:
432,216,43201,2,0,L|424:128,1,70,8|0,0:1|0:0,0:0:0:0:
356,116,43624,2,0,P|400:76|460:80,1,105,8|0,0:1|0:0,0:0:0:0:
472,52,44046,6,0,L|328:48,1,140,8|8,0:1|0:1,0:0:0:0:
224,140,44891,2,0,B|212:72|212:72|220:28,2,105,8|0|0,0:1|0:0|0:0,0:0:0:0:
174,189,45736,6,0,L|184:280,1,70,8|0,0:1|0:0,0:0:0:0:
232,308,46159,2,0,P|265:296|305:304,1,70,8|0,0:1|0:0,0:0:0:0:
325,325,46476,1,0,0:0:0:0:
325,325,46581,2,0,P|359:330|391:318,1,70,8|0,0:1|0:0,0:0:0:0:
441,267,47004,2,0,L|448:152,1,105,8|0,0:1|0:0,0:0:0:0:
422,137,47426,6,0,L|428:60,1,70,8|8,0:1|0:1,0:0:0:0:
352,100,47849,2,0,L|360:8,1,70,8|8,0:1|0:1,0:0:0:0:
280,56,48272,1,8,0:1:0:0:
280,56,48483,1,8,0:1:0:0:
204,24,48694,1,8,0:1:0:0:
204,24,48905,1,8,0:1:0:0:
144,83,49117,6,0,L|60:79,1,70,8|8,0:1|0:1,0:0:0:0:
112,156,49539,2,0,L|28:152,1,70,8|8,0:1|0:1,0:0:0:0:
72,232,49962,1,8,0:1:0:0:
72,232,50173,1,8,0:1:0:0:
28,304,50384,1,8,0:1:0:0:
28,304,50595,1,8,0:1:0:0:
84,368,50807,6,0,L|128:360,3,35,8|8|8|8,0:1|0:1|0:1|0:1,0:0:0:0:
148,331,51229,2,0,L|182:337,3,35,8|8|8|8,0:1|0:1|0:1|0:1,0:0:0:0:
208,364,51652,2,0,L|242:358,3,35,8|8|8|8,0:1|0:1|0:1|0:1,0:0:0:0:
267,333,52074,2,0,L|301:339,3,35,8|8|8|8,0:1|0:1|0:1|0:1,0:0:0:0:
326,364,52497,5,8,2:0:0:0:
392,340,54187,6,0,B|368:276|424:276|392:200,2,140,2|2|2,0:0|0:0|0:0,0:0:0:0:
272,244,55455,1,2,0:0:0:0:
156,348,55877,6,0,L|56:340,1,70,4|0,0:1|0:0,0:0:0:0:
68,268,56300,2,0,L|137:273,1,70,0|2,3:0|0:0,0:0:0:0:
165,246,56617,1,2,0:0:0:0:
165,246,56722,2,0,P|172:208|164:176,1,70,0|2,3:0|0:0,0:0:0:0:
216,120,57145,2,0,P|250:127|284:120,1,70,2|0,3:0|0:0,0:0:0:0:
304,44,57567,6,0,L|336:184,1,140,2|2,3:0|3:0,0:0:0:0:
484,136,58412,2,0,L|472:208,1,70,2|0,3:0|0:0,0:0:0:0:
499,232,58729,2,0,L|487:304,1,70,2|0,3:0|0:0,0:0:0:0:
460,328,59046,1,2,3:0:0:0:
388,300,59257,6,0,L|296:304,1,70,2|0,3:0|0:0,0:0:0:0:
263,357,59680,2,0,L|193:353,1,70,0|2,3:0|0:0,0:0:0:0:
168,332,59997,1,2,0:0:0:0:
168,332,60103,2,0,P|160:296|168:256,1,70,0|2,0:0|0:0,0:0:0:0:
184,188,60525,2,0,P|192:152|184:112,1,70,2|0,3:0|0:0,0:0:0:0:
112,140,60948,6,0,P|108:92|188:40,1,140,4|2,3:1|3:0,0:0:0:0:
312,104,61793,2,0,L|396:112,1,70,2|0,3:0|0:0,0:0:0:0:
409,137,62110,2,0,L|478:143,1,70,2|0,3:0|0:0,0:0:0:0:
505,170,62426,1,2,3:0:0:0:
476,240,62638,6,0,B|468:280|468:280|480:316,1,70,2|0,3:0|0:0,0:0:0:0:
422,362,63060,2,0,B|386:354|386:354|354:360,1,70,0|2,3:0|0:0,0:0:0:0:
326,333,63377,1,2,0:0:0:0:
326,333,63483,2,0,B|290:341|290:341|258:334,1,70,0|2,3:0|0:0,0:0:0:0:
204,276,63905,2,0,L|212:192,1,70,2|0,3:0|0:0,0:0:0:0:
260,148,64328,6,0,B|212:168|212:168|125:152,1,140,2|2,3:0|0:3,0:0:0:0:
44,284,65173,2,0,L|136:304,1,70,2|0,3:0|0:0,0:0:0:0:
139,326,65490,2,0,L|207:311,1,70,2|0,3:0|0:0,0:0:0:0:
234,338,65807,1,2,3:0:0:0:
300,296,66018,6,0,L|376:300,1,70,2|0,3:0|0:0,0:0:0:0:
432,252,66441,2,0,L|435:182,1,70,2|0,3:0|0:0,0:0:0:0:
407,155,66757,1,2,0:0:0:0:
407,155,66863,2,0,L|410:85,2,70,0|2|2,3:0|0:0|3:3,0:0:0:0:
336,184,67497,1,0,3:0:0:0:
268,148,67708,6,0,L|184:156,1,70,4|2,3:1|0:0,0:0:0:0:
164,84,68131,2,0,L|104:144,1,70,2|2,3:0|0:0,0:0:0:0:
40,108,68553,2,0,L|48:184,1,70,2|2,3:0|0:0,0:0:0:0:
20,204,68870,1,0,0:0:0:0:
20,204,68976,2,0,L|28:280,1,70,2|0,3:0|0:0,0:0:0:0:
72,336,69398,6,0,P|112:320|144:320,1,70,2|0,3:0|0:0,0:0:0:0:
216,324,69821,2,0,P|250:321|282:307,1,70,2|2,3:0|0:0,0:0:0:0:
300,272,70138,1,2,0:0:0:0:
300,272,70243,2,0,L|292:184,1,70,2|2,3:0|0:0,0:0:0:0:
336,136,70666,2,0,L|420:128,1,70,2|0,3:0|0:0,0:0:0:0:
392,52,71088,6,0,L|322:58,1,70,2|0,3:0|0:0,0:0:0:0:
260,12,71511,2,0,L|208:64,1,70,2|0,3:0|0:0,0:0:0:0:
132,64,71933,2,0,L|144:144,1,70,2|0,3:0|0:0,0:0:0:0:
115,160,72250,2,0,L|127:240,1,70,2|0,3:0|0:0,0:0:0:0:
98,256,72567,1,2,3:0:0:0:
136,324,72779,6,0,P|172:332|208:320,1,70,2|0,3:0|0:0,0:0:0:0:
268,280,73201,2,0,P|304:272|340:284,1,70,2|2,3:0|0:0,0:0:0:0:
368,300,73518,1,2,0:0:0:0:
368,300,73624,2,0,P|401:309|435:300,1,70,2|2,3:0|0:0,0:0:0:0:
489,245,74046,2,0,L|501:169,1,70,2|0,3:0|0:0,0:0:0:0:
445,121,74469,6,0,L|345:141,1,70,4|2,3:1|0:0,0:0:0:0:
321,189,74891,2,0,L|252:175,1,70,2|2,3:0|0:0,0:0:0:0:
212,112,75314,2,0,P|184:140|176:176,1,70,2|0,3:0|0:0,0:0:0:0:
176,207,75631,2,0,P|165:239|139:263,1,70,2|0,3:0|0:0,0:0:0:0:
104,280,75948,1,2,3:0:0:0:
40,240,76159,6,0,L|32:168,1,70,2|0,3:0|0:0,0:0:0:0:
96,124,76581,2,0,L|103:54,1,70,2|2,3:0|0:0,0:0:0:0:
131,27,76898,1,2,0:0:0:0:
131,27,77004,2,0,L|200:34,1,70,2|2,3:0|0:0,0:0:0:0:
255,88,77426,2,0,L|324:81,1,70,2|0,3:0|0:0,0:0:0:0:
392,120,77849,6,0,P|396:160|384:204,1,70,2|0,3:0|0:0,0:0:0:0:
364,260,78272,2,0,P|359:294|365:328,1,70,2|0,3:0|0:0,0:0:0:0:
296,364,78694,2,0,P|261:359|227:365,1,70,2|0,3:0|0:0,0:0:0:0:
188,376,79011,2,0,P|153:380|119:374,1,70,2|0,3:0|0:0,0:0:0:0:
84,356,79328,1,2,3:0:0:0:
24,308,79539,6,0,B|25:275|25:275|44:234,1,70,2|0,3:0|0:0,0:0:0:0:
36,164,79962,2,0,B|68:165|68:165|109:184,1,70,2|2,3:0|0:0,0:0:0:0:
136,200,80279,1,2,0:0:0:0:
136,200,80384,2,0,B|169:216|169:216|202:217,1,70,2|2,3:0|0:0,0:0:0:0:
256,164,80807,2,0,P|276:208|272:248,1,70,2|0,3:0|0:0,0:0:0:0:
260,320,81229,6,0,L|428:300,1,167.999994873047,4|0,0:1|0:0,0:0:0:0:
492,234,81863,1,2,0:0:0:0:
444,156,82074,2,0,P|444:96|456:24,2,125.999996154785,2|2|2,0:0|0:0|0:0,0:0:0:0:
364,112,82919,6,0,P|363:153|367:195,1,83.9999974365235
280,224,83342,2,0,P|309:253|341:280,1,83.9999974365235,0|2,0:0|0:0,0:0:0:0:
304,364,83764,2,0,P|345:364|387:360,1,83.9999974365235,2|0,0:0|0:0,0:0:0:0:
432,344,84081,2,0,P|432:302|428:260,1,83.9999974365235,2|0,0:0|0:0,0:0:0:0:
408,216,84398,1,2,0:0:0:0:
484,164,84610,6,0,B|464:124|412:120|412:120|428:72|396:32,1,167.999994873047,4|0,0:1|0:0,0:0:0:0:
322,89,85243,1,2,0:0:0:0:
251,25,85455,2,0,P|228:88|252:152,2,125.999996154785,2|2|2,0:0|0:0|0:0,0:0:0:0:
160,44,86300,6,0,P|120:56|64:44,1,83.9999974365235,2|0,0:0|0:0,0:0:0:0:
44,136,86722,2,0,P|72:176|66:247,1,83.9999974365235,0|2,0:0|0:0,0:0:0:0:
68,304,87145,2,0,L|164:280,1,83.9999974365235,2|0,0:0|0:0,0:0:0:0:
176,320,87462,2,0,L|272:296,1,83.9999974365235,2|0,0:0|0:0,0:0:0:0:
300,284,87779,1,2,0:0:0:0:
384,324,87990,6,0,P|426:309|357:247,1,167.999994873047,4|0,0:1|0:0,0:0:0:0:
300,184,88624,1,2,0:0:0:0:
376,132,88835,2,0,P|384:80|372:4,2,125.999996154785,2|2|2,0:0|0:0|0:0,0:0:0:0:
441,197,89680,6,0,P|435:238|440:280,1,83.9999974365235,2|0,0:0|0:0,0:0:0:0:
375,345,90103,2,0,P|333:349|291:344,1,83.9999974365235,0|2,0:0|0:0,0:0:0:0:
220,284,90525,2,0,P|214:242|219:200,1,83.9999974365235,2|0,0:0|0:0,0:0:0:0:
240,160,90842,2,0,P|245:118|240:76,1,83.9999974365235,2|0,0:0|0:0,0:0:0:0:
220,36,91159,1,2,0:0:0:0:
131,63,91370,6,0,B|99:107|99:107|127:227,1,167.999994873047,4|0,0:1|0:0,0:0:0:0:
72,296,92004,1,2,0:0:0:0:
124,372,92215,2,0,B|184:360|184:360|248:372,2,125.999996154785,2|2|2,0:0|0:0|0:0,0:0:0:0:
72,296,93060,6,0,L|160:280,1,83.9999974365235
204,200,93483,2,0,L|286:215,1,83.9999974365235,0|2,0:0|0:0,0:0:0:0:
336,292,93905,2,0,P|372:252|364:168,2,125.999996154785,2|2|2,0:0|0:0|0:0,0:0:0:0:
256,144,94750,5,4,0:1:0:0:
