osu file format v14

[General]
AudioFilename: audio.mp3
AudioLeadIn: 0
PreviewTime: 3593
Countdown: 0
SampleSet: Soft
StackLeniency: 0.7
Mode: 0
LetterboxInBreaks: 0
WidescreenStoryboard: 1

[Editor]
Bookmarks: 24593,44285,63977,83670,93516,103362,123054,132900,142746,162439,172285
DistanceSpacing: 1
BeatDivisor: 4
GridSize: 32
TimelineZoom: 2

[Metadata]
Title:the tyrannical reign of lord foog the 2st
TitleUnicode:the tyrannical reign of lord foog the 2st
Artist:marshall4
ArtistUnicode:marshall4
Creator:wafer
Version:wyits Hard to th- im a sweet little bumble bee
Source:
Tags:no letting go wayne wonder goombacore 4 4: a new adventure adventure! plunderphonics dariacore daria core hyperflip hyper flip goopert kami kotoba down jay sean lil spongebob patrick sandy mr krabs plankton gary mr. squidward larry flo rida florida whistle bad blood kendrick lamar taylor swift family guy dakiwii ascended -_ascended_- ancel ancelysia cyndifusic kataryn chaser01 wyit english electronic dakiwii's wyit's
BeatmapID:4499480
BeatmapSetID:2055029

[Difficulty]
HPDrainRate:4
CircleSize:4
OverallDifficulty:6
ApproachRate:7.8
SliderMultiplier:1.4
SliderTickRate:1

[Events]
//Background and Video events
0,0,"gomba.png",0,0
//Break Periods
2,44485,45208
2,83870,92229
2,100793,102537
//Storyboard Layer 0 (Background)
//Storyboard Layer 1 (Fail)
//Storyboard Layer 2 (Pass)
//Storyboard Layer 3 (Foreground)
//Storyboard Layer 4 (Overlay)
//Storyboard Sound Samples

[TimingPoints]
3670,307.692307692308,4,2,0,40,1,0
4900,-100,4,2,0,50,0,0
19670,-100,4,2,0,55,0,0
22131,-100,4,2,0,60,0,0
24593,-100,4,2,0,65,0,0
43977,-90.9090909090909,4,2,0,70,0,0
93054,-100,4,2,0,55,0,0
93516,-100,4,2,0,60,0,0
103362,-100,4,2,0,65,0,0
123054,-357.142857142857,4,2,0,65,0,1
132900,-83.3333333333333,4,2,0,80,0,0
142746,-83.3333333333333,4,2,0,85,0,0

[Colours]
Combo1 : 255,255,255
Combo2 : 160,227,111
Combo3 : 194,163,116

[HitObjects]
256,310,3669,5,0,0:0:0:0:
179,309,3823,2,0,L|165:263,2,35
128,367,4131,2,0,P|85:329|71:242,1,140
109,184,4593,2,0,P|114:149|105:116,1,70
32,91,4900,1,4,3:0:0:0:
196,55,5362,6,0,L|116:38,1,70,0|4,0:0|3:0,0:0:0:0:
285,98,5977,2,0,L|205:81,1,70,0|4,0:0|3:0,0:0:0:0:
437,15,6593,5,2,0:0:0:0:
376,62,6746,2,0,L|388:138,1,70,4|0,3:0|0:0,0:0:0:0:
440,186,7054,1,2,0:0:0:0:
407,255,7208,2,0,P|472:276|494:359,1,140
343,329,7823,1,0,0:0:0:0:
256,192,8131,1,0,0:0:0:0:
319,59,8439,2,0,L|488:69,1,140,2|0,0:0|0:0,0:0:0:0:
459,68,9208,5,4,3:0:0:0:
396,29,9362,1,2,0:0:0:0:
348,93,9516,2,0,P|353:131|345:170,1,70,2|0,0:0|0:0,0:0:0:0:
256,192,9823,1,4,3:0:0:0:
130,315,10285,6,0,L|97:411,1,70,0|4,0:0|3:0,0:0:0:0:
184,231,10900,2,0,L|151:327,1,70,0|4,0:0|3:0,0:0:0:0:
15,192,11516,5,2,0:0:0:0:
15,192,11670,2,0,L|100:173,1,70,4|0,3:0|0:0,0:0:0:0:
119,108,11977,1,2,0:0:0:0:
83,38,12131,2,0,P|146:8|213:19,1,140,2|0,0:0|0:0,0:0:0:0:
301,179,12746,2,0,P|363:208|430:197,2,140,0|2|2,0:0|0:0|0:0,0:0:0:0:
301,179,13516,1,4,3:0:0:0:
276,15,13977,5,0,0:0:0:0:
333,65,14131,2,0,L|413:43,1,70,4|2,3:0|0:0,0:0:0:0:
462,93,14439,1,0,0:0:0:0:
434,165,14593,2,0,P|446:235|346:340,1,210,2|2,0:0|0:0,0:0:0:0:
297,294,15208,2,0,L|448:331,1,140,0|2,0:0|0:0,0:0:0:0:
320,221,15823,6,0,P|250:209|145:309,1,210,0|2,0:0|0:0,0:0:0:0:
207,343,16439,2,0,B|232:314|232:314|184:134,1,210,2|0,0:0|0:0,0:0:0:0:
114,125,17054,2,0,L|18:160,1,70,0|4,0:0|3:0,0:0:0:0:
194,66,17670,2,0,L|98:101,1,70,0|4,0:0|3:0,0:0:0:0:
274,7,18285,2,0,L|178:42,1,70,2|4,0:0|3:0,0:0:0:0:
208,30,18900,6,0,L|243:126,1,70,2|4,0:0|3:0,0:0:0:0:
301,131,19208,1,2,0:0:0:0:
282,205,19362,1,2,0:0:0:0:
261,279,19516,2,0,P|158:310|78:404,1,210,0|2,0:0|0:0,0:0:0:0:
37,324,20131,1,0,0:0:0:0:
188,353,20439,5,2,0:0:0:0:
145,288,20593,1,0,0:0:0:0:
171,216,20746,2,0,P|122:119|16:57,1,210,2|0,0:0|0:0,0:0:0:0:
86,2,21362,1,2,0:0:0:0:
150,43,21516,2,0,L|231:25,1,70,4|0,3:0|0:0,0:0:0:0:
266,87,21823,2,0,L|334:102,1,70,2|2,0:0|0:0,0:0:0:0:
397,60,22131,5,4,3:0:0:0:
454,207,22593,2,0,L|424:305,1,70,0|4,0:0|3:0,0:0:0:0:
508,124,23209,2,0,L|478:222,1,70,2|4,0:0|3:0,0:0:0:0:
488,191,23823,5,0,0:0:0:0:
406,168,23977,1,4,3:0:0:0:
330,205,24131,1,2,0:0:0:0:
286,277,24285,2,0,P|255:294|207:304,1,70,0|2,0:0|0:0,0:0:0:0:
154,251,24593,6,0,B|117:240|117:240|96:248|96:248|18:231,2,140,12|8|8,1:2|0:2|1:2,0:0:0:0:
215,193,25362,1,0,0:0:0:0:
164,125,25516,2,0,L|178:49,1,70,8|2,0:2|0:1,0:0:0:0:
260,54,25823,6,0,B|275:39|275:39|409:8,2,140,8|8|8,1:0|0:0|1:2,0:0:0:0:
283,135,26593,1,0,0:0:0:0:
364,114,26746,2,0,L|450:138,1,70,8|0,0:2|0:0,0:0:0:0:
482,200,27054,2,0,B|470:245|470:245|431:270|431:270|419:316,1,140,8|8,1:2|0:2,0:0:0:0:
419,316,27670,6,0,L|332:293,1,70,8|0,1:2|0:0,0:0:0:0:
274,331,27977,2,0,L|250:243,1,70,8|0,0:2|0:0,0:0:0:0:
173,242,28285,2,0,P|113:278|44:284,4,140,8|10|8|8|8,1:0|0:1|1:2|0:2|1:0,0:0:0:0:
126,80,29823,1,8,0:0:0:0:
281,16,30131,6,0,L|350:24,1,70,8|0,1:2|0:0,0:0:0:0:
428,57,30439,1,8,0:2:0:0:
387,130,30593,1,2,0:1:0:0:
446,188,30746,2,0,B|431:203|431:203|297:234,2,140,8|8|8,1:0|0:0|1:2,0:0:0:0:
492,258,31516,6,0,L|477:343,1,70,0|8,0:0|0:2,0:0:0:0:
408,371,31823,1,0,0:0:0:0:
327,347,31977,2,0,B|312:332|312:332|285:216,2,140,8|8|8,1:2|0:2|1:2,0:0:0:0:
247,373,32746,1,0,0:0:0:0:
185,316,32900,2,0,L|196:235,1,70,8|0,0:2|0:0,0:0:0:0:
116,185,33208,5,8,1:0:0:0:
310,140,33516,1,8,1:0:0:0:
476,242,33823,1,8,1:2:0:0:
286,291,34131,1,8,0:2:0:0:
116,185,34439,1,8,1:0:0:0:
244,77,34746,5,8,0:0:0:0:
295,143,34900,2,0,P|294:212|278:280,1,140,2|0,0:0|3:0,0:0:0:0:
360,300,35362,1,8,0:0:0:0:
406,230,35516,2,0,P|406:299|422:367,1,140
278,280,36131,6,0,P|208:280|140:296,1,140,0|0,0:0|3:0,0:0:0:0:
98,222,36593,2,0,P|61:249|50:292,1,70,8|0,0:0|0:0,0:0:0:0:
42,357,36900,1,8,1:0:0:0:
42,357,37208,1,8,0:0:0:0:
207,251,37516,6,0,L|216:181,1,70,8|0,1:2|0:0,0:0:0:0:
170,111,37823,1,8,0:2:0:0:
222,44,37977,1,0,0:0:0:0:
299,75,38131,2,0,P|358:72|427:17,4,140,8|8|8|8|8,1:0|1:0|1:2|0:2|1:0,0:0:0:0:
143,9,39670,5,8,0:0:0:0:
126,90,39823,2,0,P|127:159|143:227,1,140,0|0,0:0|3:0,0:0:0:0:
61,247,40285,1,8,0:0:0:0:
15,177,40439,2,0,P|15:246|-1:314,1,140
142,228,41054,6,0,P|214:219|249:300,1,140,0|0,0:0|3:0,0:0:0:0:
217,345,41516,2,0,P|238:352|305:335,1,70,8|0,0:0|0:0,0:0:0:0:
336,280,41823,1,8,1:0:0:0:
336,280,42131,1,8,0:0:0:0:
242,139,42439,2,0,L|230:50,1,70,8|0,1:2|0:0,0:0:0:0:
315,81,42746,2,0,L|328:-10,1,70,10|2,0:2|0:0,0:0:0:0:
407,58,43054,5,10,0:0:0:0:
407,58,43362,1,8,0:0:0:0:
407,58,43670,1,8,0:0:0:0:
292,202,43977,6,0,B|262:224|262:224|223:214,1,77.0000023498536,2|0,0:1|0:0,0:0:0:0:
133,190,44285,1,4,1:0:0:0:
47,225,46131,6,0,L|13:217,4,19.2500005874634,0|0|0|0|0,1:0|1:0|1:0|1:0|1:0,1:0:0:0:
109,155,46439,2,0,L|91:57,1,77.0000023498536,10|0,1:0|1:0,0:0:0:0:
194,19,46746,5,2,1:0:0:0:
390,60,47054,1,2,1:0:0:0:
466,23,47208,2,0,L|457:-14,2,38.5000011749268,2|0|8,1:0|0:0|1:0,0:0:0:0:
512,106,47516,1,0,1:0:0:0:
512,106,47593,1,0,1:0:0:0:
512,106,47670,1,2,1:0:0:0:
467,177,47823,6,0,B|457:215|457:215|486:285|486:285|474:322,1,154.000004699707,0|2,1:0|1:0,0:0:0:0:
396,358,48285,2,0,L|320:340,1,77.0000023498536,2|2,1:0|1:0,0:0:0:0:
252,277,48593,1,10,1:0:0:0:
188,343,48746,2,0,L|197:380,2,38.5000011749268,0|0|0,1:0|1:0|1:0,0:0:0:0:
108,325,49054,2,0,L|24:335,1,77.0000023498536,0|2,1:0|1:0,0:0:0:0:
31,334,49516,6,0,L|108:325,1,77.0000023498536,2|2,1:0|1:0,0:0:0:0:
145,249,49823,1,8,1:0:0:0:
63,226,49977,2,0,L|31:176,2,38.5000011749268,0|0|2,1:0|1:0|1:0,0:0:0:0:
129,172,50285,6,0,B|168:161|168:161|189:90|189:90|227:80,1,154.000004699707,0|2,1:0|1:0,0:0:0:0:
307,107,50746,2,0,B|336:80|336:80|328:44,1,77.0000023498536,2|2,1:0|1:0,0:0:0:0:
407,11,51054,2,0,L|492:25,1,77.0000023498536,10|0,1:0|1:0,0:0:0:0:
482,23,51285,1,0,1:0:0:0:
482,23,51362,2,0,L|468:108,1,77.0000023498536,0|0,1:0|1:0,0:0:0:0:
400,149,51670,5,2,1:0:0:0:
473,334,51977,1,2,1:0:0:0:
401,382,52131,2,0,L|357:298,1,77.0000023498536,2|8,1:0|1:0,0:0:0:0:
292,269,52439,2,0,L|283:225,2,38.5000011749268,0|0|2,1:0|1:0|1:0,0:0:0:0:
218,312,52746,2,0,B|181:300|181:300|111:329|111:329|73:319,1,154.000004699707,0|2,1:0|1:0,0:0:0:0:
28,245,53208,1,2,1:0:0:0:
28,245,53362,1,2,1:0:0:0:
90,176,53516,6,2,L|86:150,4,19.2500005874634,2|2|2|2|2,3:0|3:0|3:0|3:0|3:0,3:0:0:0:
173,216,53823,2,0,L|189:122,1,77.0000023498536,2|2,1:0|3:0,0:0:0:0:
155,44,54131,5,2,1:0:0:0:
353,15,54439,1,2,1:0:0:0:
409,77,54593,2,0,L|487:91,1,77.0000023498536,2|8,1:0|1:0,0:0:0:0:
435,159,54900,2,0,L|397:167,2,38.5000011749268,0|0|2,0:0|1:0|1:0,0:0:0:0:
487,226,55208,6,0,B|476:265|476:265|405:286|405:286|395:324,1,154.000004699707,0|2,1:0|1:0,0:0:0:0:
319,364,55670,2,0,L|305:277,1,77.0000023498536,2|2,1:0|1:0,0:0:0:0:
228,239,55977,1,10,1:0:0:0:
274,162,56131,1,0,1:0:0:0:
274,162,56208,1,0,1:0:0:0:
274,162,56285,2,0,L|285:68,1,77.0000023498536,0|0,1:0|1:0,0:0:0:0:
218,18,56593,5,2,1:0:0:0:
36,100,56900,2,0,L|25:59,2,38.5000011749268,2|0|2,1:0|0:0|1:0,0:0:0:0:
70,177,57208,2,0,L|56:268,2,77.0000023498536,8|0|2,1:0|0:0|1:0,0:0:0:0:
148,142,57670,2,0,B|156:180|156:180|216:226|216:226|226:264,1,154.000004699707,0|2,1:0|1:0,0:0:0:0:
194,344,58131,5,2,1:0:0:0:
194,344,58285,1,2,1:0:0:0:
277,330,58439,2,2,L|307:324,4,19.2500005874634,2|2|2|2|2,3:0|3:0|3:0|3:0|3:0,3:0:0:0:
322,249,58746,2,0,L|397:261,1,77.0000023498536,0|0,1:0|1:0,0:0:0:0:
488,281,59054,5,2,1:0:0:0:
457,82,59362,1,2,1:0:0:0:
457,82,59516,1,2,1:0:0:0:
373,97,59670,1,8,1:0:0:0:
309,41,59823,2,0,L|303:2,2,38.5000011749268,0|0|2,0:0|1:0|1:0,0:0:0:0:
244,96,60131,2,0,B|218:123|218:123|139:134|139:134|114:161,1,154.000004699707,0|2,1:0|1:0,0:0:0:0:
43,113,60593,6,0,L|53:32,2,77.0000023498536,2|2|10,1:0|1:0|1:0,0:0:0:0:
11,191,61054,1,0,0:0:0:0:
11,191,61131,1,0,1:0:0:0:
11,191,61208,2,0,L|20:267,1,77.0000023498536,0|0,1:0|1:0,0:0:0:0:
33,351,61516,5,2,1:0:0:0:
231,377,61823,1,2,1:0:0:0:
231,377,61977,1,2,1:0:0:0:
246,293,62131,1,8,1:0:0:0:
328,313,62285,2,0,L|343:359,2,38.5000011749268,0|0|2,0:0|1:0|1:0,0:0:0:0:
399,266,62593,2,0,B|409:228|409:228|469:182|469:182|477:144,1,154.000004699707,0|2,1:0|1:0,0:0:0:0:
446,64,63054,5,2,1:0:0:0:
446,64,63208,1,2,1:0:0:0:
365,91,63362,2,2,L|374:121,4,19.2500005874634,2|2|2|2|2,3:0|3:0|3:0|3:0|3:0,3:0:0:0:
305,30,63670,2,0,L|220:39,1,77.0000023498536,2|2,1:0|3:0,0:0:0:0:
150,97,63977,6,0,B|92:86|92:86|47:141,1,115.50000352478,4|2,1:0|0:0,0:0:0:0:
56,129,64285,2,0,L|68:211,1,77.0000023498536,0|2,1:0|0:0,0:0:0:0:
144,267,64593,6,0,B|164:322|164:322|128:365,1,115.50000352478,4|2,1:0|0:0,0:0:0:0:
129,366,64900,2,0,L|205:377,1,77.0000023498536,0|2,1:0|0:0,0:0:0:0:
260,302,65208,6,0,B|315:281|315:281|358:317,1,115.50000352478,4|2,1:0|0:0,0:0:0:0:
358,317,65516,2,0,L|369:240,1,77.0000023498536,0|2,1:0|0:0,0:0:0:0:
390,153,65823,6,0,B|427:107|427:107|482:117,1,115.50000352478,6|2,1:0|0:0,0:0:0:0:
482,117,66131,2,0,L|453:45,1,77.0000023498536,0|2,1:0|0:0,0:0:0:0:
364,17,66439,6,0,B|342:49|342:49|248:60,1,115.50000352478,4|2,1:0|0:0,0:0:0:0:
246,46,66746,2,0,L|241:-4,2,38.5000011749268,0|0|2,1:0|0:0|0:0,0:0:0:0:
205,129,67054,6,0,B|183:161|183:161|89:172,1,115.50000352478,4|2,1:0|0:0,0:0:0:0:
87,158,67361,2,0,L|82:108,2,38.5000011749268,0|2|2,1:0|0:0|0:0,0:0:0:0:
37,237,67670,6,0,B|53:272|53:272|143:299,1,115.50000352478,4|2,1:0|0:0,0:0:0:0:
148,287,67977,2,0,L|161:238,2,38.5000011749268,0|2|2,1:0|0:0|0:0,0:0:0:0:
202,362,68285,6,0,B|238:375|238:375|321:330,1,115.50000352478,6|2,1:0|0:0,0:0:0:0:
316,319,68592,2,0,L|291:275,2,38.5000011749268,0|2|2,1:0|0:0|0:0,0:0:0:0:
395,364,68900,6,0,B|425:313|425:313|397:265,1,115.50000352478,4|2,1:0|0:0,0:0:0:0:
397,264,69208,2,0,L|477:245,1,77.0000023498536,0|2,1:0|0:0,0:0:0:0:
504,161,69516,6,0,B|473:110|473:110|501:61,1,115.50000352478,4|2,1:0|0:0,0:0:0:0:
502,60,69824,2,0,L|422:41,1,77.0000023498536,0|2,1:0|0:0,0:0:0:0:
343,15,70131,6,0,B|298:52|298:52|245:34,1,115.50000352478,4|2,1:0|0:0,0:0:0:0:
244,35,70439,2,0,L|239:117,1,77.0000023498536,0|2,1:0|0:0,0:0:0:0:
164,164,70746,6,0,B|119:125|119:125|66:144,1,115.50000352478,6|2,1:0|0:0,0:0:0:0:
66,143,71054,2,0,L|61:219,1,77.0000023498536,0|2,1:0|0:0,0:0:0:0:
19,302,71362,6,0,B|60:318|60:318|145:291,1,115.50000352478,4|2,1:0|0:0,0:0:0:0:
133,273,71670,2,0,L|226:243,1,77.0000023498536,0|2,1:0|0:0,0:0:0:0:
278,191,71977,6,0,B|319:175|319:175|404:202,1,115.50000352478,4|2,1:0|0:0,0:0:0:0:
392,220,72285,2,0,L|485:250,1,77.0000023498536,0|2,1:0|0:0,0:0:0:0:
442,334,72593,6,0,B|406:322|406:322|394:359|394:359|352:346,4,115.50000352478,0|0|0|0|0,1:0|1:0|1:0|1:0|1:0,0:0:0:0:
507,268,73670,1,2,2:3:0:0:
489,177,73823,2,0,L|474:92,1,77.0000023498536,4|0,1:0|0:0,0:0:0:0:
388,69,74131,6,0,L|397:23,3,38.5000011749268,0|0|2|0,1:0|0:0|0:0|0:0,0:0:0:0:
376,16,74439,2,0,L|300:29,1,77.0000023498536,4|0,1:0|0:0,0:0:0:0:
242,101,74746,6,0,L|251:147,3,38.5000011749268,0|2|2|0,1:0|0:0|0:0|3:0,0:0:0:0:
230,154,75054,2,0,L|154:140,1,77.0000023498536,4|0,1:0|0:0,0:0:0:0:
86,76,75362,6,0,L|40:67,3,38.5000011749268,0|2|2|2,1:0|0:0|0:0|0:0,0:0:0:0:
33,88,75670,2,0,L|46:163,1,77.0000023498536,6|0,1:0|0:0,0:0:0:0:
103,236,75977,6,0,L|149:227,3,38.5000011749268,0|2|2|2,1:0|0:0|0:0|0:0,0:0:0:0:
156,248,76285,2,0,L|142:323,1,77.0000023498536,4|2,1:0|0:0,0:0:0:0:
220,374,76593,6,0,L|266:383,3,38.5000011749268,0|0|2|0,1:0|0:0|0:0|0:0,0:0:0:0:
274,364,76900,2,0,L|365:352,1,77.0000023498536,4|2,1:0|0:0,0:0:0:0:
380,265,77208,6,0,L|426:274,3,38.5000011749268,0|2|2|0,1:0|0:0|0:0|3:0,0:0:0:0:
434,255,77515,2,0,L|525:243,1,77.0000023498536,4|2,1:0|0:0,0:0:0:0:
473,159,77823,6,0,L|426:165,3,38.5000011749268,0|2|2|2,1:0|0:0|0:0|0:0,0:0:0:0:
419,146,78130,2,0,L|328:129,1,77.0000023498536,6|2,1:0|0:0,0:0:0:0:
319,42,78438,6,0,L|272:48,3,38.5000011749268,0|2|2|2,1:0|0:0|0:0|0:0,0:0:0:0:
265,29,78745,2,0,L|174:12,1,77.0000023498536,4|2,1:0|0:0,0:0:0:0:
141,95,79054,6,0,L|151:147,3,38.5000011749268,0|0|2|0,1:0|0:0|0:0|0:0,0:0:0:0:
132,150,79362,2,0,L|55:166,1,77.0000023498536,4|2,1:0|0:0,0:0:0:0:
26,253,79670,6,0,L|78:243,3,38.5000011749268,0|2|2|0,1:0|0:0|0:0|3:0,0:0:0:0:
81,262,79978,2,0,L|97:339,1,77.0000023498536,4|0,1:0|0:0,0:0:0:0:
187,355,80285,6,0,L|177:303,3,38.5000011749268,0|2|2|2,1:0|0:0|0:0|0:0,0:0:0:0:
196,300,80593,2,0,L|273:284,1,77.0000023498536,6|2,1:0|0:0,0:0:0:0:
302,197,80900,6,0,L|250:207,3,38.5000011749268,0|2|2|2,1:0|0:0|0:0|0:0,0:0:0:0:
247,188,81208,2,0,L|231:111,1,77.0000023498536,4|0,1:0|1:0,0:0:0:0:
304,55,81516,6,0,L|312:2,3,38.5000011749268,0|0|2|0,1:0|0:0|0:0|0:0,0:0:0:0:
332,7,81824,2,0,L|409:18,1,77.0000023498536,4|0,1:0|0:0,0:0:0:0:
499,34,82131,2,0,B|513:71|513:71|484:95,1,77.0000023498536,0|2,1:0|0:0,0:0:0:0:
393,154,82439,5,0,1:0:0:0:
393,154,82670,5,0,1:0:0:0:
393,154,82900,5,0,1:0:0:0:
393,154,83131,5,0,1:0:0:0:
393,154,83362,6,0,L|401:233,1,77.0000023498536,0|2,1:0|2:3,0:0:0:0:
472,312,83670,1,4,1:0:0:0:
57,198,93054,6,0,P|37:169|38:135,2,70,2|2|2,0:0|0:0|0:0,0:0:0:0:
144,226,93516,2,0,B|178:216|178:216|188:148|188:148|222:139,1,140,4|2,3:0|3:0,0:0:0:0:
313,193,93977,2,0,L|360:198,2,35,0|0|4,3:0|3:0|3:0,0:0:0:0:
323,281,94285,1,4,3:0:0:0:
323,281,94439,1,4,3:0:0:0:
413,289,94593,6,0,P|451:268|452:206,1,105,2|0,3:0|3:0,0:0:0:0:
473,200,94900,2,0,L|486:112,1,70,4|2,3:0|3:0,0:0:0:0:
398,125,95208,6,0,P|377:87|286:94,1,140,0|4,3:0|3:0,0:0:0:0:
220,138,95670,2,0,L|133:124,1,70,2|4,3:0|3:0,0:0:0:0:
93,188,95977,5,2,0:0:0:0:
93,188,96131,2,0,P|61:202|26:205,2,70,2|2|0,0:0|3:0|3:0,0:0:0:0:
150,126,96593,2,0,L|220:138,1,70,4|4,3:0|3:0,0:0:0:0:
279,197,96900,2,0,L|267:266,1,70,4|2,3:0|3:0,0:0:0:0:
337,314,97208,6,0,P|394:270|469:268,1,140,2|2,3:0|3:0,0:0:0:0:
504,193,97670,2,0,L|435:178,1,70,0|0,3:0|3:0,0:0:0:0:
435,178,97900,1,0,3:0:0:0:
435,178,97977,1,4,3:0:0:0:
353,160,98131,2,0,L|338:91,1,70,2|4,3:0|3:0,0:0:0:0:
267,45,98439,5,2,3:2:0:0:
267,45,98593,1,0,0:0:0:0:
211,107,98746,1,2,3:2:0:0:
211,107,98900,1,0,0:0:0:0:
128,92,99054,2,0,P|127:58|141:14,2,70,4|2|4,3:0|0:0|3:0,0:0:0:0:
98,171,99516,1,2,3:0:0:0:
18,197,99670,21,2,3:0:0:0:
494,187,100593,1,8,0:0:0:0:
256,16,103362,5,12,1:2:0:0:
130,128,103670,2,2,L|44:116,1,70,8|0,0:2|0:0,0:1:0:0:
14,56,103977,1,8,1:2:0:0:
32,223,104285,6,0,L|118:211,1,70,8|2,0:2|0:1,0:0:0:0:
148,151,104592,1,8,1:0:0:0:
131,318,104900,6,0,L|45:306,1,70,8|0,0:0|0:0,0:0:0:0:
15,246,105207,1,8,1:2:0:0:
183,231,105516,1,8,0:0:0:0:
329,312,105823,5,8,1:2:0:0:
497,297,106131,2,0,P|497:263|484:211,1,70,8|2,0:2|0:1,0:1:0:0:
417,201,106439,1,4,3:0:0:0:
249,186,106747,6,0,P|249:152|261:100,1,70,8|0,0:2|0:0,0:0:0:0:
329,90,107054,1,8,1:0:0:0:
497,75,107362,6,0,P|497:41|484:-10,1,70,10|0,0:1|0:0,0:0:0:0:
417,31,107670,2,0,L|399:194,1,140,8|0,1:2|0:0,0:0:0:0:
488,330,108285,6,0,P|476:298|446:254,1,70,8|0,1:0|0:0,0:0:0:0:
383,289,108593,2,0,P|335:279|292:298,1,70,8|0,0:0|0:0,0:0:0:0:
273,348,108900,2,0,B|209:372|212:304|131:343,1,140,8|8,1:2|0:2,0:0:0:0:
33,208,109516,5,8,1:0:0:0:
98,155,109670,2,0,P|137:200|134:226,2,70,0|8|0,0:0|0:0|0:0,0:0:0:0:
18,127,110131,2,0,P|44:55|104:47,1,140,8|8,1:2|0:2,0:0:0:0:
214,169,110746,5,8,1:2:0:0:
358,82,111054,2,0,P|362:46|371:12,1,70,8|0,0:2|0:1,0:1:0:0:
439,61,111362,1,8,1:2:0:0:
403,225,111670,6,0,P|399:190|390:156,1,70,8|0,0:2|0:0,0:0:0:0:
323,203,111978,1,8,1:0:0:0:
358,366,112285,6,0,P|361:331|370:297,1,70,8|0,1:0|0:1,0:0:0:0:
438,344,112593,5,8,1:2:0:0:
256,326,112900,5,8,0:2:0:0:
74,308,113208,6,0,L|57:229,1,70,0|0,1:0|0:0,0:0:0:0:
8,172,113516,2,0,L|87:155,1,70,0|0,1:0|0:0,0:0:0:0:
158,139,113823,2,0,L|237:122,1,70,0|0,1:0|0:0,0:0:0:0:
309,140,114131,2,0,L|294:71,1,70,0|0,1:0|0:0,0:0:0:0:
211,55,114439,6,0,L|225:123,1,70,0|0,1:0|0:0,0:0:0:0:
187,198,114746,1,0,1:0:0:0:
245,258,114900,1,0,0:0:0:0:
320,221,115054,2,0,L|388:235,1,70,0|0,1:0|0:0,0:0:0:0:
437,166,115362,2,0,L|505:151,1,70,0|0,1:0|0:0,0:0:0:0:
505,151,115593,1,0,0:0:0:0:
505,151,115670,6,0,L|436:136,1,70,0|0,1:0|0:0,0:0:0:0:
373,80,115977,2,0,P|398:27|473:28,2,140,0|0|0,1:0|1:0|1:0,0:0:0:0:
311,136,116746,1,0,0:0:0:0:
333,217,116900,6,0,L|354:301,1,70,0|0,1:0|0:0,0:0:0:0:
405,348,117208,2,0,L|321:369,1,70,0|0,1:0|0:0,0:0:0:0:
256,337,117516,2,0,P|217:282|152:293,1,140,0|0,1:0|1:0,0:0:0:0:
98,358,117977,1,0,0:0:0:0:
24,317,118131,6,0,L|42:242,1,70,0|0,1:0|0:0,0:0:0:0:
17,167,118439,2,0,L|92:149,1,70,0|0,1:0|0:0,0:0:0:0:
168,164,118746,2,0,L|151:95,1,70,0|0,1:0|0:0,0:0:0:0:
201,27,119054,2,0,L|276:45,1,70,0|0,1:0|0:0,0:0:0:0:
333,98,119362,6,0,P|374:45|442:47,1,140,0|0,1:0|1:0,0:0:0:0:
500,108,119823,1,0,0:0:0:0:
485,190,119977,2,0,L|406:213,1,70,0|0,1:0|0:0,0:0:0:0:
383,286,120285,2,0,L|304:309,1,70,0|0,1:0|0:0,0:0:0:0:
251,370,120593,6,0,P|219:329|131:332,1,140,0|0,1:0|1:0,0:0:0:0:
55,306,121054,1,0,0:0:0:0:
114,246,121208,2,0,P|121:178|73:131,1,140,0|0,1:0|1:0,0:0:0:0:
73,131,121823,6,0,L|4:116,1,70,0|0,1:0|1:0,0:0:0:0:
49,44,122131,2,0,L|120:28,1,70,0|0,1:0|1:0,0:0:0:0:
185,72,122439,5,4,3:0:0:0:
246,68,122593,1,4,3:0:0:0:
269,35,122746,1,0,3:0:0:0:
269,14,122900,1,0,3:0:0:0:
262,3,123054,6,0,B|277:4|290:5|306:11|321:17|335:25|348:38|358:58|362:83|362:96|335:123|372:145|405:158|430:181|435:211|415:246|391:259|358:264|324:263|311:260|311:260|313:282|311:301|311:301|320:302|338:311|352:324|366:352|353:371|338:386|318:386|304:374|287:369|268:360|250:348|237:334|238:323|238:323|227:320|227:320|226:342|216:358|203:365|173:359|139:351|111:323|107:282|118:271|127:264|139:252|159:252|170:258|187:265|187:265|197:252|197:252|166:248|144:241|124:232|114:223|105:206|101:193|100:173|105:159|118:139|131:127|143:111|179:95|189:78|180:55|196:36|205:26,1,1215.20001483398,0|0,3:3|3:3,0:0:0:0:
266,85,132900,6,0,B|407:66|407:66|423:46,2,167.999994873047,4|4|10,1:0|1:0|1:2,0:0:0:0:
222,170,133670,1,0,1:0:0:0:
222,170,133746,1,0,1:0:0:0:
222,170,133823,1,4,1:0:0:0:
142,122,133977,2,0,B|68:84|68:84|36:143,1,125.999996154785,0|0,1:0|0:0,0:0:0:0:
30,165,134285,2,0,L|16:125,2,41.9999987182618,8|0|0,0:0|0:0|1:0,0:0:0:0:
200,260,134746,6,0,L|214:371,1,83.9999974365235,4|0,1:0|1:0,0:0:0:0:
211,343,134977,1,0,1:0:0:0:
211,343,135054,2,0,L|322:329,1,83.9999974365235,0|2,1:0|1:2,0:0:0:0:
379,369,135362,6,0,B|392:227|392:227|367:192,1,167.999994873047,4|4,1:0|1:0,0:0:0:0:
262,61,135977,1,10,1:2:0:0:
350,33,136131,2,0,L|364:81,2,41.9999987182618,0|0|4,1:0|1:0|1:0,0:0:0:0:
438,5,136439,2,0,B|459:45|459:45|442:101,1,83.9999974365235,0|4,1:0|0:0,0:0:0:0:
467,182,136746,1,8,0:0:0:0:
467,182,136823,1,10,0:0:0:0:
467,182,136900,1,0,1:0:0:0:
283,155,137208,6,0,L|185:167,1,83.9999974365235,4|0,1:0|1:0,0:0:0:0:
178,189,137439,1,0,1:0:0:0:
178,189,137516,2,0,L|166:91,1,83.9999974365235,0|2,1:0|1:2,0:0:0:0:
86,61,137823,6,0,B|69:82|69:82|52:222,1,167.999994873047,4|4,1:0|1:0,0:0:0:0:
234,255,138439,1,10,1:2:0:0:
174,325,138593,2,0,L|184:366,2,41.9999987182618,0|0|4,1:0|1:0|1:0,0:0:0:0:
83,307,138900,1,0,1:0:0:0:
272,348,139208,5,8,0:0:0:0:
272,348,139285,1,0,0:0:0:0:
272,348,139362,1,0,1:0:0:0:
203,176,139670,2,0,L|228:75,1,83.9999974365235,4|0,1:0|1:0,0:0:0:0:
223,94,139900,1,0,1:0:0:0:
223,94,139977,2,0,L|324:69,1,83.9999974365235,0|2,1:0|1:2,0:0:0:0:
381,21,140285,6,0,B|412:158|412:158|404:183,2,167.999994873047,4|4|10,1:0|1:0|1:2,0:0:0:0:
468,51,141054,2,0,L|480:2,2,41.9999987182618,0|0|4,1:0|1:0|1:0,0:0:0:0:
484,142,141362,2,0,B|346:173|346:173|326:202,1,167.999994873047,0|8,1:0|0:0,0:0:0:0:
330,196,141746,1,10,0:0:0:0:
330,196,141823,1,0,1:0:0:0:
313,380,142131,5,4,1:0:0:0:
256,307,142285,2,0,L|256:250,2,41.9999987182618,0|0|0,1:0|1:0|1:0,0:0:0:0:
199,380,142593,1,2,1:2:0:0:
132,316,142746,6,0,L|85:322,4,41.9999987182618,4|0|2|2|0,1:0|0:0|0:0|0:0|1:0,0:0:0:0:
144,232,143208,2,2,P|146:211|138:191,1,41.9999987182618,2|0,0:0|0:0,1:0:0:0:
96,197,143362,2,0,L|49:203,4,41.9999987182618,4|0|0|2|0,1:0|0:0|0:0|0:0|1:0,0:0:0:0:
73,115,143823,2,2,P|70:94|78:74,1,41.9999987182618,2|0,0:0|3:0,3:0:0:0:
121,80,143977,2,0,L|168:86,4,41.9999987182618,4|0|0|2|0,1:0|0:0|0:0|0:0|1:0,0:0:0:0:
173,13,144439,2,0,P|193:14|211:25,1,41.9999987182618,2|2,0:0|0:0,0:0:0:0:
233,50,144593,6,0,L|366:29,1,125.999996154785,6|2,1:0|0:0,0:0:0:0:
385,49,144900,2,0,L|410:177,1,125.999996154785,0|2,1:0|0:0,0:0:0:0:
434,195,145208,6,0,L|481:201,4,41.9999987182618,4|0|2|2|0,1:0|0:0|0:0|0:0|1:0,0:0:0:0:
363,241,145670,2,2,P|355:260|357:281,1,41.9999987182618,2|0,0:0|0:0,1:0:0:0:
400,288,145824,2,0,L|446:294,4,41.9999987182618,4|0|2|2|0,1:0|0:0|0:0|0:0|1:0,0:0:0:0:
349,355,146285,2,2,P|329:362|308:360,1,41.9999987182618,2|0,0:0|3:0,3:0:0:0:
278,330,146439,2,0,L|231:336,4,41.9999987182618,4|0|2|2|0,1:0|0:0|0:0|0:0|1:0,0:0:0:0:
228,262,146900,2,0,P|207:263|189:274,1,41.9999987182618,2|2,0:0|0:0,0:0:0:0:
168,300,147054,6,0,L|43:279,1,125.999996154785,6|2,1:0|0:0,0:0:0:0:
26,250,147362,2,0,L|48:117,1,125.999996154785,0|2,1:0|0:0,0:0:0:0:
26,98,147670,6,0,L|17:43,4,41.9999987182618,4|0|2|2|0,1:0|0:0|0:0|0:0|1:0,0:0:0:0:
118,102,148131,1,2,0:0:0:0:
127,83,148208,1,0,0:0:0:0:
136,64,148285,2,0,L|127:9,4,41.9999987182618,4|0|2|2|0,1:0|0:0|0:0|0:0|1:0,0:0:0:0:
227,78,148746,1,2,0:0:0:0:
236,59,148823,1,0,3:0:0:0:
245,40,148900,2,0,L|236:-15,4,41.9999987182618,4|0|0|2|0,1:0|0:0|0:0|0:0|1:0,0:0:0:0:
328,54,149362,1,2,0:0:0:0:
337,73,149439,1,2,0:0:0:0:
344,92,149516,6,0,L|496:112,1,125.999996154785,6|2,1:0|0:0,0:0:0:0:
491,133,149823,6,0,L|471:285,1,125.999996154785,0|2,1:0|0:0,0:0:0:0:
497,283,150131,6,0,L|506:338,4,41.9999987182618,4|0|0|2|0,1:0|0:0|0:0|0:0|1:0,0:0:0:0:
405,279,150592,1,2,0:0:0:0:
396,298,150669,1,0,0:0:0:0:
387,317,150746,2,0,L|396:372,4,41.9999987182618,4|0|0|2|0,1:0|0:0|0:0|0:0|1:0,0:0:0:0:
296,303,151207,1,2,0:0:0:0:
287,322,151284,1,0,0:0:0:0:
278,341,151361,2,0,L|139:327,4,125.999996154785,0|0|0|0|0,1:0|1:0|1:0|1:0|1:0,0:0:0:0:
105,271,152593,6,0,P|114:230|144:202,1,83.9999974365235,4|2,1:0|0:0,0:0:0:0:
216,174,152900,2,0,L|278:183,2,41.9999987182618,0|0|2,1:0|0:0|0:0,0:0:0:0:
155,129,153208,2,0,P|145:88|115:60,1,83.9999974365235,4|0,1:0|0:0,0:0:0:0:
50,99,153516,2,0,L|56:140,2,41.9999987182618,0|2|2,1:0|0:0|0:0,0:0:0:0:
115,60,153823,6,0,P|155:50|183:20,1,83.9999974365235,4|0,1:0|0:0,0:0:0:0:
256,43,154131,2,0,L|256:111,2,41.9999987182618,0|2|2,1:0|0:0|0:0,0:0:0:0:
328,20,154439,2,0,P|356:50|397:60,1,83.9999974365235,6|0,1:0|0:0,0:0:0:0:
462,99,154746,2,0,L|455:140,2,41.9999987182618,0|2|2,1:0|0:0|0:0,0:0:0:0:
381,136,155054,6,0,P|351:164|341:204,1,83.9999974365235,4|2,1:0|0:0,0:0:0:0:
375,272,155362,2,0,L|384:315,2,41.9999987182618,0|0|2,1:0|0:0|0:0,0:0:0:0:
298,271,155670,2,0,P|257:280|229:310,1,83.9999974365235,4|2,1:0|0:0,0:0:0:0:
186,373,155977,2,0,L|143:382,2,41.9999987182618,0|2|2,1:0|0:0|0:0,0:0:0:0:
229,310,156285,6,0,P|219:269|189:241,1,83.9999974365235,4|2,1:0|0:0,0:0:0:0:
130,192,156593,2,0,L|62:192,2,41.9999987182618,0|2|2,1:0|0:0|0:0,0:0:0:0:
189,142,156900,2,0,P|219:114|229:74,1,83.9999974365235,6|2,1:0|0:0,0:0:0:0:
186,11,157208,2,0,L|143:2,2,41.9999987182618,0|2|2,1:0|0:0|0:0,0:0:0:0:
229,73,157516,6,0,L|319:55,1,83.9999974365235,4|2,1:0|0:0,0:0:0:0:
385,40,157823,2,0,L|394:-3,2,41.9999987182618,0|0|2,1:0|0:0|0:0,0:0:0:0:
438,93,158131,2,0,L|456:183,1,83.9999974365235,4|2,1:0|0:0,0:0:0:0:
471,249,158438,2,0,L|514:258,2,41.9999987182618,0|2|2,1:0|0:0|0:0,0:0:0:0:
422,308,158746,6,0,L|332:326,1,83.9999974365235,4|0,1:0|0:0,0:0:0:0:
266,341,159053,2,0,L|257:384,2,41.9999987182618,0|2|2,1:0|0:0|0:0,0:0:0:0:
216,282,159362,2,0,L|126:264,1,83.9999974365235,6|2,1:0|0:0,0:0:0:0:
60,249,159669,2,0,L|51:206,2,41.9999987182618,0|2|2,1:0|0:0|0:0,0:0:0:0:
129,186,159977,6,0,L|147:96,1,83.9999974365235,4|0,1:0|0:0,0:0:0:0:
227,84,160285,2,0,L|240:21,2,41.9999987182618,0|0|2,1:0|0:0|0:0,0:0:0:0:
299,128,160593,2,0,L|317:218,1,83.9999974365235,4|0,1:0|0:0,0:0:0:0:
397,230,160901,2,0,L|410:293,2,41.9999987182618,0|0|2,1:0|0:0|0:0,0:0:0:0:
471,190,161208,5,0,1:0:0:0:
377,104,161439,1,0,1:0:0:0:
397,230,161670,1,0,1:0:0:0:
486,318,161900,1,0,1:0:0:0:
471,190,162131,1,0,1:0:0:0:
471,190,162439,6,0,B|441:159|441:159|454:88,1,83.9999974365235,4|2,1:0|0:0,0:0:0:0:
497,50,162746,2,0,B|466:20|466:20|425:27,1,83.9999974365235,2|0,0:0|0:0,0:0:0:0:
371,92,163054,2,0,B|327:104|327:104|291:31|291:31|245:49,1,167.999994873047,12|0,1:0|0:0,0:0:0:0:
252,45,163670,6,0,B|222:36|222:36|155:56,1,83.9999974365235,4|2,1:0|0:0,0:0:0:0:
92,80,163977,2,0,B|66:47|66:47|97:9,1,83.9999974365235,2|0,0:0|0:0,0:0:0:0:
171,51,164285,2,0,B|184:104|184:104|213:111|213:111|198:207,1,167.999994873047,12|0,1:0|0:0,0:0:0:0:
200,193,164900,6,0,B|161:209|161:209|134:169,1,83.9999974365235,4|2,1:0|0:0,0:0:0:0:
65,219,165208,2,0,B|26:203|26:203|-1:243,1,83.9999974365235,2|0,0:0|0:0,0:0:0:0:
22,320,165516,2,0,B|51:331|51:331|107:297|107:297|201:292,1,167.999994873047,12|0,1:0|0:0,0:0:0:0:
178,293,166131,6,0,B|185:335|185:335|209:369,1,83.9999974365235,4|2,1:0|0:0,0:0:0:0:
261,302,166439,2,0,B|268:260|268:260|303:233,1,83.9999974365235,2|0,0:0|0:0,0:0:0:0:
341,308,166746,2,0,B|348:350|348:350|399:364,1,83.9999974365235,12|0,1:0|0:0,0:0:0:0:
465,327,167054,2,0,L|511:319,2,41.9999987182618
405,266,167362,6,0,B|419:225|419:225|472:207,1,83.9999974365235,4|2,1:0|0:0,0:0:0:0:
492,137,167670,1,2,0:0:0:0:
492,137,167823,1,0,0:0:0:0:
413,107,167977,2,0,B|388:108|388:108|373:62|373:62|282:9,1,167.999994873047,12|0,1:0|0:0,0:0:0:0:
291,14,168593,6,0,B|260:25|260:25|242:89,1,83.9999974365235,4|2,1:0|0:0,0:0:0:0:
187,134,168900,1,2,0:0:0:0:
233,203,169054,1,0,0:0:0:0:
157,239,169208,2,0,B|128:234|128:234|111:187|111:187|19:203,1,167.999994873047,12|0,1:0|0:0,0:0:0:0:
23,202,169823,6,0,B|6:256|6:256|17:281,1,83.9999974365235,4|2,1:0|0:0,0:0:0:0:
84,340,170131,1,2,0:0:0:0:
84,340,170285,1,0,0:0:0:0:
165,319,170439,2,0,B|182:284|182:284|258:291|258:291|249:361,1,167.999994873047,12|0,1:0|0:0,0:0:0:0:
251,343,171054,6,0,B|281:312|281:312|294:272,1,83.9999974365235,4|2,1:0|0:0,0:0:0:0:
234,212,171362,2,0,B|204:181|204:181|206:135,1,83.9999974365235,2|0,0:0|0:0,0:0:0:0:
285,111,171670,2,0,B|315:80|315:80|283:38,1,83.9999974365235,12|0,1:0|0:0,0:0:0:0:
184,43,171977,2,0,L|175:1,2,41.9999987182618
