osu file format v14

[General]
AudioFilename: audio.mp3
AudioLeadIn: 0
PreviewTime: 2600
Countdown: 0
SampleSet: Normal
StackLeniency: 0.7
Mode: 1
LetterboxInBreaks: 0
WidescreenStoryboard: 0

[Editor]
DistanceSpacing: 0.8
BeatDivisor: 4
GridSize: 8
TimelineZoom: 2.4

[Metadata]
Title:1, 2 Oatmeal Remix/Remaster
TitleUnicode:1, 2 Oatmeal Remix/Remaster
Artist:marionose1
ArtistUnicode:marionose1
Creator:Player-
Version:Gay Baby Jail
Source:
Tags:dad shoutouts to simpleflips bup blj backwards long jump
BeatmapID:2044538
BeatmapSetID:976792

[Difficulty]
HPDrainRate:6
CircleSize:5
OverallDifficulty:6
ApproachRate:10
SliderMultiplier:1.4
SliderTickRate:1

[Events]
//Background and Video events
0,0,"iamgee.jpg",0,0
//Break Periods
//Storyboard Layer 0 (Background)
//Storyboard Layer 1 (Fail)
//Storyboard Layer 2 (Pass)
//Storyboard Layer 3 (Foreground)
//Storyboard Sound Samples

[TimingPoints]
179,312.5,4,1,0,80,1,0
2679,-100,4,1,0,80,0,1
22679,-100,4,1,0,80,0,0

[HitObjects]
245,208,179,5,8,0:0:0:0:
273,178,491,1,8,0:0:0:0:
348,212,647,1,8,0:0:0:0:
276,187,804,1,0,0:0:0:0:
184,196,960,1,0,0:0:0:0:
212,205,1116,1,8,0:0:0:0:
314,254,1429,1,0,0:0:0:0:
329,255,1585,1,8,0:0:0:0:
219,86,1663,1,8,0:0:0:0:
339,259,1741,1,0,0:0:0:0:
233,225,1897,1,8,0:0:0:0:
249,234,2054,1,0,0:0:0:0:
356,250,2366,1,0,0:0:0:0:
271,163,2679,1,12,0:0:0:0:
266,210,2835,1,0,0:0:0:0:
270,206,2913,1,0,0:0:0:0:
262,233,2991,1,8,0:0:0:0:
217,190,3147,1,0,0:0:0:0:
217,190,3304,1,8,0:0:0:0:
217,190,3382,1,0,0:0:0:0:
246,217,3460,1,0,0:0:0:0:
250,225,3538,1,0,0:0:0:0:
230,209,3616,1,8,0:0:0:0:
228,145,3772,1,8,0:0:0:0:
295,180,3929,1,0,0:0:0:0:
272,164,4007,1,0,0:0:0:0:
286,169,4085,1,0,0:0:0:0:
281,180,4163,1,0,0:0:0:0:
265,200,4241,1,8,0:0:0:0:
213,202,4397,1,8,0:0:0:0:
223,204,4554,1,0,0:0:0:0:
205,211,4866,1,8,0:0:0:0:
392,304,5179,1,0,0:0:0:0:
329,239,5335,1,0,0:0:0:0:
329,239,5413,1,0,0:0:0:0:
261,233,5491,1,8,0:0:0:0:
191,209,5647,1,8,0:0:0:0:
211,209,5804,1,0,0:0:0:0:
271,181,6116,1,8,0:0:0:0:
336,262,6272,1,0,0:0:0:0:
234,229,6429,1,8,0:0:0:0:
239,238,6507,1,0,0:0:0:0:
241,221,6585,1,0,0:0:0:0:
247,223,6663,1,0,0:0:0:0:
263,238,6741,1,8,0:0:0:0:
328,262,6897,1,8,0:0:0:0:
266,202,7054,1,0,0:0:0:0:
318,216,7366,1,8,0:0:0:0:
271,163,7679,1,8,0:0:0:0:
266,210,7835,1,0,0:0:0:0:
270,206,7913,1,0,0:0:0:0:
262,233,7991,1,8,0:0:0:0:
217,190,8147,1,0,0:0:0:0:
217,190,8304,1,8,0:0:0:0:
217,190,8382,1,0,0:0:0:0:
246,217,8460,1,0,0:0:0:0:
250,225,8538,1,0,0:0:0:0:
230,209,8616,1,8,0:0:0:0:
228,145,8772,1,8,0:0:0:0:
295,180,8929,1,0,0:0:0:0:
272,164,9007,1,0,0:0:0:0:
286,169,9085,1,0,0:0:0:0:
281,180,9163,1,0,0:0:0:0:
265,200,9241,1,8,0:0:0:0:
213,202,9397,1,8,0:0:0:0:
223,204,9554,1,0,0:0:0:0:
327,192,9788,1,0,0:0:0:0:
205,211,9866,1,8,0:0:0:0:
272,108,10022,1,0,0:0:0:0:
234,136,10179,1,8,0:0:0:0:
271,184,10257,1,8,0:0:0:0:
154,153,10335,1,0,0:0:0:0:
228,137,10413,1,0,0:0:0:0:
226,155,10491,1,8,0:0:0:0:
233,187,10647,1,8,0:0:0:0:
233,187,10804,1,0,0:0:0:0:
256,205,10882,1,0,0:0:0:0:
175,156,10960,1,0,0:0:0:0:
190,143,11116,1,8,0:0:0:0:
233,148,11429,1,0,0:0:0:0:
329,223,11507,1,8,0:0:0:0:
283,231,11585,1,0,0:0:0:0:
289,231,11663,1,0,0:0:0:0:
293,236,11741,1,8,0:0:0:0:
267,195,11897,1,8,0:0:0:0:
273,193,12054,1,0,0:0:0:0:
315,198,12132,1,0,0:0:0:0:
292,192,12210,1,0,0:0:0:0:
284,222,12366,1,8,0:0:0:0:
271,163,12679,1,8,0:0:0:0:
266,210,12835,1,0,0:0:0:0:
270,206,12913,1,0,0:0:0:0:
262,233,12991,1,8,0:0:0:0:
217,190,13147,1,0,0:0:0:0:
217,190,13304,1,8,0:0:0:0:
217,190,13382,1,0,0:0:0:0:
246,217,13460,1,0,0:0:0:0:
250,225,13538,1,0,0:0:0:0:
230,209,13616,1,8,0:0:0:0:
228,145,13772,1,8,0:0:0:0:
295,180,13929,1,0,0:0:0:0:
272,164,14007,1,0,0:0:0:0:
286,169,14085,1,0,0:0:0:0:
281,180,14163,1,0,0:0:0:0:
265,200,14241,1,8,0:0:0:0:
213,202,14397,1,8,0:0:0:0:
223,204,14554,1,0,0:0:0:0:
324,165,14866,1,8,0:0:0:0:
392,304,15179,1,0,0:0:0:0:
329,239,15335,1,0,0:0:0:0:
329,239,15413,1,0,0:0:0:0:
261,233,15491,1,8,0:0:0:0:
191,209,15647,1,8,0:0:0:0:
211,209,15804,1,0,0:0:0:0:
271,181,16116,1,8,0:0:0:0:
336,262,16272,1,0,0:0:0:0:
234,229,16429,1,8,0:0:0:0:
239,238,16507,1,0,0:0:0:0:
241,221,16585,1,0,0:0:0:0:
247,223,16663,1,0,0:0:0:0:
263,238,16741,1,8,0:0:0:0:
328,262,16897,1,8,0:0:0:0:
266,202,17054,1,0,0:0:0:0:
318,216,17366,1,8,0:0:0:0:
271,163,17679,1,8,0:0:0:0:
266,210,17835,1,0,0:0:0:0:
270,206,17913,1,0,0:0:0:0:
262,233,17991,1,8,0:0:0:0:
217,190,18147,1,0,0:0:0:0:
217,190,18304,1,8,0:0:0:0:
217,190,18382,1,0,0:0:0:0:
246,217,18460,1,0,0:0:0:0:
250,225,18538,1,0,0:0:0:0:
230,209,18616,1,8,0:0:0:0:
228,145,18772,1,8,0:0:0:0:
295,180,18929,1,0,0:0:0:0:
272,164,19007,1,0,0:0:0:0:
286,169,19085,1,0,0:0:0:0:
281,180,19163,1,0,0:0:0:0:
265,200,19241,1,8,0:0:0:0:
213,202,19397,1,8,0:0:0:0:
223,204,19554,1,0,0:0:0:0:
327,192,19788,1,0,0:0:0:0:
205,211,19866,1,8,0:0:0:0:
272,108,20022,1,0,0:0:0:0:
234,136,20179,1,8,0:0:0:0:
271,184,20257,1,8,0:0:0:0:
154,153,20335,1,0,0:0:0:0:
228,137,20413,1,0,0:0:0:0:
226,155,20491,1,8,0:0:0:0:
233,187,20647,1,8,0:0:0:0:
233,187,20804,1,0,0:0:0:0:
256,205,20882,1,0,0:0:0:0:
175,156,20960,1,0,0:0:0:0:
190,143,21116,1,8,0:0:0:0:
233,148,21429,1,0,0:0:0:0:
329,223,21507,1,8,0:0:0:0:
283,231,21585,1,0,0:0:0:0:
289,231,21663,1,0,0:0:0:0:
293,236,21741,1,8,0:0:0:0:
267,195,21897,1,8,0:0:0:0:
273,193,22054,1,0,0:0:0:0:
315,198,22132,1,0,0:0:0:0:
292,192,22210,1,0,0:0:0:0:
284,222,22366,1,8,0:0:0:0:
225,177,22679,1,0,0:0:0:0:
340,224,22757,1,0,0:0:0:0:
328,220,22835,1,0,0:0:0:0:
276,196,22991,1,8,0:0:0:0:
215,145,23147,1,8,0:0:0:0:
265,165,23304,1,0,0:0:0:0:
223,146,23382,1,0,0:0:0:0:
224,149,23460,1,8,0:0:0:0:
223,108,23538,1,0,0:0:0:0:
250,146,23616,1,8,0:0:0:0:
198,177,23772,1,0,0:0:0:0:
188,177,23929,1,8,0:0:0:0:
302,258,24241,1,8,0:0:0:0:
306,200,24397,1,0,0:0:0:0:
315,196,24475,1,0,0:0:0:0:
315,196,24554,1,8,0:0:0:0:
296,198,24710,1,0,0:0:0:0:
273,201,24866,1,8,0:0:0:0:
272,145,25179,1,8,0:0:0:0:
373,216,25257,1,0,0:0:0:0:
349,209,25335,1,0,0:0:0:0:
243,176,25491,1,8,0:0:0:0:
269,217,25647,1,0,0:0:0:0:
235,199,25804,1,0,0:0:0:0:
251,225,25882,1,0,0:0:0:0:
245,168,25960,1,0,0:0:0:0:
243,241,26038,1,0,0:0:0:0:
240,180,26116,1,8,0:0:0:0:
289,226,26272,1,0,0:0:0:0:
290,226,26429,1,8,0:0:0:0:
252,212,26585,1,0,0:0:0:0:
262,211,26663,1,8,0:0:0:0:
260,215,26741,1,8,0:0:0:0:
277,242,26897,1,0,0:0:0:0:
247,202,27054,1,8,0:0:0:0:
289,220,27366,1,8,0:0:0:0:
313,248,27679,1,8,0:0:0:0:
276,260,27757,1,8,0:0:0:0:
244,189,27835,1,8,0:0:0:0:
258,181,27913,1,0,0:0:0:0:
238,162,27991,1,8,0:0:0:0:
266,165,28147,1,8,0:0:0:0:
239,247,28304,1,0,0:0:0:0:
274,265,28382,1,0,0:0:0:0:
270,265,28460,1,8,0:0:0:0:
259,268,28616,1,8,0:0:0:0:
184,218,28694,1,0,0:0:0:0:
241,173,28772,1,8,0:0:0:0:
241,173,28850,1,8,0:0:0:0:
156,225,28929,1,0,0:0:0:0:
226,216,29085,1,0,0:0:0:0:
235,232,29241,1,8,0:0:0:0:
249,246,29554,1,0,0:0:0:0:
245,188,29632,1,0,0:0:0:0:
292,177,29710,1,0,0:0:0:0:
224,169,29866,1,8,0:0:0:0:
170,136,30179,1,0,0:0:0:0:
210,185,30335,1,0,0:0:0:0:
223,176,30491,1,8,0:0:0:0:
272,203,30647,1,8,0:0:0:0:
262,204,30725,1,8,0:0:0:0:
173,216,30804,1,0,0:0:0:0:
248,142,30960,1,8,0:0:0:0:
251,151,31116,1,0,0:0:0:0:
176,178,31194,1,0,0:0:0:0:
270,156,31272,1,8,0:0:0:0:
200,161,31429,1,0,0:0:0:0:
205,121,31507,1,0,0:0:0:0:
225,172,31585,1,0,0:0:0:0:
209,73,31663,1,8,0:0:0:0:
159,178,31741,1,0,0:0:0:0:
244,172,31897,1,0,0:0:0:0:
275,172,32054,1,8,0:0:0:0:
273,206,32366,1,0,0:0:0:0:
225,177,32679,1,0,0:0:0:0:
340,224,32757,1,0,0:0:0:0:
328,220,32835,1,0,0:0:0:0:
276,196,32991,1,8,0:0:0:0:
215,145,33147,1,8,0:0:0:0:
265,165,33304,1,0,0:0:0:0:
223,146,33382,1,0,0:0:0:0:
224,149,33460,1,8,0:0:0:0:
223,108,33538,1,0,0:0:0:0:
250,146,33616,1,8,0:0:0:0:
198,177,33772,1,0,0:0:0:0:
188,177,33929,1,8,0:0:0:0:
302,258,34241,1,8,0:0:0:0:
306,200,34397,1,0,0:0:0:0:
315,196,34475,1,0,0:0:0:0:
315,196,34554,1,8,0:0:0:0:
296,198,34710,1,0,0:0:0:0:
273,201,34866,1,8,0:0:0:0:
272,145,35179,1,8,0:0:0:0:
373,216,35257,1,0,0:0:0:0:
349,209,35335,1,0,0:0:0:0:
243,176,35491,1,8,0:0:0:0:
269,217,35647,1,0,0:0:0:0:
235,199,35804,1,0,0:0:0:0:
261,199,35882,1,0,0:0:0:0:
271,197,35960,1,0,0:0:0:0:
243,241,36038,1,0,0:0:0:0:
240,180,36116,1,8,0:0:0:0:
289,226,36272,1,0,0:0:0:0:
290,226,36429,1,8,0:0:0:0:
252,212,36585,1,0,0:0:0:0:
262,211,36663,1,8,0:0:0:0:
260,215,36741,1,8,0:0:0:0:
277,242,36897,1,0,0:0:0:0:
247,202,37054,1,8,0:0:0:0:
289,220,37366,1,8,0:0:0:0:
313,248,37679,1,8,0:0:0:0:
276,260,37757,1,8,0:0:0:0:
244,189,37835,1,8,0:0:0:0:
258,181,37913,1,0,0:0:0:0:
238,162,37991,1,8,0:0:0:0:
266,165,38147,1,8,0:0:0:0:
239,247,38304,1,0,0:0:0:0:
274,265,38382,1,0,0:0:0:0:
270,265,38460,1,8,0:0:0:0:
259,268,38616,1,8,0:0:0:0:
196,120,38694,1,0,0:0:0:0:
203,126,38772,1,8,0:0:0:0:
257,103,38850,1,8,0:0:0:0:
198,66,38929,1,8,0:0:0:0:
205,129,39085,1,0,0:0:0:0:
263,159,39241,1,8,0:0:0:0:
187,164,39554,1,8,0:0:0:0:
118,133,39632,1,0,0:0:0:0:
170,206,39710,1,0,0:0:0:0:
188,195,39866,1,8,0:0:0:0:
190,202,40179,1,0,0:0:0:0:
166,223,40335,1,0,0:0:0:0:
179,192,40413,1,0,0:0:0:0:
173,213,40491,1,8,0:0:0:0:
199,231,40647,1,8,0:0:0:0:
221,204,40804,1,0,0:0:0:0:
250,208,40882,1,8,0:0:0:0:
253,212,40960,1,0,0:0:0:0:
265,228,41038,1,0,0:0:0:0:
245,231,41116,1,8,0:0:0:0:
215,185,41272,1,8,0:0:0:0:
258,205,41429,1,0,0:0:0:0:
245,240,41585,1,0,0:0:0:0:
245,241,41663,1,0,0:0:0:0:
245,247,41741,1,8,0:0:0:0:
258,253,41897,1,8,0:0:0:0:
266,258,42054,1,0,0:0:0:0:
215,205,42366,1,8,0:0:0:0:
245,241,42679,1,4,0:0:0:0:
347,239,42835,1,0,0:0:0:0:
301,226,42913,1,0,0:0:0:0:
301,226,42991,1,8,0:0:0:0:
311,209,43147,1,8,0:0:0:0:
225,113,43304,1,0,0:0:0:0:
208,152,43382,1,0,0:0:0:0:
197,151,43460,1,8,0:0:0:0:
205,157,43538,1,8,0:0:0:0:
164,140,43616,1,0,0:0:0:0:
144,91,43772,1,8,0:0:0:0:
221,135,43929,1,0,0:0:0:0:
186,103,44085,1,8,0:0:0:0:
213,116,44163,1,8,0:0:0:0:
217,133,44241,1,0,0:0:0:0:
219,119,44397,1,8,0:0:0:0:
221,135,44554,1,0,0:0:0:0:
214,141,44866,1,8,0:0:0:0:
184,160,45022,1,8,0:0:0:0:
309,185,45100,1,8,0:0:0:0:
208,201,45179,1,0,0:0:0:0:
190,205,45335,1,8,0:0:0:0:
186,174,45413,1,0,0:0:0:0:
196,179,45491,1,8,0:0:0:0:
177,248,45647,1,8,0:0:0:0:
227,224,45804,1,0,0:0:0:0:
244,160,45960,1,0,0:0:0:0:
217,185,46038,1,0,0:0:0:0:
217,189,46116,1,8,0:0:0:0:
226,200,46272,1,8,0:0:0:0:
202,192,46429,1,0,0:0:0:0:
339,216,46585,1,0,0:0:0:0:
329,224,46663,1,0,0:0:0:0:
253,289,46741,1,8,0:0:0:0:
244,189,46897,1,8,0:0:0:0:
228,237,47054,1,0,0:0:0:0:
279,250,47366,1,8,0:0:0:0:
180,155,47522,1,0,0:0:0:0:
216,169,47600,1,8,0:0:0:0:
244,189,47679,1,0,0:0:0:0:
320,229,47835,1,0,0:0:0:0:
285,160,47991,1,8,0:0:0:0:
356,209,48069,1,0,0:0:0:0:
243,132,48147,1,0,0:0:0:0:
221,228,48304,1,8,0:0:0:0:
322,215,48460,1,0,0:0:0:0:
272,210,48616,1,8,0:0:0:0:
258,241,48772,1,0,0:0:0:0:
265,249,48850,1,0,0:0:0:0:
274,250,48929,1,0,0:0:0:0:
258,258,49085,1,0,0:0:0:0:
213,253,49241,1,8,0:0:0:0:
295,200,49397,1,8,0:0:0:0:
313,208,49554,1,0,0:0:0:0:
274,121,49710,1,8,0:0:0:0:
219,156,49788,1,8,0:0:0:0:
227,107,49866,1,0,0:0:0:0:
272,143,50179,1,0,0:0:0:0:
319,191,50335,1,0,0:0:0:0:
316,191,50413,1,0,0:0:0:0:
283,218,50491,1,8,0:0:0:0:
283,218,50647,1,8,0:0:0:0:
244,227,50804,1,0,0:0:0:0:
211,186,50882,1,8,0:0:0:0:
215,200,50960,1,8,0:0:0:0:
224,224,51038,1,8,0:0:0:0:
222,225,51116,1,0,0:0:0:0:
260,238,51272,1,0,0:0:0:0:
236,232,51429,1,8,0:0:0:0:
230,234,51741,1,8,0:0:0:0:
220,237,51897,1,8,0:0:0:0:
231,164,51975,1,8,0:0:0:0:
230,172,52054,1,0,0:0:0:0:
196,150,52210,1,8,0:0:0:0:
225,243,52288,1,0,0:0:0:0:
190,107,52366,1,8,0:0:0:0:
190,217,52522,1,8,0:0:0:0:
245,241,52679,1,4,0:0:0:0:
347,239,52835,1,0,0:0:0:0:
301,226,52913,1,0,0:0:0:0:
301,226,52991,1,8,0:0:0:0:
311,209,53147,1,8,0:0:0:0:
225,113,53304,1,0,0:0:0:0:
208,152,53382,1,0,0:0:0:0:
197,151,53460,1,8,0:0:0:0:
205,157,53538,1,8,0:0:0:0:
164,140,53616,1,0,0:0:0:0:
144,91,53772,1,8,0:0:0:0:
221,135,53929,1,0,0:0:0:0:
186,103,54085,1,8,0:0:0:0:
213,116,54163,1,8,0:0:0:0:
217,133,54241,1,0,0:0:0:0:
219,119,54397,1,8,0:0:0:0:
221,135,54554,1,0,0:0:0:0:
214,141,54866,1,8,0:0:0:0:
184,160,55022,1,8,0:0:0:0:
332,246,55100,1,0,0:0:0:0:
208,201,55179,1,0,0:0:0:0:
190,205,55335,1,8,0:0:0:0:
186,174,55413,1,0,0:0:0:0:
196,179,55491,1,8,0:0:0:0:
177,248,55647,1,8,0:0:0:0:
227,224,55804,1,0,0:0:0:0:
244,160,55960,1,0,0:0:0:0:
217,185,56038,1,0,0:0:0:0:
217,189,56116,1,8,0:0:0:0:
226,200,56272,1,8,0:0:0:0:
202,192,56429,1,0,0:0:0:0:
339,216,56585,1,0,0:0:0:0:
329,224,56663,1,0,0:0:0:0:
253,289,56741,1,8,0:0:0:0:
244,189,56897,1,8,0:0:0:0:
228,237,57054,1,0,0:0:0:0:
279,250,57366,1,8,0:0:0:0:
180,155,57522,1,0,0:0:0:0:
216,169,57600,1,8,0:0:0:0:
244,189,57679,1,0,0:0:0:0:
320,229,57835,1,0,0:0:0:0:
285,160,57991,1,0,0:0:0:0:
356,209,58069,1,8,0:0:0:0:
243,132,58147,1,8,0:0:0:0:
221,228,58304,1,0,0:0:0:0:
322,215,58460,1,0,0:0:0:0:
272,210,58616,1,8,0:0:0:0:
258,241,58772,1,0,0:0:0:0:
265,249,58850,1,0,0:0:0:0:
274,250,58929,1,8,0:0:0:0:
258,258,59085,1,8,0:0:0:0:
249,169,59163,1,8,0:0:0:0:
213,253,59241,1,8,0:0:0:0:
295,200,59397,1,8,0:0:0:0:
313,208,59554,1,0,0:0:0:0:
274,121,59710,1,8,0:0:0:0:
219,156,59788,1,8,0:0:0:0:
227,107,59866,1,0,0:0:0:0:
228,231,60022,1,8,0:0:0:0:
272,143,60179,1,0,0:0:0:0:
319,191,60335,1,0,0:0:0:0:
316,191,60413,1,0,0:0:0:0:
283,218,60491,1,8,0:0:0:0:
283,218,60647,1,0,0:0:0:0:
244,227,60804,1,0,0:0:0:0:
211,186,60882,1,0,0:0:0:0:
215,200,60960,1,8,0:0:0:0:
222,225,61116,1,8,0:0:0:0:
260,238,61272,1,8,0:0:0:0:
169,121,61429,1,8,0:0:0:0:
225,109,61507,1,8,0:0:0:0:
237,130,61585,1,0,0:0:0:0:
260,98,61663,1,0,0:0:0:0:
230,234,61741,1,8,0:0:0:0:
220,237,61897,1,8,0:0:0:0:
231,164,61975,1,8,0:0:0:0:
230,172,62054,1,0,0:0:0:0:
196,150,62210,1,0,0:0:0:0:
190,107,62366,1,8,0:0:0:0:
226,208,62679,1,4,0:0:0:0:
