osu file format v14

[General]
AudioFilename: audio.mp3
AudioLeadIn: 0
PreviewTime: 244678
Countdown: 0
SampleSet: Normal
StackLeniency: 0.7
Mode: 0
LetterboxInBreaks: 0
WidescreenStoryboard: 0

[Editor]
DistanceSpacing: 1.4
BeatDivisor: 4
GridSize: 4
TimelineZoom: 1.4

[Metadata]
Title:Towa yori Towa ni
TitleUnicode:永久より永遠に
Artist:marina
ArtistUnicode:marina
Creator:toybot
Version:Tragic Love Extra
Source:少女神域∽少女天獄 -The Garden of Fifth Zoa-
Tags:shoujo shiniki tengoku eikyuu yori eien ni lass ed ending visual novel eroge lit120
BeatmapID:1721685
BeatmapSetID:821400

[Difficulty]
HPDrainRate:6
CircleSize:4.2
OverallDifficulty:9.5
ApproachRate:9.7
SliderMultiplier:1.6
SliderTickRate:1

[Events]
//Background and Video events
0,0,"katana.jpg",0,0
//Break Periods
2,229653,232558
//Storyboard Layer 0 (Background)
//Storyboard Layer 1 (Fail)
//Storyboard Layer 2 (Pass)
//Storyboard Layer 3 (Foreground)
//Storyboard Layer 4 (Overlay)
//Storyboard Sound Samples

[TimingPoints]
1593,300,4,2,1,30,1,0
1593,-166.666666666667,4,2,1,30,0,0
12393,-166.666666666667,4,1,1,40,0,0
13593,-100,4,1,1,60,0,0
17268,-100,4,1,1,5,0,0
17343,-100,4,1,1,60,0,0
17793,-100,4,1,1,40,0,0
18393,-100,4,1,1,60,0,0
21843,-100,4,1,1,80,0,0
23043,-83.3333333333333,4,1,9,70,0,0
23118,-83.3333333333333,4,1,1,60,0,0
24243,-83.3333333333333,4,1,1,65,0,0
25443,-83.3333333333333,4,1,1,70,0,0
26643,-83.3333333333333,4,1,1,75,0,0
27993,-83.3333333333333,4,1,1,65,0,0
31668,-83.3333333333333,4,1,1,5,0,0
31743,-83.3333333333333,4,1,1,65,0,0
32793,-83.3333333333333,4,1,3,60,0,0
32868,-83.3333333333333,4,1,1,50,0,0
35193,-83.3333333333333,4,2,1,40,0,0
37593,-83.3333333333333,4,2,1,50,0,0
37893,-133.333333333333,4,2,1,45,0,0
52293,-133.333333333333,4,1,1,20,0,0
52593,-133.333333333333,4,1,1,30,0,0
52893,-133.333333333333,4,1,1,40,0,0
53193,-133.333333333333,4,1,1,50,0,0
53793,-133.333333333333,4,1,1,55,0,0
54393,-100,4,1,1,60,0,0
55593,-100,4,1,1,60,0,0
56043,-83.3333333333333,4,1,1,60,0,0
56793,-83.3333333333333,4,1,1,60,0,0
63618,-83.3333333333333,4,1,5,60,0,0
63768,-83.3333333333333,4,1,1,60,0,0
66093,-66.6666666666667,4,1,1,60,0,0
66393,-100,4,1,1,50,0,0
70593,-100,4,1,1,60,0,0
71193,-100,4,1,1,50,0,0
73518,-100,4,1,1,5,0,0
73593,-100,4,1,1,50,0,0
75993,-83.3333333333333,4,1,1,60,0,0
80418,-83.3333333333333,4,1,1,5,0,0
80493,-83.3333333333333,4,1,1,60,0,0
83418,-83.3333333333333,4,1,1,5,0,0
83493,-83.3333333333333,4,1,1,60,0,0
85593,300,3,2,1,55,1,0
85593,-133.333333333333,3,2,1,55,0,0
89118,-133.333333333333,3,2,1,5,0,0
89193,-133.333333333333,3,2,1,55,0,0
90993,300,4,1,1,60,1,0
90993,-100,4,1,1,60,0,0
94593,-76.9230769230769,4,1,2,60,0,0
94668,-76.9230769230769,4,1,1,60,0,0
94818,-76.9230769230769,4,1,1,5,0,0
94893,-76.9230769230769,4,1,1,60,0,0
97893,-66.6666666666667,4,1,1,60,0,0
98118,-66.6666666666667,4,1,1,5,0,0
98193,-83.3333333333333,4,1,9,80,0,1
98268,-83.3333333333333,4,1,1,70,0,1
99618,-83.3333333333333,4,1,1,5,0,1
99693,-83.3333333333333,4,1,1,70,0,1
103518,-83.3333333333333,4,1,1,5,0,1
103593,-83.3333333333333,4,1,1,70,0,1
106068,-83.3333333333333,4,1,1,5,0,1
106143,-83.3333333333333,4,1,1,70,0,1
107043,-83.3333333333333,4,1,0,70,0,1
107118,-83.3333333333333,4,1,1,70,0,1
107793,-83.3333333333333,4,1,3,70,0,1
107868,-83.3333333333333,4,1,1,70,0,1
109818,-83.3333333333333,4,1,1,5,0,1
109893,-83.3333333333333,4,1,1,70,0,1
114993,-83.3333333333333,4,1,1,70,0,0
116643,-83.3333333333333,4,1,1,60,0,0
117393,-83.3333333333333,4,1,9,70,0,1
117468,-83.3333333333333,4,1,1,70,0,1
125268,-83.3333333333333,4,1,1,5,0,1
125343,-83.3333333333333,4,1,1,70,0,1
126243,-83.3333333333333,4,1,0,70,0,1
126318,-83.3333333333333,4,1,1,70,0,1
126993,-83.3333333333333,4,1,3,70,0,1
127068,-83.3333333333333,4,1,1,70,0,1
129018,-83.3333333333333,4,1,1,5,0,1
129093,-83.3333333333333,4,1,1,70,0,1
135393,-83.3333333333333,4,1,1,60,0,1
136593,-83.3333333333333,4,1,1,70,0,1
138993,-76.9230769230769,4,1,1,70,0,1
140793,-76.9230769230769,4,1,1,70,0,0
141393,-100,4,1,1,65,0,0
142293,-83.3333333333333,4,1,1,65,0,0
143043,-71.4285714285714,4,1,1,65,0,0
143193,-71.4285714285714,4,1,1,70,0,0
143418,-71.4285714285714,4,1,1,5,0,0
143493,-71.4285714285714,4,1,1,70,0,0
143718,-71.4285714285714,4,1,1,5,0,0
143793,-90.9090909090909,4,1,1,60,0,0
152268,-90.9090909090909,4,1,1,5,0,0
152343,-90.9090909090909,4,1,1,60,0,0
152643,-83.3333333333333,4,1,1,60,0,0
153393,-133.333333333333,4,2,1,55,0,0
155118,-133.333333333333,4,2,1,5,0,0
155193,-133.333333333333,4,2,1,55,0,0
156618,-133.333333333333,4,2,1,5,0,0
156693,-133.333333333333,4,2,1,55,0,0
157518,-133.333333333333,4,2,1,5,0,0
157593,-133.333333333333,4,2,1,55,0,0
159018,-133.333333333333,4,2,1,5,0,0
159093,-133.333333333333,4,2,1,55,0,0
159918,-133.333333333333,4,2,1,5,0,0
159993,-133.333333333333,4,2,1,55,0,0
161418,-133.333333333333,4,2,1,5,0,0
161493,-133.333333333333,4,2,1,55,0,0
163818,-133.333333333333,4,2,1,5,0,0
163893,-133.333333333333,4,2,1,55,0,0
165318,-133.333333333333,4,2,1,5,0,0
165393,-133.333333333333,4,2,1,55,0,0
166218,-133.333333333333,4,2,1,5,0,0
166293,-133.333333333333,4,2,1,55,0,0
167718,-133.333333333333,4,2,1,5,0,0
167793,-133.333333333333,4,2,1,55,0,0
168618,-133.333333333333,4,2,1,5,0,0
168693,-133.333333333333,4,2,1,55,0,0
169593,-100,4,2,1,55,0,0
170193,-100,4,1,1,60,0,0
171993,-83.3333333333333,4,1,1,60,0,0
172193,-76.9230769230769,4,1,1,60,0,0
172393,-71.4285714285714,4,1,1,60,0,0
172593,-83.3333333333333,4,1,1,60,0,0
181893,-66.6666666666667,4,1,1,60,0,0
182193,-100,4,1,1,50,0,0
186393,-100,4,1,1,60,0,0
186993,-100,4,1,1,50,0,0
191718,-100,4,1,1,5,0,0
191793,-100,4,1,1,55,0,0
195993,-100,4,1,1,60,0,0
196068,-100,4,1,1,50,0,0
196293,-100,4,1,1,60,0,0
196368,-100,4,1,1,50,0,0
196593,-90.9090909090909,4,1,1,60,0,0
198318,-90.9090909090909,4,1,1,5,0,0
198393,-90.9090909090909,4,1,1,60,0,0
201393,300,3,2,1,55,1,0
201393,-133.333333333333,3,2,1,55,0,0
206803,300,4,1,1,60,1,0
206803,-83.3333333333333,4,1,1,60,0,0
211078,-83.3333333333333,4,1,1,5,0,0
211153,-83.3333333333333,4,1,1,60,0,0
213553,-66.6666666666667,4,1,1,60,0,0
214003,-76.9230769230769,4,1,1,60,0,0
218053,-76.9230769230769,4,1,0,60,0,0
218128,-76.9230769230769,4,1,1,60,0,0
218653,-76.9230769230769,4,1,0,60,0,0
218728,-76.9230769230769,4,1,1,60,0,0
219253,-76.9230769230769,4,1,0,60,0,0
219328,-76.9230769230769,4,1,1,60,0,0
219553,-76.9230769230769,4,1,0,60,0,0
219628,-76.9230769230769,4,1,1,60,0,0
219853,-76.9230769230769,4,1,0,60,0,0
219928,-76.9230769230769,4,1,1,60,0,0
221278,-76.9230769230769,4,1,1,5,0,0
221353,-76.9230769230769,4,1,1,60,0,0
222103,-62.5,4,1,1,70,0,0
222328,-62.5,4,1,1,5,0,0
222403,-62.5,4,1,1,60,0,0
224728,-62.5,4,1,1,5,0,0
224803,-83.3333333333333,4,1,1,60,0,0
225215,-83.3333333333333,4,1,1,50,0,0
225703,-83.3333333333333,4,1,1,40,0,0
226153,-83.3333333333333,4,1,1,60,0,0
226978,-83.3333333333333,4,1,1,5,0,0
227053,300,4,1,1,60,1,0
227053,-83.3333333333333,4,1,1,60,0,0
227953,-200,4,1,1,60,0,0
229153,-200,4,2,1,55,0,0
229453,300,3,2,1,55,1,0
229453,-111.111111111111,3,2,1,55,0,0
230878,-111.111111111111,3,2,1,5,0,0
230953,-111.111111111111,3,2,1,55,0,0
231178,-100,3,2,1,5,0,0
231253,-111.111111111111,3,2,1,55,0,0
232978,-100,3,2,1,5,0,0
233053,-100,3,2,1,55,0,0
234853,300,4,1,1,60,1,0
236353,-90.9090909090909,4,1,1,60,0,0
237553,-83.3333333333333,4,1,1,60,0,0
238453,-83.3333333333333,4,1,2,60,0,0
238528,-83.3333333333333,4,1,1,60,0,0
240328,-83.3333333333333,4,1,1,5,0,0
240403,-83.3333333333333,4,1,1,60,0,0
241228,-83.3333333333333,4,1,1,5,0,0
241303,-83.3333333333333,4,1,1,60,0,0
243253,-83.3333333333333,4,1,1,70,0,0
244003,-62.5,4,1,1,60,0,0
244453,-62.5,4,2,1,20,0,0
245353,-62.5,4,2,1,55,0,0
245578,-62.5,4,2,1,5,0,0
245653,-133.333333333333,4,1,1,70,0,0
246103,-133.333333333333,4,2,1,50,0,0
246253,-133.333333333333,4,2,1,50,0,0
247903,-71.4285714285714,4,1,1,70,0,0
248503,-71.4285714285714,4,2,1,50,0,0
248653,-133.333333333333,4,2,1,50,0,0
249853,-133.333333333333,4,1,1,70,0,0
250003,-76.9230769230769,4,1,1,70,0,0
251053,-133.333333333333,4,2,1,50,0,0
251278,-133.333333333333,4,2,1,5,0,0
251353,-133.333333333333,4,2,1,50,0,0
251653,-66.6666666666667,4,1,1,70,0,0
251803,-66.6666666666667,4,1,1,60,0,0
252778,-66.6666666666667,4,1,1,5,0,0
252853,-66.6666666666667,4,1,1,40,0,0
253153,-66.6666666666667,4,1,1,45,0,0
253303,-66.6666666666667,4,1,1,50,0,0
253453,-66.6666666666667,4,1,1,55,0,0
253603,-66.6666666666667,4,1,1,60,0,0
253753,-66.6666666666667,4,1,1,65,0,0
254053,-66.6666666666667,4,1,2,70,0,0
254128,-66.6666666666667,4,1,1,70,0,0
254728,-66.6666666666667,4,1,1,5,0,0
254803,-66.6666666666667,4,1,1,70,0,0
254953,-66.6666666666667,4,1,2,70,0,0
255028,-66.6666666666667,4,1,1,70,0,0
255178,-66.6666666666667,4,1,1,5,0,0
255253,-76.9230769230769,4,1,3,80,0,1
255328,-76.9230769230769,4,1,1,70,0,1
256378,-76.9230769230769,4,1,1,5,0,1
256453,-76.9230769230769,4,1,1,70,0,1
257278,-76.9230769230769,4,1,1,5,0,1
257353,-76.9230769230769,4,1,1,70,0,1
258328,-76.9230769230769,4,1,1,5,0,1
258403,-76.9230769230769,4,1,1,70,0,1
262453,-76.9230769230769,4,1,1,70,0,0
262978,-76.9230769230769,4,1,1,5,0,0
263053,-76.9230769230769,4,1,1,70,0,0
263728,-76.9230769230769,4,1,1,60,0,0
264103,-76.9230769230769,4,1,1,75,0,0
264403,-76.9230769230769,4,1,1,55,0,0
264853,-76.9230769230769,4,1,9,80,0,1
264928,-76.9230769230769,4,1,1,70,0,1
270178,-76.9230769230769,4,1,1,5,0,1
270253,-76.9230769230769,4,1,1,70,0,1
271078,-76.9230769230769,4,1,1,5,0,1
271153,-76.9230769230769,4,1,1,70,0,1
272053,-66.6666666666667,4,1,1,70,0,1
272278,-66.6666666666667,4,1,1,5,0,1
272353,-66.6666666666667,4,1,1,70,0,1
273178,-66.6666666666667,4,1,1,5,0,1
273253,-66.6666666666667,4,1,1,70,0,1
273703,-66.6666666666667,4,1,0,70,0,1
273778,-66.6666666666667,4,1,1,70,0,1
274153,-66.6666666666667,4,1,1,60,0,1
274453,-76.9230769230769,4,1,1,70,0,1
274678,-76.9230769230769,4,1,1,5,0,1
274753,-76.9230769230769,4,1,1,70,0,1
276178,-76.9230769230769,4,1,1,5,0,1
276253,-76.9230769230769,4,1,1,70,0,1
277453,-76.9230769230769,4,1,1,70,0,1
283453,-76.9230769230769,4,1,2,70,0,1
283753,-76.9230769230769,4,1,1,70,0,1
284053,-76.9230769230769,4,1,1,70,0,1
285253,-76.9230769230769,4,1,1,75,0,1
286453,-66.6666666666667,4,1,1,80,0,1
288253,-66.6666666666667,4,1,1,65,0,0
288778,-66.6666666666667,4,1,1,5,0,0
288853,-100,4,1,1,65,0,0
289753,-83.3333333333333,4,1,1,65,0,0
290503,-71.4285714285714,4,1,1,65,0,0
291178,-71.4285714285714,4,2,1,5,0,0
291253,-90.9090909090909,4,1,1,60,0,0
294928,-90.9090909090909,4,1,1,5,0,0
295003,-90.9090909090909,4,1,1,60,0,0
295528,-90.9090909090909,4,1,1,40,0,0
295753,-90.9090909090909,4,1,1,60,0,0
295828,-90.9090909090909,4,1,1,40,0,0
296053,-90.9090909090909,4,1,1,60,0,0
298978,-90.9090909090909,4,1,1,5,0,0
299053,-90.9090909090909,4,1,1,60,0,0
299503,-90.9090909090909,4,1,1,70,0,0
300253,-83.3333333333333,4,1,1,60,0,0
300703,-83.3333333333333,4,1,9,70,0,0
300778,-83.3333333333333,4,1,1,60,0,0
309703,-83.3333333333333,4,1,2,60,0,0
309778,-83.3333333333333,4,1,1,60,0,0
311053,-83.3333333333333,4,1,1,50,0,0
311653,-83.3333333333333,4,1,1,40,0,0
312253,-83.3333333333333,4,1,1,30,0,0
312853,-83.3333333333333,4,1,1,20,0,0
314053,-83.3333333333333,4,1,1,15,0,0
315253,-83.3333333333333,4,2,1,12,0,0

[Colours]
Combo1 : 168,85,85
Combo2 : 157,0,0
Combo3 : 215,107,0
Combo4 : 179,0,179
Combo5 : 88,0,176
Combo6 : 164,164,164

[HitObjects]
502,104,1593,70,0,P|403:101|301:95,1,191.999994140625,4|0,0:0|0:0,0:0:0:0:
354,182,2493,2,0,P|408:183|454:187,1,95.9999970703126,0|2,0:0|0:0,0:0:0:0:
256,316,3243,1,2,0:0:0:0:
62,186,3693,1,0,0:0:0:0:
140,244,3993,6,0,P|152:174|122:110,1,143.999995605469,2|0,0:0|0:0,0:0:0:0:
208,16,4593,2,0,P|206:65|224:112,1,95.9999970703126,2|0,0:0|0:0,0:0:0:0:
318,203,5193,1,2,0:0:0:0:
436,159,5643,1,2,0:0:0:0:
436,159,5793,1,0,0:0:0:0:
343,80,6093,1,0,0:0:0:0:
409,259,6393,70,0,P|326:247|208:245,1,191.999994140625,2|2,0:0|0:0,0:0:0:0:
160,332,7293,2,0,P|210:340|266:336,1,95.9999970703126,0|2,0:0|0:0,0:0:0:0:
84,192,8043,1,2,0:0:0:0:
255,46,8493,1,0,0:0:0:0:
180,104,8793,6,0,P|168:60|168:8,1,95.9999970703126,2|0,0:0|0:0,0:0:0:0:
344,9,9393,2,0,P|344:57|332:104,1,95.9999970703126,2|0,0:0|0:0,0:0:0:0:
344,132,9768,1,0,0:0:0:0:
368,148,9843,1,0,0:0:0:0:
396,152,9918,1,0,0:0:0:0:
424,148,9993,69,2,0:0:0:0:
88,236,10293,1,0,0:0:0:0:
96,128,10593,5,2,0:0:0:0:
416,256,10893,1,0,0:0:0:0:
196,360,12393,5,2,0:0:0:0:
188,332,12468,1,2,0:0:0:0:
192,304,12543,1,2,0:0:0:0:
280,240,12693,1,0,0:0:0:0:
176,136,12843,1,2,0:0:0:0:
184,164,12918,1,2,0:0:0:0:
180,192,12993,1,2,0:0:0:0:
280,328,13143,5,0,0:0:0:0:
92,172,13293,2,0,L|24:164,1,47.9999985351563,8|0,0:0|2:0,0:0:0:0:
44,166,13593,5,6,0:0:0:0:
280,52,13743,1,2,0:0:0:0:
424,276,13893,1,2,0:0:0:0:
336,256,14193,1,2,0:0:0:0:
248,236,14493,1,2,0:0:0:0:
376,176,14643,6,0,P|414:172|472:164,1,80,6|0,0:0|0:0,0:0:0:0:
276,324,14943,2,0,P|237:327|180:336,1,80,2|0,0:0|0:0,0:0:0:0:
124,284,15393,1,2,0:0:0:0:
51,234,15693,1,2,0:0:0:0:
92,124,15843,70,0,L|80:220,1,80,6|0,0:0|0:0,0:0:0:0:
272,92,16143,2,0,L|281:12,1,80,2|2,0:0|0:0,0:0:0:0:
192,136,16593,1,2,0:0:0:0:
308,236,16893,1,2,0:0:0:0:
445,178,17043,6,0,P|402:180|321:148,1,120,6|0,0:0|2:0,0:0:0:0:
304,127,17343,1,2,0:0:0:0:
210,299,17493,2,0,P|249:301|286:318,1,80,2|2,0:0|0:0,0:0:0:0:
409,295,17793,37,2,0:0:0:0:
389,298,17868,1,2,0:0:0:0:
369,301,17943,1,2,0:0:0:0:
193,191,18093,1,2,0:0:0:0:
213,188,18168,1,2,0:0:0:0:
233,185,18243,1,2,0:0:0:0:
308,236,18393,21,6,0:0:0:0:
201,91,18543,1,2,0:0:0:0:
365,49,18693,2,0,P|367:88|375:137,1,80,2|0,0:0|0:0,0:0:0:0:
274,154,18993,2,0,P|351:162|396:226,1,160,2|2,0:0|0:0,0:0:0:0:
183,298,19443,6,0,L|87:309,1,80,6|0,0:0|0:0,0:0:0:0:
273,356,19743,1,0,0:0:0:0:
290,231,19893,2,0,L|369:221,1,80,2|0,0:0|0:0,0:0:0:0:
171,194,20193,2,0,L|-10:172,1,160,2|2,0:0|0:0,0:0:0:0:
228,43,20643,70,0,P|243:92|235:133,1,80,6|2,0:0|0:0,0:0:0:0:
145,271,20943,1,2,0:0:0:0:
248,373,21093,2,0,P|233:324|241:283,1,80,2|2,0:0|0:0,0:0:0:0:
379,166,21393,6,0,L|298:179,1,80,2|2,0:0|0:0,0:0:0:0:
192,192,21693,1,2,0:0:0:0:
382,255,21843,2,0,L|474:270,1,80,6|0,0:0|0:0,0:0:0:0:
400,79,22143,69,2,0:0:0:0:
322,330,22293,2,0,L|216:347,1,80,6|0,0:0|0:0,0:0:0:0:
61,320,22593,53,8,0:0:0:0:
61,320,22668,1,0,0:0:0:0:
61,320,22743,1,0,0:0:0:0:
61,320,22818,1,0,0:0:0:0:
61,320,22893,1,0,0:0:0:0:
61,320,22968,1,0,0:0:0:0:
61,320,23043,6,0,B|67:250|67:250|37:205|37:205|45:112,1,191.999994140625,6|2,0:0|0:0,0:0:0:0:
155,283,23493,2,0,L|256:272,1,95.9999970703126,8|0,0:0|0:0,0:0:0:0:
202,190,23793,1,2,0:0:0:0:
337,98,23943,2,0,L|241:108,1,95.9999970703126,2|8,0:0|0:0,0:0:0:0:
353,363,24243,70,0,P|384:305|315:190,1,191.999994140625,6|2,0:0|0:0,0:0:0:0:
148,75,24693,2,0,L|268:90,1,95.9999970703126,8|0,0:0|0:0,0:0:0:0:
334,48,24993,1,2,0:0:0:0:
444,191,25143,2,0,L|348:179,1,95.9999970703126,2|8,0:0|0:0,0:0:0:0:
60,288,25443,6,0,B|158:268|138:346|257:324,1,191.999994140625,6|2,0:0|0:0,0:0:0:0:
204,137,25893,2,0,P|196:183|208:230,1,95.9999970703126,8|0,0:0|0:0,0:0:0:0:
400,201,26193,1,2,0:0:0:0:
331,367,26343,2,0,P|339:320|327:274,1,95.9999970703126,2|8,0:0|0:0,0:0:0:0:
120,125,26643,70,0,L|240:109,1,95.9999970703126,6|0,0:0|0:0,0:0:0:0:
378,50,26943,1,2,0:0:0:0:
378,50,27018,1,2,0:0:0:0:
378,50,27093,1,8,0:0:0:0:
420,232,27243,1,0,0:0:0:0:
400,201,27318,1,0,0:0:0:0:
371,181,27393,1,2,0:0:0:0:
336,172,27468,1,0,0:0:0:0:
301,177,27543,1,2,0:0:0:0:
445,114,27693,5,8,0:0:0:0:
327,274,27843,1,0,0:0:0:0:
247,96,27993,2,0,P|243:48|253:-10,1,95.9999970703126,6|0,0:0|0:0,0:0:0:0:
420,232,28293,2,0,P|424:280|414:338,1,95.9999970703126,8|2,0:0|0:0,0:0:0:0:
505,178,28593,69,8,0:0:0:0:
327,274,28743,1,2,0:0:0:0:
173,136,28893,1,8,0:0:0:0:
320,163,29043,6,0,B|260:175|260:175|224:220|224:220|138:240,1,191.999994140625,8|2,0:0|0:0,0:0:0:0:
64,208,29493,1,2,0:0:0:0:
126,51,29643,2,0,P|132:101|134:147,1,95.9999970703126,8|0,0:0|0:0,0:0:0:0:
247,348,29943,1,2,0:0:0:0:
247,348,30018,1,2,0:0:0:0:
247,348,30093,2,0,P|249:300|254:252,1,95.9999970703126,8|6,0:0|0:0,0:0:0:0:
270,232,30543,69,2,0:0:0:0:
390,171,30693,1,8,0:0:0:0:
247,348,30843,1,2,0:0:0:0:
187,130,30993,1,8,0:0:0:0:
364,301,31143,6,0,P|410:290|464:293,1,95.9999970703126,2|8,0:0|0:0,0:0:0:0:
167,158,31443,2,0,P|110:189|19:162,1,143.999995605469,2|0,0:0|2:0,0:0:0:0:
7,153,31743,1,2,0:0:0:0:
99,30,31893,69,8,0:0:0:0:
122,34,31968,1,0,0:0:0:0:
145,38,32043,1,2,0:0:0:0:
168,42,32118,1,0,0:0:0:0:
195,72,32193,5,8,0:0:0:0:
218,76,32268,1,0,0:0:0:0:
241,80,32343,1,2,0:0:0:0:
264,84,32418,1,2,0:0:0:0:
288,111,32493,69,8,0:0:0:0:
311,115,32568,1,0,0:0:0:0:
334,119,32643,1,2,0:0:0:0:
357,123,32718,1,0,0:0:0:0:
398,111,32793,5,12,0:0:0:0:
256,192,32868,12,2,35193,0:0:0:0:
461,193,35343,6,0,L|478:142,1,47.9999985351563,2|0,0:0|0:0,0:0:0:0:
400,261,35493,2,0,L|392:313,1,47.9999985351563,2|0,0:0|0:0,0:0:0:0:
361,180,35643,2,0,L|361:124,1,47.9999985351563,2|0,0:0|0:0,0:0:0:0:
306,306,35793,5,2,0:0:0:0:
276,321,35868,1,0,0:0:0:0:
242,321,35943,1,0,0:0:0:0:
212,304,36018,1,0,0:0:0:0:
191,277,36093,2,0,L|118:289,1,47.9999985351563,2|0,0:0|0:0,0:0:0:0:
61,328,36243,69,0,0:0:0:0:
61,328,36318,1,0,0:0:0:0:
61,328,36393,2,0,P|64:303|61:255,1,47.9999985351563,2|0,0:0|0:0,0:0:0:0:
136,97,36543,2,0,P|134:120|133:144,1,47.9999985351563,2|0,0:1|0:0,0:0:0:0:
44,154,36693,2,0,P|40:130|33:108,1,47.9999985351563,2|0,0:0|0:0,0:0:0:0:
153,270,36843,2,0,P|156:293|164:316,1,47.9999985351563,2|0,0:1|0:0,0:0:0:0:
101,213,36993,5,2,0:0:0:0:
132,200,37068,1,0,0:0:0:0:
165,199,37143,1,2,0:1:0:0:
197,209,37218,1,0,0:0:0:0:
221,232,37293,1,2,0:0:0:0:
247,252,37368,1,2,0:0:0:0:
278,262,37443,1,2,0:1:0:0:
311,258,37518,1,2,0:0:0:0:
339,240,37593,1,4,0:0:0:0:
286,178,37893,6,0,P|290:132|273:54,1,120.000004577637,0|2,0:0|0:0,0:0:0:0:
373,41,38493,1,0,0:0:0:0:
373,41,38643,2,0,P|316:56|211:-5,1,180.000006866455,0|0,0:0|0:0,0:0:0:0:
87,122,39393,2,0,P|135:105|211:107,1,120.000004577637,2|0,0:0|0:0,0:0:0:0:
35,32,39993,5,2,1:2:0:0:
157,192,40443,1,0,0:0:0:0:
0,294,40893,2,0,P|8:241|14:172,1,120.000004577637,2|0,0:0|0:0,0:0:0:0:
19,93,41343,1,0,0:0:0:0:
101,114,41493,2,0,P|91:173|87:233,1,120.000004577637,0|2,0:0|0:0,0:0:0:0:
243,342,42093,69,0,0:0:0:0:
324,327,42243,1,0,0:0:0:0:
404,312,42393,1,4,0:0:0:0:
404,312,42693,6,0,P|406:254|370:192,1,120.000004577637,0|2,0:0|0:0,0:0:0:0:
292,63,43293,1,0,0:0:0:0:
243,130,43443,2,0,P|284:145|373:50,1,180.000006866455,2|0,0:0|0:0,0:0:0:0:
168,101,44193,2,0,P|105:95|34:87,1,120.000004577637,2|0,0:0|0:0,0:0:0:0:
229,264,44793,70,0,P|317:270|432:284,2,180.000006866455,2|2|2,1:2|0:0|0:0,0:0:0:0:
157,309,45843,1,0,0:0:0:0:
91,254,45993,2,0,P|86:226|83:189,1,60.0000022888184,0|0,0:0|0:0,0:0:0:0:
150,79,46293,6,0,P|157:135|165:205,1,120.000004577637,2|0,0:0|0:0,0:0:0:0:
298,360,46893,2,0,P|304:300|312:240,1,120.000004577637,2|4,0:0|0:0,0:0:0:0:
388,189,47493,69,0,0:0:0:0:
319,123,47793,2,0,P|272:116|197:173,1,120.000004577637,2|2,0:0|0:0,0:0:0:0:
138,184,48243,2,0,P|186:150|192:35,1,180.000006866455,2|0,0:0|0:0,0:0:0:0:
110,89,48993,1,2,0:0:0:0:
281,203,49293,1,0,0:0:0:0:
105,291,49593,5,2,1:2:0:0:
182,206,50043,1,2,0:0:0:0:
216,314,50493,2,0,B|338:282|326:376|456:338,1,240.000009155274,2|0,0:0|0:0,0:0:0:0:
473,184,51393,2,0,P|447:236|393:258,1,120.000004577637,2|0,0:0|0:0,0:0:0:0:
394,175,51843,1,0,0:0:0:0:
473,274,51993,70,0,P|467:306|469:348,1,60.0000022888184,4|0,0:0|0:0,0:0:0:0:
368,356,52293,1,2,2:1:0:0:
368,356,52443,1,2,2:1:0:0:
279,347,52593,1,2,2:1:0:0:
279,347,52743,1,2,2:1:0:0:
192,337,52893,1,2,2:1:0:0:
192,337,53043,1,2,2:1:0:0:
101,325,53193,5,2,2:1:0:0:
78,232,53343,1,2,2:1:0:0:
241,97,53493,1,2,2:1:0:0:
264,190,53643,1,2,2:1:0:0:
175,246,53793,69,2,2:1:0:0:
141,88,53943,1,2,2:1:0:0:
359,196,54093,1,2,2:1:0:0:
393,354,54243,1,2,2:1:0:0:
282,295,54393,53,10,0:0:0:0:
478,200,54543,2,0,L|487:114,1,80,2|2,0:0|0:0,0:0:0:0:
234,187,54843,5,10,0:0:0:0:
35,120,54993,2,0,L|26:34,1,80,2|2,0:0|0:0,0:0:0:0:
309,85,55293,37,10,0:0:0:0:
359,196,55443,1,2,0:0:0:0:
282,295,55593,1,8,0:0:0:0:
234,187,55743,1,0,0:0:0:0:
234,187,55818,1,0,0:0:0:0:
234,187,55893,1,0,0:0:0:0:
309,85,56043,5,12,0:0:0:0:
409,339,56193,1,0,0:0:0:0:
141,300,56343,1,0,0:0:0:0:
390,143,56493,2,0,P|400:190|399:261,1,95.9999970703126,12|0,0:0|0:0,0:0:0:0:
236,346,56793,5,2,0:0:0:0:
235,345,57093,2,0,P|222:299|222:252,1,95.9999970703126,8|0,0:0|0:0,0:0:0:0:
249,157,57393,2,0,L|141:174,1,95.9999970703126
187,75,57693,1,8,0:0:0:0:
316,264,57843,2,0,L|424:247,1,95.9999970703126,0|2,0:0|0:0,0:0:0:0:
512,115,58143,5,2,0:0:0:0:
446,42,58293,2,0,P|376:33|322:147,1,191.999994140625,8|0,0:0|0:0,0:0:0:0:
397,216,58743,2,0,P|397:168|405:121,1,95.9999970703126,6|8,0:0|0:0,0:0:0:0:
226,27,59043,2,0,P|225:74|218:122,1,95.9999970703126,4|2,0:0|0:0,0:0:0:0:
218,122,59493,69,8,0:0:0:0:
137,69,59643,1,0,0:0:0:0:
299,179,59793,2,0,L|405:167,1,95.9999970703126,0|2,0:0|0:0,0:0:0:0:
350,83,60093,1,8,0:0:0:0:
242,264,60243,6,0,P|190:212|74:220,1,191.999994140625,0|2,0:0|0:0,0:0:0:0:
77,217,60618,1,0,0:0:0:0:
77,217,60693,1,8,0:0:0:0:
148,298,60843,1,2,0:0:0:0:
159,23,60993,69,0,0:0:0:0:
134,112,61143,2,0,P|188:108|246:69,1,95.9999970703126,6|8,0:0|0:0,0:0:0:0:
437,167,61443,2,0,P|383:171|325:210,1,95.9999970703126,6|2,0:0|0:0,0:0:0:0:
346,189,61893,5,8,0:0:0:0:
413,259,62043,1,0,0:0:0:0:
346,327,62193,2,0,L|245:308,1,95.9999970703126,0|2,0:0|0:0,0:0:0:0:
220,229,62493,1,8,0:0:0:0:
0,114,62643,2,0,L|183:147,1,191.999994140625,0|2,0:0|0:0,0:0:0:0:
138,336,63093,70,0,P|141:286|110:230,1,95.9999970703126,8|2,0:0|0:0,0:0:0:0:
52,306,63393,1,0,0:0:0:0:
220,229,63543,2,0,P|282:214|379:301,1,191.999994140625,2|0,0:0|0:0,0:0:0:0:
277,304,63993,5,8,0:0:0:0:
337,61,64143,2,0,L|242:73,1,95.9999970703126,2|2,0:0|0:0,0:0:0:0:
375,288,64443,69,8,0:0:0:0:
255,156,64593,2,0,L|349:143,1,95.9999970703126,2|2,0:0|0:0,0:0:0:0:
418,91,64893,53,8,0:0:0:0:
170,123,65043,1,0,0:0:0:0:
371,258,65193,1,8,0:0:0:0:
373,243,65268,1,8,0:0:0:0:
375,228,65343,1,2,0:0:0:0:
446,176,65493,5,2,0:0:0:0:
279,44,65643,1,8,0:0:0:0:
281,58,65718,1,8,0:0:0:0:
283,72,65793,1,2,0:0:0:0:
285,86,65868,1,2,0:0:0:0:
287,100,65943,1,2,0:0:0:0:
397,149,66093,70,0,L|387:82,1,60.0000022888184,8|8,0:0|0:0,0:0:0:0:
190,125,66243,2,0,L|200:192,1,60.0000022888184,8|8,0:0|0:0,0:0:0:0:
327,330,66393,53,6,0:0:0:0:
339,248,66543,1,0,0:0:0:0:
256,234,66693,1,2,0:0:0:0:
243,317,66843,1,0,0:0:0:0:
128,273,66993,54,0,P|86:276|20:286,1,80,0|2,0:0|0:0,0:0:0:0:
161,121,67293,2,0,P|164:162|174:229,1,80,0|2,0:0|0:0,0:0:0:0:
43,97,67593,22,0,P|119:101|177:24,1,160
319,107,68043,2,0,P|282:94|243:95,1,80,0|8,0:0|0:0,0:0:0:0:
270,176,68343,1,0,0:0:0:0:
120,213,68493,2,0,P|157:226|196:225,1,80,0|0,0:0|0:0,0:0:0:0:
332,265,68793,54,0,B|246:259|275:317|173:310,1,160,2|0,0:0|0:0,0:0:0:0:
321,350,69243,1,2,0:0:0:0:
403,317,69393,2,0,P|413:278|417:226,1,80,2|0,0:0|0:0,0:0:0:0:
287,112,69693,2,0,P|276:150|273:203,1,80,2|0,0:0|0:0,0:0:0:0:
332,265,69993,21,2,0:0:0:0:
332,265,70143,1,2,0:0:0:0:
508,208,70293,1,2,0:0:0:0:
508,208,70443,1,0,0:0:0:0:
432,285,70593,21,8,0:0:0:0:
285,172,70743,1,2,0:0:0:0:
354,0,70893,1,8,0:0:0:0:
501,113,71043,1,2,0:0:0:0:
375,185,71193,21,2,0:0:0:0:
375,185,71343,1,2,0:0:0:0:
285,172,71493,1,2,0:0:0:0:
285,172,71643,1,0,0:0:0:0:
194,156,71793,22,0,P|156:166|116:173,1,80,0|2,0:0|0:0,0:0:0:0:
23,333,72093,2,0,P|61:322|101:315,1,80,0|2,0:0|0:0,0:0:0:0:
263,363,72393,54,0,P|254:287|183:252,1,160,2|2,0:0|0:0,0:0:0:0:
185,335,72843,1,0,0:0:0:0:
314,232,72993,2,0,P|312:191|321:126,1,80,8|0,0:0|0:0,0:0:0:0:
170,139,73293,2,0,P|213:133|259:62,1,120,2|0,0:0|2:0,0:0:0:0:
248,45,73593,22,0,L|72:27,1,160,2|2,0:0|0:0,0:0:0:0:
316,152,74043,2,0,L|408:142,1,80,2|0,0:0|0:0,0:0:0:0:
395,143,74343,1,2,0:0:0:0:
188,248,74493,2,0,L|88:240,1,80,2|8,0:0|0:0,0:0:0:0:
76,232,74718,1,8,0:0:0:0:
48,240,74793,1,8,0:0:0:0:
244,109,75093,6,0,P|286:162|260:269,2,160,2|2|2,2:0|2:0|2:0,2:0:0:0:
206,194,75843,1,0,2:0:0:0:
362,132,75993,38,0,L|431:123,1,47.9999985351563,6|0,0:0|0:0,0:0:0:0:
457,278,76143,2,0,L|505:272,1,47.9999985351563,2|0,0:0|0:0,0:0:0:0:
482,195,76293,2,0,B|419:204|419:204|370:246|370:246|306:254,1,191.999994140625,8|0,0:0|0:0,0:0:0:0:
185,362,76743,1,2,0:0:0:0:
200,181,76893,2,0,L|220:303,1,95.9999970703126,8|0,0:0|0:0,0:0:0:0:
123,293,77193,5,2,0:0:0:0:
261,103,77343,1,0,0:0:0:0:
104,142,77493,1,8,0:0:0:0:
306,253,77643,2,0,P|348:230|410:234,1,95.9999970703126,2|0,0:0|0:0,0:0:0:0:
260,332,77943,1,2,0:0:0:0:
164,314,78093,2,0,P|122:337|60:333,1,95.9999970703126,8|0,0:0|0:0,0:0:0:0:
128,56,78393,69,2,0:0:0:0:
98,243,78543,1,0,0:0:0:0:
246,144,78693,1,8,0:0:0:0:
33,145,78843,2,0,L|129:159,1,95.9999970703126,0|0,0:0|0:0,0:0:0:0:
256,304,79143,1,2,0:0:0:0:
448,72,79293,6,0,L|352:85,1,95.9999970703126,8|0,0:0|0:0,0:0:0:0:
376,184,79518,1,0,0:0:0:0:
396,168,79593,2,0,L|516:152,1,95.9999970703126,2|2,0:0|0:0,0:0:0:0:
220,48,79893,70,0,P|200:96|212:160,1,95.9999970703126,8|2,0:0|0:0,0:0:0:0:
324,348,80193,2,0,P|340:296|284:220,1,143.999995605469,0|0,0:0|2:0,0:0:0:0:
260,208,80493,1,12,0:0:0:0:
200,332,80643,1,2,0:0:0:0:
48,224,80793,54,0,L|172:240,1,95.9999970703126,8|2,0:0|0:0,0:0:0:0:
144,92,81093,2,0,L|239:104,1,95.9999970703126,8|2,0:0|0:0,0:0:0:0:
200,332,81393,2,0,L|320:348,1,95.9999970703126,8|2,0:0|0:0,0:0:0:0:
400,320,81693,5,8,0:0:0:0:
320,188,81843,1,2,0:0:0:0:
440,80,81993,2,0,P|424:144|432:200,1,95.9999970703126,8|2,0:0|0:0,0:0:0:0:
268,364,82293,2,0,P|284:300|276:244,1,95.9999970703126,8|2,0:0|0:0,0:0:0:0:
204,100,82593,2,0,P|140:88|64:200,1,191.999994140625,8|8,0:0|0:0,0:0:0:0:
92,272,83043,1,2,0:0:0:0:
156,176,83193,70,0,P|160:100|152:16,1,143.999995605469,12|0,0:0|2:0,0:0:0:0:
128,8,83493,1,8,0:0:0:0:
240,208,83643,1,2,0:0:0:0:
140,264,83793,1,8,0:0:0:0:
248,104,83943,1,2,0:0:0:0:
52,208,84093,2,0,P|47:159|52:96,1,95.9999970703126,8|2,0:0|0:0,0:0:0:0:
234,311,84393,6,0,L|306:333,2,47.9999985351563,12|8|2,0:0|0:0|0:0,0:0:0:0:
360,192,84693,1,2,0:0:0:0:
264,72,84843,2,0,L|218:57,2,47.9999985351563,6|2|2,0:0|0:0|0:0,0:0:0:0:
384,296,85143,69,2,0:0:0:0:
120,208,85293,1,6,0:0:0:0:
372,84,85443,1,0,0:0:0:0:
248,216,85593,70,0,B|136:188|128:272|16:248,1,240.000009155274,4|0,0:0|0:0,0:0:0:0:
64,60,86493,53,2,0:0:0:0:
148,76,86793,1,0,0:0:0:0:
232,92,87093,1,0,0:0:0:0:
400,168,87393,22,0,P|286:171|246:277,1,240.000009155274,2|0,0:0|0:0,0:0:0:0:
344,248,88293,2,0,P|404:248|468:260,1,120.000004577637,2|0,0:0|0:0,0:0:0:0:
172,168,88893,2,0,P|124:168|56:152,1,90.0000034332277,0|0,0:0|0:0,0:0:0:0:
48,144,89193,53,2,0:0:0:0:
40,60,89493,1,0,0:0:0:0:
56,228,89793,1,0,0:0:0:0:
296,144,90093,21,2,0:0:0:0:
289,256,90393,1,0,0:0:0:0:
302,31,90693,1,0,0:0:0:0:
280,368,90993,38,0,P|318:360|364:356,1,80,6|0,0:0|0:0,0:0:0:0:
443,234,91293,2,0,B|355:214|371:270|275:254,1,160,10|2,0:0|0:0,0:0:0:0:
120,184,91743,2,0,P|128:228|128:264,1,80,4|10,0:0|0:0,0:0:0:0:
208,172,92043,2,0,P|200:128|200:92,1,80,4|2,0:0|0:0,0:0:0:0:
44,232,92343,1,0,0:0:0:0:
216,284,92493,6,0,P|148:292|100:380,1,160,10|0,0:0|0:0,0:0:0:0:
36,136,92943,2,0,L|120:148,1,80,4|10,0:0|0:0,0:0:0:0:
320,256,93243,2,0,L|236:268,1,80,4|2,0:0|0:0,0:0:0:0:
264,164,93543,69,0,0:0:0:0:
400,308,93693,2,0,P|412:260|400:208,1,80,10|0,0:0|0:0,0:0:0:0:
360,152,93993,1,2,0:0:0:0:
496,72,94143,2,0,P|457:83|418:81,1,80,4|10,0:0|0:0,0:0:0:0:
200,199,94443,5,8,0:0:0:0:
200,199,94518,1,8,0:0:0:0:
200,199,94593,2,0,P|238:187|320:271,1,155.999992858887,4|0,0:0|2:0,0:0:0:0:
320,291,94893,1,2,0:0:0:0:
444,120,95043,70,0,P|393:132|320:148,1,103.999995239258,12|2,0:0|0:0,0:0:0:0:
240,267,95343,1,2,0:0:0:0:
384,356,95493,2,0,P|434:343|485:332,1,103.999995239258,12|0,0:0|0:0,0:0:0:0:
485,332,95718,1,2,0:0:0:0:
485,332,95793,53,8,0:0:0:0:
256,132,95943,1,2,0:0:0:0:
26,332,96093,1,8,0:0:0:0:
352,232,96243,54,0,L|364:64,1,155.999992858887,8|0,0:0|2:0,0:0:0:0:
420,24,96543,1,2,2:1:0:0:
420,24,96618,1,2,2:1:0:0:
420,24,96693,21,8,0:0:0:0:
240,312,96843,1,2,0:0:0:0:
136,0,96993,1,8,0:0:0:0:
312,204,97143,1,8,0:0:0:0:
72,308,97293,54,0,P|65:255|56:200,1,103.999995239258,2|0,0:2|2:0,0:0:0:0:
240,131,97593,2,0,P|231:80|224:29,1,103.999995239258,2|0,0:2|0:0,0:0:0:0:
176,316,97893,6,0,L|144:116,1,180.000006866455,2|0,0:2|2:0,0:0:0:0:
136,100,98193,5,6,0:0:0:0:
68,260,98343,1,2,0:0:0:0:
250,370,98493,1,8,0:0:0:0:
321,213,98643,1,0,0:0:0:0:
176,316,98793,6,0,P|211:285|258:279,1,95.9999970703126,2|2,0:0|0:0,0:0:0:0:
380,136,99093,1,8,0:0:0:0:
208,60,99243,1,0,0:0:0:0:
319,207,99393,70,0,P|292:142|309:74,1,143.999995605469,2|0,0:0|2:0,0:0:0:0:
336,48,99693,1,8,0:0:0:0:
392,268,99843,1,2,0:0:0:0:
216,184,99993,1,0,0:0:0:0:
504,128,100143,6,0,P|452:124|408:112,1,95.9999970703126,2|8,0:0|0:0,0:0:0:0:
152,280,100443,1,0,0:0:0:0:
152,280,100518,1,0,0:0:0:0:
152,280,100593,2,0,P|204:284|248:296,1,95.9999970703126,0|2,0:0|0:0,0:0:0:0:
328,204,100893,1,8,0:0:0:0:
344,364,101043,1,0,0:0:0:0:
246,295,101193,69,2,0:0:0:0:
448,128,101343,1,2,0:0:0:0:
420,280,101493,1,8,0:0:0:0:
192,152,101643,1,0,0:0:0:0:
312,48,101793,6,0,P|315:77|328:132,1,47.9999985351563,2|0,0:0|2:0,0:0:0:0:
166,240,101943,2,0,P|162:210|150:156,1,47.9999985351563,2|0,0:0|2:0,0:0:0:0:
213,32,102093,1,8,0:0:0:0:
275,242,102243,69,2,0:0:0:0:
271,208,102318,1,0,0:0:0:0:
282,176,102393,1,0,0:0:0:0:
425,84,102543,1,2,0:0:0:0:
479,262,102693,1,12,0:0:0:0:
459,233,102768,1,0,0:0:0:0:
428,214,102843,1,2,0:0:0:0:
393,210,102918,1,0,0:0:0:0:
359,219,102993,6,0,P|373:269|367:326,1,95.9999970703126,6|2,0:0|0:0,0:0:0:0:
168,365,103293,2,0,P|148:309|162:204,1,143.999995605469,8|0,0:0|2:0,0:0:0:0:
171,196,103593,1,2,0:0:0:0:
263,281,103743,1,2,0:0:0:0:
345,106,103893,70,0,L|235:123,1,95.9999970703126,8|0,0:0|0:0,0:0:0:0:
50,44,104193,2,0,L|171:62,1,95.9999970703126,2|2,0:0|0:0,0:0:0:0:
171,196,104493,1,8,0:0:0:0:
74,179,104643,1,2,0:0:0:0:
241,30,104793,6,0,B|260:76|260:76|249:120,1,95.9999970703126,0|2,0:0|0:0,0:0:0:0:
187,236,105093,1,8,0:0:0:0:
387,279,105243,1,0,0:0:0:0:
368,234,105318,1,0,0:0:0:0:
377,188,105393,70,0,P|331:202|284:209,1,95.9999970703126,6|0,0:0|0:0,0:0:0:0:
111,148,105693,1,8,0:0:0:0:
254,295,105843,2,0,P|194:255|111:268,1,143.999995605469,2|0,0:0|2:0,0:0:0:0:
96,278,106143,1,2,0:0:0:0:
260,148,106293,6,0,P|265:180|268:195,1,47.9999985351563,10|0,0:0|0:0,0:0:0:0:
177,384,106443,2,0,P|171:351|169:337,1,47.9999985351563,2|2,0:0|0:0,0:0:0:0:
354,236,106593,69,12,0:0:0:0:
365,244,106668,1,0,0:0:0:0:
376,252,106743,2,0,L|482:270,1,95.9999970703126,2|2,0:0|0:0,0:0:0:0:
166,122,107043,2,0,P|175:173|181:255,1,95.9999970703126,6|2,0:0|0:0,0:0:0:0:
156,247,107268,1,0,0:0:0:0:
119,259,107343,1,2,0:0:0:0:
80,254,107418,1,0,0:0:0:0:
47,234,107493,6,0,L|111:226,1,47.9999985351563,12|0,0:0|0:0,0:0:0:0:
303,119,107643,2,0,L|255:113,1,47.9999985351563,2|0,0:0|0:0,0:0:0:0:
55,40,107793,5,12,0:0:0:0:
179,216,107943,1,2,0:0:0:0:
312,31,108093,2,0,P|243:27|155:116,1,191.999994140625,8|2,0:0|0:0,0:0:0:0:
227,303,108543,1,2,0:0:0:0:
347,135,108693,2,0,L|242:153,1,95.9999970703126,8|0,0:0|0:0,0:0:0:0:
406,287,108993,5,2,0:0:0:0:
314,239,109143,1,0,0:0:0:0:
447,88,109293,2,0,P|435:137|440:207,1,95.9999970703126,8|2,0:0|0:0,0:0:0:0:
295,328,109593,2,0,P|273:274|181:261,1,143.999995605469,0|0,0:0|2:0,0:0:0:0:
160,269,109893,2,0,L|60:259,1,95.9999970703126,8|0,0:0|0:0,0:0:0:0:
265,90,110193,70,0,P|280:138|277:198,1,95.9999970703126,2|0,0:0|0:0,0:0:0:0:
212,334,110493,1,8,0:0:0:0:
103,215,110643,2,0,P|88:167|91:107,1,95.9999970703126,0|0,0:0|0:0,0:0:0:0:
357,93,110943,1,2,0:0:0:0:
184,151,111093,6,0,P|233:158|300:164,1,95.9999970703126,8|0,0:0|0:0,0:0:0:0:
344,334,111393,1,2,0:0:0:0:
494,263,111543,1,2,0:0:0:0:
494,263,111618,1,0,0:0:0:0:
494,263,111693,2,0,P|445:256|378:250,1,95.9999970703126,8|2,0:0|0:0,0:0:0:0:
433,131,111993,69,0,0:0:0:0:
443,350,112143,1,2,0:0:0:0:
273,205,112293,1,8,0:0:0:0:
235,199,112368,1,0,0:0:0:0:
197,208,112443,1,2,0:0:0:0:
165,230,112518,1,0,0:0:0:0:
145,262,112593,5,6,0:0:0:0:
271,109,112743,1,2,0:0:0:0:
110,55,112893,2,0,P|129:116|125:177,1,95.9999970703126,8|0,0:0|0:0,0:0:0:0:
236,294,113193,69,2,0:0:0:0:
43,153,113343,1,2,0:0:0:0:
258,25,113493,1,8,0:0:0:0:
128,233,113643,1,0,0:0:0:0:
311,128,113793,6,0,P|257:121|199:112,1,95.9999970703126,2|2,0:0|0:0,0:0:0:0:
367,242,114093,1,8,0:0:0:0:
185,318,114243,2,0,P|234:322|280:331,1,95.9999970703126,2|0,0:0|0:0,0:0:0:0:
126,203,114543,1,2,0:0:0:0:
347,229,114693,70,0,L|288:242,1,47.9999985351563,8|0,0:0|0:0,0:0:0:0:
152,215,114843,2,0,L|198:204,1,47.9999985351563,0|0,0:0|0:0,0:0:0:0:
322,143,114993,6,0,L|328:47,1,95.9999970703126,6|2,0:0|0:0,0:0:0:0:
415,174,115293,2,0,P|343:168|269:277,1,191.999994140625,8|2,0:0|0:0,0:0:0:0:
363,357,115743,2,0,L|370:262,1,95.9999970703126,2|8,0:0|0:0,0:0:0:0:
468,277,116043,1,2,0:0:0:0:
276,347,116193,5,8,0:0:0:0:
243,339,116268,1,8,0:0:0:0:
212,350,116343,1,2,0:0:0:0:
269,252,116493,1,2,0:0:0:0:
32,234,116643,1,2,0:0:0:0:
58,261,116718,1,2,0:0:0:0:
93,276,116793,1,2,0:0:0:0:
131,275,116868,1,2,0:0:0:0:
166,260,116943,1,2,0:0:0:0:
101,137,117093,6,0,P|105:159|109:185,1,47.9999985351563,10|2,0:0|0:0,0:0:0:0:
244,319,117243,2,0,P|247:295|251:271,1,47.9999985351563,2|2,0:0|0:0,0:0:0:0:
384,140,117393,5,6,0:0:0:0:
166,260,117543,1,2,0:0:0:0:
407,305,117693,1,8,0:0:0:0:
230,99,117843,1,0,0:0:0:0:
168,349,117993,5,2,0:0:0:0:
327,231,118143,2,0,L|338:114,1,95.9999970703126,2|8,0:0|0:0,0:0:0:0:
433,209,118443,69,0,0:0:0:0:
191,114,118593,2,0,L|180:11,1,95.9999970703126,2|2,0:0|0:0,0:0:0:0:
291,25,118893,5,8,0:0:0:0:
7,214,119043,2,0,B|50:194|50:194|116:205,1,95.9999970703126,2|2,0:0|0:0,0:0:0:0:
149,305,119343,1,2,0:0:0:0:
332,122,119493,2,0,B|289:142|289:142|223:131,1,95.9999970703126,8|0,0:0|0:0,0:0:0:0:
216,103,119718,1,0,0:0:0:0:
230,69,119793,69,2,0:0:0:0:
347,273,119943,1,2,0:0:0:0:
112,187,120093,2,0,L|120:62,1,95.9999970703126,8|0,0:0|0:0,0:0:0:0:
224,157,120393,5,2,0:0:0:0:
42,258,120543,1,2,0:0:0:0:
274,347,120693,1,8,0:0:0:0:
170,267,120843,1,0,0:0:0:0:
323,227,120993,69,2,0:0:0:0:
55,352,121143,1,2,0:0:0:0:
55,352,121218,1,0,0:0:0:0:
55,352,121293,2,0,P|52:309|39:249,1,95.9999970703126,8|0,0:0|0:0,0:0:0:0:
191,114,121593,1,2,0:0:0:0:
24,166,121743,5,2,0:0:0:0:
63,163,121818,1,0,0:0:0:0:
98,181,121893,1,12,0:0:0:0:
359,51,122043,1,2,0:0:0:0:
320,54,122118,1,0,0:0:0:0:
285,36,122193,70,0,P|287:93|297:142,1,95.9999970703126,6|2,0:0|0:0,0:0:0:0:
340,307,122493,2,0,P|293:229|201:232,1,191.999994140625,8|2,0:0|0:0,0:0:0:0:
253,308,122943,1,2,0:0:0:0:
380,177,123093,2,0,L|495:160,1,95.9999970703126,8|0,0:0|0:0,0:0:0:0:
200,37,123393,6,0,P|193:84|193:132,1,95.9999970703126,2|2,0:0|0:0,0:0:0:0:
310,95,123693,1,8,0:0:0:0:
250,219,123843,1,0,0:0:0:0:
250,219,123918,1,0,0:0:0:0:
250,219,123993,2,0,L|142:232,1,95.9999970703126,0|2,0:0|0:0,0:0:0:0:
349,364,124293,2,0,P|356:316|356:268,1,95.9999970703126,8|0,0:0|0:0,0:0:0:0:
340,233,124518,1,0,0:0:0:0:
352,196,124593,69,12,0:0:0:0:
177,360,124743,1,0,0:0:0:0:
436,229,124893,1,2,0:0:0:0:
158,117,125043,2,0,P|107:129|83:214,1,143.999995605469,12|0,0:0|2:0,0:0:0:0:
103,235,125343,1,2,0:0:0:0:
255,162,125493,2,0,L|386:141,1,95.9999970703126,12|0,0:0|0:0,0:0:0:0:
238,70,125793,5,10,0:0:0:0:
201,282,125943,1,2,0:0:0:0:
189,255,126018,1,2,0:0:0:0:
192,226,126093,1,2,0:0:0:0:
291,140,126243,69,6,0:0:0:0:
255,154,126318,1,8,0:0:0:0:
216,151,126393,1,2,0:0:0:0:
181,134,126468,1,2,0:0:0:0:
157,103,126543,2,0,L|97:114,1,47.9999985351563,2|2,0:0|0:0,0:0:0:0:
275,242,126693,5,8,0:0:0:0:
321,252,126768,1,8,0:0:0:0:
367,263,126843,1,8,0:0:0:0:
413,273,126918,1,8,0:0:0:0:
459,284,126993,6,0,L|447:158,1,95.9999970703126,12|2,0:0|0:0,0:0:0:0:
451,54,127293,1,8,0:0:0:0:
283,156,127443,1,0,0:0:0:0:
353,13,127593,2,0,L|362:108,1,95.9999970703126,2|2,0:0|0:0,0:0:0:0:
184,343,127893,5,8,0:0:0:0:
208,250,128043,1,0,0:0:0:0:
289,299,128193,2,0,P|339:302|383:276,1,95.9999970703126,2|2,0:0|0:0,0:0:0:0:
156,172,128493,2,0,P|105:172|58:208,1,95.9999970703126,8|0,0:0|0:0,0:0:0:0:
53,222,128718,1,0,0:0:0:0:
62,251,128793,70,0,P|74:178|68:93,1,143.999995605469,2|0,0:0|2:0,0:0:0:0:
51,77,129093,1,8,0:0:0:0:
135,261,129243,1,0,0:0:0:0:
267,113,129393,2,0,P|262:65|250:14,1,95.9999970703126,2|2,0:0|0:0,0:0:0:0:
164,93,129693,1,8,0:0:0:0:
248,232,129843,2,0,L|309:246,2,47.9999985351563,0|0|2,0:0|0:0|0:0,0:0:0:0:
405,165,130143,2,0,L|287:140,1,95.9999970703126,2|8,0:0|0:0,0:0:0:0:
321,338,130443,1,0,0:0:0:0:
45,276,130593,6,0,L|144:258,1,95.9999970703126,2|2,0:0|0:0,0:0:0:0:
150,232,130818,1,0,0:0:0:0:
139,205,130893,1,8,0:0:0:0:
291,91,131043,1,2,0:0:0:0:
231,22,131193,1,0,0:0:0:0:
209,50,131268,1,0,0:0:0:0:
200,85,131343,1,2,0:0:0:0:
205,120,131418,1,0,0:0:0:0:
222,152,131493,1,8,0:0:0:0:
392,208,131643,38,0,L|317:196,1,47.9999985351563
261,235,131793,1,4,0:0:0:0:
423,105,131943,1,0,0:0:0:0:
456,306,132093,1,8,0:0:0:0:
224,251,132243,2,0,B|164:256|164:256|121:301|121:301|31:331,1,191.999994140625,6|2,0:0|0:0,0:0:0:0:
76,173,132693,54,0,P|76:198|75:221,1,47.9999985351563,8|0,0:0|0:0,0:0:0:0:
200,384,132843,2,0,P|199:358|201:336,1,47.9999985351563,2|0,0:0|0:0,0:0:0:0:
313,212,132993,37,6,0:0:0:0:
124,58,133143,1,2,0:0:0:0:
224,251,133293,1,8,0:0:0:0:
423,105,133443,2,0,B|430:51|430:51|364:91|364:91|266:93,1,191.999994140625,6|2,0:0|0:0,0:0:0:0:
81,143,133893,54,0,L|164:151,1,47.9999985351563,8|0,0:0|0:0,0:0:0:0:
255,17,134043,2,0,L|172:9,1,47.9999985351563,0|0,0:0|0:0,0:0:0:0:
124,58,134193,37,2,0:0:0:0:
219,194,134343,1,8,0:0:0:0:
229,222,134418,1,8,0:0:0:0:
224,251,134493,1,8,0:0:0:0:
258,104,134643,5,2,0:0:0:0:
140,237,134793,1,8,0:0:0:0:
107,253,134868,1,8,0:0:0:0:
72,252,134943,1,8,0:0:0:0:
41,234,135018,1,8,0:0:0:0:
23,203,135093,1,2,0:0:0:0:
143,141,135243,1,8,0:0:0:0:
267,326,135393,70,0,L|313:315,1,47.9999985351563,8|0,0:0|0:0,0:0:0:0:
375,174,135543,2,0,L|328:184,1,47.9999985351563,8|0,0:0|0:0,0:0:0:0:
432,350,135693,5,2,0:0:0:0:
433,326,135768,1,2,0:0:0:0:
435,302,135843,1,8,0:0:0:0:
437,278,135918,1,8,0:0:0:0:
466,247,135993,69,8,0:0:0:0:
467,223,136068,1,8,0:0:0:0:
469,199,136143,1,2,0:0:0:0:
471,175,136218,1,2,0:0:0:0:
500,144,136293,5,10,0:0:0:0:
501,120,136368,1,2,0:0:0:0:
503,96,136443,1,2,0:0:0:0:
505,72,136518,1,2,0:0:0:0:
475,38,136593,37,12,0:0:0:0:
206,201,136743,1,2,0:0:0:0:
354,42,136893,1,8,0:0:0:0:
303,312,137043,1,2,0:0:0:0:
139,125,137193,5,8,0:0:0:0:
408,178,137343,1,2,0:0:0:0:
211,291,137493,2,0,B|193:246|193:246|206:201,1,95.9999970703126,8|2,0:0|0:0,0:0:0:0:
261,84,137793,69,8,0:0:0:0:
384,272,137943,1,2,0:0:0:0:
143,349,138093,1,8,0:0:0:0:
323,187,138243,1,2,0:0:0:0:
162,72,138393,5,8,0:0:0:0:
376,371,138543,1,2,0:0:0:0:
0,334,138693,1,8,0:0:0:0:
312,167,138843,1,2,0:0:0:0:
143,349,138993,70,0,P|138:323|134:297,1,51.999997619629,8|0,0:0|2:0,0:0:0:0:
2,88,139143,2,0,P|10:141|16:206,1,103.999995239258,12|2,0:0|0:0,0:0:0:0:
283,302,139443,6,0,P|257:303|231:307,1,51.999997619629,8|0,0:0|2:0,0:0:0:0:
1,211,139593,2,0,P|54:205|118:193,1,103.999995239258,12|2,0:0|0:0,0:0:0:0:
293,89,139893,70,0,P|291:122|284:167,1,51.999997619629,8|0,0:0|2:0,0:0:0:0:
448,340,140043,2,0,P|452:290|462:220,1,103.999995239258,12|2,0:0|0:0,0:0:0:0:
512,76,140343,6,0,P|485:74|459:72,1,51.999997619629,8|2,0:0|2:0,0:0:0:0:
197,155,140493,2,0,P|250:157|315:165,1,103.999995239258,12|2,0:0|0:0,0:0:0:0:
113,42,140793,37,0,2:0:0:0:
113,42,140943,1,0,2:0:0:0:
153,355,141393,70,0,L|166:277,1,80,4|2,0:0|0:0,0:0:0:0:
86,131,141693,1,2,0:0:0:0:
216,202,141843,2,0,P|149:192|79:267,1,160,2|2,0:0|0:0,0:0:0:0:
242,329,142293,70,0,B|287:311|287:311|333:321,1,95.9999970703126,12|2,0:0|0:0,0:0:0:0:
366,146,142593,1,2,0:0:0:0:
420,222,142743,2,0,B|375:240|375:240|328:229,1,95.9999970703126,8|2,0:0|0:0,0:0:0:0:
129,67,143043,53,2,0:0:0:0:
140,54,143118,1,2,0:0:0:0:
151,41,143193,2,0,P|153:105|134:186,1,111.999996582031,12|0,0:0|0:0,0:0:0:0:
242,329,143493,2,0,P|240:242|258:149,1,167.999994873047,8|0,0:0|2:0,0:0:0:0:
282,92,143793,5,4,0:0:0:0:
333,311,143943,1,2,0:0:0:0:
145,243,144093,2,0,L|31:259,1,88.000002685547,8|0,0:0|0:0,0:0:0:0:
263,226,144393,1,2,0:0:0:0:
157,334,144543,2,0,P|205:335|247:370,1,88.000002685547,2|8,0:0|0:0,0:0:0:0:
179,145,144843,70,0,P|112:146|36:71,1,176.000005371094,6|2,0:0|0:0,0:0:0:0:
216,33,145293,2,0,L|132:59,1,88.000002685547,8|0,0:0|0:0,0:0:0:0:
212,233,145593,1,2,0:0:0:0:
377,208,145743,2,0,L|292:182,1,88.000002685547,2|8,0:0|0:0,0:0:0:0:
461,157,146043,6,0,B|478:219|478:219|460:265|460:265|477:355,1,176.000005371094,6|2,0:0|0:0,0:0:0:0:
371,116,146493,2,0,P|370:74|388:16,1,88.000002685547,8|0,0:0|0:0,0:0:0:0:
482,52,146793,1,2,0:0:0:0:
293,187,146943,2,0,P|272:143|270:91,1,88.000002685547,2|8,0:0|0:0,0:0:0:0:
482,52,147243,70,0,P|503:96|505:148,1,88.000002685547,6|0,0:0|0:0,0:0:0:0:
409,209,147543,1,2,0:0:0:0:
409,209,147618,1,0,0:0:0:0:
409,209,147693,1,8,0:0:0:0:
495,355,147843,1,0,0:0:0:0:
472,317,147918,1,0,0:0:0:0:
434,296,147993,1,2,0:0:0:0:
390,295,148068,1,0,0:0:0:0:
352,316,148143,1,2,0:0:0:0:
510,226,148293,5,8,0:0:0:0:
413,380,148443,1,0,0:0:0:0:
268,275,148593,2,0,P|224:271|157:261,1,88.000002685547,4|0,0:0|0:0,0:0:0:0:
55,338,148893,2,0,P|99:342|166:352,1,88.000002685547,8|2,0:0|0:0,0:0:0:0:
240,364,149193,69,8,0:0:0:0:
82,191,149343,1,2,0:0:0:0:
266,57,149493,1,8,0:0:0:0:
189,200,149643,6,0,B|205:108|151:129|169:11,1,176.000005371094,8|2,0:0|0:0,0:0:0:0:
65,84,150093,1,2,0:0:0:0:
288,174,150243,2,0,P|333:157|393:154,1,88.000002685547,8|0,0:0|0:0,0:0:0:0:
177,296,150543,1,2,0:0:0:0:
177,296,150618,1,2,0:0:0:0:
177,296,150693,2,0,P|125:279|78:277,1,88.000002685547,8|4,0:0|0:0,0:0:0:0:
64,276,151143,69,2,0:0:0:0:
227,199,151293,1,8,0:0:0:0:
116,384,151443,1,2,0:0:0:0:
65,174,151593,1,8,0:0:0:0:
265,331,151743,6,0,L|379:312,1,88.000002685547,2|8,0:0|0:0,0:0:0:0:
240,68,152043,2,0,L|90:91,1,132.00000402832,2|0,0:0|0:0,0:0:0:0:
74,77,152343,1,2,0:0:0:0:
176,244,152493,1,8,0:0:0:0:
324,88,152643,70,2,B|357:59|357:59|420:42|474:76|486:127,1,191.999994140625,2|0,0:0|0:0,0:0:0:0:
491,150,153018,1,2,0:0:0:0:
487,188,153093,1,8,0:0:0:0:
471,223,153168,1,0,0:0:0:0:
442,249,153243,1,2,0:0:0:0:
404,258,153318,1,0,0:0:0:0:
365,254,153393,37,6,0:0:0:0:
384,16,153543,1,2,0:1:0:0:
192,238,153993,2,0,L|116:226,1,60.0000022888184,8|0,0:1|0:0,0:0:0:0:
204,262,154293,21,2,0:1:0:0:
164,42,154443,2,0,L|88:30,1,60.0000022888184,2|0,0:1|0:0,0:0:0:0:
216,282,154743,69,2,0:1:0:0:
116,130,154893,2,0,L|175:139,1,60.0000022888184,0|0,0:0|0:0,0:0:0:0:
140,336,155193,2,0,P|75:325|-4:313,1,120.000004577637,8|0,0:1|0:0,0:0:0:0:
116,130,155793,69,2,0:1:0:0:
342,206,155943,1,2,0:1:0:0:
342,206,156243,1,2,0:1:0:0:
237,272,156393,2,0,L|227:205,1,60.0000022888184,8|0,0:1|0:0,0:0:0:0:
262,114,156693,21,2,0:1:0:0:
425,309,156843,2,0,L|415:242,1,60.0000022888184,2|0,0:1|0:0,0:0:0:0:
270,94,157143,69,2,0:1:0:0:
332,292,157293,2,0,L|322:225,1,60.0000022888184,2|0,0:1|0:0,0:0:0:0:
444,64,157593,2,0,P|428:100|337:118,1,120.000004577637,8|0,0:1|0:0,0:0:0:0:
366,46,158043,1,0,0:0:0:0:
406,204,158193,69,2,0:1:0:0:
130,238,158343,1,2,0:1:0:0:
130,238,158643,1,2,0:1:0:0:
219,290,158793,2,0,L|278:282,1,60.0000022888184,8|0,0:1|0:0,0:0:0:0:
405,308,159093,21,2,0:1:0:0:
307,198,159243,2,0,L|260:160,1,60.0000022888184,2|0,0:1|0:0,0:0:0:0:
403,337,159543,69,2,0:1:0:0:
385,160,159693,2,0,L|378:97,1,60.0000022888184,2|0,0:1|0:0,0:0:0:0:
495,226,159993,2,0,B|432:215|441:254|364:244,1,120.000004577637,8|0,0:1|0:0,0:0:0:0:
140,296,160593,69,2,0:1:0:0:
175,53,160743,1,2,0:1:0:0:
175,53,161043,1,2,0:1:0:0:
222,167,161193,2,0,L|139:178,1,60.0000022888184,8|0,0:1|0:0,0:0:0:0:
84,145,161493,21,2,0:1:0:0:
303,69,161643,2,0,L|440:52,1,120.000004577637,2|2,0:1|0:1,0:0:0:0:
265,248,162093,2,0,L|145:262,1,120.000004577637,2|8,0:1|0:1,0:0:0:0:
145,262,162543,5,2,0:1:0:0:
336,320,162693,1,8,0:1:0:0:
291,134,162843,1,2,0:1:0:0:
288,148,162918,1,8,0:1:0:0:
285,162,162993,37,6,0:1:0:0:
240,370,163143,1,2,0:1:0:0:
240,370,163443,1,2,0:1:0:0:
336,320,163593,2,0,P|340:290|336:245,1,60.0000022888184,8|0,0:1|0:0,0:0:0:0:
118,200,163893,21,2,0:1:0:0:
219,95,164043,2,0,P|199:152|209:220,1,120.000004577637,2|2,0:1|0:1,0:0:0:0:
125,85,164493,70,0,L|53:68,1,60.0000022888184,2|0,0:1|0:0,0:0:0:0:
283,162,164793,1,8,0:1:0:0:
118,200,164943,2,0,B|73:208|73:208|53:229|53:229|6:239,1,120.000004577637,2|0,0:1|0:0,0:0:0:0:
15,146,165393,69,2,0:1:0:0:
125,350,165543,2,0,P|125:320|119:291,1,60.0000022888184,2|0,0:1|0:0,0:0:0:0:
170,136,165843,21,2,0:1:0:0:
246,276,165993,2,0,P|240:229|260:140,1,120.000004577637,8|2,0:1|0:1,0:0:0:0:
375,197,166443,70,0,L|317:222,1,60.0000022888184,2|0,0:1|0:0,0:0:0:0:
342,117,166743,1,2,0:1:0:0:
455,205,166893,2,0,L|503:239,1,60.0000022888184,2|0,0:1|0:0,0:0:0:0:
429,72,167193,22,0,P|425:102|423:131,1,60.0000022888184,8|2,0:1|0:1,0:0:0:0:
246,276,167493,2,0,P|242:243|236:202,1,60.0000022888184,8|0,0:1|0:0,0:0:0:0:
170,136,167793,37,2,0:1:0:0:
328,336,167943,2,0,L|395:323,1,60.0000022888184,2|0,0:1|0:0,0:0:0:0:
321,148,168243,21,2,0:1:0:0:
136,244,168393,2,0,L|-1:265,1,120.000004577637,8|2,0:1|0:1,0:0:0:0:
239,45,168843,70,0,B|251:72|251:72|249:102,1,60.0000022888184,2|0,0:1|0:0,0:0:0:0:
204,184,169143,1,2,0:1:0:0:
289,307,169293,2,0,B|276:279|276:279|278:249,1,60.0000022888184,2|0,0:1|0:0,0:0:0:0:
333,162,169593,54,0,L|441:144,1,80,8|2,0:1|0:1,0:0:0:0:
176,273,169893,2,0,L|78:264,1,80,8|8,0:1|0:1,0:0:0:0:
66,253,170118,1,8,0:1:0:0:
35,262,170193,53,6,0:0:0:0:
480,184,170643,1,6,0:0:0:0:
13,106,171093,1,6,0:0:0:0:
304,63,171393,54,0,P|288:85|281:111,1,53.3333333333333,2|0,0:1|2:0,0:0:0:0:
283,236,171593,2,0,P|272:211|253:193,1,53.3333333333333,2|0,0:1|2:0,0:0:0:0:
144,130,171793,2,0,P|171:133|196:126,1,53.3333333333333,2|0,0:1|2:0,0:0:0:0:
359,38,171993,22,0,P|328:43|304:63,1,63.9999980468751,10|0,0:1|2:0,0:0:0:0:
276,301,172193,6,0,P|288:268|282:235,1,69.3333301595054,10|0,0:1|2:0,0:0:0:0:
84,91,172393,70,0,P|109:119|145:130,1,74.6666643880209,10|0,0:1|2:0,0:0:0:0:
364,120,172593,21,6,0:0:0:0:
364,120,172893,2,0,B|434:128|434:128|468:153,1,95.9999970703126,8|0,0:0|0:0,0:0:0:0:
207,205,173193,2,0,B|280:212|280:212|328:196|328:196|396:204,1,191.999994140625,0|8,0:0|0:0,0:0:0:0:
238,289,173643,2,0,B|168:281|168:281|147:265,1,95.9999970703126,0|2,0:0|0:0,0:0:0:0:
122,75,173943,5,2,0:0:0:0:
207,205,174093,2,0,P|228:130|178:9,1,191.999994140625,8|0,0:0|0:0,0:0:0:0:
29,159,174543,2,0,P|71:155|123:168,1,95.9999970703126,6|8,0:0|0:0,0:0:0:0:
168,362,174843,2,0,P|121:374|74:370,1,95.9999970703126,4|2,0:0|0:0,0:0:0:0:
74,370,175293,69,8,0:0:0:0:
58,274,175443,1,0,0:0:0:0:
256,373,175593,2,0,L|269:271,1,95.9999970703126,0|2,0:0|0:0,0:0:0:0:
85,174,175893,1,8,0:0:0:0:
163,310,176043,6,0,B|158:246|158:246|175:186|175:186|170:108,1,191.999994140625,0|2,0:0|0:0,0:0:0:0:
170,120,176418,1,0,0:0:0:0:
170,120,176493,1,8,0:0:0:0:
261,173,176643,1,2,0:0:0:0:
383,36,176793,69,0,0:0:0:0:
464,88,176943,2,0,L|352:71,1,95.9999970703126,6|8,0:0|0:0,0:0:0:0:
126,38,177243,2,0,L|220:52,1,95.9999970703126,6|2,0:0|0:0,0:0:0:0:
220,52,177693,5,8,0:0:0:0:
286,238,177843,1,0,0:0:0:0:
311,146,177993,2,0,P|264:146|222:168,1,95.9999970703126,0|2,0:0|0:0,0:0:0:0:
179,256,178293,1,8,0:0:0:0:
274,341,178443,2,0,P|358:303|380:213,1,191.999994140625,0|0,0:0|0:0,0:0:0:0:
124,176,178893,70,0,L|16:188,1,95.9999970703126,8|2,0:0|0:0,0:0:0:0:
192,96,179193,1,0,0:0:0:0:
286,238,179343,2,0,B|295:192|295:192|278:145,1,95.9999970703126,2|8,0:0|0:0,0:0:0:0:
182,264,179643,1,0,0:0:0:0:
173,310,179718,1,0,0:0:0:0:
189,356,179793,5,12,0:0:0:0:
382,281,179943,2,0,L|481:297,1,95.9999970703126,2|2,0:0|0:0,0:0:0:0:
182,264,180243,69,8,0:0:0:0:
388,175,180393,2,0,L|487:191,1,95.9999970703126,2|2,0:0|0:0,0:0:0:0:
174,171,180693,5,8,0:0:0:0:
394,69,180843,1,0,0:0:0:0:
286,238,180993,1,8,0:0:0:0:
166,78,181143,69,2,0:0:0:0:
168,63,181218,1,2,0:0:0:0:
170,48,181293,1,2,0:0:0:0:
388,175,181443,1,8,0:0:0:0:
386,190,181518,1,8,0:0:0:0:
384,205,181593,1,2,0:0:0:0:
382,220,181668,1,2,0:0:0:0:
380,235,181743,1,2,0:0:0:0:
154,338,181893,6,0,L|164:277,1,60.0000022888184,8|8,0:0|0:0,0:0:0:0:
295,178,182043,2,0,L|285:239,1,60.0000022888184,8|8,0:0|0:0,0:0:0:0:
65,297,182193,6,0,L|54:198,2,80,6|0|2,0:0|0:0|0:0,0:0:0:0:
65,297,182643,1,0,0:0:0:0:
171,124,182793,53,2,0:0:0:0:
85,109,182943,1,2,0:0:0:0:
188,37,183093,1,0,0:0:0:0:
98,23,183243,1,2,0:0:0:0:
171,124,183393,22,0,L|164:220,1,80
208,275,183693,1,2,0:0:0:0:
287,242,183843,1,0,0:0:0:0:
393,327,183993,2,0,B|431:314|431:314|480:325,1,80,8|0,0:0|0:0,0:0:0:0:
503,229,184293,2,0,B|465:242|465:242|416:231,1,80,2|0,0:0|0:0,0:0:0:0:
330,166,184593,54,0,P|340:92|341:-1,1,160,2|0,0:0|0:0,0:0:0:0:
263,34,185043,1,2,0:0:0:0:
263,34,185193,2,0,P|287:70|328:86,1,80,0|0,0:0|0:0,0:0:0:0:
409,159,185493,2,0,L|329:165,1,80,2|0,0:0|0:0,0:0:0:0:
199,159,185793,21,0,0:0:0:0:
187,241,185943,2,0,P|226:239|259:217,1,80,2|0,0:0|0:0,0:0:0:0:
199,159,186243,1,0,0:0:0:0:
115,185,186393,21,8,0:0:0:0:
246,316,186543,1,2,0:0:0:0:
280,134,186693,1,8,0:0:0:0:
149,3,186843,1,2,0:0:0:0:
115,185,186993,22,0,L|27:177,2,80,6|0|2,0:0|0:0|0:0,0:0:0:0:
115,185,187443,1,0,0:0:0:0:
251,264,187593,21,2,0:0:0:0:
262,345,187743,1,2,0:0:0:0:
332,251,187893,1,2,0:0:0:0:
345,334,188043,1,2,0:0:0:0:
251,264,188193,54,0,L|266:155,1,80,2|0,0:0|0:0,0:0:0:0:
216,115,188493,1,2,0:0:0:0:
302,0,188643,2,0,L|291:79,1,80,0|8,0:0|0:0,0:0:0:0:
336,149,188943,1,0,0:0:0:0:
473,91,189093,22,0,B|433:98|433:98|392:88,1,80,2|0,0:0|0:0,0:0:0:0:
115,199,189393,2,0,B|195:185|195:185|277:205,1,160,2|0,0:0|0:0,0:0:0:0:
349,233,189843,1,2,0:0:0:0:
336,149,189993,54,0,L|330:56,1,80,8|0,0:0|0:0,0:0:0:0:
286,285,190293,2,0,L|291:364,1,80,8|0,0:0|0:0,0:0:0:0:
349,233,190593,21,2,0:0:0:0:
205,329,190743,2,0,B|125:312|146:375|42:354,1,160,2|8,0:0|0:0,0:0:0:0:
52,355,191118,1,8,0:0:0:0:
52,355,191193,21,8,0:0:0:0:
205,174,191343,1,0,0:0:0:0:
63,65,191493,5,0,0:0:0:0:
147,282,191643,1,0,0:0:0:0:
358,205,191793,37,6,0:0:0:0:
90,178,192093,1,0,2:1:0:0:
90,178,192243,1,2,2:1:0:0:
147,282,192393,2,0,L|244:267,1,80,0|0,2:1|2:1,2:1:0:0:
258,74,192693,2,0,L|178:86,1,80,2|2,2:1|2:1,2:1:0:0:
225,293,192993,6,0,B|276:284|276:284|326:304|326:304|414:289,1,160,8|0,0:0|2:1,2:1:0:0:
460,253,193443,1,0,2:1:0:0:
345,135,193593,2,0,L|336:215,1,80,0|2,2:1|2:1,2:1:0:0:
437,94,193893,2,0,L|422:1,1,80,0|0,2:1|2:1,2:1:0:0:
252,168,194193,70,0,B|197:172|149:126|149:126|140:165|115:175,1,160,2|0,1:0|2:1,2:1:0:0:
173,241,194643,1,2,2:1:0:0:
66,109,194793,6,0,P|53:71|56:31,1,80,0|2,2:1|2:1,2:1:0:0:
221,9,195093,2,0,P|233:46|230:86,1,80,2|2,2:1|2:1,2:1:0:0:
57,286,195393,2,0,P|54:246|67:209,1,80,8|0,0:0|2:1,2:1:0:0:
233,227,195693,2,0,P|235:266|223:304,1,80,2|0,2:1|2:1,2:1:0:0:
159,161,195993,5,8,0:0:0:0:
191,137,196068,1,8,0:0:0:0:
229,128,196143,1,8,0:0:0:0:
269,134,196218,1,0,0:0:0:0:
303,155,196293,1,8,0:0:0:0:
329,184,196368,1,8,0:0:0:0:
364,203,196443,1,8,0:0:0:0:
403,205,196518,1,8,0:0:0:0:
438,187,196593,5,8,0:0:0:0:
384,113,196743,1,2,0:0:0:0:
470,18,196893,2,0,P|469:68|477:118,1,88.000002685547,12|2,0:0|0:0,0:0:0:0:
329,367,197193,2,0,P|329:316|322:267,1,88.000002685547,12|2,0:0|0:0,0:0:0:0:
242,330,197493,69,8,0:0:0:0:
415,314,197643,1,2,0:0:0:0:
242,330,197793,2,0,L|138:323,1,88.000002685547,8|2,0:0|0:0,0:0:0:0:
75,164,198093,2,0,P|117:115|208:135,1,132.00000402832,12|0,0:0|2:0,0:0:0:0:
208,138,198393,2,0,P|204:187|199:238,1,88.000002685547,12|2,0:0|0:0,0:0:0:0:
407,107,198693,2,0,P|410:57|416:7,1,88.000002685547,8|2,0:0|0:0,0:0:0:0:
414,19,198918,1,2,0:0:0:0:
414,19,198993,5,12,0:0:0:0:
377,261,199143,1,2,0:0:0:0:
491,215,199293,1,8,0:0:0:0:
300,65,199443,1,6,0:0:0:0:
281,186,199593,1,8,0:0:0:0:
510,94,199743,1,2,0:0:0:0:
421,23,199893,1,12,0:0:0:0:
377,261,200043,1,2,0:0:0:0:
491,215,200193,69,12,0:0:0:0:
494,197,200268,1,8,0:0:0:0:
498,179,200343,1,2,0:0:0:0:
399,144,200493,1,2,0:0:0:0:
284,328,200643,6,0,L|173:316,1,88.000002685547,6|2,0:0|0:0,0:0:0:0:
256,192,200943,1,2,0:0:0:0:
228,56,201093,2,0,L|339:68,1,88.000002685547,6|0,0:0|0:0,0:0:0:0:
256,192,201393,38,0,B|132:168|158:272|18:241,1,240.000009155274,4|0,0:0|0:0,0:0:0:0:
168,344,202293,69,2,0:0:0:0:
256,332,202593,1,0,0:0:0:0:
344,320,202893,1,0,0:0:0:0:
456,124,203193,6,0,L|468:4,1,120.000004577637,2|0,0:0|0:0,0:0:0:0:
400,224,203793,1,0,0:0:0:0:
496,236,204093,2,0,P|484:180|320:168,1,240.000009155274,2|0,0:0|0:0,0:0:0:0:
128,324,204993,69,2,0:0:0:0:
112,140,205293,1,0,0:0:0:0:
120,232,205593,1,0,0:0:0:0:
388,348,205893,5,2,0:0:0:0:
409,101,206193,1,0,0:0:0:0:
399,225,206493,1,0,0:0:0:0:
120,232,206803,54,0,L|12:216,1,95.9999970703126,6|0,0:1|0:0,0:0:0:0:
212,172,207103,2,0,B|228:240|228:240|208:292|208:292|228:368,1,191.999994140625,10|0,0:0|0:0,0:0:0:0:
120,124,207553,2,0,P|128:77|140:0,1,95.9999970703126,4|10,0:0|0:0,0:0:0:0:
324,200,207853,2,0,P|315:246|304:324,1,95.9999970703126,4|2,0:0|0:0,0:0:0:0:
307,294,208153,1,0,0:0:0:0:
248,132,208303,6,0,P|288:80|416:104,1,191.999994140625,10|2,0:0|0:0,0:0:0:0:
488,280,208753,2,0,B|443:263|443:263|395:264,1,95.9999970703126,4|10,0:0|0:0,0:0:0:0:
412,172,209053,2,0,B|456:188|456:188|504:187,1,95.9999970703126,4|2,0:0|0:0,0:0:0:0:
428,348,209353,1,0,0:0:0:0:
324,208,209503,70,0,B|252:220|252:220|220:256|220:256|140:268,1,191.999994140625,10|2,0:0|0:0,0:0:0:0:
162,80,209953,2,0,L|176:176,1,95.9999970703126,4|10,0:0|0:0,0:0:0:0:
292,344,210253,1,12,0:0:0:0:
295,320,210328,1,8,0:0:0:0:
299,296,210403,5,12,0:0:0:0:
97,143,210553,1,2,0:0:0:0:
425,220,210703,1,2,0:0:0:0:
244,44,210853,2,0,L|260:187,1,143.999995605469,8|0,0:0|2:0,0:0:0:0:
216,260,211153,69,2,0:0:0:0:
456,112,211303,2,0,P|404:68|328:96,1,143.999995605469,12|0,0:0|2:0,0:0:0:0:
260,187,211603,53,8,0:0:0:0:
423,343,211753,1,2,0:0:0:0:
244,44,211903,1,8,0:0:0:0:
130,359,212053,1,8,0:0:0:0:
104,336,212503,5,8,0:0:0:0:
448,192,212653,1,2,0:0:0:0:
88,80,212803,1,8,0:0:0:0:
288,276,212953,1,8,0:0:0:0:
304,256,213253,69,0,0:0:0:0:
308,228,213328,1,0,0:0:0:0:
312,200,213403,1,2,0:0:0:0:
408,288,213553,2,0,B|348:268|292:296|268:348|268:348|232:316|184:332,1,240.000009155274,8|0,0:0|0:0,0:0:0:0:
16,240,214003,5,6,0:0:0:0:
40,256,214078,2,0,P|104:256|168:212,1,103.999995239258,0|0,0:0|2:0,0:0:0:0:
160,216,214303,1,0,0:0:0:0:
168,56,214453,5,2,0:0:0:0:
160,72,214528,1,2,0:0:0:0:
152,88,214603,2,0,P|164:152|168:216,1,103.999995239258,8|2,0:0|2:1,0:0:0:0:
240,264,214828,2,0,P|250:213|255:161,1,103.999995239258,0|0,0:0|2:0,0:0:0:0:
319,71,215053,69,2,0:0:0:0:
347,87,215128,2,0,B|395:67|395:67|447:83,1,103.999995239258,0|0,0:0|2:0,0:0:0:0:
467,59,215353,1,2,0:0:0:0:
391,259,215503,5,0,0:0:0:0:
391,259,215578,2,0,P|403:203|399:147,1,103.999995239258,0|2,0:0|2:1,0:0:0:0:
322,163,215803,2,0,P|327:189|323:215,1,51.999997619629,8|0,0:0|2:0,0:0:0:0:
247,187,215953,1,0,0:0:0:0:
247,187,216028,1,0,0:0:0:0:
247,187,216103,70,0,L|183:195,1,51.999997619629,6|0,0:0|2:0,0:0:0:0:
40,235,216253,2,0,L|168:251,1,103.999995239258,2|0,0:0|2:0,0:0:0:0:
213,48,216553,1,2,0:0:0:0:
181,28,216628,1,2,0:0:0:0:
145,32,216703,1,8,0:0:0:0:
154,163,216853,2,0,L|160:112,1,51.999997619629,2|0,0:0|2:0,0:0:0:0:
81,88,217003,5,0,0:0:0:0:
240,152,217153,2,0,L|360:132,1,103.999995239258,6|0,0:0|0:0,0:0:0:0:
144,248,217453,2,0,L|137:299,1,51.999997619629,8|0,0:0|0:0,0:0:0:0:
208,344,217603,53,6,0:0:0:0:
160,112,217753,1,8,0:0:0:0:
160,112,217828,1,0,0:0:0:0:
160,112,217903,1,6,0:0:0:0:
60,324,218053,1,2,0:0:0:0:
88,300,218128,1,0,0:0:0:0:
100,264,218203,1,0,0:0:0:0:
92,228,218278,1,0,0:0:0:0:
68,200,218353,1,2,0:0:0:0:
172,340,218503,5,8,0:0:0:0:
204,324,218578,1,0,0:0:0:0:
240,322,218653,1,2,0:0:0:0:
274,334,218728,1,0,0:0:0:0:
302,356,218803,1,0,0:0:0:0:
335,369,218878,1,0,0:0:0:0:
371,367,218953,1,2,0:0:0:0:
402,349,219028,1,0,0:0:0:0:
420,317,219103,5,0,0:0:0:0:
417,294,219178,1,0,0:0:0:0:
414,271,219253,1,2,0:0:0:0:
411,248,219328,1,0,0:0:0:0:
429,213,219403,53,0,0:0:0:0:
426,190,219478,1,0,0:0:0:0:
423,167,219553,1,2,0:0:0:0:
420,144,219628,1,2,0:0:0:0:
439,109,219703,6,0,L|433:43,1,51.999997619629,8|0,0:0|0:0,0:0:0:0:
281,173,219853,2,0,L|341:200,1,51.999997619629,2|0,0:0|0:0,0:0:0:0:
309,53,220003,5,6,0:0:0:0:
266,46,220078,1,0,0:0:0:0:
235,74,220153,1,0,0:0:0:0:
204,102,220228,1,0,0:0:0:0:
161,95,220303,1,0,0:0:0:0:
38,234,220453,1,2,0:0:0:0:
32,224,220528,1,2,0:0:0:0:
26,212,220603,2,0,B|64:208|64:208|88:222|88:222|160:216,1,103.999995239258,8|2,0:0|0:0,0:0:0:0:
280,316,220903,1,0,0:0:0:0:
211,191,221053,54,0,B|215:252|215:252|193:284|193:284|197:354,1,155.999992858887,6|0,0:0|2:0,0:0:0:0:
198,367,221353,1,2,0:0:0:0:
419,302,221503,6,0,L|434:197,1,103.999995239258,12|2,0:0|0:0,0:0:0:0:
356,132,221728,1,2,0:0:0:0:
359,155,221803,2,0,L|342:272,1,103.999995239258,12|2,0:0|0:0,0:0:0:0:
99,354,222103,70,0,L|74:147,1,192,12|0,0:0|2:0,0:0:0:0:
53,136,222403,21,6,0:0:0:0:
210,230,222553,1,0,0:0:0:0:
348,108,222703,1,8,0:0:0:0:
191,14,222853,1,0,0:0:0:0:
471,324,223153,5,8,0:0:0:0:
323,205,223303,1,2,0:0:0:0:
297,379,223453,1,2,0:0:0:0:
68,110,223753,69,8,0:0:0:0:
113,248,223903,1,2,0:0:0:0:
208,138,224053,1,2,0:0:0:0:
131,167,224203,5,8,0:0:0:0:
300,276,224353,1,2,0:0:0:0:
446,141,224503,2,0,P|415:79|298:82,1,192,2|0,0:0|2:0,0:0:0:0:
280,105,224803,5,10,0:0:0:0:
204,346,224953,1,2,0:0:0:0:
199,62,225253,5,10,0:0:0:0:
266,283,225403,1,10,0:0:0:0:
106,75,225703,69,10,0:0:0:0:
275,201,225853,1,10,0:0:0:0:
299,182,226153,22,0,L|410:167,1,95.9999970703126,12|2,0:0|0:0,0:0:0:0:
180,336,226453,2,0,P|157:294|158:246,1,95.9999970703126,12|2,0:0|0:0,0:0:0:0:
276,52,226753,2,0,P|311:112|298:181,1,143.999995605469,12|0,0:0|2:0,0:0:0:0:
275,201,227053,21,8,0:0:0:0:
185,31,227203,1,0,0:0:0:0:
389,67,227353,1,2,0:0:0:0:
220,128,227503,2,0,P|129:113|83:32,1,191.999994140625,8|2,0:0|0:0,0:0:0:0:
0,193,227953,6,0,B|121:149|108:256|237:211,1,240,12|2,0:0|2:0,0:0:0:0:
387,72,229153,21,0,0:0:0:0:
304,57,229303,1,0,0:0:0:0:
334,134,229453,1,4,0:0:0:0:
246,304,233053,85,2,0:0:0:0:
251,318,233953,1,2,0:0:0:0:
256,332,234853,38,0,L|268:224,1,80,4|0,0:0|0:0,0:0:0:0:
232,24,235153,2,0,L|212:208,1,160,10|2,0:0|0:0,0:0:0:0:
340,296,235603,2,0,P|376:288|432:296,1,80,4|10,0:0|0:0,0:0:0:0:
160,260,235903,2,0,P|124:268|68:260,1,80,4|2,0:0|0:0,0:0:0:0:
81,264,236203,1,0,0:0:0:0:
128,62,236353,6,0,P|204:98|214:182,1,176.000005371094,10|2,0:0|0:0,0:0:0:0:
318,54,236803,2,0,L|232:73,1,88.000002685547,4|10,0:0|0:0,0:0:0:0:
119,240,237103,2,0,L|131:152,1,88.000002685547,4|2,0:0|0:0,0:0:0:0:
111,32,237403,1,0,0:0:0:0:
252,200,237553,70,0,B|327:188|327:188|363:160|363:160|452:148,1,191.999994140625,10|2,0:0|0:0,0:0:0:0:
340,368,238003,2,0,B|348:320|348:320|320:256,1,95.9999970703126,4|10,0:0|0:0,0:0:0:0:
455,242,238303,2,0,L|408:240,1,47.9999985351563,12|8,0:0|0:0,0:0:0:0:
260,332,238453,5,4,0:0:0:0:
200,88,238603,1,2,0:0:0:0:
432,152,238753,1,2,0:0:0:0:
176,296,238903,69,12,0:0:0:0:
260,20,239053,1,2,0:0:0:0:
455,242,239203,1,2,0:0:0:0:
239,188,239353,6,0,P|290:189|336:174,1,95.9999970703126,12|0,0:0|0:0,0:0:0:0:
359,156,239578,1,0,0:0:0:0:
391,160,239653,37,12,0:0:0:0:
74,260,239803,1,2,0:0:0:0:
388,304,239953,1,8,0:0:0:0:
92,128,240103,54,0,L|112:312,1,143.999995605469,8|0,0:0|2:0,0:0:0:0:
76,352,240403,1,2,2:1:0:0:
76,352,240478,1,2,2:1:0:0:
76,352,240553,21,12,0:0:0:0:
396,124,240703,1,2,0:0:0:0:
12,188,240853,1,8,0:0:0:0:
388,304,241003,54,0,L|404:136,1,143.999995605469,8|0,0:0|2:0,0:0:0:0:
444,88,241303,1,2,0:0:0:0:
444,88,241378,1,2,0:0:0:0:
444,88,241453,21,2,0:0:0:0:
484,336,241603,1,8,0:0:0:0:
454,324,241678,1,0,0:0:0:0:
422,319,241753,1,0,0:0:0:0:
391,323,241828,1,0,0:0:0:0:
361,334,241903,1,0,0:0:0:0:
335,352,241978,1,0,0:0:0:0:
314,376,242053,5,12,0:0:0:0:
112,320,242203,1,2,0:0:0:0:
292,187,242353,1,8,0:0:0:0:
216,356,242503,1,2,0:0:0:0:
84,192,242653,69,8,0:0:0:0:
356,124,242803,1,2,0:0:0:0:
156,12,242953,1,8,0:0:0:0:
179,250,243103,2,0,L|253:244,1,47.9999985351563,2|2,0:0|0:0,0:0:0:0:
423,222,243253,5,12,0:0:0:0:
74,96,243403,2,0,L|84:192,1,95.9999970703126,12|0,0:0|0:0,0:0:0:0:
356,124,243703,1,8,0:0:0:0:
351,76,243778,1,8,0:0:0:0:
347,29,243853,1,12,0:0:0:0:
72,288,244003,70,0,B|267:214|240:396|444:332,1,384,4|0,0:0|0:0,0:0:0:0:
435,334,245353,54,2,P|341:343|254:304,1,192,4|0,0:3|0:1,0:1:0:0:
173,326,245653,21,4,0:0:0:0:
150,43,245803,1,4,0:0:0:0:
175,347,245953,1,4,0:0:0:0:
52,127,246253,54,0,P|80:131|113:135,1,60.0000022888184
39,210,246553,2,0,P|68:212|98:217,1,60.0000022888184,2|0,0:0|0:0,0:0:0:0:
213,107,246853,5,0,0:0:0:0:
175,188,247003,1,0,0:0:0:0:
240,247,247153,1,2,0:0:0:0:
318,205,247303,1,0,0:0:0:0:
300,117,247453,1,0,0:0:0:0:
240,247,247603,2,0,P|237:280|233:307,1,60.0000022888184,0|2,0:0|0:0,0:0:0:0:
419,354,247903,22,0,P|423:298|430:242,1,111.999996582031,4|0,0:0|2:0,0:0:0:0:
321,33,248203,1,4,0:0:0:0:
470,155,248353,2,0,P|394:150|331:243,1,167.999994873047,4|0,0:0|0:0,0:0:0:0:
281,274,248653,37,0,0:0:0:0:
193,263,248803,1,0,0:0:0:0:
272,285,248953,5,2,0:0:0:0:
184,274,249103,1,0,0:0:0:0:
96,263,249253,69,0,0:0:0:0:
74,82,249403,1,0,0:0:0:0:
255,60,249553,1,2,0:0:0:0:
277,241,249703,1,0,0:0:0:0:
176,157,249853,21,2,0:0:0:0:
396,242,250003,2,0,B|322:255|322:255|283:291|283:291|180:311,1,207.999990478516,8|0,0:0|0:0,0:0:0:0:
370,339,250453,5,4,0:0:0:0:
402,40,250603,1,4,0:0:0:0:
367,362,250753,1,4,0:0:0:0:
488,153,251053,54,0,P|458:159|428:162,1,60.0000022888184
431,251,251353,1,2,0:0:0:0:
510,239,251503,1,2,0:0:0:0:
350,209,251653,37,8,0:0:0:0:
218,339,251803,1,2,0:0:0:0:
251,333,251878,1,2,0:0:0:0:
283,342,251953,1,2,0:0:0:0:
171,194,252103,1,8,0:0:0:0:
303,64,252253,1,2,0:0:0:0:
270,70,252328,1,2,0:0:0:0:
238,61,252403,1,2,0:0:0:0:
263,228,252553,6,0,P|322:186|442:211,1,180.000006866455,8|0,0:0|2:0,0:0:0:0:
453,222,252853,37,12,0:0:0:0:
192,138,253003,1,8,0:0:0:0:
361,277,253153,1,8,0:0:0:0:
235,37,253303,1,8,0:0:0:0:
365,375,253453,5,8,0:0:0:0:
452,113,253603,1,8,0:0:0:0:
157,320,253753,1,8,0:0:0:0:
85,38,253903,1,8,0:0:0:0:
453,258,254053,69,4,0:0:0:0:
54,150,254203,2,0,P|113:149|165:120,1,120.000004577637,2|2,0:0|0:0,0:0:0:0:
429,281,254503,2,0,P|350:265|257:343,1,180.000006866455,12|0,0:0|2:0,0:0:0:0:
255,347,254803,1,2,0:0:0:0:
182,94,254953,2,0,P|261:110|354:32,1,180.000006866455,4|2,0:0|2:0,0:0:0:0:
358,29,255253,21,12,0:0:0:0:
220,239,255403,1,2,0:0:0:0:
446,183,255553,2,0,L|324:170,1,103.999995239258,8|0,0:0|0:0,0:0:0:0:
342,171,255778,1,0,0:0:0:0:
342,171,255853,1,2,0:0:0:0:
253,348,256003,1,2,0:0:0:0:
48,296,256153,2,0,B|108:290|108:290|141:262|141:262|202:255,1,155.999992858887,8|0,0:0|2:0,0:0:0:0:
220,239,256453,6,0,P|218:189|210:120,1,103.999995239258,2|2,0:0|0:0,0:0:0:0:
389,28,256753,2,0,P|389:78|396:155,1,103.999995239258,8|0,0:0|0:0,0:0:0:0:
123,89,257053,2,0,P|182:41|274:58,1,155.999992858887,2|0,0:0|2:0,0:0:0:0:
285,69,257353,1,8,0:0:0:0:
122,197,257503,1,0,0:0:0:0:
297,249,257653,70,0,P|253:275|201:279,1,103.999995239258,2|2,0:0|0:0,0:0:0:0:
211,135,257953,1,8,0:0:0:0:
352,324,258103,2,0,P|330:259|377:166,1,155.999992858887,0|0,0:0|2:0,0:0:0:0:
384,156,258403,1,2,0:0:0:0:
201,279,258553,2,0,P|242:308|263:355,1,103.999995239258,8|0,0:0|0:0,0:0:0:0:
423,256,258853,5,2,0:0:0:0:
174,367,259003,2,0,L|65:355,1,103.999995239258,2|8,0:0|0:0,0:0:0:0:
204,121,259303,69,0,0:0:0:0:
219,154,259378,1,0,0:0:0:0:
216,190,259453,1,2,0:0:0:0:
111,171,259603,1,2,0:0:0:0:
42,259,259753,1,8,0:0:0:0:
15,230,259828,1,0,0:0:0:0:
1,194,259903,1,0,0:0:0:0:
1,155,259978,1,0,0:0:0:0:
13,119,260053,5,6,0:0:0:0:
149,277,260203,1,2,0:0:0:0:
324,188,260353,2,0,P|328:139|330:67,1,103.999995239258,8|0,0:0|0:0,0:0:0:0:
431,146,260653,69,2,0:0:0:0:
225,132,260803,1,2,0:0:0:0:
441,175,260953,2,0,P|437:224|435:296,1,103.999995239258,8|0,0:0|0:0,0:0:0:0:
159,309,261253,5,2,0:0:0:0:
329,84,261403,1,2,0:0:0:0:
138,207,261553,1,8,0:0:0:0:
350,186,261703,1,0,0:0:0:0:
347,201,261778,1,0,0:0:0:0:
344,216,261853,69,2,0:0:0:0:
115,94,262003,1,2,0:0:0:0:
255,279,262153,1,8,0:0:0:0:
206,22,262303,1,0,0:0:0:0:
147,298,262453,22,0,P|151:247|139:197,1,103.999995239258,6|2,0:0|0:0,0:0:0:0:
322,62,262753,2,0,P|314:127|406:181,1,155.999992858887,8|0,0:0|2:0,0:0:0:0:
414,182,263053,5,2,0:0:0:0:
243,207,263203,2,0,L|103:193,1,103.999995239258,2|8,0:0|0:0,0:0:0:0:
394,100,263503,1,0,0:0:0:0:
261,321,263653,69,10,0:0:0:0:
290,295,263728,1,10,0:0:0:0:
327,284,263803,1,2,0:0:0:0:
365,288,263878,1,2,0:0:0:0:
399,307,263953,1,2,0:0:0:0:
165,290,264103,6,0,L|177:379,1,51.999997619629,10|8,0:0|0:0,0:0:0:0:
176,373,264253,1,8,0:0:0:0:
279,185,264403,69,10,0:0:0:0:
242,211,264478,1,2,0:0:0:0:
197,211,264553,1,2,0:0:0:0:
154,196,264628,1,2,0:0:0:0:
123,163,264703,1,2,0:0:0:0:
112,119,264778,1,2,0:0:0:0:
122,74,264853,21,6,0:0:0:0:
255,302,265003,1,2,0:0:0:0:
12,167,265153,1,8,0:0:0:0:
212,118,265303,2,0,L|332:94,1,103.999995239258,0|2,0:0|0:0,0:0:0:0:
482,251,265603,2,0,P|416:177|322:206,1,207.999990478516,2|0,0:0|0:0,0:0:0:0:
400,365,266053,6,0,B|383:320|383:320|395:265,1,103.999995239258,2|2,0:0|0:0,0:0:0:0:
313,97,266353,1,8,0:0:0:0:
236,303,266503,2,0,B|248:248|248:248|232:204,1,103.999995239258,0|2,0:0|0:0,0:0:0:0:
420,81,266803,1,2,0:0:0:0:
409,132,266878,1,0,0:0:0:0:
425,181,266953,1,8,0:0:0:0:
503,127,267103,1,0,0:0:0:0:
325,189,267253,70,0,L|214:175,1,103.999995239258,2|2,0:0|0:0,0:0:0:0:
34,318,267553,2,0,P|86:267|182:290,1,155.999992858887,8|0,0:0|2:0,0:0:0:0:
189,296,267853,1,2,0:0:0:0:
337,77,268003,1,2,0:0:0:0:
144,113,268153,1,8,0:0:0:0:
376,259,268303,1,0,0:0:0:0:
84,186,268453,5,2,0:0:0:0:
350,59,268603,1,2,0:0:0:0:
312,348,268753,1,8,0:0:0:0:
229,148,268903,69,2,0:0:0:0:
263,164,268978,1,0,0:0:0:0:
302,160,269053,1,0,0:0:0:0:
127,269,269203,1,2,0:0:0:0:
361,276,269353,1,12,0:0:0:0:
324,262,269428,1,0,0:0:0:0:
286,265,269503,1,0,0:0:0:0:
253,284,269578,1,0,0:0:0:0:
231,316,269653,5,2,0:0:0:0:
436,363,269803,1,2,0:0:0:0:
368,174,269953,2,0,P|374:127|364:58,1,103.999995239258,8|0,0:0|0:0,0:0:0:0:
491,64,270253,1,2,0:0:0:0:
255,128,270403,70,0,L|142:112,1,103.999995239258,2|8,0:0|0:0,0:0:0:0:
268,228,270703,1,0,0:0:0:0:
22,280,270853,2,0,L|196:301,1,155.999992858887,2|0,0:0|2:0,0:0:0:0:
202,318,271153,1,8,0:0:0:0:
80,75,271303,5,0,0:0:0:0:
67,114,271378,1,0,0:0:0:0:
79,153,271453,1,2,0:0:0:0:
286,56,271603,1,2,0:0:0:0:
152,113,271753,70,0,L|233:106,1,51.999997619629,8|0,0:0|0:0,0:0:0:0:
416,87,271903,2,0,L|335:94,1,51.999997619629,0|0,0:0|0:0,0:0:0:0:
286,56,272053,6,0,B|278:126|278:126|302:169|302:169|294:228,1,180.000006866455,12|0,0:0|2:0,0:0:0:0:
298,259,272353,1,2,0:0:0:0:
104,368,272503,2,0,P|84:321|102:242,1,120.000004577637,8|2,0:0|0:0,0:0:0:0:
191,157,272803,1,2,0:0:0:0:
429,366,272953,2,0,P|466:303|427:193,1,180.000006866455,12|0,0:0|2:0,0:0:0:0:
376,158,273253,69,8,0:0:0:0:
328,151,273328,1,0,0:0:0:0:
283,169,273403,1,2,0:0:0:0:
255,208,273478,1,2,0:0:0:0:
240,253,273553,1,2,0:0:0:0:
208,288,273628,1,2,0:0:0:0:
161,301,273703,1,6,0:0:0:0:
114,288,273778,1,0,0:0:0:0:
82,251,273853,1,2,0:0:0:0:
80,203,273928,1,2,0:0:0:0:
101,159,274003,1,2,0:0:0:0:
145,139,274078,1,2,0:0:0:0:
192,145,274153,5,8,0:0:0:0:
190,130,274228,1,8,0:0:0:0:
189,115,274303,1,8,0:0:0:0:
188,100,274378,1,8,0:0:0:0:
187,85,274453,5,6,0:0:0:0:
366,251,274603,1,0,0:0:0:0:
164,219,274753,2,0,L|25:242,1,103.999995239258,8|0,0:0|0:0,0:0:0:0:
240,351,275053,1,2,0:0:0:0:
292,129,275203,2,0,L|425:105,1,103.999995239258,2|8,0:0|0:0,0:0:0:0:
282,241,275503,5,0,0:0:0:0:
282,241,275578,1,0,0:0:0:0:
282,241,275653,1,2,0:0:0:0:
191,59,275803,1,2,0:0:0:0:
368,203,275953,2,0,P|376:265|283:339,1,155.999992858887,8|0,0:0|2:0,0:0:0:0:
282,337,276253,2,0,P|213:326|157:334,1,103.999995239258,2|2,0:0|0:0,0:0:0:0:
71,131,276553,1,8,0:0:0:0:
51,255,276703,70,0,B|126:255|186:184|186:184|213:208|216:240,1,207.999990478516,2|2,0:0|0:0,0:0:0:0:
422,280,277153,1,8,0:0:0:0:
317,317,277303,1,0,0:0:0:0:
306,276,277378,1,0,0:0:0:0:
321,237,277453,1,2,0:0:0:0:
473,151,277603,1,2,0:0:0:0:
359,37,277753,6,0,P|364:89|368:141,1,103.999995239258,8|0,0:0|0:0,0:0:0:0:
137,312,278053,2,0,P|132:260|128:208,1,103.999995239258,2|2,0:0|0:0,0:0:0:0:
220,30,278353,1,8,0:0:0:0:
55,96,278503,2,0,B|159:73|143:156|262:130,1,207.999990478516,0|2,0:0|0:0,0:0:0:0:
443,211,278953,1,8,0:0:0:0:
255,283,279103,2,0,L|267:196,1,51.999997619629,0|0,0:0|0:0,0:0:0:0:
380,25,279253,37,12,0:0:0:0:
364,322,279403,1,2,0:0:0:0:
161,98,279553,5,8,0:0:0:0:
360,302,279703,1,2,0:0:0:0:
389,4,279853,69,8,0:0:0:0:
356,280,280003,1,2,0:0:0:0:
145,81,280153,5,8,0:0:0:0:
354,260,280303,1,2,0:0:0:0:
350,238,280378,1,0,0:0:0:0:
348,218,280453,69,12,0:0:0:0:
69,290,280603,1,2,0:0:0:0:
364,329,280753,5,8,0:0:0:0:
94,288,280903,1,2,0:0:0:0:
430,196,281053,69,8,0:0:0:0:
120,286,281203,1,2,0:0:0:0:
445,347,281353,5,8,0:0:0:0:
146,284,281503,1,2,0:0:0:0:
172,282,281578,1,0,0:0:0:0:
198,280,281653,5,12,0:0:0:0:
427,109,281803,2,0,L|292:94,1,103.999995239258,2|8,0:0|0:0,0:0:0:0:
194,168,282103,1,2,0:0:0:0:
471,260,282253,2,0,B|403:267|403:267|351:325|351:325|289:331,1,207.999990478516,8|8,0:0|0:0,0:0:0:0:
306,187,282703,2,0,L|313:238,1,51.999997619629,2|0,0:0|0:0,0:0:0:0:
445,347,282853,5,12,0:0:0:0:
448,143,283003,1,8,0:0:0:0:
445,125,283078,1,0,0:0:0:0:
443,108,283153,1,2,0:0:0:0:
440,90,283228,1,0,0:0:0:0:
438,73,283303,1,8,0:0:0:0:
435,55,283378,1,8,0:0:0:0:
431,37,283453,69,10,0:0:0:0:
378,20,283528,1,8,0:0:0:0:
322,32,283603,1,10,0:0:0:0:
280,69,283678,1,8,0:0:0:0:
261,123,283753,1,2,0:0:0:0:
271,178,283828,1,2,0:0:0:0:
307,222,283903,1,2,0:0:0:0:
359,242,283978,1,2,0:0:0:0:
413,239,284053,53,12,0:0:0:0:
98,144,284203,1,2,0:0:0:0:
303,34,284353,1,8,0:0:0:0:
208,349,284503,1,2,0:0:0:0:
177,46,284653,5,8,0:0:0:0:
332,335,284803,1,2,0:0:0:0:
110,268,284953,1,8,0:0:0:0:
399,113,285103,1,2,0:0:0:0:
198,371,285253,69,8,0:0:0:0:
313,12,285403,1,2,0:0:0:0:
87,277,285553,5,8,0:0:0:0:
423,105,285703,1,2,0:0:0:0:
76,134,285853,69,8,0:0:0:0:
435,249,286003,1,2,0:0:0:0:
169,23,286153,5,8,0:0:0:0:
341,359,286303,1,2,0:0:0:0:
338,23,286453,70,0,P|331:56|328:98,1,60.0000022888184,8|0,0:0|2:0,0:0:0:0:
463,166,286603,2,0,B|405:151|405:151|346:187,1,120.000004577637,12|2,0:0|0:0,0:0:0:0:
174,361,286903,6,0,P|181:328|184:286,1,60.0000022888184,8|0,0:0|2:0,0:0:0:0:
49,218,287053,2,0,B|107:233|107:233|166:197,1,120.000004577637,12|2,0:0|0:0,0:0:0:0:
174,23,287353,70,0,P|181:56|184:98,1,60.0000022888184,8|0,0:0|2:0,0:0:0:0:
338,361,287503,2,0,P|331:328|328:286,1,60.0000022888184,12|0,0:0|2:0,0:0:0:0:
256,192,287653,1,2,0:0:0:0:
476,128,287803,6,0,P|439:123|400:112,1,60.0000022888184,8|0,0:0|2:0,0:0:0:0:
36,256,287953,2,0,P|97:262|154:276,1,120.000004577637,12|0,0:0|0:0,0:0:0:0:
428,359,288253,37,2,2:1:0:0:
428,359,288403,1,2,2:1:0:0:
112,226,288853,70,0,L|117:316,1,80,4|2,0:0|0:0,0:0:0:0:
107,139,289153,1,2,0:0:0:0:
268,343,289303,2,0,L|280:151,1,160,2|2,0:0|0:0,0:0:0:0:
103,52,289753,70,0,B|151:63|151:63|198:45,1,95.9999970703126,12|2,0:0|0:0,0:0:0:0:
188,194,290053,1,2,0:0:0:0:
319,115,290203,2,0,B|271:104|271:104|224:122,1,95.9999970703126,8|2,0:0|0:0,0:0:0:0:
371,326,290503,53,8,0:0:0:0:
381,318,290578,1,8,0:0:0:0:
390,311,290653,2,0,P|404:266|397:183,1,111.999996582031,12|2,0:0|0:0,0:0:0:0:
107,185,290953,2,0,P|100:268|124:348,1,167.999994873047,4|2,0:0|2:0,0:0:0:0:
152,365,291253,21,4,0:0:0:0:
278,137,291403,1,0,0:0:0:0:
38,25,291553,1,2,0:0:0:0:
30,107,291853,1,2,0:0:0:0:
22,189,292153,1,2,0:0:0:0:
197,108,292303,6,0,L|92:125,1,88.000002685547,6|0,0:0|0:0,0:0:0:0:
13,272,292603,2,0,L|118:255,1,88.000002685547,2|2,0:0|0:0,0:0:0:0:
182,273,293053,1,2,0:0:0:0:
264,288,293353,1,2,0:0:0:0:
167,383,293503,70,0,P|174:339|167:296,1,88.000002685547,6|0,0:0|0:0,0:0:0:0:
292,92,293803,2,0,P|284:135|291:178,1,88.000002685547,2|2,0:0|0:0,0:0:0:0:
435,260,294253,1,2,0:0:0:0:
512,130,294553,1,2,0:0:0:0:
372,205,294703,6,0,P|315:207|268:299,1,132.00000402832,6|0,0:0|2:0,0:0:0:0:
261,290,295003,1,2,0:0:0:0:
451,336,295153,2,0,P|462:294|453:252,1,88.000002685547,2|2,0:0|0:0,0:0:0:0:
312,352,295453,37,2,0:0:0:0:
283,365,295528,1,0,0:0:0:0:
253,371,295603,1,0,0:0:0:0:
223,361,295678,1,0,0:0:0:0:
199,341,295753,1,2,0:0:0:0:
176,320,295828,1,0,0:0:0:0:
146,311,295903,1,0,0:0:0:0:
116,317,295978,1,0,0:0:0:0:
87,330,296053,21,6,0:0:0:0:
214,241,296203,1,0,0:0:0:0:
49,143,296353,2,0,P|62:208|57:248,1,88.000002685547,2|0,0:0|0:0,0:0:0:0:
176,320,296653,2,0,P|202:267|317:272,1,176.000005371094,2|2,0:0|0:0,0:0:0:0:
442,167,297103,6,0,L|341:188,1,88.000002685547,6|0,0:0|0:0,0:0:0:0:
470,89,297403,1,0,0:0:0:0:
281,42,297553,2,0,P|292:84|292:128,1,88.000002685547,2|0,0:0|0:0,0:0:0:0:
258,328,297853,69,2,0:0:0:0:
205,154,298003,1,0,0:0:0:0:
384,199,298153,1,2,0:0:0:0:
245,310,298303,6,0,L|158:327,1,88.000002685547,6|2,0:0|0:0,0:0:0:0:
226,196,298603,1,2,0:0:0:0:
1,195,298753,2,0,B|43:207|43:207|76:230|76:230|148:248,1,132.00000402832,2|0,0:0|2:0,0:0:0:0:
150,230,299053,70,0,B|144:189|144:189|152:143,1,88.000002685547,2|2,0:0|0:0,0:0:0:0:
59,36,299353,1,2,0:0:0:0:
1,195,299503,2,0,B|7:236|7:236|0:282,1,88.000002685547,6|0,0:0|0:0,0:0:0:0:
67,127,299803,5,2,0:0:0:0:
314,189,299953,2,0,L|227:196,1,88.000002685547,4|0,0:0|0:0,0:0:0:0:
150,333,300253,38,0,L|158:273,1,47.9999985351563,8|0,0:0|0:0,0:0:0:0:
140,71,300403,2,0,L|149:118,1,47.9999985351563,2|0,0:0|0:0,0:0:0:0:
226,196,300553,1,2,0:0:0:0:
226,196,300628,1,0,0:0:0:0:
226,196,300703,2,0,B|296:190|296:190|341:220|341:220|434:212,1,191.999994140625,6|2,0:0|0:0,0:0:0:0:
474,72,301153,6,0,L|357:60,1,95.9999970703126,8|0,0:0|0:0,0:0:0:0:
502,185,301453,1,2,0:0:0:0:
395,318,301603,2,0,L|488:296,1,95.9999970703126,2|8,0:0|0:0,0:0:0:0:
328,199,301903,70,0,B|225:181|250:259|139:239,1,191.999994140625,6|2,0:0|0:0,0:0:0:0:
167,49,302353,2,0,P|183:93|178:140,1,95.9999970703126,8|0,0:0|0:0,0:0:0:0:
3,191,302653,1,2,0:0:0:0:
74,362,302803,2,0,P|57:317|62:270,1,95.9999970703126,2|8,0:0|0:0,0:0:0:0:
294,290,303103,6,0,P|236:219|147:240,1,191.999994140625,6|2,0:0|0:0,0:0:0:0:
264,380,303553,2,0,P|311:370|358:363,1,95.9999970703126,8|0,0:0|0:0,0:0:0:0:
436,165,303853,1,2,0:0:0:0:
471,276,304003,2,0,P|423:268|376:259,1,95.9999970703126,2|8,0:0|0:0,0:0:0:0:
194,17,304303,70,0,B|252:25|252:25|299:74|299:74|374:86,1,191.999994140625,6|2,0:0|0:0,0:0:0:0:
395,72,304678,1,2,0:0:0:0:
427,78,304753,1,8,0:0:0:0:
445,291,304903,1,0,0:0:0:0:
412,301,304978,1,0,0:0:0:0:
379,294,305053,1,2,0:0:0:0:
241,141,305203,5,2,0:0:0:0:
407,218,305353,1,8,0:0:0:0:
365,195,305428,1,0,0:0:0:0:
317,198,305503,1,0,0:0:0:0:
278,224,305578,1,0,0:0:0:0:
259,268,305653,70,0,P|265:315|265:363,1,95.9999970703126,6|0,0:0|0:0,0:0:0:0:
55,378,305953,2,0,P|48:330|48:282,1,95.9999970703126,8|2,0:0|0:0,0:0:0:0:
148,129,306253,1,8,0:0:0:0:
158,321,306403,2,0,L|152:199,1,95.9999970703126,2|8,0:0|0:0,0:0:0:0:
90,26,306703,6,0,P|128:85|261:79,1,191.999994140625,8|2,0:0|0:0,0:0:0:0:
286,244,307153,1,2,0:0:0:0:
421,120,307303,2,0,P|374:116|335:143,1,95.9999970703126,10|0,0:0|0:0,0:0:0:0:
374,307,307603,1,2,0:0:0:0:
420,310,307678,1,2,0:0:0:0:
459,283,307753,1,8,0:0:0:0:
190,188,307903,70,0,B|91:170|123:247|9:226,1,191.999994140625,6|2,0:0|0:0,0:0:0:0:
332,38,308353,1,8,0:0:0:0:
253,303,308503,1,2,0:0:0:0:
253,303,308578,1,0,0:0:0:0:
253,303,308653,1,8,0:0:0:0:
200,64,308803,1,2,0:0:0:0:
377,282,308953,1,8,0:0:0:0:
280,124,309103,6,0,P|291:170|294:218,1,95.9999970703126,2|0,0:0|0:0,0:0:0:0:
180,185,309403,1,2,0:0:0:0:
397,149,309553,1,8,0:0:0:0:
222,250,309703,69,2,0:0:0:0:
182,266,309778,1,0,0:0:0:0:
140,255,309853,1,0,0:0:0:0:
107,226,309928,1,0,0:0:0:0:
98,183,310003,1,2,0:0:0:0:
115,143,310078,1,2,0:0:0:0:
135,104,310153,1,8,0:0:0:0:
118,64,310228,1,2,0:0:0:0:
76,51,310303,1,2,0:0:0:0:
37,71,310378,1,2,0:0:0:0:
31,113,310453,5,6,0:0:0:0:
256,192,310528,12,4,315253,0:0:0:0:
