osu file format v14

[General]
AudioFilename: marina - Towa yori Towa ni.mp3
AudioLeadIn: 0
PreviewTime: 95671
Countdown: 0
SampleSet: Normal
StackLeniency: 0.3
Mode: 0
LetterboxInBreaks: 0
EpilepsyWarning: 1
WidescreenStoryboard: 1

[Editor]
Bookmarks: 106246,115846,126346
DistanceSpacing: 0.7
BeatDivisor: 4
GridSize: 32
TimelineZoom: 2.98

[Metadata]
Title:Towa yori Towa ni
TitleUnicode:永久より永遠に
Artist:marina
ArtistUnicode:marina
Creator:lit120
Version:Lasse's Extra
Source:少女神域∽少女天獄 -The Garden of Fifth Zoa-
Tags:shoujo shiniki tengoku eikyuu yori eien ni lass ed ending visual novel eroge -Hakurei- DavidEd dilectus akitoshi corinn -laura- blizs fantastica snownino_ battle lasse kibbleru
BeatmapID:1349686
BeatmapSetID:457621

[Difficulty]
HPDrainRate:6
CircleSize:4
OverallDifficulty:8.7
ApproachRate:9.4
SliderMultiplier:1.86
SliderTickRate:1

[Events]
//Background and Video events
0,0,"lasse.jpg",0,0
//Break Periods
//Storyboard Layer 0 (Background)
//Storyboard Layer 1 (Fail)
//Storyboard Layer 2 (Pass)
//Storyboard Layer 3 (Foreground)
Sprite,Foreground,Centre,"lasse.jpg",320,240 M,0,142246,,320,240 S,0,142246,,0.65 F,0,152177,,1
Sprite,Foreground,Centre,"SB\lyrics\txt-Ee.png",320,240 M,0,17896,,220,112 F,0,17896,,1 S,0,17896,,0.8 C,0,18196,,140,9,0 F,0,21496,21796,1,0 S,0,21496,21796,0.8,2
Sprite,Foreground,Centre,"SB\lyrics\txt-Ee.png",320,240 F,0,17596,17896,0,1 S,0,17596,17896,2,0.8 F,0,17896,18196,1,0 S,0,17896,18196,0.8,2 C,0,18196,,140,9,0 M,0,19096,,220,112
Sprite,Foreground,Centre,"SB\lyrics\txt-x.png",320,240 M,0,17896,,270,112 F,0,17896,,1 S,0,17896,,0.8 C,0,18196,,140,9,0 F,0,21496,21796,1,0 S,0,21496,21796,0.8,2
Sprite,Foreground,Centre,"SB\lyrics\txt-x.png",320,240 F,0,17596,17896,0,1 S,0,17596,17896,2,0.8 F,0,17896,18196,1,0 S,0,17896,18196,0.8,2 C,0,18196,,140,9,0 M,0,19096,,270,112
Sprite,Foreground,Centre,"SB\lyrics\txt-t.png",320,240 M,0,17896,,320,112 F,0,17896,,1 S,0,17896,,0.8 C,0,18196,,140,9,0 F,0,21496,21796,1,0 S,0,21496,21796,0.8,2
Sprite,Foreground,Centre,"SB\lyrics\txt-t.png",320,240 F,0,17596,17896,0,1 S,0,17596,17896,2,0.8 F,0,17896,18196,1,0 S,0,17896,18196,0.8,2 C,0,18196,,140,9,0 M,0,19096,,320,112
Sprite,Foreground,Centre,"SB\lyrics\txt-r.png",320,240 M,0,17896,,370,112 F,0,17896,,1 S,0,17896,,0.8 C,0,18196,,140,9,0 F,0,21496,21796,1,0 S,0,21496,21796,0.8,2
Sprite,Foreground,Centre,"SB\lyrics\txt-r.png",320,240 F,0,17596,17896,0,1 S,0,17596,17896,2,0.8 F,0,17896,18196,1,0 S,0,17896,18196,0.8,2 C,0,18196,,140,9,0 M,0,19096,,370,112
Sprite,Foreground,Centre,"SB\lyrics\txt-a.png",320,240 M,0,17896,,420,112 F,0,17896,,1 S,0,17896,,0.8 C,0,18196,,140,9,0 F,0,21496,21796,1,0 S,0,21496,21796,0.8,2
Sprite,Foreground,Centre,"SB\lyrics\txt-a.png",320,240 F,0,17596,17896,0,1 S,0,17596,17896,2,0.8 F,0,17896,18196,1,0 S,0,17896,18196,0.8,2 C,0,18196,,140,9,0 M,0,19096,,420,112
Sprite,Foreground,Centre,"SB\lyrics\txt-Ll.png",320,240 C,0,19996,,140,9,0 F,0,19996,20296,0,1 S,2,19996,20296,2.5,1.1 S,0,20296,20596,1.1,1 M,0,20596,20746,320,352,200,352 F,0,21496,21796,1,0
Sprite,Foreground,Centre,"SB\lyrics\txt-a.png",320,240 C,0,19996,,140,9,0 M,0,20596,20746,320,352,260,352 F,0,20596,20746,0,1 F,0,21496,21796,1,0 S,0,21496,21796,1,2
Sprite,Foreground,Centre,"SB\lyrics\txt-s.png",320,240 C,0,19996,,140,9,0 M,0,20596,,320,352 F,0,20596,20746,0,1 F,0,21496,21796,1,0 S,0,21496,21796,1,2
Sprite,Foreground,Centre,"SB\lyrics\txt-s.png",320,240 C,0,19996,,140,9,0 M,0,20596,20746,320,352,380,352 F,0,20596,20746,0,1 F,0,21496,21796,1,0 S,0,21496,21796,1,2
Sprite,Foreground,Centre,"SB\lyrics\txt-e.png",320,240 C,0,19996,,140,9,0 M,0,20596,20746,320,352,440,352 F,0,20596,20746,0,1 F,0,21496,21796,1,0 S,0,21496,21796,1,2
Sprite,Foreground,Centre,"SB\background\highlight.png",315,118 C,0,21046,,255,192,225 F,2,21046,21346,1,0 S,2,21046,21346,1,0.2 P,0,21046,21346,A
Sprite,Foreground,Centre,"SB\background\highlight.png",286,129 C,0,21121,,255,192,225 F,2,21121,21421,1,0 S,2,21121,21421,1,0.2 P,0,21121,21421,A
Sprite,Foreground,Centre,"SB\background\highlight.png",255,130 C,0,21196,,255,192,225 F,2,21196,21496,1,0 S,2,21196,21496,1,0.2 P,0,21196,21496,A
Sprite,Foreground,Centre,"SB\background\highlight.png",228,116 C,0,21271,,255,192,225 F,2,21271,21571,1,0 S,2,21271,21571,1,0.2 P,0,21271,21571,A
Sprite,Foreground,Centre,"SB\background\highlight.png",202,100 C,0,21346,,255,192,225 F,2,21346,21646,1,0 S,2,21346,21646,1,0.2 P,0,21346,21646,A
Sprite,Foreground,Centre,"SB\background\highlight.png",172,93 C,0,21421,,255,192,225 F,2,21421,21721,1,0 S,2,21421,21721,1,0.2 P,0,21421,21721,A
Sprite,Foreground,Centre,"SB\background\highlight.png",0,0 C,0,21496,,255,210,170 M,0,21496,21514,139,96,138.2813,107.6027 F,2,21496,22096,1,0 S,2,21496,22096,1,0.2 P,0,21496,22096,A M,0,21514,21533,138.2813,107.6027,137.4909,119.2007 M,0,21533,21552,137.4909,119.2007,136.639,130.7943 M,0,21552,21571,136.639,130.7943,135.6891,142.3803 M,0,21571,21589,135.6891,142.3803,134.6846,153.9618 M,0,21589,21608,134.6846,153.9618,133.5755,165.5336 M,0,21608,21627,133.5755,165.5336,132.3949,177.0984 M,0,21627,21646,132.3949,177.0984,131.1502,188.6564 M,0,21646,21664,131.1502,188.6564,129.8107,200.2039 M,0,21664,21683,129.8107,200.2039,128.4139,211.7446 M,0,21683,21702,128.4139,211.7446,126.9158,223.2726 M,0,21702,21721,126.9158,223.2726,125.3464,234.791 M,0,21721,21739,125.3464,234.791,123.7104,246.3002 M,0,21739,21758,123.7104,246.3002,121.9828,257.796 M,0,21758,21777,121.9828,257.796,120.1954,269.2826 M,0,21777,21796,120.1954,269.2826,118.3098,280.7536
Sprite,Foreground,Centre,"SB\background\highlight.png",0,0 C,0,21946,,255,210,170 M,0,21946,21964,351,178,351.5918,166.3905 F,2,21946,22396,1,0 S,2,21946,22396,1,0.2 P,0,21946,22396,A M,0,21964,21983,351.5918,166.3905,352.3505,154.7909 M,0,21983,22002,352.3505,154.7909,353.2528,143.2017 M,0,22002,22021,353.2528,143.2017,354.3823,131.6322 M,0,22021,22039,354.3823,131.6322,355.6397,120.0758 M,0,22039,22058,355.6397,120.0758,357.1391,108.5484 M,0,22058,22077,357.1391,108.5484,358.804,97.04388 M,0,22077,22096,358.804,97.04388,360.6181,85.56207
Sprite,Foreground,Centre,"SB\background\highlight.png",236,250 C,0,22246,,255,210,170 F,2,22246,22546,1,0 S,2,22246,22546,1,0.2 P,0,22246,22546,A
Sprite,Foreground,Centre,"SB\background\highlight.png",130,174 C,0,22396,,255,210,170 F,2,22396,22696,1,0 S,2,22396,22696,1,0.2 P,0,22396,22696,A
Sprite,Foreground,Centre,"SB\background\highlight.png",241,119 C,0,22546,,255,210,170 F,2,22546,22846,1,0 S,2,22546,22846,1,0.2 P,0,22546,22846,A
Sprite,Foreground,Centre,"SB\background\highlight.png",0,0 C,0,22696,,255,180,180 M,0,22696,22714,347,207,358.406,209.2276 F,2,22696,23296,1,0 S,2,22696,23296,1,0.2 P,0,22696,23296,A M,0,22714,22733,358.406,209.2276,369.5456,212.53 M,0,22733,22752,369.5456,212.53,380.193,217.1711 M,0,22752,22771,380.193,217.1711,390.0111,223.37 M,0,22771,22789,390.0111,223.37,398.657,231.1198 M,0,22789,22808,398.657,231.1198,406.0255,240.0994 M,0,22808,22827,406.0255,240.0994,412.4012,249.8165 M,0,22827,22846,412.4012,249.8165,418.3492,259.8044 M,0,22846,22864,418.3492,259.8044,424.5063,269.6634 M,0,22864,22883,424.5063,269.6634,431.4269,278.9969 M,0,22883,22902,431.4269,278.9969,439.4395,287.406 M,0,22902,22921,439.4395,287.406,448.5741,294.5789 M,0,22921,22939,448.5741,294.5789,458.6248,300.4023 M,0,22939,22958,458.6248,300.4023,469.3081,304.969 M,0,22958,22977,469.3081,304.969,480.3929,308.4582 M,0,22977,22996,480.3929,308.4582,491.7229,311.0486
Sprite,Foreground,Centre,"SB\background\highlight.png",0,0 C,0,23146,,255,180,180 M,0,23146,23164,576,95,566.9229,102.2427 F,2,23146,23596,1,0 S,2,23146,23596,1,0.2 P,0,23146,23596,A M,0,23164,23183,566.9229,102.2427,557.3285,108.777 M,0,23183,23202,557.3285,108.777,547.3049,114.624 M,0,23202,23221,547.3049,114.624,536.7476,119.4514 M,0,23221,23239,536.7476,119.4514,525.8961,123.5711 M,0,23239,23258,525.8961,123.5711,514.6761,126.5537 M,0,23258,23277,514.6761,126.5537,503.2913,128.8332 M,0,23277,23296,503.2913,128.8332,491.7286,129.8857
Sprite,Foreground,Centre,"SB\background\highlight.png",328,77 C,0,23446,,255,180,180 F,2,23446,23746,1,0 S,2,23446,23746,1,0.2 P,0,23446,23746,A
Sprite,Foreground,Centre,"SB\background\highlight.png",405,131 C,0,23596,,255,180,180 F,2,23596,23896,1,0 S,2,23596,23896,1,0.2 P,0,23596,23896,A
Sprite,Foreground,Centre,"SB\background\highlight.png",241,119 C,0,23746,,255,180,180 F,2,23746,24046,1,0 S,2,23746,24046,1,0.2 P,0,23746,24046,A
Sprite,Foreground,Centre,"SB\background\highlight.png",0,0 C,0,23896,,255,234,160 M,0,23896,23914,311,262,312.1984,250.4369 F,2,23896,24496,1,0 S,2,23896,24496,1,0.2 P,0,23896,24496,A M,0,23914,23933,312.1984,250.4369,313.374,238.8716 M,0,23933,23952,313.374,238.8716,314.5302,227.3042 M,0,23952,23971,314.5302,227.3042,315.6551,215.7338 M,0,23971,23989,315.6551,215.7338,316.7628,204.1617 M,0,23989,24008,316.7628,204.1617,317.8374,192.5864 M,0,24008,24027,317.8374,192.5864,318.8892,181.0091 M,0,24027,24046,318.8892,181.0091,319.9203,169.43 M,0,24046,24064,319.9203,169.43,320.9214,157.8482 M,0,24064,24083,320.9214,157.8482,321.904,146.2648 M,0,24083,24102,321.904,146.2648,322.8548,134.6787 M,0,24102,24121,322.8548,134.6787,323.7885,123.0913 M,0,24121,24139,323.7885,123.0913,324.6888,111.5012 M,0,24139,24158,324.6888,111.5012,325.5659,99.90937 M,0,24158,24177,325.5659,99.90937,326.4231,88.31604 M,0,24177,24196,326.4231,88.31604,327.2498,76.72048
Sprite,Foreground,Centre,"SB\background\highlight.png",169,170 C,0,24346,,255,234,160 F,2,24346,24646,1,0 S,2,24346,24646,1,0.2 P,0,24346,24646,A
Sprite,Foreground,Centre,"SB\background\highlight.png",230,235 C,0,24496,,255,234,160 F,2,24496,24796,1,0 S,2,24496,24796,1,0.2 P,0,24496,24796,A
Sprite,Foreground,Centre,"SB\background\highlight.png",241,119 C,0,24646,,255,234,160 F,2,24646,24946,1,0 S,2,24646,24946,1,0.2 P,0,24646,24946,A
Sprite,Foreground,Centre,"SB\background\highlight.png",90,165 C,0,24796,,255,234,160 F,2,24796,25096,1,0 S,2,24796,25096,1,0.2 P,0,24796,25096,A
Sprite,Foreground,Centre,"SB\background\highlight.png",230,235 C,0,24946,,255,234,160 F,2,24946,25246,1,0 S,2,24946,25246,1,0.2 P,0,24946,25246,A
Sprite,Foreground,Centre,"SB\background\highlight.png",0,0 C,0,25096,,255,192,225 M,0,25096,25114,114,59,112.6747,70.54921 F,2,25096,25696,1,0 S,2,25096,25696,1,0.2 P,0,25096,25696,A M,0,25114,25133,112.6747,70.54921,111.3494,82.09841 M,0,25133,25152,111.3494,82.09841,110.024,93.64761 M,0,25152,25171,110.024,93.64761,108.6987,105.1968 M,0,25171,25189,108.6987,105.1968,107.3734,116.746 M,0,25189,25208,107.3734,116.746,108.9206,128.1258 M,0,25208,25227,108.9206,128.1258,111.5947,139.439 M,0,25227,25246,111.5947,139.439,114.2687,150.7523 M,0,25246,25264,114.2687,150.7523,116.9428,162.0656 M,0,25264,25283,116.9428,162.0656,119.6168,173.3789 M,0,25283,25302,119.6168,173.3789,118.2442,184.8032 M,0,25302,25321,118.2442,184.8032,116.1947,196.2461 M,0,25321,25339,116.1947,196.2461,114.1452,207.689 M,0,25339,25358,114.1452,207.689,112.0958,219.1319 M,0,25358,25377,112.0958,219.1319,110.0463,230.5748 M,0,25377,25396,110.0463,230.5748,108,242
Sprite,Foreground,Centre,"SB\background\highlight.png",108,242 C,0,25471,,255,192,225 F,2,25471,25771,1,0 S,2,25471,25771,1,0.2 P,0,25471,25771,A
Sprite,Foreground,Centre,"SB\background\highlight.png",108,242 C,0,25546,,255,192,225 F,2,25546,25846,1,0 S,2,25546,25846,1,0.2 P,0,25546,25846,A
Sprite,Foreground,Centre,"SB\background\highlight.png",286,356 C,0,25696,,255,210,170 F,2,25696,25996,1,0 S,2,25696,25996,1,0.2 P,0,25696,25996,A
Sprite,Foreground,Centre,"SB\background\highlight.png",286,356 C,0,25771,,255,210,170 F,2,25771,26071,1,0 S,2,25771,26071,1,0.2 P,0,25771,26071,A
Sprite,Foreground,Centre,"SB\background\highlight.png",0,0 C,0,25846,,255,210,170 M,0,25846,25864,286,356,274.8419,359.2616 F,2,25846,26221,1,0 S,2,25846,26221,1,0.2 P,0,25846,26221,A M,0,25864,25883,274.8419,359.2616,263.6838,362.5232 M,0,25883,25902,263.6838,362.5232,252.5258,365.7848 M,0,25902,25921,252.5258,365.7848,241.3677,369.0464
Sprite,Foreground,Centre,"SB\background\highlight.png",0,0 C,0,25996,,255,210,170 M,0,25996,26014,120,364,131.1581,367.2616 F,2,25996,26371,1,0 S,2,25996,26371,1,0.2 P,0,25996,26371,A M,0,26014,26033,131.1581,367.2616,142.3161,370.5232 M,0,26033,26052,142.3161,370.5232,153.4742,373.7848 M,0,26052,26071,153.4742,373.7848,164.6323,377.0464
Sprite,Foreground,Centre,"SB\background\highlight.png",0,0 C,0,26146,,255,180,180 M,0,26146,26164,326,385,314.8419,381.7384 F,2,26146,26521,1,0 S,2,26146,26521,1,0.2 P,0,26146,26521,A M,0,26164,26183,314.8419,381.7384,303.6838,378.4768 M,0,26183,26202,303.6838,378.4768,292.5258,375.2152 M,0,26202,26221,292.5258,375.2152,281.3677,371.9536
Sprite,Foreground,Centre,"SB\background\highlight.png",0,0 C,0,26296,,255,180,180 M,0,26296,26314,80,393,91.15807,389.7384 F,2,26296,26671,1,0 S,2,26296,26671,1,0.2 P,0,26296,26671,A M,0,26314,26333,91.15807,389.7384,102.3161,386.4768 M,0,26333,26352,102.3161,386.4768,113.4742,383.2152 M,0,26352,26371,113.4742,383.2152,124.6323,379.9536
Sprite,Foreground,Centre,"SB\background\highlight.png",0,0 C,0,26446,,255,234,160 M,0,26446,26464,262,242,273.3425,239.4685 F,2,26446,26971,1,0 S,2,26446,26971,1,0.2 P,0,26446,26971,A M,0,26464,26483,273.3425,239.4685,284.8738,238.0495 M,0,26483,26502,284.8738,238.0495,296.4853,238.2061 M,0,26502,26521,296.4853,238.2061,307.8956,240.3404 M,0,26521,26539,307.8956,240.3404,318.7975,244.3473 M,0,26539,26558,318.7975,244.3473,329.3178,249.2923 M,0,26558,26577,329.3178,249.2923,339.9921,253.8864 M,0,26577,26596,339.9921,253.8864,351.1514,257.1026 M,0,26596,26614,351.1514,257.1026,362.6712,258.573 M,0,26614,26633,362.6712,258.573,374.2881,258.4712 M,0,26633,26652,374.2881,258.4712,385.834,257.1559 M,0,26652,26671,385.834,257.1559,397,255
Sprite,Foreground,Centre,"SB\background\highlight.png",0,0 C,0,26746,,255,234,160 M,0,26746,26764,485,293,486.7125,281.5018 F,2,26746,27196,1,0 S,2,26746,27196,1,0.2 P,0,26746,27196,A M,0,26764,26783,486.7125,281.5018,488.425,270.0037 M,0,26783,26802,488.425,270.0037,490.1375,258.5055 M,0,26802,26821,490.1375,258.5055,491.85,247.0073 M,0,26821,26839,491.85,247.0073,493.5625,235.5091 M,0,26839,26858,493.5625,235.5091,495.275,224.011 M,0,26858,26877,495.275,224.011,496.9875,212.5128 M,0,26877,26896,496.9875,212.5128,498.7,201.0146
Sprite,Foreground,Centre,"SB\background\highlight.png",386,72 C,0,27046,,255,234,160 F,2,27046,27346,1,0 S,2,27046,27346,1,0.2 P,0,27046,27346,A
Sprite,Foreground,Centre,"SB\background\highlight.png",359,153 C,0,27196,,255,234,160 F,2,27196,27496,1,0 S,2,27196,27496,1,0.2 P,0,27196,27496,A
Sprite,Foreground,Centre,"SB\background\highlight.png",442,136 C,0,27346,,255,234,160 F,2,27346,27646,1,0 S,2,27346,27646,1,0.2 P,0,27346,27646,A
Sprite,Foreground,Centre,"SB\background\highlight.png",0,0 C,0,27496,,255,192,225 M,0,27496,27514,206,98,217.4069,95.95941 F,2,27496,28096,1,0 S,2,27496,28096,1,0.2 P,0,27496,28096,A M,0,27514,27533,217.4069,95.95941,228.9689,95.42148 M,0,27533,27552,228.9689,95.42148,240.5013,96.27142 M,0,27552,27571,240.5013,96.27142,251.7311,99.08362 M,0,27571,27589,251.7311,99.08362,262.5683,103.1448 M,0,27589,27608,262.5683,103.1448,272.5162,109.0707 M,0,27608,27627,272.5162,109.0707,281.7836,116.022 M,0,27627,27646,281.7836,116.022,289.6077,124.5621 M,0,27646,27664,289.6077,124.5621,296.5549,133.8498 M,0,27664,27683,296.5549,133.8498,301.5922,144.2835 M,0,27683,27702,301.5922,144.2835,305.2247,155.2724 M,0,27702,27721,305.2247,155.2724,307.4752,166.6113 M,0,27721,27739,307.4752,166.6113,307.7922,178.1824 M,0,27739,27758,307.7922,178.1824,306.7636,189.705 M,0,27758,27777,306.7636,189.705,303.737,200.8803 M,0,27777,27796,303.737,200.8803,299.5064,211.6587
Sprite,Foreground,Centre,"SB\background\highlight.png",224,229 C,0,27946,,255,192,225 F,2,27946,28246,1,0 S,2,27946,28246,1,0.2 P,0,27946,28246,A
Sprite,Foreground,Centre,"SB\background\highlight.png",0,0 C,0,28096,,255,192,225 M,0,28096,28114,465,306,453.6187,303.8236 F,2,28096,28696,1,0 S,2,28096,28696,1,0.2 P,0,28096,28696,A M,0,28114,28133,453.6187,303.8236,442.0642,303.1581 M,0,28133,28152,442.0642,303.1581,430.5216,303.869 M,0,28152,28171,430.5216,303.869,419.2662,306.5759 M,0,28171,28189,419.2662,306.5759,408.3793,310.5118 M,0,28189,28208,408.3793,310.5118,398.3857,316.3613 M,0,28208,28227,398.3857,316.3613,389.0354,323.2124 M,0,28227,28246,389.0354,323.2124,381.1591,331.7065 M,0,28246,28264,381.1591,331.7065,374.4706,341.1499 M,0,28264,28283,374.4706,341.1499,369.0219,351.3423 M,0,28283,28302,369.0219,351.3423,365.3513,362.319 M,0,28302,28321,365.3513,362.319,362.9902,373.6425 M,0,28321,28339,362.9902,373.6425,362.6526,385.2145 M,0,28339,28358,362.6526,385.2145,363.5762,396.7574 M,0,28358,28377,363.5762,396.7574,366.6024,407.9356 M,0,28377,28396,366.6024,407.9356,370.7447,418.7662
Sprite,Foreground,Centre,"SB\background\highlight.png",371,419 C,0,28471,,255,192,225 F,2,28471,28771,1,0 S,2,28471,28771,1,0.2 P,0,28471,28771,A
Sprite,Foreground,Centre,"SB\background\highlight.png",371,419 C,0,28546,,255,192,225 F,2,28546,28846,1,0 S,2,28546,28846,1,0.2 P,0,28546,28846,A
Sprite,Foreground,Centre,"SB\background\highlight.png",0,0 C,0,28696,,255,210,170 M,0,28696,28714,576,329,575.0346,317.4152 F,2,28696,29221,1,0 S,2,28696,29221,1,0.2 P,0,28696,29221,A M,0,28714,28733,575.0346,317.4152,574.0692,305.8303 M,0,28733,28752,574.0692,305.8303,573.1038,294.2455 M,0,28752,28771,573.1038,294.2455,572.1384,282.6606 M,0,28771,28789,572.1384,282.6606,571.173,271.0758 M,0,28789,28808,571.173,271.0758,570.2076,259.4909 M,0,28808,28827,570.2076,259.4909,569.2422,247.9061 M,0,28827,28846,569.2422,247.9061,568.2767,236.3212 M,0,28846,28864,568.2767,236.3212,567.3114,224.7364 M,0,28864,28883,567.3114,224.7364,566.3459,213.1516 M,0,28883,28902,566.3459,213.1516,565.3806,201.5667 M,0,28902,28921,565.3806,201.5667,564.4152,189.9819
Sprite,Foreground,Centre,"SB\background\highlight.png",559,157 C,0,28996,,255,210,170 F,2,28996,29296,1,0 S,2,28996,29296,1,0.2 P,0,28996,29296,A
Sprite,Foreground,Centre,"SB\background\highlight.png",395,68 C,0,29146,,255,210,170 F,2,29146,29446,1,0 S,2,29146,29446,1,0.2 P,0,29146,29446,A
Sprite,Foreground,Centre,"SB\background\highlight.png",0,0 C,0,29296,,255,210,170 M,0,29296,29314,230,154,235.6367,164.1595 F,2,29296,29746,1,0 S,2,29296,29746,1,0.2 P,0,29296,29746,A M,0,29314,29333,235.6367,164.1595,240.7036,174.612 M,0,29333,29352,240.7036,174.612,245.2594,185.2962 M,0,29352,29371,245.2594,185.2962,249.0061,196.292 M,0,29371,29389,249.0061,196.292,252.2687,207.4428 M,0,29389,29408,252.2687,207.4428,254.6385,218.8161 M,0,29408,29427,254.6385,218.8161,256.3774,230.3007 M,0,29427,29446,256.3774,230.3007,257.5185,241.8576
Sprite,Foreground,Centre,"SB\background\highlight.png",0,0 C,0,29596,,255,210,170 M,0,29596,29614,109,333,109.2927,321.3956 F,2,29596,29971,1,0 S,2,29596,29971,1,0.2 P,0,29596,29971,A M,0,29614,29633,109.2927,321.3956,110.6078,309.8688 M,0,29633,29652,110.6078,309.8688,112.8095,298.4802 M,0,29652,29671,112.8095,298.4802,116.1764,287.3625
Sprite,Foreground,Centre,"SB\background\highlight.png",176,237 C,0,29746,,255,210,170 F,2,29746,30046,1,0 S,2,29746,30046,1,0.2 P,0,29746,30046,A
Sprite,Foreground,Centre,"SB\background\highlight.png",0,0 C,0,29896,,255,180,180 M,0,29896,29914,381,400,389.2201,408.2201 F,2,29896,30496,1,0 S,2,29896,30496,1,0.2 P,0,29896,30496,A M,0,29914,29933,389.2201,408.2201,397.4402,416.4402 M,0,29933,29952,397.4402,416.4402,405.6603,424.6603 M,0,29952,29971,405.6603,424.6603,413.8805,432.8805 M,0,29971,29989,413.8805,432.8805,420.8797,438.4482 M,0,29989,30008,420.8797,438.4482,419.9812,426.858 M,0,30008,30027,419.9812,426.858,419.0828,415.2677 M,0,30027,30046,419.0828,415.2677,418.1843,403.6775 M,0,30046,30064,418.1843,403.6775,417.2858,392.0873 M,0,30064,30083,417.2858,392.0873,416.3874,380.4971 M,0,30083,30102,416.3874,380.4971,415.4889,368.9068 M,0,30102,30121,415.4889,368.9068,414.5904,357.3166 M,0,30121,30139,414.5904,357.3166,413.692,345.7264 M,0,30139,30158,413.692,345.7264,412.7935,334.1362 M,0,30158,30177,412.7935,334.1362,411.895,322.5459 M,0,30177,30196,411.895,322.5459,411,311
Sprite,Foreground,Centre,"SB\background\highlight.png",411,311 C,0,30271,,255,180,180 F,2,30271,30571,1,0 S,2,30271,30571,1,0.2 P,0,30271,30571,A
Sprite,Foreground,Centre,"SB\background\highlight.png",411,311 C,0,30346,,255,180,180 F,2,30346,30646,1,0 S,2,30346,30646,1,0.2 P,0,30346,30646,A
Sprite,Foreground,Centre,"SB\background\highlight.png",334,94 C,0,30496,,255,234,160 F,2,30496,30796,1,0 S,2,30496,30796,1,0.2 P,0,30496,30796,A
Sprite,Foreground,Centre,"SB\background\highlight.png",297,101 C,0,30571,,255,234,160 F,2,30571,30871,1,0 S,2,30571,30871,1,0.2 P,0,30571,30871,A
Sprite,Foreground,Centre,"SB\background\highlight.png",0,0 C,0,30646,,255,234,160 M,0,30646,30664,239,156,232.7264,165.7868 F,2,30646,31021,1,0 S,2,30646,31021,1,0.2 P,0,30646,31021,A M,0,30664,30683,232.7264,165.7868,226.4528,175.5737 M,0,30683,30702,226.4528,175.5737,220.1791,185.3605 M,0,30702,30721,220.1791,185.3605,214,195
Sprite,Foreground,Centre,"SB\background\highlight.png",303,302 C,0,30796,,255,192,225 F,2,30796,31096,1,0 S,2,30796,31096,1,0.2 P,0,30796,31096,A
Sprite,Foreground,Centre,"SB\background\highlight.png",340,295 C,0,30871,,255,192,225 F,2,30871,31171,1,0 S,2,30871,31171,1,0.2 P,0,30871,31171,A
Sprite,Foreground,Centre,"SB\background\highlight.png",0,0 C,0,30946,,255,192,225 M,0,30946,30964,398,240,404.2736,230.2132 F,2,30946,31321,1,0 S,2,30946,31321,1,0.2 P,0,30946,31321,A M,0,30964,30983,404.2736,230.2132,410.5472,220.4263 M,0,30983,31002,410.5472,220.4263,416.8209,210.6395 M,0,31002,31021,416.8209,210.6395,423,201
Sprite,Foreground,Centre,"SB\background\highlight.png",321,204 C,0,31096,,255,210,170 F,2,31096,31396,1,0 S,2,31096,31396,1,0.2 P,0,31096,31396,A
Sprite,Foreground,Centre,"SB\background\highlight.png",309,212 C,0,31171,,255,210,170 F,2,31171,31471,1,0 S,2,31171,31471,1,0.2 P,0,31171,31471,A
Sprite,Foreground,Centre,"SB\background\highlight.png",298,220 C,0,31246,,255,180,180 F,2,31246,31546,1,0 S,2,31246,31546,1,0.2 P,0,31246,31546,A
Sprite,Foreground,Centre,"SB\background\highlight.png",212,285 C,0,31546,,255,180,180 F,2,31546,31846,1,0 S,2,31546,31846,1,0.2 P,0,31546,31846,A
Sprite,Foreground,Centre,"SB\background\highlight.png",123,223 C,0,31846,,255,180,180 F,2,31846,32146,1,0 S,2,31846,32146,1,0.2 P,0,31846,32146,A
Sprite,Foreground,Centre,"SB\background\highlight.png",154,120 C,0,32146,,255,234,160 F,2,32146,32446,1,0 S,2,32146,32446,1,0.2 P,0,32146,32446,A
Sprite,Foreground,Centre,"SB\background\highlight.png",154,120 C,0,32296,,255,234,160 F,2,32296,32596,1,0 S,2,32296,32596,1,0.2 P,0,32296,32596,A
Sprite,Foreground,Centre,"SB\background\highlight.png",298,220 C,0,32446,,255,192,225 F,2,32446,32746,1,0 S,2,32446,32746,1,0.2 P,0,32446,32746,A
Sprite,Foreground,Centre,"SB\background\highlight.png",123,223 C,0,32746,,255,192,225 F,2,32746,33046,1,0 S,2,32746,33046,1,0.2 P,0,32746,33046,A
Sprite,Foreground,Centre,"SB\background\highlight.png",261,118 C,0,33046,,255,192,225 F,2,33046,33346,1,0 S,2,33046,33346,1,0.2 P,0,33046,33346,A
Sprite,Foreground,Centre,"SB\background\highlight.png",212,285 C,0,33346,,255,210,170 F,2,33346,33646,1,0 S,2,33346,33646,1,0.2 P,0,33346,33646,A
Sprite,Foreground,Centre,"SB\background\highlight.png",212,285 C,0,33496,,255,210,170 F,2,33496,33796,1,0 S,2,33496,33796,1,0.2 P,0,33496,33796,A
Sprite,Foreground,Centre,"SB\background\highlight.png",154,120 C,0,33646,,255,180,180 F,2,33646,33946,1,0 S,2,33646,33946,1,0.2 P,0,33646,33946,A
Sprite,Foreground,Centre,"SB\background\highlight.png",304,226 C,0,33796,,255,180,180 F,2,33796,34096,1,0 S,2,33796,34096,1,0.2 P,0,33796,34096,A
Sprite,Foreground,Centre,"SB\background\highlight.png",304,226 C,0,33871,,255,180,180 F,2,33871,34171,1,0 S,2,33871,34171,1,0.2 P,0,33871,34171,A
Sprite,Foreground,Centre,"SB\background\highlight.png",304,226 C,0,33946,,255,234,160 F,2,33946,34246,1,0 S,2,33946,34246,1,0.2 P,0,33946,34246,A
Sprite,Foreground,Centre,"SB\background\highlight.png",333,238 C,0,34021,,255,234,160 F,2,34021,34321,1,0 S,2,34021,34321,1,0.2 P,0,34021,34321,A
Sprite,Foreground,Centre,"SB\background\highlight.png",366,240 C,0,34096,,255,234,160 F,2,34096,34396,1,0 S,2,34096,34396,1,0.2 P,0,34096,34396,A
Sprite,Foreground,Centre,"SB\background\highlight.png",398,235 C,0,34171,,255,234,160 F,2,34171,34471,1,0 S,2,34171,34471,1,0.2 P,0,34171,34471,A
Sprite,Foreground,Centre,"SB\background\highlight.png",430,240 C,0,34246,,255,192,225 F,2,34246,34546,1,0 S,2,34246,34546,1,0.2 P,0,34246,34546,A
Sprite,Foreground,Centre,"SB\background\highlight.png",451,281 C,0,34321,,255,192,225 F,2,34321,34621,1,0 S,2,34321,34621,1,0.2 P,0,34321,34621,A
Sprite,Foreground,Centre,"SB\background\highlight.png",0,0 C,0,34396,,255,192,225 M,0,34396,34414,469,323,475.975,323 F,2,34396,34845,1,0 S,2,34396,34845,1,0.2 P,0,34396,34845,A M,0,34414,34433,475.975,323,482.95,323 M,0,34433,34452,482.95,323,489.925,323 M,0,34452,34471,489.925,323,496.9,323 M,0,34471,34489,496.9,323,503.875,323 M,0,34489,34508,503.875,323,510.85,323 M,0,34508,34527,510.85,323,517.825,323 M,0,34527,34545,517.825,323,524.8,323
Sprite,Foreground,Centre,"SB\background\highlight.png",550,171 C,0,34696,,255,192,225 F,2,34696,34996,1,0 S,2,34696,34996,1,0.2 P,0,34696,34996,A
Sprite,Foreground,Centre,"SB\background\highlight.png",529,131 C,0,34771,,255,192,225 F,2,34771,35071,1,0 S,2,34771,35071,1,0.2 P,0,34771,35071,A
Sprite,Foreground,Centre,"SB\background\highlight.png",508,91 C,0,34846,,255,210,170 F,2,34846,35146,1,0 S,2,34846,35146,1,0.2 P,0,34846,35146,A
Sprite,Foreground,Centre,"SB\background\highlight.png",477,105 C,0,34921,,255,210,170 F,2,34921,35221,1,0 S,2,34921,35221,1,0.2 P,0,34921,35221,A
Sprite,Foreground,Centre,"SB\background\highlight.png",443,109 C,0,34996,,255,210,170 F,2,34996,35296,1,0 S,2,34996,35296,1,0.2 P,0,34996,35296,A
Sprite,Foreground,Centre,"SB\background\highlight.png",409,105 C,0,35071,,255,210,170 F,2,35071,35371,1,0 S,2,35071,35371,1,0.2 P,0,35071,35371,A
Sprite,Foreground,Centre,"SB\background\highlight.png",0,0 C,0,35146,,255,180,180 M,0,35146,35164,378,91,371.0276,91.18845 F,2,35146,35595,1,0 S,2,35146,35595,1,0.2 P,0,35146,35595,A M,0,35164,35183,371.0276,91.18845,364.0551,91.37689 M,0,35183,35202,364.0551,91.37689,357.0826,91.56534 M,0,35202,35221,357.0826,91.56534,350.1102,91.75378 M,0,35221,35239,350.1102,91.75378,343.1377,91.94222 M,0,35239,35258,343.1377,91.94222,336.1653,92.13067 M,0,35258,35277,336.1653,92.13067,329.1928,92.31911 M,0,35277,35295,329.1928,92.31911,322.2204,92.50755
Sprite,Foreground,Centre,"SB\background\highlight.png",266,227 C,0,35446,,255,180,180 F,2,35446,35746,1,0 S,2,35446,35746,1,0.2 P,0,35446,35746,A
Sprite,Foreground,Centre,"SB\background\highlight.png",266,230 C,0,35521,,255,180,180 F,2,35521,35821,1,0 S,2,35521,35821,1,0.2 P,0,35521,35821,A
Sprite,Foreground,Centre,"SB\background\highlight.png",266,233 C,0,35596,,255,180,180 F,2,35596,35896,1,0 S,2,35596,35896,1,0.2 P,0,35596,35896,A
Sprite,Foreground,Centre,"SB\background\highlight.png",266,236 C,0,35671,,255,180,180 F,2,35671,35971,1,0 S,2,35671,35971,1,0.2 P,0,35671,35971,A
Sprite,Foreground,Centre,"SB\background\highlight.png",266,239 C,0,35746,,255,180,180 F,2,35746,36046,1,0 S,2,35746,36046,1,0.2 P,0,35746,36046,A
Sprite,Foreground,Centre,"SB\background\highlight.png",266,242 C,0,35821,,255,180,180 F,2,35821,36121,1,0 S,2,35821,36121,1,0.2 P,0,35821,36121,A
Sprite,Foreground,Centre,"SB\background\highlight.png",266,245 C,0,35896,,255,180,180 F,2,35896,36196,1,0 S,2,35896,36196,1,0.2 P,0,35896,36196,A
Sprite,Foreground,Centre,"SB\background\highlight.png",266,248 C,0,35971,,255,180,180 F,2,35971,36271,1,0 S,2,35971,36271,1,0.2 P,0,35971,36271,A
//Storyboard Sound Samples

[TimingPoints]
10846,300,4,1,1,40,1,0
12046,-111.111111111111,4,1,1,50,0,0
16246,-111.111111111111,4,1,1,50,0,0
20296,-111.111111111111,4,1,1,50,0,0
21046,-100,4,1,1,50,0,0
21496,-100,4,1,1,55,0,0
26671,-100,4,2,1,5,0,0
26746,-100,4,1,1,55,0,0
28921,-100,4,2,1,5,0,0
28996,-100,4,1,1,55,0,0
31246,-100,4,1,1,40,0,0
33796,-166.666666666667,4,2,1,40,0,0
35146,-166.666666666667,4,2,1,35,0,0
35296,-166.666666666667,4,2,1,20,0,0
35446,-166.666666666667,4,2,1,30,0,0
35746,-166.666666666667,4,2,1,25,0,0
36046,-1000,4,2,1,30,0,0
36646,-500,4,2,1,25,0,0
50446,-333.333333333333,4,2,1,25,0,0
50671,-333.333333333333,4,2,1,5,0,0
50746,-166.666666666667,4,2,1,25,0,0
51646,-142.857142857143,4,2,1,30,0,0
52246,-142.857142857143,4,2,1,35,0,0
52846,-125,4,1,1,40,0,0
53296,-125,4,1,1,45,0,0
54046,-111.111111111111,4,1,1,50,0,0
54496,-111.111111111111,4,1,1,55,0,0
55246,-100,4,1,1,50,0,0
62446,-100,4,1,1,52,0,0
62896,-100,4,1,1,54,0,0
63346,-100,4,1,1,56,0,0
63796,-100,4,1,1,58,0,0
64246,-100,4,1,1,60,0,0
64546,-100,4,1,1,62,0,0
64846,-200,4,1,1,40,0,0
69046,-200,4,1,1,50,0,0
69646,-200,4,1,1,40,0,0
73546,-200,4,1,1,42,0,0
73846,-200,4,1,1,44,0,0
74146,-200,4,1,1,46,0,0
74446,-100,4,1,1,50,0,0
79246,-100,4,1,1,55,0,0
81646,-100,4,1,1,58,0,0
82846,-100,4,1,1,60,0,0
83146,-100,4,1,1,62,0,0
83446,-100,4,1,1,64,0,0
83746,-166.666666666667,4,2,1,54,0,0
83896,-125,4,2,1,44,0,0
84046,300,3,2,1,34,1,0
84046,-200,3,2,1,34,0,0
86146,-200,3,2,1,14,0,0
86446,-200,3,2,1,34,0,0
87346,-200,3,2,1,37,0,0
87646,-200,3,2,1,40,0,0
88546,-200,3,2,1,43,0,0
88846,-200,3,2,1,45,0,0
89146,-200,3,2,1,47,0,0
89446,300,4,1,1,50,1,0
93046,-100,4,1,1,53,0,0
93496,-100,4,1,1,56,0,0
93946,-100,4,1,1,59,0,0
94246,-100,4,1,1,62,0,0
94696,-100,4,1,2,62,0,0
94996,-100,4,1,2,55,0,0
95071,-100,4,1,2,60,0,0
95146,-100,4,1,1,65,0,0
95596,-250,4,1,2,65,0,0
95896,-250,4,1,2,5,0,0
96046,-66.6666666666667,4,1,1,55,0,0
96271,-55.5555555555556,4,2,1,5,0,0
96346,-58.8235294117647,4,1,1,65,0,0
96571,-55.5555555555556,4,2,1,5,0,0
96646,-86.9565217391304,4,1,1,70,0,1
110296,-86.9565217391304,4,1,1,70,0,0
111046,-86.9565217391304,4,1,1,70,0,1
113446,-86.9565217391304,4,1,1,60,0,0
114646,-86.9565217391304,4,1,1,62,0,0
115246,-86.9565217391304,4,1,1,64,0,0
115846,-86.9565217391304,4,1,1,70,0,1
133546,-86.9565217391304,4,1,1,60,0,0
134446,-86.9565217391304,4,1,1,65,0,0
135046,-68.9655172413793,4,1,1,70,0,1
136246,-68.9655172413793,4,1,1,65,0,1
137296,-68.9655172413793,4,1,1,50,0,0
137446,-68.9655172413793,4,1,1,68,0,1
137521,-68.9655172413793,4,2,1,5,0,1
137596,-68.9655172413793,4,1,1,68,0,1
137896,-68.9655172413793,4,1,1,70,0,1
137971,-68.9655172413793,4,1,1,5,0,1
138046,-68.9655172413793,4,1,1,70,0,1
138346,-68.9655172413793,4,1,1,72,0,1
138421,-68.9655172413793,4,2,1,5,0,1
138496,-68.9655172413793,4,1,1,72,0,1
138796,-68.9655172413793,4,1,1,74,0,1
139246,-68.9655172413793,4,1,1,30,0,0
139846,-68.9655172413793,4,1,1,50,0,1
140296,-68.9655172413793,4,1,1,55,0,1
140746,-68.9655172413793,4,1,1,60,0,1
141196,-68.9655172413793,4,1,1,65,0,1
141646,-60.6060606060606,4,1,1,70,0,1
141871,-68.9655172413793,4,2,2,5,0,1
141946,-51.2820512820513,4,1,1,75,0,1
142171,-68.9655172413793,4,2,2,5,0,1
142246,-68.9655172413793,4,1,1,80,0,0
143446,-100,4,1,1,30,0,0
144646,-100,4,1,1,20,0,0
145846,-100,4,1,1,10,0,0
147046,-100,4,1,1,10,0,0

[Colours]
Combo1 : 255,180,180
Combo2 : 255,234,160
Combo3 : 255,192,225
Combo4 : 255,210,170

[HitObjects]
157,91,10846,5,2,0:0:0:0:
157,91,10921,1,2,0:0:0:0:
157,91,10996,1,2,0:0:0:0:
355,91,11146,1,2,0:0:0:0:
143,175,11296,5,2,0:0:0:0:
143,175,11371,1,2,0:0:0:0:
143,175,11446,1,2,0:0:0:0:
367,175,11596,1,2,0:0:0:0:
256,16,11746,5,8,0:0:0:0:
256,16,11896,1,0,0:0:0:0:
256,280,12046,6,0,L|256:196,1,83.6999974456788,2|2,0:0|0:0,0:0:0:0:
256,16,12346,1,2,0:0:0:0:
268,28,12646,1,2,0:0:0:0:
280,40,12946,1,2,0:0:0:0:
143,175,13096,6,0,P|132:137|142:82,1,83.6999974456788,2|2,0:0|0:0,0:0:0:0:
137,93,13396,1,2,0:0:0:0:
90,239,13546,1,2,0:0:0:0:
78,251,13846,1,2,0:0:0:0:
66,263,14146,1,2,0:0:0:0:
251,235,14296,6,0,P|262:197|252:142,1,83.6999974456788,2|2,0:0|0:0,0:0:0:0:
257,153,14596,1,2,0:0:0:0:
304,299,14746,1,2,0:0:0:0:
316,311,15046,1,2,0:0:0:0:
328,323,15346,1,2,0:0:0:0:
466,269,15496,6,0,B|458:211|458:211|473:157|473:157|464:95,1,167.399994891358,2|2,0:0|0:0,0:0:0:0:
465,104,15946,1,2,0:0:0:0:
329,7,16096,1,2,0:0:0:0:
286,159,16246,5,2,0:0:0:0:
262,163,16321,1,2,0:0:0:0:
238,168,16396,1,2,0:0:0:0:
215,173,16471,1,2,0:0:0:0:
186,155,16546,5,2,0:0:0:0:
158,160,16621,1,2,0:0:0:0:
129,167,16696,1,2,0:0:0:0:
101,172,16771,1,2,0:0:0:0:
61,158,16846,6,0,B|53:110|53:110|69:57,1,83.6999974456788,2|0,0:0|0:0,0:0:0:0:
176,242,17146,1,2,0:0:0:0:
188,254,17446,1,2,0:0:0:0:
200,266,17746,1,2,0:0:0:0:
61,158,17896,6,0,B|53:110|53:110|69:57,1,83.6999974456788,2|2,0:0|0:0,0:0:0:0:
63,76,18196,1,2,0:0:0:0:
176,242,18346,1,2,0:0:0:0:
188,254,18646,1,2,0:0:0:0:
200,266,18946,1,2,0:0:0:0:
375,218,19096,1,2,0:0:0:0:
299,47,19246,5,2,0:0:0:0:
248,149,19396,1,2,0:0:0:0:
385,78,19546,1,2,0:0:0:0:
298,208,19696,1,2,0:0:0:0:
448,144,19846,1,2,0:0:0:0:
327,279,19996,1,2,0:0:0:0:
472,232,20146,1,2,0:0:0:0:
336,355,20296,2,0,B|228:343,1,83.6999974456788,2|0,0:0|0:0,0:0:0:0:
54,224,20596,5,2,0:0:0:0:
251,62,20746,1,2,0:0:0:0:
251,62,21046,5,8,0:0:0:0:
222,73,21121,1,0,0:0:0:0:
191,74,21196,1,2,0:0:0:0:
164,60,21271,1,0,0:0:0:0:
138,44,21346,1,2,0:0:0:0:
108,37,21421,1,0,0:0:0:0:
75,40,21496,6,0,P|68:125|51:244,1,186,6|2,0:0|0:0,0:0:0:0:
287,122,21946,2,0,P|290:79|299:16,1,93,8|0,0:0|0:0,0:0:0:0:
172,194,22246,1,2,0:0:0:0:
66,118,22396,1,2,0:0:0:0:
177,63,22546,1,8,0:0:0:0:
283,151,22696,6,0,B|374:165|330:239|433:256,1,186,2|2,0:0|0:0,0:0:0:0:
512,39,23146,2,0,P|472:64|385:70,1,93,8|0,0:0|0:0,0:0:0:0:
264,21,23446,1,2,0:0:0:0:
341,75,23596,1,2,0:0:0:0:
177,63,23746,1,8,0:0:0:0:
247,206,23896,6,0,P|257:101|264:10,1,186,2|2,0:0|0:0,0:0:0:0:
105,114,24346,1,8,0:0:0:0:
166,179,24496,1,0,0:0:0:0:
177,63,24646,1,2,0:0:0:0:
26,109,24796,1,2,0:0:0:0:
166,179,24946,1,8,0:0:0:0:
50,3,25096,6,0,B|43:64|43:64|56:119|56:119|44:186,1,186,2|2,0:0|0:0,0:0:0:0:
44,186,25471,1,2,0:0:0:0:
44,186,25546,1,8,0:0:0:0:
222,300,25696,5,2,0:0:0:0:
222,300,25771,1,2,0:0:0:0:
222,300,25846,2,0,L|157:319,1,46.5,2|0,0:0|0:0,0:0:0:0:
56,308,25996,2,0,L|121:327,1,46.5,2|0,0:0|0:0,0:0:0:0:
262,329,26146,6,0,L|197:310,1,46.5,8|0,0:0|0:0,0:0:0:0:
16,337,26296,2,0,L|81:318,1,46.5,0|0,0:0|0:0,0:0:0:0:
198,186,26446,6,0,B|266:168|258:216|333:199,1,139.5,2|0,0:0|0:0,0:0:0:0:
421,237,26746,2,0,L|435:143,1,93,8|2,0:0|0:0,0:0:0:0:
322,16,27046,1,8,0:0:0:0:
295,97,27196,1,2,0:0:0:0:
378,80,27346,1,8,0:0:0:0:
142,42,27496,6,0,P|219:61|228:168,1,186,8|2,0:0|0:0,0:0:0:0:
160,173,27946,1,2,0:0:0:0:
401,250,28096,2,0,P|323:269|315:376,1,186,8|2,0:0|0:0,0:0:0:0:
307,363,28471,1,2,0:0:0:0:
307,363,28546,1,8,0:0:0:0:
512,273,28696,6,0,B|500:129,1,139.5,2|0,0:0|0:0,0:0:0:0:
495,101,28996,1,2,0:0:0:0:
331,12,29146,1,8,0:0:0:0:
166,98,29296,2,0,P|186:143|194:199,1,93,2|8,0:0|0:0,0:0:0:0:
45,277,29596,2,0,P|47:250|53:229,1,46.5,2|2,0:0|0:0,0:0:0:0:
112,181,29746,1,8,0:0:0:0:
317,344,29896,6,0,B|357:384|357:384|347:255,1,186,2|2,0:0|0:0,0:0:0:0:
347,255,30271,1,2,0:0:0:0:
347,255,30346,1,8,0:0:0:0:
270,38,30496,5,2,0:0:0:0:
233,45,30571,1,2,0:0:0:0:
175,100,30646,2,0,L|150:139,1,46.5,0|2,0:0|0:0,0:0:0:0:
239,246,30796,5,2,0:0:0:0:
276,239,30871,1,2,0:0:0:0:
334,184,30946,2,0,L|359:145,1,46.5,8|0,0:0|0:0,0:0:0:0:
257,148,31096,5,2,0:0:0:0:
245,156,31171,1,2,0:0:0:0:
234,164,31246,5,6,0:1:0:0:
148,229,31546,1,2,0:1:0:0:
59,167,31846,1,2,0:1:0:0:
90,64,32146,5,2,0:1:0:0:
90,64,32296,1,2,0:1:0:0:
234,164,32446,5,2,0:1:0:0:
59,167,32746,1,2,0:1:0:0:
197,62,33046,1,2,0:1:0:0:
148,229,33346,5,2,0:1:0:0:
148,229,33496,1,2,0:1:0:0:
90,64,33646,5,2,0:1:0:0:
240,170,33796,1,2,0:2:0:0:
240,170,33871,1,2,0:2:0:0:
240,170,33946,5,2,0:2:0:0:
269,182,34021,1,2,0:2:0:0:
302,184,34096,1,2,0:2:0:0:
334,179,34171,1,2,0:2:0:0:
366,184,34246,5,2,0:2:0:0:
387,225,34321,1,2,0:2:0:0:
405,267,34396,2,0,L|481:267,1,55.7999982971192,2|2,0:0|0:1,0:0:0:0:
486,115,34696,1,2,0:2:0:0:
465,75,34771,1,2,0:2:0:0:
444,35,34846,5,2,0:2:0:0:
413,49,34921,1,2,0:2:0:0:
379,53,34996,1,2,0:2:0:0:
345,49,35071,1,2,0:2:0:0:
314,35,35146,6,0,L|240:37,1,55.7999982971192,2|0,0:1|0:0,0:0:0:0:
202,171,35446,1,2,0:2:0:0:
202,174,35521,1,2,0:2:0:0:
202,177,35596,1,2,0:2:0:0:
202,180,35671,1,2,0:2:0:0:
202,183,35746,1,2,0:2:0:0:
202,186,35821,1,2,0:2:0:0:
202,189,35896,1,2,0:2:0:0:
202,192,35971,1,2,0:2:0:0:
202,196,36046,6,0,L|240:198,1,37.2,6|2,0:0|0:0,0:0:0:0:
331,208,36946,1,2,0:0:0:0:
348,298,37246,1,2,0:0:0:0:
267,341,37546,1,2,0:0:0:0:
201,277,37846,1,2,0:0:0:0:
331,208,38446,5,2,0:0:0:0:
267,341,38896,1,2,0:0:0:0:
239,197,39346,1,2,0:0:0:0:
239,197,40246,5,2,0:0:0:0:
201,277,40546,1,2,0:0:0:0:
154,277,40696,1,2,0:0:0:0:
107,277,40846,1,2,0:0:0:0:
239,197,41446,5,2,0:0:0:0:
201,277,41746,1,2,0:0:0:0:
154,277,41896,1,2,0:0:0:0:
107,277,42046,1,0,0:0:0:0:
42,209,42346,5,0,0:0:0:0:
90,130,42646,1,2,0:0:0:0:
90,130,42721,2,0,L|98:92,1,37.2,2|2,0:2|0:0,0:0:0:0:
228,138,43246,5,2,0:0:0:0:
307,274,43696,1,2,0:0:0:0:
386,138,44146,1,2,0:0:0:0:
202,244,44746,5,2,0:0:0:0:
158,82,45346,1,2,0:0:0:0:
235,42,45496,1,2,0:0:0:0:
317,67,45646,5,2,0:0:0:0:
235,42,45946,1,2,0:0:0:0:
158,82,46246,1,2,0:0:0:0:
22,19,46546,5,2,0:0:0:0:
0,142,46696,1,2,0:0:0:0:
0,142,47146,5,2,0:0:0:0:
40,217,47446,1,2,0:0:0:0:
123,243,47746,1,2,0:0:0:0:
279,149,48046,5,2,0:0:0:0:
104,359,48496,1,2,0:0:0:0:
9,102,48946,1,2,0:0:0:0:
9,102,49546,5,0,0:0:0:0:
104,359,49846,1,2,0:0:0:0:
279,149,50146,1,2,0:0:0:0:
104,359,50446,6,0,L|103:316,1,41.8499987228394,0|0,0:0|0:0,0:0:0:0:
76,284,50746,6,0,P|103:286|131:282,1,55.7999982971192,2|2,0:1|0:1,0:0:0:0:
48,152,51046,2,0,P|31:174|21:200,1,55.7999982971192,2|2,0:1|0:1,0:0:0:0:
175,195,51346,2,0,P|163:169|146:147,1,55.7999982971192,2|2,0:1|0:1,0:0:0:0:
229,277,51646,6,0,L|241:349,1,65.0999980133057,2|2,0:1|0:1,0:0:0:0:
431,370,51946,5,2,0:1:0:0:
448,292,52096,1,2,0:1:0:0:
339,151,52246,5,2,0:1:0:0:
322,241,52396,1,2,0:1:0:0:
463,129,52546,5,2,0:1:0:0:
444,28,52696,1,2,0:1:0:0:
135,0,52846,5,2,0:0:0:0:
86,161,52996,1,2,0:1:0:0:
167,311,53146,1,2,0:0:0:0:
219,30,53296,5,2,0:0:0:0:
118,167,53446,1,2,0:0:0:0:
146,335,53596,1,2,0:1:0:0:
290,85,53746,5,2,0:0:0:0:
149,178,53896,1,2,0:0:0:0:
114,344,54046,2,0,L|77:234,2,83.6999974456788,12|2|2,0:0|0:0|0:0,0:0:0:0:
110,50,54496,5,12,0:0:0:0:
391,124,54646,2,0,P|392:79|408:2,1,83.6999974456788,2|2,0:0|0:0,0:0:0:0:
121,260,54946,2,0,P|117:320|111:360,1,83.6999974456788,12|2,0:0|0:0,0:0:0:0:
26,157,55246,6,0,L|118:162,1,93,6|0,0:0|0:0,0:0:0:0:
354,211,55546,1,8,0:0:0:0:
256,239,55696,1,0,0:0:0:0:
482,282,55846,2,0,P|486:239|497:179,1,93,0|2,0:0|0:0,0:0:0:0:
280,4,56146,5,8,0:0:0:0:
218,48,56296,2,0,P|208:123|201:167,1,93,0|2,0:0|0:0,0:0:0:0:
124,351,56596,5,2,0:0:0:0:
64,297,56746,2,0,P|59:253|48:201,1,93,8|2,0:0|0:0,0:0:0:0:
322,120,57046,5,0,0:0:0:0:
377,176,57196,2,0,P|380:219|394:286,1,93,2|8,0:0|0:0,0:0:0:0:
492,16,57496,6,0,B|383:12|430:95|306:86,1,186,0|2,0:0|0:0,0:0:0:0:
118,33,57946,5,8,0:0:0:0:
227,9,58096,1,0,0:0:0:0:
23,161,58246,2,0,P|14:115|-6:60,1,93,0|2,0:0|0:0,0:0:0:0:
200,271,58546,5,8,0:0:0:0:
241,202,58696,2,0,P|245:166|260:105,1,93,0|2,0:0|0:0,0:0:0:0:
476,41,58996,5,2,0:0:0:0:
445,234,59146,1,8,0:0:0:0:
421,123,59296,1,2,0:0:0:0:
493,349,59446,2,0,P|444:335|377:327,1,93,0|2,0:0|0:0,0:0:0:0:
402,328,59671,1,2,0:0:0:0:
402,328,59746,1,8,0:0:0:0:
181,361,59896,5,2,0:0:0:0:
181,361,59971,1,2,0:0:0:0:
181,361,60046,2,0,P|226:357|286:343,1,93,2|2,0:0|0:0,0:0:0:0:
177,79,60346,5,8,0:0:0:0:
89,213,60496,1,0,0:0:0:0:
250,223,60646,1,0,0:0:0:0:
250,223,60796,1,2,0:0:0:0:
167,166,60946,5,8,0:0:0:0:
333,282,61096,2,0,P|341:236|353:192,1,93,0|2,0:0|0:0,0:0:0:0:
425,157,61396,5,2,0:0:0:0:
265,359,61546,2,0,P|257:313|242:269,1,93,8|2,0:0|0:0,0:0:0:0:
24,170,61846,5,0,0:0:0:0:
101,175,61996,1,2,0:0:0:0:
66,105,62146,1,8,0:0:0:0:
59,240,62296,1,0,0:0:0:0:
171,141,62446,5,8,0:0:0:0:
319,161,62596,1,2,0:0:0:0:
409,279,62746,1,2,0:0:0:0:
443,274,62896,5,8,0:0:0:0:
308,187,63046,1,2,0:0:0:0:
152,223,63196,1,2,0:0:0:0:
149,319,63346,5,8,0:0:0:0:
296,223,63496,1,0,0:0:0:0:
469,261,63646,2,0,L|487:200,1,46.5,8|8,0:0|0:0,0:0:0:0:
415,92,63796,5,2,0:0:0:0:
392,84,63871,1,2,0:0:0:0:
370,80,63946,1,2,0:0:0:0:
346,81,64021,1,2,0:0:0:0:
324,85,64096,1,8,0:0:0:0:
301,90,64171,1,8,0:0:0:0:
278,92,64246,5,2,0:0:0:0:
251,83,64321,1,2,0:0:0:0:
251,55,64396,1,2,0:0:0:0:
278,46,64471,1,2,0:0:0:0:
294,69,64546,5,8,0:0:0:0:
287,100,64621,1,8,0:0:0:0:
285,133,64696,1,8,0:0:0:0:
287,165,64771,1,8,0:0:0:0:
294,197,64846,6,0,L|356:200,3,46.5,2|0|2|0,0:0|0:0|0:0|0:0,0:0:0:0:
222,262,65446,6,0,P|219:284|218:317,1,46.5,0|2,0:0|0:0,0:0:0:0:
146,210,65746,2,0,P|143:184|137:164,1,46.5,0|2,0:0|0:0,0:0:0:0:
20,78,66046,6,0,L|124:70,1,93,0|0,0:0|0:0,0:0:0:0:
264,23,66496,1,0,0:0:0:0:
264,23,66646,2,0,P|255:56|258:86,1,46.5,8|0,0:0|0:0,0:0:0:0:
224,176,66946,2,0,P|225:199|233:221,1,46.5,0|0,0:0|0:0,0:0:0:0:
314,343,67246,6,0,P|268:335|223:347,1,93,2|0,0:0|0:0,0:0:0:0:
125,338,67696,2,0,P|158:291|166:243,1,93,2|0,0:0|0:0,0:0:0:0:
224,176,68146,6,0,P|247:228|285:259,1,93,2|0,0:0|0:0,0:0:0:0:
124,166,68596,1,2,0:0:0:0:
124,166,68746,2,0,L|73:164,1,46.5,0|0,0:0|0:0,0:0:0:0:
200,28,69046,5,8,0:0:0:0:
372,181,69196,1,2,0:0:0:0:
396,23,69346,5,2,0:0:0:0:
224,176,69496,1,2,0:0:0:0:
300,93,69646,5,2,0:0:0:0:
300,93,69796,1,2,0:0:0:0:
300,93,69946,1,2,0:0:0:0:
300,93,70096,1,0,0:0:0:0:
372,181,70246,6,0,B|419:175,1,46.5,0|2,0:0|0:0,0:0:0:0:
312,270,70546,2,0,B|356:284,1,46.5,0|2,0:0|0:0,0:0:0:0:
195,224,70846,6,0,P|181:174|198:125,1,93,0|0,0:0|0:0,0:0:0:0:
289,69,71296,1,0,0:0:0:0:
289,69,71446,2,0,L|348:73,1,46.5,8|0,0:0|0:0,0:0:0:0:
125,38,71746,2,0,L|66:34,1,46.5,2|0,0:0|0:0,0:0:0:0:
23,209,72046,6,0,P|30:157|28:109,1,93,2|2,0:0|0:0,0:0:0:0:
129,238,72496,2,0,P|127:284|134:330,1,93,2|2,0:0|0:0,0:0:0:0:
214,360,72946,1,2,0:0:0:0:
60,372,73096,1,8,0:0:0:0:
60,372,73171,1,8,0:0:0:0:
60,372,73246,1,8,0:0:0:0:
257,0,73546,5,2,2:0:0:0:
481,356,73846,1,2,2:0:0:0:
60,372,74146,1,2,2:0:0:0:
60,372,74296,1,2,2:0:0:0:
256,192,74446,5,2,0:0:0:0:
290,297,74596,1,2,0:0:0:0:
166,126,74746,1,12,0:0:0:0:
366,192,74896,1,0,0:0:0:0:
166,257,75046,2,0,P|119:253|51:262,1,93,0|2,0:0|0:0,0:0:0:0:
290,86,75346,2,0,P|337:90|405:81,1,93,8|0,0:0|0:0,0:0:0:0:
263,377,75646,6,0,L|255:186,1,186,2|8,0:0|0:0,0:0:0:0:
247,5,76096,2,0,L|254:190,1,186,2|2,0:0|0:0,0:0:0:0:
74,285,76546,5,8,0:0:0:0:
51,214,76696,1,0,0:0:0:0:
147,45,76846,5,2,0:0:0:0:
147,119,76996,1,2,0:0:0:0:
82,82,77146,5,8,0:0:0:0:
212,8,77296,2,0,B|311:31|257:87|386:122,1,186,0|2,0:0|0:0,0:0:0:0:
512,54,77746,5,8,0:0:0:0:
441,28,77896,1,0,0:0:0:0:
427,242,78046,5,2,0:0:0:0:
498,268,78196,1,2,0:0:0:0:
359,113,78346,5,8,0:0:0:0:
281,125,78496,1,2,0:0:0:0:
320,320,78646,6,0,P|326:263|328:207,1,93,0|2,0:0|0:0,0:0:0:0:
327,227,78871,1,2,0:0:0:0:
327,227,78946,1,12,0:0:0:0:
124,40,79096,5,2,0:0:0:0:
124,40,79171,1,2,0:0:0:0:
124,40,79246,1,8,0:0:0:0:
152,137,79396,1,2,0:0:0:0:
366,155,79546,5,8,0:0:0:0:
393,58,79696,1,2,0:0:0:0:
250,7,79846,6,0,P|258:48|261:102,1,93,8|2,0:0|0:0,0:0:0:0:
225,167,80146,1,8,0:0:0:0:
443,244,80296,1,2,0:0:0:0:
295,345,80446,6,0,P|247:348|176:358,1,93,8|2,0:0|0:0,0:0:0:0:
373,87,80746,2,0,P|397:123|428:162,1,93,8|2,0:0|0:0,0:0:0:0:
111,148,81046,2,0,P|133:104|148:62,1,93,8|2,0:0|0:0,0:0:0:0:
295,345,81346,5,8,0:0:0:0:
262,348,81421,1,2,0:0:0:0:
230,352,81496,1,2,0:0:0:0:
197,355,81571,1,2,0:0:0:0:
165,359,81646,5,8,0:0:0:0:
227,186,81796,1,2,0:0:0:0:
282,248,81946,5,8,0:0:0:0:
237,67,82096,1,2,0:0:0:0:
167,113,82246,5,8,0:0:0:0:
360,58,82396,1,2,0:0:0:0:
297,2,82546,5,8,0:0:0:0:
227,186,82696,1,2,0:0:0:0:
292,113,82846,5,8,0:0:0:0:
258,96,82921,1,8,0:0:0:0:
221,91,82996,1,2,0:0:0:0:
185,101,83071,1,2,0:0:0:0:
156,125,83146,5,2,0:0:0:0:
137,138,83221,1,2,0:0:0:0:
115,145,83296,1,2,0:0:0:0:
91,144,83371,1,2,0:0:0:0:
69,138,83446,6,0,P|57:101|55:77,3,46.5,2|2|2|2,0:0|0:0|0:0|0:0,0:0:0:0:
66,44,83746,6,0,P|91:43|136:29,1,55.7999982971192,2|0,0:0|0:0,0:0:0:0:
303,194,84046,6,0,P|250:192|193:182,2,93,6|0|0,0:0|0:0|0:0,0:0:0:0:
389,289,84946,2,0,P|436:282|497:287,2,93,2|2|2,0:0|0:0|0:0,0:0:0:0:
232,352,85846,6,0,P|145:355|126:267,1,186,2|2,0:0|0:0,0:0:0:0:
210,101,86746,2,0,L|228:196,1,93,2|0,0:0|0:0,0:0:0:0:
293,291,87346,1,2,0:0:0:0:
396,351,87646,5,2,0:0:0:0:
453,192,87946,1,2,0:0:0:0:
396,33,88246,1,2,0:0:0:0:
291,28,88546,5,2,0:0:0:0:
417,180,88846,1,2,0:0:0:0:
418,381,89146,1,2,0:0:0:0:
174,43,89446,6,0,P|126:42|56:34,1,93,6|0,0:0|0:0,0:0:0:0:
324,181,89746,2,0,P|372:181|438:191,1,93,2|0,0:0|0:0,0:0:0:0:
180,187,90046,5,2,0:0:0:0:
318,37,90196,1,0,0:0:0:0:
174,43,90346,5,2,0:0:0:0:
324,181,90496,1,0,0:0:0:0:
249,112,90646,6,0,P|159:97|49:91,1,186,2|2,0:0|0:0,0:0:0:0:
249,243,91096,1,2,0:0:0:0:
249,243,91171,1,2,0:0:0:0:
249,243,91246,2,0,P|305:228|342:222,1,93,0|0,0:0|0:0,0:0:0:0:
179,181,91546,5,2,0:0:0:0:
118,342,91696,1,0,0:0:0:0:
68,285,91846,6,0,P|71:237|60:178,1,93,2|0,0:0|0:0,0:0:0:0:
335,130,92146,2,0,P|332:178|343:237,1,93,2|0,0:0|0:0,0:0:0:0:
138,81,92446,5,2,0:0:0:0:
279,43,92596,1,0,0:0:0:0:
421,6,92746,1,2,0:0:0:0:
384,300,92896,5,8,0:0:0:0:
380,322,92971,1,8,0:0:0:0:
377,344,93046,1,12,0:0:0:0:
202,261,93196,1,2,0:0:0:0:
138,81,93346,1,2,0:0:0:0:
303,374,93496,5,8,0:0:0:0:
166,236,93646,1,2,0:0:0:0:
168,45,93796,1,2,0:0:0:0:
251,370,93946,5,12,0:0:0:0:
154,201,94096,1,0,0:0:0:0:
277,5,94246,5,8,0:0:0:0:
143,157,94396,1,2,0:0:0:0:
297,289,94546,1,8,0:0:0:0:
429,136,94696,1,12,0:0:0:0:
48,198,94996,5,8,0:0:0:0:
52,221,95071,1,8,0:0:0:0:
56,244,95146,1,8,0:0:0:0:
297,289,95296,1,2,0:0:0:0:
345,50,95446,1,8,0:0:0:0:
102,3,95596,2,0,L|87:88,1,74.4,12|0,0:0|2:0,0:0:0:0:
54,282,96046,6,2,B|89:76,1,209.250007982254,2|0,0:0|0:0,0:2:0:0:
194,67,96346,6,2,B|264:54|264:54|337:88|337:88|425:71,1,237.150004523277,0|0,0:0|0:0,1:2:0:0:
462,60,96646,5,6,0:0:0:0:
348,8,96796,1,2,0:0:0:0:
224,180,96946,5,8,0:0:0:0:
337,231,97096,1,0,0:0:0:0:
341,122,97246,5,2,0:0:0:0:
221,292,97396,1,2,0:0:0:0:
311,373,97546,5,8,0:0:0:0:
431,203,97696,1,0,0:0:0:0:
228,184,97846,5,2,0:0:0:0:
228,184,97996,1,2,0:0:0:0:
55,64,98146,5,8,0:0:0:0:
132,25,98296,1,2,0:0:0:0:
109,316,98446,5,0,0:0:0:0:
33,274,98596,2,0,P|25:220|8:152,1,106.950002039909,2|8,0:0|0:0,0:0:0:0:
305,16,98896,6,0,P|313:70|330:138,1,106.950002039909,0|2,0:0|0:0,0:0:0:0:
393,172,99196,1,2,0:0:0:0:
401,21,99346,5,8,0:0:0:0:
313,205,99496,1,0,0:0:0:0:
382,257,99646,5,2,0:0:0:0:
324,120,99796,1,2,0:0:0:0:
146,217,99946,5,8,0:0:0:0:
204,354,100096,1,0,0:0:0:0:
313,205,100246,5,2,0:0:0:0:
179,75,100396,1,2,0:0:0:0:
168,91,100471,1,2,0:0:0:0:
156,106,100546,2,0,P|92:97|30:93,1,106.950002039909,8|2,0:0|0:0,0:0:0:0:
306,35,100846,6,0,P|358:34|429:24,1,106.950002039909,0|2,0:0|0:0,0:0:0:0:
412,27,101071,1,2,0:0:0:0:
412,27,101146,1,8,0:0:0:0:
179,75,101296,5,2,0:0:0:0:
168,91,101371,1,2,0:0:0:0:
156,106,101446,2,0,P|86:120|28:1,2,213.900004079819,6|8|2,0:0|0:0|0:0,0:0:0:0:
204,46,102196,1,2,0:0:0:0:
256,192,102346,5,8,0:0:0:0:
256,192,102496,1,0,0:0:0:0:
144,219,102646,6,0,P|96:208|24:205,1,106.950002039909,2|2,0:0|0:0,0:0:0:0:
368,165,102946,2,0,P|416:176|488:179,1,106.950002039909,8|2,0:0|0:0,0:0:0:0:
176,108,103246,6,0,P|162:61|128:-2,1,106.950002039909,0|2,0:0|0:0,0:0:0:0:
335,275,103546,2,0,P|349:322|383:386,1,106.950002039909,8|0,0:0|0:0,0:0:0:0:
288,80,103846,5,6,0:0:0:0:
256,192,103996,1,2,0:0:0:0:
223,301,104146,1,8,0:0:0:0:
335,275,104296,5,6,0:0:0:0:
256,192,104446,1,0,0:0:0:0:
176,108,104596,1,2,0:0:0:0:
335,275,104746,5,6,0:0:0:0:
288,80,104896,2,0,L|305:150,1,53.4750010199547,2|2,0:0|0:0,0:0:0:0:
353,356,105046,6,0,L|336:286,1,53.4750010199547,12|2,0:0|0:0,0:0:0:0:
306,161,105196,1,2,0:0:0:0:
189,381,105346,5,2,0:0:0:0:
142,178,105496,2,0,L|159:248,1,53.4750010199547,12|8,0:0|0:0,0:0:0:0:
23,353,105646,5,2,0:0:0:0:
18,331,105721,1,2,0:0:0:0:
12,313,105796,2,0,L|-1:257,1,53.4750010199547,2|2,0:0|0:0,0:0:0:0:
209,299,105946,5,12,0:1:0:0:
251,297,106021,1,8,0:1:0:0:
294,295,106096,1,8,0:1:0:0:
337,293,106171,1,8,0:1:0:0:
379,291,106246,5,6,0:0:0:0:
445,372,106396,1,2,0:0:0:0:
512,235,106546,2,0,B|475:125|529:137|489:20,1,213.900004079819,8|2,0:0|0:0,0:0:0:0:
416,10,106996,1,2,0:0:0:0:
256,192,107146,5,8,0:0:0:0:
256,192,107296,1,0,0:0:0:0:
161,116,107446,6,0,P|128:79|75:18,1,106.950002039909,2|2,0:0|0:0,0:0:0:0:
351,268,107746,2,0,L|430:357,1,106.950002039909,8|2,0:0|0:0,0:0:0:0:
351,116,108046,2,0,L|426:31,1,106.950002039909,0|2,0:0|0:0,0:0:0:0:
161,268,108346,2,0,L|84:357,1,106.950002039909,8|0,0:0|0:0,0:0:0:0:
351,116,108646,6,0,L|473:108,1,106.950002039909,2|2,0:0|0:0,0:0:0:0:
256,267,108946,5,8,0:0:0:0:
357,102,109096,2,0,L|479:94,1,106.950002039909,0|2,0:0|0:0,0:0:0:0:
253,282,109396,5,2,0:0:0:0:
363,89,109546,2,0,L|485:81,1,106.950002039909,8|0,0:0|0:0,0:0:0:0:
250,297,109846,5,2,0:0:0:0:
369,75,109996,2,0,L|491:67,1,106.950002039909,2|8,0:0|0:0,0:0:0:0:
70,133,110296,5,2,0:0:0:0:
70,133,110371,1,2,0:0:0:0:
70,133,110446,2,0,B|63:90|63:90|68:63|68:63|57:10,1,106.950002039909,0|2,0:0|0:0,0:0:0:0:
196,282,110746,5,8,0:0:0:0:
228,264,110821,1,0,0:0:0:0:
265,258,110896,1,2,0:0:0:0:
302,265,110971,1,0,0:0:0:0:
334,284,111046,5,6,0:0:0:0:
243,139,111196,1,2,0:0:0:0:
98,229,111346,1,8,0:0:0:0:
188,373,111496,1,0,0:0:0:0:
318,192,111646,5,2,0:0:0:0:
152,154,111796,1,2,0:0:0:0:
113,320,111946,1,8,0:0:0:0:
278,358,112096,1,0,0:0:0:0:
334,284,112246,5,2,0:0:0:0:
188,373,112396,1,2,0:0:0:0:
98,229,112546,1,8,0:0:0:0:
243,139,112696,1,2,0:0:0:0:
279,359,112846,5,0,0:0:0:0:
113,319,112996,1,2,0:0:0:0:
151,153,113146,1,8,0:0:0:0:
317,192,113296,1,0,0:0:0:0:
334,284,113446,5,2,0:0:0:0:
243,139,113596,1,2,0:0:0:0:
98,229,113746,2,0,B|-18:216,1,106.950002039909,8|0,0:0|0:0,0:0:0:0:
115,30,114046,5,2,0:0:0:0:
151,153,114196,1,2,0:0:0:0:
286,22,114346,5,8,0:0:0:0:
271,170,114496,1,2,0:0:0:0:
396,35,114646,5,8,0:0:0:0:
399,50,114721,1,8,0:0:0:0:
403,66,114796,1,2,0:0:0:0:
407,81,114871,1,2,0:0:0:0:
411,97,114946,1,2,0:0:0:0:
415,112,115021,1,2,0:0:0:0:
419,128,115096,1,2,0:0:0:0:
423,143,115171,1,2,0:0:0:0:
427,159,115246,5,2,0:0:0:0:
396,150,115321,1,2,0:0:0:0:
364,146,115396,1,2,0:0:0:0:
332,150,115471,1,2,0:0:0:0:
302,160,115546,1,2,0:0:0:0:
271,170,115621,1,2,0:0:0:0:
239,174,115696,1,2,0:0:0:0:
208,170,115771,1,2,0:0:0:0:
178,159,115846,5,6,0:0:0:0:
168,81,115996,1,2,0:0:0:0:
379,245,116146,5,8,0:0:0:0:
386,324,116296,1,0,0:0:0:0:
196,271,116446,5,2,0:0:0:0:
362,128,116596,1,2,0:0:0:0:
379,245,116746,5,8,0:0:0:0:
178,159,116896,1,0,0:0:0:0:
206,74,117046,5,2,0:0:0:0:
206,74,117196,1,2,0:0:0:0:
280,204,117346,5,8,0:0:0:0:
67,183,117496,1,2,0:0:0:0:
178,159,117646,5,0,0:0:0:0:
137,248,117796,2,0,P|132:289|114:367,1,106.950002039909,2|8,0:0|0:0,0:0:0:0:
0,114,118096,6,0,P|5:73|23:-5,1,106.950002039909,0|2,0:0|0:0,0:0:0:0:
97,0,118396,1,2,0:0:0:0:
183,163,118546,5,8,0:0:0:0:
183,163,118696,1,0,0:0:0:0:
100,125,118846,5,2,0:0:0:0:
305,75,118996,1,2,0:0:0:0:
268,155,119146,5,8,0:0:0:0:
97,0,119296,1,0,0:0:0:0:
178,37,119446,5,2,0:0:0:0:
21,183,119596,1,2,0:0:0:0:
16,167,119671,1,2,0:0:0:0:
10,151,119746,2,0,P|19:99|22:40,1,106.950002039909,8|2,0:0|0:0,0:0:0:0:
211,226,120046,6,0,P|202:278|199:337,1,106.950002039909,0|2,0:0|0:0,0:0:0:0:
205,346,120271,1,2,0:0:0:0:
214,359,120346,1,8,0:0:0:0:
442,170,120496,5,2,0:0:0:0:
429,159,120571,1,2,0:0:0:0:
414,149,120646,2,0,B|320:112|305:188|206:134,2,213.900004079819,6|8|2,0:0|0:0|0:0,0:0:0:0:
458,209,121396,1,2,0:0:0:0:
256,288,121546,5,8,0:0:0:0:
256,288,121696,1,0,0:0:0:0:
110,102,121846,5,2,0:0:0:0:
110,102,121996,1,2,0:0:0:0:
166,336,122146,5,8,0:0:0:0:
166,336,122296,1,2,0:0:0:0:
400,280,122446,5,0,0:0:0:0:
400,280,122596,1,2,0:0:0:0:
344,46,122746,5,8,0:0:0:0:
344,46,122896,1,0,0:0:0:0:
110,102,123046,5,12,0:0:0:0:
256,192,123196,1,2,0:0:0:0:
400,280,123346,1,2,0:0:0:0:
344,46,123496,5,12,0:0:0:0:
256,192,123646,1,2,0:0:0:0:
166,336,123796,1,2,0:0:0:0:
232,70,123946,5,12,0:0:0:0:
306,319,124096,2,0,L|314:249,1,53.4750010199547,2|2,0:0|0:0,0:0:0:0:
344,46,124246,6,0,L|320:118,1,53.4750010199547,12|8,0:0|0:0,0:0:0:0:
179,250,124396,1,2,0:0:0:0:
140,23,124546,5,2,0:0:0:0:
73,284,124696,2,4,L|67:215,1,53.4750010199547,12|8,0:0|0:0,0:0:0:0:
23,13,124846,5,2,0:0:0:0:
17,35,124921,1,2,0:0:0:0:
12,53,124996,2,0,L|-1:109,1,53.4750010199547,2|2,0:0|0:0,0:0:0:0:
190,150,125146,5,12,0:0:0:0:
231,146,125221,1,8,0:0:0:0:
274,143,125296,1,8,0:0:0:0:
317,140,125371,1,8,0:0:0:0:
359,138,125446,5,6,0:0:0:0:
474,197,125596,1,2,0:0:0:0:
425,9,125746,2,0,P|387:108|388:214,1,213.900004079819,8|2,0:0|0:0,0:0:0:0:
445,271,126196,1,2,0:0:0:0:
256,192,126346,5,8,0:0:0:0:
256,192,126496,1,0,0:0:0:0:
85,294,126646,5,2,0:0:0:0:
85,294,126796,1,0,0:0:0:0:
151,21,126946,5,8,0:0:0:0:
151,21,127096,1,2,0:0:0:0:
425,87,127246,5,0,0:0:0:0:
425,87,127396,1,2,0:0:0:0:
358,361,127546,5,8,0:0:0:0:
358,361,127696,1,0,0:0:0:0:
256,192,127846,5,2,0:0:0:0:
358,361,127996,1,0,0:0:0:0:
512,81,128146,2,0,P|418:63|287:6,1,213.900004079819,8|2,0:0|0:0,0:0:0:0:
244,57,128596,1,2,0:0:0:0:
394,252,128746,6,0,P|402:189|417:135,1,106.950002039909,8|0,0:0|0:0,0:0:0:0:
147,20,129046,2,0,P|159:71|165:124,1,106.950002039909,2|2,0:0|0:0,0:0:0:0:
165,125,129271,1,0,0:0:0:0:
165,125,129346,1,8,0:0:0:0:
123,299,129496,6,0,P|99:202|0:198,1,213.900004079819,2|2,0:0|0:0,0:0:0:0:
42,345,129946,5,8,0:0:0:0:
97,343,130021,1,0,0:0:0:0:
152,341,130096,1,2,0:0:0:0:
206,340,130171,1,0,0:0:0:0:
261,338,130246,6,0,P|278:289|276:221,1,106.950002039909,6|0,0:0|0:0,0:0:0:0:
235,172,130546,1,8,0:0:0:0:
492,147,130696,2,0,P|393:155|378:253,1,213.900004079819,2|2,0:0|0:0,0:0:0:0:
500,337,131146,1,8,0:0:0:0:
500,337,131296,1,2,0:0:0:0:
422,365,131446,6,0,P|379:355|315:347,1,106.950002039909,2|2,0:0|0:0,0:0:0:0:
243,367,131746,1,8,0:0:0:0:
280,115,131896,2,0,P|376:141|379:241,1,213.900004079819,2|2,0:0|0:0,0:0:0:0:
214,292,132346,1,8,0:0:0:0:
214,292,132496,1,0,0:0:0:0:
280,115,132646,6,0,P|288:61|289:-1,1,106.950002039909,2|8,0:0|0:0,0:0:0:0:
289,8,132871,1,8,0:0:0:0:
289,8,132946,1,8,0:0:0:0:
212,189,133096,5,2,0:0:0:0:
435,199,133246,2,0,L|362:199,1,53.4750010199547,8|8,0:0|0:0,0:0:0:0:
231,199,133396,1,8,0:0:0:0:
471,349,133546,5,2,0:0:0:0:
262,349,133696,2,0,L|334:348,1,53.4750010199547,8|8,0:0|0:0,0:0:0:0:
490,339,133846,5,8,0:0:0:0:
322,336,133996,1,8,0:0:0:0:
314,160,134146,1,2,0:0:0:0:
314,157,134221,1,2,0:0:0:0:
314,154,134296,1,8,0:0:0:0:
314,151,134371,1,8,0:0:0:0:
314,148,134446,5,8,0:0:0:0:
282,153,134521,1,8,0:0:0:0:
250,153,134596,1,2,0:0:0:0:
219,146,134671,1,2,0:0:0:0:
189,133,134746,1,2,0:0:0:0:
159,122,134821,1,2,0:0:0:0:
128,117,134896,1,2,0:0:0:0:
95,117,134971,1,2,0:0:0:0:
65,129,135046,5,12,0:0:0:0:
15,51,135196,1,2,0:0:0:0:
108,0,135346,5,8,0:0:0:0:
152,245,135496,1,2,0:0:0:0:
262,285,135646,5,8,0:0:0:0:
320,12,135796,1,2,0:0:0:0:
427,4,135946,5,8,0:0:0:0:
470,348,136096,1,2,0:0:0:0:
133,278,136246,6,0,L|-1:261,1,134.850004115296,8|2,0:0|0:0,0:0:0:0:
379,278,136546,2,0,L|513:261,1,134.850004115296,8|2,0:0|0:0,0:0:0:0:
66,152,136846,6,0,P|56:75|72:15,1,134.850004115296,8|2,0:0|0:0,0:0:0:0:
446,152,137146,2,0,P|456:75|440:15,1,134.850004115296,8|2,0:0|0:0,0:0:0:0:
256,320,137446,6,0,L|256:224,1,67.4250020576478,8|0,0:0|0:0,0:0:0:0:
66,152,137596,2,0,B|0:176|0:176|63:226,1,134.850004115296,8|2,0:0|0:0,0:0:0:0:
256,320,137896,6,0,L|256:224,1,67.4250020576478,8|0,0:0|0:0,0:0:0:0:
446,152,138046,2,0,B|512:176|512:176|449:226,1,134.850004115296,8|2,0:0|0:0,0:0:0:0:
256,29,138346,6,0,L|257:113,1,67.4250020576478,8|0,0:0|0:0,0:0:0:0:
256,320,138496,1,8,0:0:0:0:
256,323,138571,1,2,0:0:0:0:
256,326,138646,1,2,0:0:0:0:
256,29,138796,6,0,L|257:113,1,67.4250020576478,8|2,0:0|0:0,0:0:0:0:
256,326,138946,1,8,0:0:0:0:
67,104,139846,5,6,0:0:0:0:
257,122,139996,1,2,0:0:0:0:
379,270,140146,1,2,0:0:0:0:
413,257,140296,5,2,0:0:0:0:
250,159,140446,1,2,0:0:0:0:
64,207,140596,1,2,0:0:0:0:
91,303,140746,5,12,0:0:0:0:
249,196,140896,1,2,0:0:0:0:
437,230,141046,1,2,0:0:0:0:
440,195,141196,5,8,0:0:0:0:
252,228,141346,1,2,0:0:0:0:
140,382,141496,2,0,L|91:303,1,67.4250020576478,8|8,0:0|0:0,0:0:0:0:
91,303,141646,6,0,P|104:170|117:67,1,230.17500219512,12|0,0:0|0:0,0:0:0:0:
249,34,141946,6,0,P|252:121|269:310,1,272.025001037693,8|0,0:0|0:0,0:0:0:0:
432,369,142246,5,6,0:0:0:0:
256,192,142321,12,6,147046,0:0:0:0:
