osu file format v14

[General]
AudioFilename: audio.mp3
AudioLeadIn: 0
PreviewTime: 244678
Countdown: 0
SampleSet: Normal
StackLeniency: 0.4
Mode: 0
LetterboxInBreaks: 0
WidescreenStoryboard: 0

[Editor]
Bookmarks: 12393,13593,23043,37593,56793,66393,75993,85593,90993,98193,117393,143793,153393,172593,182193,191793,201393,206793,214003,229453,234853,245653,264853,291253,300703,310453,315253
DistanceSpacing: 1.1
BeatDivisor: 4
GridSize: 4
TimelineZoom: 6.099997

[Metadata]
Title:Towa yori Towa ni
TitleUnicode:永久より永遠に
Artist:marina
ArtistUnicode:marina
Creator:lit120
Version:Endless Love
Source:少女神域∽少女天獄 -The Garden of Fifth Zoa-
Tags:shoujo shiniki tengoku eikyuu yori eien ni lass ed ending visual novel eroge -Hakurei-
BeatmapID:1726261
BeatmapSetID:823806

[Difficulty]
HPDrainRate:6
CircleSize:4
OverallDifficulty:9
ApproachRate:9.7
SliderMultiplier:1.8
SliderTickRate:1

[Events]
//Background and Video events
0,0,"bg.jpg",0,0
//Break Periods
//Storyboard Layer 0 (Background)
//Storyboard Layer 1 (Fail)
//Storyboard Layer 2 (Pass)
//Storyboard Layer 3 (Foreground)
//Storyboard Sound Samples

[TimingPoints]
1593,300,4,1,1,60,1,0
13293,-76.9230769230769,4,1,1,60,0,0
13593,-125,4,1,1,60,0,0
23043,-90.9090909090909,4,1,1,60,0,0
32793,-100,4,1,1,50,0,0
37593,-200,4,2,1,50,0,0
52293,-142.857142857143,4,2,1,20,0,0
52593,-142.857142857143,4,2,1,30,0,0
53193,-125,4,2,1,50,0,0
53793,-125,4,2,1,55,0,0
54393,-100,4,1,1,60,0,0
66393,-125,4,1,1,60,0,0
75093,-166.666666666667,4,2,1,60,0,0
75993,-100,4,1,1,60,0,0
85593,300,3,2,1,55,1,0
85593,-200,3,2,1,55,0,0
90993,300,4,1,1,60,1,0
98193,-83.3333333333333,4,1,1,70,0,1
114993,-83.3333333333333,4,1,1,70,0,0
117393,-83.3333333333333,4,1,1,70,0,1
140793,-166.666666666667,4,1,1,70,0,0
141393,-100,4,1,1,65,0,0
143193,-58.8235294117647,4,1,1,70,0,0
143418,-76.9230769230769,4,2,1,5,0,0
143493,-58.8235294117647,4,1,1,70,0,0
143718,-76.9230769230769,4,2,1,5,0,0
143793,-100,4,1,1,60,0,0
153393,-125,4,2,1,55,0,0
170193,-100,4,1,1,60,0,0
182193,-125,4,1,1,55,0,0
191718,-125,4,2,1,5,0,0
191793,-200,4,1,1,55,0,0
195993,-100,4,1,1,60,0,0
201393,300,3,2,1,55,1,0
201393,-200,3,2,1,55,0,0
206803,300,4,1,1,60,1,0
214003,-90.9090909090909,4,1,1,60,0,0
227053,300,4,1,1,60,1,0
229153,-100,4,2,1,55,0,0
229453,300,3,2,1,55,1,0
229453,-200,3,2,1,55,0,0
234853,300,4,1,1,60,1,0
236353,-100,4,1,1,60,0,0
244453,-100,4,2,1,20,0,0
245353,-133.333333333333,4,2,1,35,0,0
245653,-100,4,1,1,70,0,0
246103,-100,4,2,1,50,0,0
247903,-100,4,1,1,70,0,0
248503,-100,4,2,1,50,0,0
249853,-100,4,1,1,70,0,0
251053,-100,4,2,1,50,0,0
251653,-100,4,1,1,70,0,0
255253,-83.3333333333333,4,1,1,70,0,1
262453,-83.3333333333333,4,1,1,70,0,0
264853,-83.3333333333333,4,1,1,70,0,1
288253,-166.666666666667,4,1,1,65,0,0
291253,-100,4,1,1,60,0,0
300703,-90.9090909090909,4,1,1,60,0,0
311053,-100,4,1,1,50,0,0
311653,-100,4,1,1,40,0,0
312253,-100,4,1,1,30,0,0
312853,-100,4,1,1,20,0,0
314053,-100,4,1,1,15,0,0
315253,-100,4,2,1,9,0,0

[Colours]
Combo1 : 27,40,179
Combo2 : 180,15,34
Combo3 : 131,62,35
Combo4 : 94,43,106

[HitObjects]
165,125,12393,5,0,0:0:0:0:
165,125,12468,1,0,0:0:0:0:
165,125,12543,1,0,0:0:0:0:
128,311,12693,1,0,0:0:0:0:
346,125,12843,5,0,0:0:0:0:
346,125,12918,1,0,0:0:0:0:
346,125,12993,1,0,0:0:0:0:
384,311,13143,1,0,0:0:0:0:
256,57,13293,6,0,L|256:174,1,116.999994644165
438,78,13593,5,0,0:0:0:0:
433,180,13743,1,0,0:0:0:0:
346,125,13893,5,0,0:0:0:0:
433,180,14193,1,0,0:0:0:0:
438,78,14493,1,0,0:0:0:0:
428,282,14643,5,0,0:0:0:0:
342,228,14793,1,0,0:0:0:0:
346,125,14943,1,0,0:0:0:0:
251,276,15093,5,0,0:0:0:0:
342,228,15393,1,0,0:0:0:0:
428,282,15693,1,0,0:0:0:0:
256,174,15843,5,0,0:0:0:0:
346,125,15993,1,0,0:0:0:0:
342,228,16143,1,0,0:0:0:0:
170,120,16293,5,0,0:0:0:0:
165,222,16593,1,0,0:0:0:0:
256,174,16893,1,0,0:0:0:0:
74,270,17043,5,0,0:0:0:0:
165,222,17193,1,0,0:0:0:0:
251,276,17343,1,0,0:0:0:0:
170,120,17493,1,0,0:0:0:0:
165,222,17643,1,0,0:0:0:0:
261,72,17793,5,0,0:0:0:0:
288,87,17868,1,0,0:0:0:0:
319,93,17943,1,0,0:0:0:0:
350,89,18018,1,0,0:0:0:0:
377,74,18093,1,0,0:0:0:0:
404,57,18168,1,0,0:0:0:0:
436,53,18243,1,0,0:0:0:0:
467,60,18318,1,0,0:0:0:0:
494,75,18393,6,0,P|501:109|498:145,1,72
370,227,18693,2,0,P|363:193|366:157,1,72
492,227,18993,2,0,P|499:261|496:297,1,72
368,379,19293,1,0,0:0:0:0:
216,251,19443,5,0,0:0:0:0:
305,317,19593,1,0,0:0:0:0:
370,227,19743,1,0,0:0:0:0:
282,162,19893,2,0,P|274:127|277:91,1,72
370,226,20193,2,0,P|373:191|366:156,1,72
305,317,20493,1,0,0:0:0:0:
193,96,20643,5,0,0:0:0:0:
216,251,20793,1,0,0:0:0:0:
232,51,20943,5,0,0:0:0:0:
177,296,21093,1,0,0:0:0:0:
115,107,21243,5,0,0:0:0:0:
294,240,21393,1,0,0:0:0:0:
43,191,21543,5,0,0:0:0:0:
366,156,21693,1,0,0:0:0:0:
6,86,21843,5,0,0:0:0:0:
6,86,22143,5,0,0:0:0:0:
403,261,22293,1,0,0:0:0:0:
403,261,22593,5,0,0:0:0:0:
369,244,22668,1,0,0:0:0:0:
332,246,22743,1,0,0:0:0:0:
301,265,22818,1,0,0:0:0:0:
268,283,22893,1,0,0:0:0:0:
231,284,22968,1,0,0:0:0:0:
198,268,23043,6,0,B|198:201|198:201|230:145|230:145|230:78,1,198.000006042481
130,322,23493,1,0,0:0:0:0:
130,322,23793,1,0,0:0:0:0:
301,265,23943,1,0,0:0:0:0:
73,151,24093,1,0,0:0:0:0:
358,93,24243,6,0,P|409:159|328:178,1,198.000006042481
102,66,24693,1,0,0:0:0:0:
102,66,24993,1,0,0:0:0:0:
159,237,25143,1,0,0:0:0:0:
358,93,25293,1,0,0:0:0:0:
73,150,25443,6,0,P|39:241|81:330,1,198.000006042481
231,80,25893,1,0,0:0:0:0:
231,80,26193,1,0,0:0:0:0:
198,351,26343,1,0,0:0:0:0:
73,150,26493,1,0,0:0:0:0:
357,281,26643,6,0,P|290:261|228:273,1,99.0000030212403
79,328,26943,1,0,0:0:0:0:
79,328,27018,1,0,0:0:0:0:
79,328,27093,1,0,0:0:0:0:
152,115,27243,1,0,0:0:0:0:
152,115,27318,1,0,0:0:0:0:
152,115,27393,5,0,0:0:0:0:
190,145,27468,1,0,0:0:0:0:
237,155,27543,1,0,0:0:0:0:
285,144,27618,1,0,0:0:0:0:
321,115,27693,1,0,0:0:0:0:
359,84,27768,1,0,0:0:0:0:
406,72,27843,1,0,0:0:0:0:
453,83,27918,1,0,0:0:0:0:
491,113,27993,6,0,B|492:262|492:262|452:232,1,198.000006042481
321,115,28443,1,0,0:0:0:0:
321,115,28518,1,0,0:0:0:0:
321,115,28593,1,0,0:0:0:0:
284,288,28743,1,0,0:0:0:0:
236,30,28893,1,0,0:0:0:0:
366,259,29043,6,0,P|368:313|331:363,1,99.0000030212403
216,183,29343,1,0,0:0:0:0:
425,147,29493,1,0,0:0:0:0:
198,270,29643,2,0,P|154:246|128:183,1,99.0000030212403
236,30,29943,1,0,0:0:0:0:
236,30,30018,1,0,0:0:0:0:
236,30,30093,1,0,0:0:0:0:
284,288,30243,6,0,P|223:355|114:299,1,198.000006042481
154,118,30693,1,0,0:0:0:0:
198,270,30843,1,0,0:0:0:0:
236,30,30993,1,0,0:0:0:0:
130,204,31143,1,0,0:0:0:0:
130,204,31218,1,0,0:0:0:0:
130,204,31293,1,0,0:0:0:0:
410,136,31443,6,0,P|413:77|385:27,1,99.0000030212403
270,170,31743,1,0,0:0:0:0:
270,170,31818,1,0,0:0:0:0:
270,170,31893,1,0,0:0:0:0:
444,276,32043,1,0,0:0:0:0:
444,276,32118,1,0,0:0:0:0:
444,276,32193,5,0,0:0:0:0:
391,244,32268,1,0,0:0:0:0:
330,240,32343,1,0,0:0:0:0:
274,266,32418,1,0,0:0:0:0:
236,314,32493,2,0,L|236:363,1,49.5000015106202
96,205,32643,2,0,L|96:254,1,49.5000015106202
260,137,32793,5,0,0:0:0:0:
288,138,33093,1,0,0:0:0:0:
316,140,33393,1,0,0:0:0:0:
344,142,33693,1,0,0:0:0:0:
324,302,33843,1,0,0:0:0:0:
372,143,33993,5,0,0:0:0:0:
400,145,34293,1,0,0:0:0:0:
428,147,34593,1,0,0:0:0:0:
456,148,34893,1,0,0:0:0:0:
435,307,35043,1,0,0:0:0:0:
484,150,35193,5,0,0:0:0:0:
389,59,35343,1,0,0:0:0:0:
360,71,35418,1,0,0:0:0:0:
329,73,35493,1,0,0:0:0:0:
299,65,35568,1,0,0:0:0:0:
273,46,35643,1,0,0:0:0:0:
255,20,35718,1,0,0:0:0:0:
238,46,35793,1,0,0:0:0:0:
212,65,35868,1,0,0:0:0:0:
182,73,35943,1,0,0:0:0:0:
151,71,36018,1,0,0:0:0:0:
122,59,36093,6,0,L|116:3,1,45
21,160,36243,2,0,L|27:103,1,45
222,160,36393,5,0,0:0:0:0:
190,151,36468,1,0,0:0:0:0:
158,152,36543,1,0,0:0:0:0:
128,163,36618,1,0,0:0:0:0:
103,183,36693,1,0,0:0:0:0:
84,210,36768,1,0,0:0:0:0:
75,241,36843,1,0,0:0:0:0:
76,273,36918,1,0,0:0:0:0:
86,303,36993,5,0,0:0:0:0:
98,297,37068,1,0,0:0:0:0:
110,291,37143,1,0,0:0:0:0:
121,285,37218,1,0,0:0:0:0:
133,280,37293,1,0,0:0:0:0:
144,274,37368,1,0,0:0:0:0:
156,268,37443,1,0,0:0:0:0:
168,262,37518,1,0,0:0:0:0:
179,256,37593,5,0,0:0:0:0:
179,256,38193,1,0,0:0:0:0:
222,160,38493,1,0,0:0:0:0:
328,172,38793,1,0,0:0:0:0:
349,274,39093,1,0,0:0:0:0:
258,327,39393,1,0,0:0:0:0:
258,327,39993,5,0,0:0:0:0:
286,75,40443,1,0,0:0:0:0:
490,225,40893,1,0,0:0:0:0:
490,225,41793,5,0,0:0:0:0:
345,209,42093,1,0,0:0:0:0:
345,209,42243,1,0,0:0:0:0:
345,209,42393,1,0,0:0:0:0:
490,225,42993,5,0,0:0:0:0:
345,209,43293,1,0,0:0:0:0:
345,209,43443,1,0,0:0:0:0:
345,209,43593,1,0,0:0:0:0:
258,327,43893,1,0,0:0:0:0:
403,343,44193,1,0,0:0:0:0:
403,343,44793,5,0,0:0:0:0:
200,193,45243,1,0,0:0:0:0:
432,91,45693,1,0,0:0:0:0:
258,327,46293,5,0,0:0:0:0:
141,59,46893,1,0,0:0:0:0:
132,143,47043,1,0,0:0:0:0:
209,108,47193,1,0,0:0:0:0:
64,94,47493,5,0,0:0:0:0:
123,227,47793,1,0,0:0:0:0:
209,108,48093,1,0,0:0:0:0:
209,108,48243,1,0,0:0:0:0:
209,108,48693,5,0,0:0:0:0:
123,227,48993,1,0,0:0:0:0:
64,94,49293,1,0,0:0:0:0:
269,242,49593,5,0,0:0:0:0:
47,262,50043,1,0,0:0:0:0:
141,59,50493,1,0,0:0:0:0:
141,59,51093,5,0,0:0:0:0:
47,262,51393,1,0,0:0:0:0:
269,242,51693,1,0,0:0:0:0:
152,187,51993,1,0,0:0:0:0:
152,187,52293,5,0,0:0:0:0:
164,317,52443,1,0,0:0:0:0:
238,156,52593,5,0,0:0:0:0:
237,309,52743,1,0,0:0:0:0:
324,125,52893,5,0,0:0:0:0:
310,301,53043,1,0,0:0:0:0:
410,94,53193,5,0,0:0:0:0:
382,292,53343,1,0,0:0:0:0:
321,69,53493,5,0,0:0:0:0:
310,283,53643,1,0,0:0:0:0:
232,46,53793,5,0,0:0:0:0:
237,274,53943,1,0,0:0:0:0:
144,23,54093,5,0,0:0:0:0:
164,267,54243,1,0,0:0:0:0:
410,94,54393,5,0,0:0:0:0:
152,160,54543,1,0,0:0:0:0:
339,350,54693,1,0,0:0:0:0:
261,52,54843,5,0,0:0:0:0:
448,242,54993,1,0,0:0:0:0:
190,309,55143,1,0,0:0:0:0:
410,94,55293,5,0,0:0:0:0:
152,160,55443,1,0,0:0:0:0:
448,242,55593,5,0,0:0:0:0:
410,94,55743,1,0,0:0:0:0:
410,94,55893,1,0,0:0:0:0:
190,309,56043,5,0,0:0:0:0:
339,350,56193,1,0,0:0:0:0:
339,350,56343,1,0,0:0:0:0:
261,52,56493,5,0,0:0:0:0:
152,160,56643,1,0,0:0:0:0:
447,241,56793,6,0,P|406:221|361:218,1,90
122,314,57093,1,0,0:0:0:0:
225,200,57243,1,0,0:0:0:0:
338,303,57392,2,0,P|361:217|325:137,1,180
134,58,57843,6,0,P|175:77|220:81,1,90
319,17,58143,1,0,0:0:0:0:
135,58,58293,2,0,P|115:98|112:143,1,90
174,257,58593,1,0,0:0:0:0:
219,81,58743,1,0,0:0:0:0:
45,255,58893,1,0,0:0:0:0:
248,182,59043,6,0,P|357:173|445:200,1,180
174,257,59493,1,0,0:0:0:0:
219,81,59643,1,0,0:0:0:0:
277,283,59793,2,0,P|222:352|135:357,1,180
169,169,60243,6,0,P|181:212|174:256,1,90
36,321,60543,1,0,0:0:0:0:
170,170,60693,2,0,P|213:158|257:165,1,90
375,357,60993,1,0,0:0:0:0:
361,132,61143,1,0,0:0:0:0:
361,132,61218,1,0,0:0:0:0:
361,132,61293,1,0,0:0:0:0:
174,257,61443,1,0,0:0:0:0:
443,204,61593,6,0,P|464:165|466:99,1,90
223,62,61893,1,0,0:0:0:0:
361,132,62043,1,0,0:0:0:0:
169,170,62193,2,0,P|114:110|118:3,1,180
290,161,62643,6,0,P|295:205|292:250,1,90
160,315,62943,1,0,0:0:0:0:
381,247,63093,2,0,P|336:244|292:249,1,90
160,315,63393,1,0,0:0:0:0:
383,337,63543,2,0,P|456:296|451:192,1,180
181,92,63993,5,0,0:0:0:0:
175,220,64143,1,0,0:0:0:0:
290,161,64293,1,0,0:0:0:0:
66,151,64443,5,0,0:0:0:0:
284,289,64593,1,0,0:0:0:0:
296,33,64743,1,0,0:0:0:0:
296,33,64818,1,0,0:0:0:0:
296,33,64893,2,0,P|357:28|396:38,1,90
456,265,65193,5,0,0:0:0:0:
418,238,65268,1,0,0:0:0:0:
374,226,65343,1,0,0:0:0:0:
330,228,65418,1,0,0:0:0:0:
289,244,65493,2,0,L|284:289,1,45
57,161,65643,5,0,0:0:0:0:
95,134,65718,1,0,0:0:0:0:
139,122,65793,1,0,0:0:0:0:
183,124,65868,1,0,0:0:0:0:
223,140,65943,2,0,L|228:184,1,45
378,351,66093,5,0,0:0:0:0:
376,288,66168,1,0,0:0:0:0:
374,226,66243,1,0,0:0:0:0:
371,163,66318,1,0,0:0:0:0:
368,100,66393,6,0,L|354:13,1,72
223,140,66693,2,0,L|237:53,1,72
374,226,66993,1,0,0:0:0:0:
374,226,67143,1,0,0:0:0:0:
305,278,67293,1,0,0:0:0:0:
305,278,67443,1,0,0:0:0:0:
231,229,67593,6,0,P|163:216|106:258,1,144
182,301,68043,1,0,0:0:0:0:
182,157,68193,2,0,L|182:301,1,144
256,344,68643,1,0,0:0:0:0:
457,303,68793,6,0,P|394:273|330:300,1,144
182,300,69243,2,0,P|118:272|55:303,1,144
119,359,69693,2,0,L|119:215,1,144
256,61,70143,2,0,L|256:205,1,144
393,359,70593,5,0,0:0:0:0:
256,205,70743,1,0,0:0:0:0:
119,359,70893,1,0,0:0:0:0:
393,215,71043,1,0,0:0:0:0:
182,141,71193,6,0,P|164:172|158:208,1,72
273,109,71493,2,0,P|254:78|227:55,1,72
256,205,71793,1,0,0:0:0:0:
256,205,71943,1,0,0:0:0:0:
321,261,72093,1,0,0:0:0:0:
321,261,72243,1,0,0:0:0:0:
393,215,72393,6,0,P|402:284|358:338,1,144
321,261,72843,1,0,0:0:0:0:
463,211,72993,2,0,P|427:206|393:215,1,72
288,341,73293,2,0,P|324:346|358:338,1,72
255,204,73593,6,0,P|186:191|118:213,1,144
44,104,74043,2,0,P|114:91|182:113,1,144
275,40,74493,1,0,0:0:0:0:
321,261,74643,1,0,0:0:0:0:
321,261,74718,1,0,0:0:0:0:
321,261,74793,1,0,0:0:0:0:
321,261,75093,6,0,B|321:315|321:315|269:381,2,107.999996704102,0|0|0,2:0|2:0|2:0,2:0:0:0:
298,150,75843,1,0,2:0:0:0:
210,284,75993,5,0,0:0:0:0:
406,186,76143,1,0,0:0:0:0:
224,66,76293,2,0,P|179:61|136:73,1,90
23,212,76593,2,0,P|67:216|110:204,1,90
223,66,76893,2,0,P|197:101|186:145,1,90
250,314,77193,6,0,P|334:333|398:275,1,180
309,62,77644,2,0,L|311:242,1,180
489,251,78093,2,0,P|467:212|431:187,1,90
186,145,78393,6,0,P|225:222|310:242,1,180
206,41,78843,2,0,P|118:67|83:162,1,180
284,110,79293,2,0,P|306:70|305:7,1,90
291,318,79593,6,0,P|315:356|370:386,1,90
107,219,79893,2,0,P|61:220|7:253,1,90
284,110,80193,1,0,0:0:0:0:
227,217,80343,1,0,0:0:0:0:
227,217,80418,1,0,0:0:0:0:
227,217,80493,1,0,0:0:0:0:
165,113,80643,1,0,0:0:0:0:
375,296,80793,5,0,0:0:0:0:
126,304,80943,1,0,0:0:0:0:
345,233,81093,5,0,0:0:0:0:
78,261,81243,1,0,0:0:0:0:
383,176,81393,5,0,0:0:0:0:
91,197,81543,1,0,0:0:0:0:
352,113,81693,5,0,0:0:0:0:
42,154,81843,1,0,0:0:0:0:
345,233,81993,5,0,0:0:0:0:
117,69,82143,1,0,0:0:0:0:
421,120,82293,5,0,0:0:0:0:
91,197,82443,1,0,0:0:0:0:
375,296,82593,5,0,0:0:0:0:
165,113,82743,1,0,0:0:0:0:
451,182,82893,6,0,L|406:190,1,45
139,241,83043,2,0,L|183:232,1,45
405,358,83193,5,0,0:0:0:0:
352,113,83343,1,0,0:0:0:0:
308,384,83493,5,0,0:0:0:0:
304,126,83643,1,0,0:0:0:0:
206,372,83793,5,0,0:0:0:0:
253,120,83943,1,0,0:0:0:0:
115,326,84093,5,0,0:0:0:0:
207,97,84243,2,0,L|207:142,1,45
379,236,84393,5,0,0:0:0:0:
345,215,84468,1,0,0:0:0:0:
307,208,84543,1,0,0:0:0:0:
269,215,84618,1,0,0:0:0:0:
236,236,84693,1,0,0:0:0:0:
203,257,84768,1,0,0:0:0:0:
164,264,84843,1,0,0:0:0:0:
126,257,84918,1,0,0:0:0:0:
93,236,84993,6,0,L|93:191,1,45
207,97,85143,2,0,L|207:142,1,45
297,329,85293,6,0,L|297:284,1,45
327,48,85443,2,0,L|327:93,1,45
384,323,85593,6,0,P|449:288|439:172,1,180
229,209,86493,1,0,0:0:0:0:
379,236,86793,1,0,0:0:0:0:
327,93,87093,1,0,0:0:0:0:
237,298,87393,6,0,P|149:305|72:261,1,180
72,122,88293,2,0,P|149:78|237:85,1,180
379,236,89193,5,0,0:0:0:0:
327,93,89493,1,0,0:0:0:0:
229,209,89793,1,0,0:0:0:0:
424,138,90093,5,0,0:0:0:0:
290,297,90393,1,0,0:0:0:0:
220,102,90693,1,0,0:0:0:0:
450,210,90993,6,0,P|459:253|450:297,1,90
326,180,91293,2,0,P|318:136|327:92,1,90
450,298,91593,2,0,P|406:306|362:297,1,90
327,93,91893,2,0,P|370:84|414:93,1,90
285,256,92193,6,0,P|200:231|112:249,1,180
31,116,92643,2,0,P|117:141|205:124,1,180
370,16,93093,2,0,P|341:50|326:92,1,90
472,272,93393,6,0,P|457:229|428:195,1,90
200,232,93693,2,0,P|243:240|287:232,1,90
414,93,93993,2,0,P|370:84|327:93,1,90
123,170,94293,1,0,0:0:0:0:
371,326,94443,1,0,0:0:0:0:
371,326,94518,1,0,0:0:0:0:
371,326,94593,5,0,0:0:0:0:
327,92,94743,1,0,0:0:0:0:
327,92,94893,1,0,0:0:0:0:
141,326,95043,5,0,0:0:0:0:
185,92,95193,1,0,0:0:0:0:
185,92,95343,1,0,0:0:0:0:
256,359,95493,6,0,L|256:269,1,90
147,29,95793,5,0,0:0:0:0:
391,129,95943,1,0,0:0:0:0:
96,230,96093,1,0,0:0:0:0:
441,331,96243,1,0,0:0:0:0:
365,29,96543,5,0,0:0:0:0:
365,29,96618,1,0,0:0:0:0:
365,29,96693,5,0,0:0:0:0:
121,129,96843,1,0,0:0:0:0:
416,230,96993,1,0,0:0:0:0:
71,331,97143,1,0,0:0:0:0:
71,331,97593,5,0,0:0:0:0:
416,230,97743,1,0,0:0:0:0:
255,200,97893,2,0,L|252:244,1,45
311,353,98043,2,0,L|313:308,1,45
360,77,98193,5,0,0:0:0:0:
416,230,98343,1,0,0:0:0:0:
271,101,98493,1,0,0:0:0:0:
313,308,98643,1,0,0:0:0:0:
179,102,98793,1,0,0:0:0:0:
184,324,98943,1,0,0:0:0:0:
89,78,99093,1,0,0:0:0:0:
64,273,99243,1,0,0:0:0:0:
154,12,99393,5,0,0:0:0:0:
149,238,99543,1,0,0:0:0:0:
224,21,99693,1,0,0:0:0:0:
240,251,99843,1,0,0:0:0:0:
294,11,99993,1,0,0:0:0:0:
325,217,100143,2,0,P|335:270|320:321,1,107.999996704102
84,182,100443,6,0,P|74:129|89:78,1,107.999996704102
240,251,100743,1,0,0:0:0:0:
294,11,100893,1,0,0:0:0:0:
412,185,101043,1,0,0:0:0:0:
179,102,101193,1,0,0:0:0:0:
335,270,101343,1,0,0:0:0:0:
403,52,101493,1,0,0:0:0:0:
210,177,101643,1,0,0:0:0:0:
497,262,101793,5,0,0:0:0:0:
341,123,101943,1,0,0:0:0:0:
341,123,102018,1,0,0:0:0:0:
341,123,102093,1,0,0:0:0:0:
258,354,102243,1,0,0:0:0:0:
216,372,102318,1,0,0:0:0:0:
172,372,102393,1,0,0:0:0:0:
130,355,102468,1,0,0:0:0:0:
99,323,102543,1,0,0:0:0:0:
82,282,102618,1,0,0:0:0:0:
82,237,102693,6,0,L|82:183,1,53.9999983520508
157,39,102843,2,0,L|157:92,1,53.9999983520508
194,260,102993,5,0,0:0:0:0:
74,100,103143,1,0,0:0:0:0:
354,141,103293,2,0,P|369:192|362:245,1,107.999996704102
216,372,103593,1,0,0:0:0:0:
180,182,103743,1,0,0:0:0:0:
371,349,103893,2,0,P|421:330|456:289,1,107.999996704102
256,139,104193,6,0,L|255:246,1,107.999996704102
140,349,104493,2,0,P|90:330|55:289,1,107.999996704102
256,31,104793,2,0,L|256:139,1,107.999996704102
256,354,105093,1,0,0:0:0:0:
94,192,105243,1,0,0:0:0:0:
417,192,105393,5,0,0:0:0:0:
255,246,105543,1,0,0:0:0:0:
387,99,105693,1,0,0:0:0:0:
447,285,105843,1,0,0:0:0:0:
447,285,106143,5,0,0:0:0:0:
320,172,106293,1,0,0:0:0:0:
256,354,106443,2,0,L|256:300,1,53.9999983520508
192,58,106593,5,0,0:0:0:0:
127,239,106743,1,0,0:0:0:0:
127,239,106818,1,0,0:0:0:0:
127,239,106893,1,0,0:0:0:0:
386,98,107043,1,0,0:0:0:0:
339,75,107118,1,0,0:0:0:0:
286,79,107193,1,0,0:0:0:0:
243,110,107268,1,0,0:0:0:0:
222,159,107343,2,0,P|224:190|234:222,1,53.9999983520508
428,288,107493,5,0,0:0:0:0:
357,290,107568,1,0,0:0:0:0:
289,296,107643,1,0,0:0:0:0:
218,300,107718,1,0,0:0:0:0:
151,306,107793,5,0,0:0:0:0:
320,172,107943,1,0,0:0:0:0:
17,136,108093,2,0,P|0:186|11:239,1,107.999996704102
184,64,108393,1,0,0:0:0:0:
218,300,108543,1,0,0:0:0:0:
17,136,108693,2,0,P|69:125|120:141,1,107.999996704102
259,339,108993,6,0,P|223:299|211:246,1,107.999996704102
314,27,109293,2,0,P|297:78|257:114,1,107.999996704102
12,238,109593,2,0,P|64:228|115:244,1,107.999996704102
361,120,109893,2,0,P|308:131|258:115,1,107.999996704102
54,319,110193,6,0,P|156:332|212:246,1,215.999993408203
458,319,110643,2,0,P|356:332|300:246,1,215.999993408203
120,140,111093,2,0,P|104:191|115:244,1,107.999996704102
397,243,111393,5,0,0:0:0:0:
256,40,111543,1,0,0:0:0:0:
256,40,111618,1,0,0:0:0:0:
256,40,111693,1,0,0:0:0:0:
114,243,111843,1,0,0:0:0:0:
139,269,111918,1,0,0:0:0:0:
171,286,111993,1,0,0:0:0:0:
206,292,112068,1,0,0:0:0:0:
242,287,112143,1,0,0:0:0:0:
274,272,112218,1,0,0:0:0:0:
300,246,112293,5,0,0:0:0:0:
290,196,112368,1,0,0:0:0:0:
279,144,112443,1,0,0:0:0:0:
267,92,112518,1,0,0:0:0:0:
256,40,112593,5,0,0:0:0:0:
154,196,112743,1,0,0:0:0:0:
412,141,112893,1,0,0:0:0:0:
311,298,113043,1,0,0:0:0:0:
215,36,113193,5,0,0:0:0:0:
150,236,113343,1,0,0:0:0:0:
416,101,113493,1,0,0:0:0:0:
351,301,113643,1,0,0:0:0:0:
170,44,113793,5,0,0:0:0:0:
158,281,113943,1,0,0:0:0:0:
408,56,114093,1,0,0:0:0:0:
396,293,114243,1,0,0:0:0:0:
124,65,114393,5,0,0:0:0:0:
180,328,114543,1,0,0:0:0:0:
386,9,114693,1,0,0:0:0:0:
442,272,114843,1,0,0:0:0:0:
79,102,114993,5,0,0:0:0:0:
283,168,115143,1,0,0:0:0:0:
124,310,115293,2,0,P|60:319|7:303,1,107.999996704102
162,194,115593,1,0,0:0:0:0:
221,372,115743,1,0,0:0:0:0:
291,141,115893,1,0,0:0:0:0:
371,291,116043,2,0,L|370:345,1,53.9999983520508
160,247,116193,5,0,0:0:0:0:
160,247,116268,1,0,0:0:0:0:
160,247,116343,2,0,L|162:194,1,53.9999983520508
292,87,116493,1,0,0:0:0:0:
292,87,116568,1,0,0:0:0:0:
292,87,116643,2,0,L|291:141,1,53.9999983520508
88,54,116793,5,0,0:0:0:0:
52,91,116868,1,0,0:0:0:0:
30,138,116943,1,0,0:0:0:0:
24,190,117018,1,0,0:0:0:0:
36,241,117093,1,0,0:0:0:0:
63,285,117168,1,0,0:0:0:0:
103,318,117243,1,0,0:0:0:0:
152,337,117318,1,0,0:0:0:0:
204,338,117393,5,0,0:0:0:0:
291,141,117543,1,0,0:0:0:0:
103,318,117693,1,0,0:0:0:0:
291,195,117843,1,0,0:0:0:0:
36,241,117993,1,0,0:0:0:0:
290,249,118143,2,0,P|237:255|185:243,1,107.999996704102
30,138,118443,1,0,0:0:0:0:
285,35,118593,6,0,P|297:87|291:141,1,107.999996704102
204,338,118893,1,0,0:0:0:0:
158,128,119043,1,0,0:0:0:0:
290,249,119193,1,0,0:0:0:0:
79,237,119343,2,0,P|132:230|185:243,1,107.999996704102
338,343,119643,6,0,P|306:300|291:249,1,107.999996704102
423,152,119943,1,0,0:0:0:0:
338,343,120093,2,0,P|284:349|232:337,1,107.999996704102
158,128,120393,1,0,0:0:0:0:
290,249,120543,1,0,0:0:0:0:
366,40,120693,1,0,0:0:0:0:
225,189,120843,1,0,0:0:0:0:
498,160,120993,5,0,0:0:0:0:
295,114,121143,1,0,0:0:0:0:
295,114,121218,1,0,0:0:0:0:
295,114,121293,1,0,0:0:0:0:
485,262,121443,1,0,0:0:0:0:
442,230,121518,1,0,0:0:0:0:
391,216,121593,1,0,0:0:0:0:
337,222,121668,1,0,0:0:0:0:
291,248,121743,2,0,L|290:302,1,53.9999983520508
158,132,121893,6,0,L|158:185,1,53.9999983520508
396,90,122043,2,0,L|396:144,1,53.9999983520508
193,283,122193,5,0,0:0:0:0:
277,111,122343,1,0,0:0:0:0:
389,319,122493,2,0,P|403:268|391:216,1,107.999996704102
277,111,122793,1,0,0:0:0:0:
290,302,122943,1,0,0:0:0:0:
396,90,123093,2,0,P|374:41|334:5,1,107.999996704102
172,121,123393,6,0,P|225:127|277:111,1,107.999996704102
494,204,123693,2,0,P|441:199|390:215,1,107.999996704102
266,6,123993,2,0,P|260:59|277:111,1,107.999996704102
401,320,124293,2,0,P|407:267|391:216,1,107.999996704102
161,17,124593,5,0,0:0:0:0:
233,206,124743,1,0,0:0:0:0:
361,49,124893,1,0,0:0:0:0:
401,320,125043,5,0,0:0:0:0:
277,111,125193,1,0,0:0:0:0:
188,300,125343,1,0,0:0:0:0:
188,300,125418,1,0,0:0:0:0:
188,300,125493,2,0,P|241:310|303:284,1,107.999996704102
475,115,125793,5,0,0:0:0:0:
429,87,125868,1,0,0:0:0:0:
377,76,125943,1,0,0:0:0:0:
324,85,126018,1,0,0:0:0:0:
277,110,126093,2,0,L|273:198,1,53.9999983520508
76,62,126243,5,0,0:0:0:0:
121,33,126318,1,0,0:0:0:0:
174,24,126393,1,0,0:0:0:0:
227,31,126468,1,0,0:0:0:0:
274,57,126543,2,0,L|277:111,1,53.9999983520508
188,300,126693,6,0,L|185:246,1,53.9999983520508
174,24,126843,2,0,L|176:77,1,53.9999983520508
291,293,126993,6,0,P|344:303|406:277,1,107.999996704102
181,162,127293,2,0,P|128:151|77:168,1,107.999996704102
188,300,127593,1,0,0:0:0:0:
277,111,127743,1,0,0:0:0:0:
84,272,127893,2,0,P|67:221|78:169,1,107.999996704102
270,7,128193,6,0,P|287:58|277:111,1,107.999996704102
76,65,128493,2,0,L|184:65,1,107.999996704102
278,213,128793,2,0,L|170:213,1,107.999996704102
362,53,129093,1,0,0:0:0:0:
404,300,129243,6,0,P|353:317|300:307,1,107.999996704102
170,213,129543,1,0,0:0:0:0:
396,196,129693,2,0,P|413:247|404:300,1,107.999996704102
277,110,129993,1,0,0:0:0:0:
188,325,130143,1,0,0:0:0:0:
396,196,130293,2,0,P|405:143|388:92,1,107.999996704102
138,35,130593,5,0,0:0:0:0:
293,213,130743,1,0,0:0:0:0:
293,213,130818,1,0,0:0:0:0:
293,213,130893,1,0,0:0:0:0:
42,155,131043,1,0,0:0:0:0:
90,131,131118,1,0,0:0:0:0:
143,135,131193,1,0,0:0:0:0:
187,165,131268,1,0,0:0:0:0:
210,213,131343,2,0,L|211:281,1,53.9999983520508
373,354,131493,5,0,0:0:0:0:
375,283,131568,1,0,0:0:0:0:
377,213,131643,1,0,0:0:0:0:
379,143,131718,1,0,0:0:0:0:
380,72,131793,6,0,P|291:20|198:66,1,215.999993408203
131,311,132243,2,0,P|220:363|313:316,1,215.999993408203
143,135,132693,1,0,0:0:0:0:
377,213,132843,1,0,0:0:0:0:
86,219,132993,5,0,0:0:0:0:
318,105,133143,1,0,0:0:0:0:
221,363,133293,1,0,0:0:0:0:
43,127,133443,2,0,P|113:39|210:60,1,215.999993408203
313,316,133893,1,0,0:0:0:0:
313,316,134193,5,0,0:0:0:0:
143,135,134343,1,0,0:0:0:0:
143,135,134418,1,0,0:0:0:0:
143,135,134493,1,0,0:0:0:0:
221,363,134643,1,0,0:0:0:0:
284,115,134793,5,0,0:0:0:0:
284,115,134868,1,0,0:0:0:0:
284,115,134943,1,0,0:0:0:0:
116,271,135093,1,0,0:0:0:0:
399,201,135243,1,0,0:0:0:0:
399,201,135318,1,0,0:0:0:0:
399,201,135393,5,0,0:0:0:0:
61,189,135543,1,0,0:0:0:0:
237,344,135693,1,0,0:0:0:0:
284,115,135843,1,0,0:0:0:0:
271,71,135918,1,0,0:0:0:0:
257,27,135993,5,0,0:0:0:0:
198,45,136068,1,0,0:0:0:0:
169,101,136143,1,0,0:0:0:0:
190,160,136218,1,0,0:0:0:0:
246,185,136293,1,0,0:0:0:0:
302,210,136368,1,0,0:0:0:0:
323,269,136443,1,0,0:0:0:0:
294,325,136518,1,0,0:0:0:0:
237,344,136593,5,0,0:0:0:0:
358,161,136743,1,0,0:0:0:0:
103,256,136893,5,0,0:0:0:0:
398,275,137043,1,0,0:0:0:0:
52,334,137193,5,0,0:0:0:0:
321,238,137343,1,0,0:0:0:0:
61,173,137493,5,0,0:0:0:0:
328,324,137643,1,0,0:0:0:0:
10,251,137793,5,0,0:0:0:0:
314,152,137943,1,0,0:0:0:0:
19,90,138093,5,0,0:0:0:0:
321,238,138243,1,0,0:0:0:0:
10,251,138393,5,0,0:0:0:0:
307,66,138543,2,0,L|272:150,1,53.9999983520508
180,337,138693,5,0,0:0:0:0:
163,18,138843,1,0,0:0:0:0:
392,189,138993,5,0,0:0:0:0:
10,251,139143,1,0,0:0:0:0:
10,251,139293,1,0,0:0:0:0:
399,275,139443,5,0,0:0:0:0:
61,173,139593,1,0,0:0:0:0:
61,173,139743,1,0,0:0:0:0:
463,140,139893,5,0,0:0:0:0:
103,256,140043,1,0,0:0:0:0:
103,256,140118,1,0,0:0:0:0:
103,256,140193,1,0,0:0:0:0:
477,312,140343,6,0,L|422:293,1,53.9999983520508
61,173,140493,1,0,0:0:0:0:
61,173,140793,5,0,2:0:0:0:
61,173,140943,1,0,2:0:0:0:
61,173,141393,5,0,0:0:0:0:
75,310,141543,1,0,0:0:0:0:
173,93,141693,1,0,0:0:0:0:
200,366,141843,5,0,0:0:0:0:
298,149,141993,1,0,0:0:0:0:
312,286,142143,1,0,0:0:0:0:
77,77,142293,5,0,0:0:0:0:
298,149,142443,1,0,0:0:0:0:
75,310,142593,1,0,0:0:0:0:
262,58,142743,5,0,0:0:0:0:
61,173,142893,1,0,0:0:0:0:
312,286,143043,2,0,L|316:225,1,45
169,49,143193,6,0,P|156:155|256:191,1,229.500004377365
422,188,143493,2,0,P|337:124|255:192,1,229.500004377365
175,338,143793,5,0,0:0:0:0:
