osu file format v14

[General]
AudioFilename: marina - Towa yori Towa ni.mp3
AudioLeadIn: 0
PreviewTime: 95671
Countdown: 0
SampleSet: Soft
StackLeniency: 0.7
Mode: 0
LetterboxInBreaks: 0
EpilepsyWarning: 1
WidescreenStoryboard: 1

[Editor]
Bookmarks: 21496,36046,50446,64846,74446,79246,84046,135046
DistanceSpacing: 0.7
BeatDivisor: 4
GridSize: 4
TimelineZoom: 2.479999

[Metadata]
Title:Towa yori Towa ni
TitleUnicode:永久より永遠に
Artist:marina
ArtistUnicode:marina
Creator:lit120
Version:DavidEd's Insane
Source:少女神域∽少女天獄 -The Garden of Fifth Zoa-
Tags:shoujo shiniki tengoku eikyuu yori eien ni lass ed ending visual novel eroge -Hakurei- DavidEd dilectus akitoshi corinn -laura- blizs fantastica snownino_ battle lasse kibbleru
BeatmapID:980637
BeatmapSetID:457621

[Difficulty]
HPDrainRate:6
CircleSize:4
OverallDifficulty:7
ApproachRate:9
SliderMultiplier:1.6
SliderTickRate:1

[Events]
//Background and Video events
0,0,"davided.jpg",0,0
//Break Periods
//Storyboard Layer 0 (Background)
//Storyboard Layer 1 (Fail)
//Storyboard Layer 2 (Pass)
//Storyboard Layer 3 (Foreground)
Sprite,Foreground,Centre,"davided.jpg",320,240 M,0,142246,,320,240 S,0,142246,,0.65 F,0,152177,,1
Sprite,Foreground,Centre,"SB\lyrics\txt-Ii.png",320,240 M,0,17896,,195,112 F,0,17896,,1 S,0,17896,,0.8 C,0,18196,,140,9,0 F,0,21496,21796,1,0 S,0,21496,21796,0.8,2
Sprite,Foreground,Centre,"SB\lyrics\txt-Ii.png",320,240 F,0,17596,17896,0,1 S,0,17596,17896,2,0.8 F,0,17896,18196,1,0 S,0,17896,18196,0.8,2 C,0,18196,,140,9,0 M,0,19096,,195,112
Sprite,Foreground,Centre,"SB\lyrics\txt-n.png",320,240 M,0,17896,,245,112 F,0,17896,,1 S,0,17896,,0.8 C,0,18196,,140,9,0 F,0,21496,21796,1,0 S,0,21496,21796,0.8,2
Sprite,Foreground,Centre,"SB\lyrics\txt-n.png",320,240 F,0,17596,17896,0,1 S,0,17596,17896,2,0.8 F,0,17896,18196,1,0 S,0,17896,18196,0.8,2 C,0,18196,,140,9,0 M,0,19096,,245,112
Sprite,Foreground,Centre,"SB\lyrics\txt-s.png",320,240 M,0,17896,,295,112 F,0,17896,,1 S,0,17896,,0.8 C,0,18196,,140,9,0 F,0,21496,21796,1,0 S,0,21496,21796,0.8,2
Sprite,Foreground,Centre,"SB\lyrics\txt-s.png",320,240 F,0,17596,17896,0,1 S,0,17596,17896,2,0.8 F,0,17896,18196,1,0 S,0,17896,18196,0.8,2 C,0,18196,,140,9,0 M,0,19096,,295,112
Sprite,Foreground,Centre,"SB\lyrics\txt-a.png",320,240 M,0,17896,,345,112 F,0,17896,,1 S,0,17896,,0.8 C,0,18196,,140,9,0 F,0,21496,21796,1,0 S,0,21496,21796,0.8,2
Sprite,Foreground,Centre,"SB\lyrics\txt-a.png",320,240 F,0,17596,17896,0,1 S,0,17596,17896,2,0.8 F,0,17896,18196,1,0 S,0,17896,18196,0.8,2 C,0,18196,,140,9,0 M,0,19096,,345,112
Sprite,Foreground,Centre,"SB\lyrics\txt-n.png",320,240 M,0,17896,,395,112 F,0,17896,,1 S,0,17896,,0.8 C,0,18196,,140,9,0 F,0,21496,21796,1,0 S,0,21496,21796,0.8,2
Sprite,Foreground,Centre,"SB\lyrics\txt-n.png",320,240 F,0,17596,17896,0,1 S,0,17596,17896,2,0.8 F,0,17896,18196,1,0 S,0,17896,18196,0.8,2 C,0,18196,,140,9,0 M,0,19096,,395,112
Sprite,Foreground,Centre,"SB\lyrics\txt-e.png",320,240 M,0,17896,,445,112 F,0,17896,,1 S,0,17896,,0.8 C,0,18196,,140,9,0 F,0,21496,21796,1,0 S,0,21496,21796,0.8,2
Sprite,Foreground,Centre,"SB\lyrics\txt-e.png",320,240 F,0,17596,17896,0,1 S,0,17596,17896,2,0.8 F,0,17896,18196,1,0 S,0,17896,18196,0.8,2 C,0,18196,,140,9,0 M,0,19096,,445,112
Sprite,Foreground,Centre,"SB\lyrics\txt-Dd.png",320,240 C,0,19996,,140,9,0 F,0,19996,20296,0,1 S,2,19996,20296,2.5,1.1 S,0,20296,20596,1.1,1 M,0,20596,20746,320,352,140,352 F,0,21496,21796,1,0
Sprite,Foreground,Centre,"SB\lyrics\txt-a.png",320,240 C,0,19996,,140,9,0 M,0,20596,20746,320,352,200,352 F,0,20596,20746,0,1 F,0,21496,21796,1,0 S,0,21496,21796,1,2
Sprite,Foreground,Centre,"SB\lyrics\txt-v.png",320,240 C,0,19996,,140,9,0 M,0,20596,20746,320,352,260,352 F,0,20596,20746,0,1 F,0,21496,21796,1,0 S,0,21496,21796,1,2
Sprite,Foreground,Centre,"SB\lyrics\txt-i.png",320,240 C,0,19996,,140,9,0 M,0,20596,,320,352 F,0,20596,20746,0,1 F,0,21496,21796,1,0 S,0,21496,21796,1,2
Sprite,Foreground,Centre,"SB\lyrics\txt-d.png",320,240 C,0,19996,,140,9,0 M,0,20596,20746,320,352,380,352 F,0,20596,20746,0,1 F,0,21496,21796,1,0 S,0,21496,21796,1,2
Sprite,Foreground,Centre,"SB\lyrics\txt-Ee.png",320,240 C,0,19996,,140,9,0 M,0,20596,20746,320,352,440,352 F,0,20596,20746,0,1 F,0,21496,21796,1,0 S,0,21496,21796,1,2
Sprite,Foreground,Centre,"SB\lyrics\txt-d.png",320,240 C,0,19996,,140,9,0 M,0,20596,20746,320,352,500,352 F,0,20596,20746,0,1 F,0,21496,21796,1,0 S,0,21496,21796,1,2
Sprite,Foreground,Centre,"SB\background\highlight.png",208,364 C,0,21046,,128,0,64 F,2,21046,21346,1,0 S,2,21046,21346,1,0.2 P,0,21046,21346,A
Sprite,Foreground,Centre,"SB\background\highlight.png",0,0 C,0,21196,,128,0,64 M,0,21196,21214,112,296,120.8775,294.5204 F,2,21196,21645,1,0 S,2,21196,21645,1,0.2 P,0,21196,21645,A M,0,21214,21233,120.8775,294.5204,129.7551,293.0408 M,0,21233,21252,129.7551,293.0408,138.6326,291.5612 M,0,21252,21271,138.6326,291.5612,147.5102,290.0816 M,0,21271,21289,147.5102,290.0816,156.3877,288.6021 M,0,21289,21308,156.3877,288.6021,165.2653,287.1224 M,0,21308,21327,165.2653,287.1224,174.1428,285.6429 M,0,21327,21345,174.1428,285.6429,183.0204,284.1633
Sprite,Foreground,Centre,"SB\background\highlight.png",0,0 C,0,21496,,255,0,0 M,0,21496,21514,376,340,366.8056,343.8698 F,2,21496,22096,1,0 S,2,21496,22096,1,0.2 P,0,21496,22096,A M,0,21514,21533,366.8056,343.8698,357.221,346.5907 M,0,21533,21552,357.221,346.5907,347.3856,348.1255 M,0,21552,21571,347.3856,348.1255,337.4419,348.4533 M,0,21571,21589,337.4419,348.4533,327.4886,347.9157 M,0,21589,21608,327.4886,347.9157,317.7789,345.6517 M,0,21608,21627,317.7789,345.6517,308.4264,342.2286 M,0,21627,21646,308.4264,342.2286,299.5658,337.6978 M,0,21646,21664,299.5658,337.6978,291.3249,332.1258 M,0,21664,21683,291.3249,332.1258,283.64,325.7967 M,0,21683,21702,283.64,325.7967,277.1122,318.2672 M,0,21702,21721,277.1122,318.2672,271.5528,310.0081 M,0,21721,21739,271.5528,310.0081,267.0411,301.14 M,0,21739,21758,267.0411,301.14,263.2769,291.9037 M,0,21758,21777,263.2769,291.9037,261.2119,282.1474 M,0,21777,21796,261.2119,282.1474,260.1427,272.2202
Sprite,Foreground,Centre,"SB\background\highlight.png",0,0 C,0,21946,,255,0,0 M,0,21946,21964,372,200,381.864,201.644 F,2,21946,22396,1,0 S,2,21946,22396,1,0.2 P,0,21946,22396,A M,0,21964,21983,381.864,201.644,391.7279,203.288 M,0,21983,22002,391.7279,203.288,401.5918,204.932 M,0,22002,22021,401.5918,204.932,411.4557,206.576 M,0,22021,22039,411.4557,206.576,421.3197,208.22 M,0,22039,22058,421.3197,208.22,431.1836,209.8639 M,0,22058,22077,431.1836,209.8639,441.0476,211.5079 M,0,22077,22096,441.0476,211.5079,450,213
Sprite,Foreground,Centre,"SB\background\highlight.png",339,271 C,0,22246,,255,0,0 F,2,22246,22546,1,0 S,2,22246,22546,1,0.2 P,0,22246,22546,A
Sprite,Foreground,Centre,"SB\background\highlight.png",0,0 C,0,22396,,255,0,0 M,0,22396,22414,224,204,215.5371,209.2744 F,2,22396,22846,1,0 S,2,22396,22846,1,0.2 P,0,22396,22846,A M,0,22414,22433,215.5371,209.2744,207.8548,215.6096 M,0,22433,22452,207.8548,215.6096,201.0826,222.8952 M,0,22452,22471,201.0826,222.8952,195.3351,231.0048 M,0,22471,22489,195.3351,231.0048,190.2824,239.6087 M,0,22489,22508,190.2824,239.6087,187.0227,249.0324 M,0,22508,22527,187.0227,249.0324,185.037,258.7898 M,0,22527,22546,185.037,258.7898,184.071,268.7233
Sprite,Foreground,Centre,"SB\background\highlight.png",0,0 C,0,22696,,255,128,64 M,0,22696,22714,293,425,292.0049,415.0496 F,2,22696,23296,1,0 S,2,22696,23296,1,0.2 P,0,22696,23296,A M,0,22714,22733,292.0049,415.0496,291.0099,405.0992 M,0,22733,22752,291.0099,405.0992,290.0149,395.1489 M,0,22752,22771,290.0149,395.1489,289.0198,385.1985 M,0,22771,22789,289.0198,385.1985,288.0248,375.2481 M,0,22789,22808,288.0248,375.2481,287.0298,365.2978 M,0,22808,22827,287.0298,365.2978,281.9769,356.701 M,0,22827,22846,281.9769,356.701,276.7989,348.146 M,0,22846,22864,276.7989,348.146,271.6209,339.591 M,0,22864,22883,271.6209,339.591,266.4428,331.036 M,0,22883,22902,266.4428,331.036,263.5302,321.7386 M,0,22902,22921,263.5302,321.7386,262.6409,311.7783 M,0,22921,22939,262.6409,311.7783,261.7516,301.8179 M,0,22939,22958,261.7516,301.8179,260.8623,291.8575 M,0,22958,22977,260.8623,291.8575,259.973,281.8972 M,0,22977,22996,259.973,281.8972,259.0836,271.9368
Sprite,Foreground,Centre,"SB\background\highlight.png",0,0 C,0,23146,,255,128,64 M,0,23146,23164,268,120,277.8368,118.2006 F,2,23146,23596,1,0 S,2,23146,23596,1,0.2 P,0,23146,23596,A M,0,23164,23183,277.8368,118.2006,287.6736,116.4012 M,0,23183,23202,287.6736,116.4012,297.5103,114.6018 M,0,23202,23221,297.5103,114.6018,307.3471,112.8024 M,0,23221,23239,307.3471,112.8024,317.1839,111.003 M,0,23239,23258,317.1839,111.003,327.0206,109.2035 M,0,23258,23277,327.0206,109.2035,336.8574,107.4041 M,0,23277,23296,336.8574,107.4041,346.6942,105.6047
Sprite,Foreground,Centre,"SB\background\highlight.png",448,212 C,0,23446,,255,128,64 F,2,23446,23746,1,0 S,2,23446,23746,1,0.2 P,0,23446,23746,A
Sprite,Foreground,Centre,"SB\background\highlight.png",0,0 C,0,23596,,255,128,64 M,0,23596,23614,339,271,334.2242,262.2281 F,2,23596,24046,1,0 S,2,23596,24046,1,0.2 P,0,23596,24046,A M,0,23614,23633,334.2242,262.2281,330.2261,253.0823 M,0,23633,23652,330.2261,253.0823,327.0344,243.6295 M,0,23652,23671,327.0344,243.6295,324.6717,233.9391 M,0,23671,23689,324.6717,233.9391,322.9029,224.1126 M,0,23689,23708,322.9029,224.1126,322.3721,214.1414 M,0,23708,23727,322.3721,214.1414,322.7042,204.1673 M,0,23727,23746,322.7042,204.1673,323.6802,194.2237
Sprite,Foreground,Centre,"SB\background\highlight.png",0,0 C,0,23896,,255,128,255 M,0,23896,23914,524,152,525.72,161.851 F,2,23896,24496,1,0 S,2,23896,24496,1,0.2 P,0,23896,24496,A M,0,23914,23933,525.72,161.851,527.4401,171.7019 M,0,23933,23952,527.4401,171.7019,529.16,181.5529 M,0,23952,23971,529.16,181.5529,530.88,191.4039 M,0,23971,23989,530.88,191.4039,532.6,201.2548 M,0,23989,24008,532.6,201.2548,534.3201,211.1058 M,0,24008,24027,534.3201,211.1058,532.9095,220.6741 M,0,24027,24046,532.9095,220.6741,529.4525,230.0575 M,0,24046,24064,529.4525,230.0575,525.9955,239.4409 M,0,24064,24083,525.9955,239.4409,522.5384,248.8244 M,0,24083,24102,522.5384,248.8244,521.9756,258.4636 M,0,24102,24121,521.9756,258.4636,523.7335,268.3078 M,0,24121,24139,523.7335,268.3078,525.4915,278.1521 M,0,24139,24158,525.4915,278.1521,527.2494,287.9964 M,0,24158,24177,527.2494,287.9964,529.0073,297.8407 M,0,24177,24196,529.0073,297.8407,530.7651,307.6849
Sprite,Foreground,Centre,"SB\background\highlight.png",0,0 C,0,24346,,255,128,255 M,0,24346,24364,440,408,430.1142,409.3799 F,2,24346,24796,1,0 S,2,24346,24796,1,0.2 P,0,24346,24796,A M,0,24364,24383,430.1142,409.3799,420.1454,409.6389 M,0,24383,24402,420.1454,409.6389,410.2187,408.7754 M,0,24402,24421,410.2187,408.7754,400.4582,406.8015 M,0,24421,24439,400.4582,406.8015,390.9863,403.7432 M,0,24439,24458,390.9863,403.7432,381.9214,399.6394 M,0,24458,24477,381.9214,399.6394,373.1541,394.8772 M,0,24477,24496,373.1541,394.8772,365.2347,388.7881
Sprite,Foreground,Centre,"SB\background\highlight.png",320,220 C,0,24646,,255,128,255 F,2,24646,24946,1,0 S,2,24646,24946,1,0.2 P,0,24646,24946,A
Sprite,Foreground,Centre,"SB\background\highlight.png",420,320 C,0,24796,,255,128,255 F,2,24796,25096,1,0 S,2,24796,25096,1,0.2 P,0,24796,25096,A
Sprite,Foreground,Centre,"SB\background\highlight.png",283,356 C,0,24946,,255,128,255 F,2,24946,25246,1,0 S,2,24946,25246,1,0.2 P,0,24946,25246,A
Sprite,Foreground,Centre,"SB\background\highlight.png",0,0 C,0,25096,,128,0,64 M,0,25096,25114,400,240,401.8292,230.1925 F,2,25096,25696,1,0 S,2,25096,25696,1,0.2 P,0,25096,25696,A M,0,25114,25133,401.8292,230.1925,402.4878,220.2492 M,0,25133,25152,402.4878,220.2492,401.9689,210.3058 M,0,25152,25171,401.9689,210.3058,400.2809,200.4979 M,0,25171,25189,400.2809,200.4979,397.7253,190.8678 M,0,25189,25208,397.7253,190.8678,393.6109,181.7873 M,0,25208,25227,393.6109,181.7873,388.4587,173.2638 M,0,25227,25246,388.4587,173.2638,382.3403,165.4128 M,0,25246,25264,382.3403,165.4128,375.5856,158.0722 M,0,25264,25283,375.5856,158.0722,367.6685,152.0063 M,0,25283,25302,367.6685,152.0063,359.1004,146.9223 M,0,25302,25321,359.1004,146.9223,349.999,142.8879 M,0,25321,25339,349.999,142.8879,340.4888,139.9572 M,0,25339,25358,340.4888,139.9572,330.7416,137.9222 M,0,25358,25377,330.7416,137.9222,320.7845,137.4843 M,0,25377,25396,320.7845,137.4843,310.854,138.2238
Sprite,Foreground,Centre,"SB\background\highlight.png",288,144 C,0,25471,,128,0,64 F,2,25471,25771,1,0 S,2,25471,25771,1,0.2 P,0,25471,25771,A
Sprite,Foreground,Centre,"SB\background\highlight.png",268,160 C,0,25546,,128,0,64 F,2,25546,25846,1,0 S,2,25546,25846,1,0.2 P,0,25546,25846,A
Sprite,Foreground,Centre,"SB\background\highlight.png",200,280 C,0,25696,,128,0,64 F,2,25696,25996,1,0 S,2,25696,25996,1,0.2 P,0,25696,25996,A
Sprite,Foreground,Centre,"SB\background\highlight.png",200,280 C,0,25771,,128,0,64 F,2,25771,26071,1,0 S,2,25771,26071,1,0.2 P,0,25771,26071,A
Sprite,Foreground,Centre,"SB\background\highlight.png",0,0 C,0,25846,,128,0,64 M,0,25846,25864,200,280,209.8582,281.678 F,2,25846,26371,1,0 S,2,25846,26371,1,0.2 P,0,25846,26371,A M,0,25864,25883,209.8582,281.678,219.7164,283.356 M,0,25883,25902,219.7164,283.356,229.5746,285.034 M,0,25902,25921,229.5746,285.034,239.4328,286.712 M,0,25921,25939,239.4328,286.712,229.5746,285.034 M,0,25939,25958,229.5746,285.034,219.7164,283.356 M,0,25958,25977,219.7164,283.356,209.8582,281.678 M,0,25977,25996,209.8582,281.678,200,280 M,0,25996,26014,200,280,209.8582,281.678 M,0,26014,26033,209.8582,281.678,219.7164,283.356 M,0,26033,26052,219.7164,283.356,229.5746,285.034 M,0,26052,26071,229.5746,285.034,239.4328,286.712
Sprite,Foreground,Centre,"SB\background\highlight.png",0,0 C,0,26146,,128,0,64 M,0,26146,26164,320,220,329.8427,218.2334 F,2,26146,26671,1,0 S,2,26146,26671,1,0.2 P,0,26146,26671,A M,0,26164,26183,329.8427,218.2334,339.6854,216.4667 M,0,26183,26202,339.6854,216.4667,349.5281,214.7001 M,0,26202,26221,349.5281,214.7001,359,213 M,0,26221,26239,359,213,349.5281,214.7001 M,0,26239,26258,349.5281,214.7001,339.6854,216.4667 M,0,26258,26277,339.6854,216.4667,329.8427,218.2334 M,0,26277,26296,329.8427,218.2334,320,220 M,0,26296,26314,320,220,329.8427,218.2334 M,0,26314,26333,329.8427,218.2334,339.6854,216.4667 M,0,26333,26352,339.6854,216.4667,349.5281,214.7001 M,0,26352,26371,349.5281,214.7001,359,213
Sprite,Foreground,Centre,"SB\background\highlight.png",0,0 C,0,26446,,255,0,0 M,0,26446,26464,444,276,453.864,277.644 F,2,26446,26896,1,0 S,2,26446,26896,1,0.2 P,0,26446,26896,A M,0,26464,26483,453.864,277.644,463.7279,279.288 M,0,26483,26502,463.7279,279.288,473.5918,280.932 M,0,26502,26521,473.5918,280.932,483.4557,282.576 M,0,26521,26539,483.4557,282.576,493.3197,284.22 M,0,26539,26558,493.3197,284.22,503.1836,285.864 M,0,26558,26577,503.1836,285.864,513.0476,287.5079 M,0,26577,26596,513.0476,287.5079,522,289
Sprite,Foreground,Centre,"SB\background\highlight.png",0,0 C,0,26746,,255,0,0 M,0,26746,26764,392,372,401.864,373.644 F,2,26746,27196,1,0 S,2,26746,27196,1,0.2 P,0,26746,27196,A M,0,26764,26783,401.864,373.644,411.7279,375.288 M,0,26783,26802,411.7279,375.288,421.5918,376.932 M,0,26802,26821,421.5918,376.932,431.4557,378.576 M,0,26821,26839,431.4557,378.576,441.3197,380.2199 M,0,26839,26858,441.3197,380.2199,451.1836,381.864 M,0,26858,26877,451.1836,381.864,461.0476,383.5079 M,0,26877,26896,461.0476,383.5079,470,385
Sprite,Foreground,Centre,"SB\background\highlight.png",0,0 C,0,27046,,255,0,0 M,0,27046,27064,328,312,321.3394,319.4217 F,2,27046,27496,1,0 S,2,27046,27496,1,0.2 P,0,27046,27496,A M,0,27064,27083,321.3394,319.4217,315.7123,327.6376 M,0,27083,27102,315.7123,327.6376,311.2105,336.5085 M,0,27102,27121,311.2105,336.5085,307.9079,345.8849 M,0,27121,27139,307.9079,345.8849,305.4349,355.5453 M,0,27139,27158,305.4349,355.5453,304.86,365.4982 M,0,27158,27177,304.86,365.4982,305.5879,375.4276 M,0,27177,27196,305.5879,375.4276,307.3132,385.2578
Sprite,Foreground,Centre,"SB\background\highlight.png",444,276 C,0,27346,,255,0,0 F,2,27346,27646,1,0 S,2,27346,27646,1,0.2 P,0,27346,27646,A
Sprite,Foreground,Centre,"SB\background\highlight.png",0,0 C,0,27496,,255,128,64 M,0,27496,27514,444,276,442.2216,266.1594 F,2,27496,27946,1,0 S,2,27496,27946,1,0.2 P,0,27496,27946,A M,0,27514,27533,442.2216,266.1594,440.4431,256.3188 M,0,27533,27552,440.4431,256.3188,438.6647,246.4782 M,0,27552,27571,438.6647,246.4782,436.8863,236.6376 M,0,27571,27589,436.8863,236.6376,435.1079,226.797 M,0,27589,27608,435.1079,226.797,433.3295,216.9565 M,0,27608,27627,433.3295,216.9565,431.5511,207.1159 M,0,27627,27646,431.5511,207.1159,429.7726,197.2753
Sprite,Foreground,Centre,"SB\background\highlight.png",300,152 C,0,27796,,255,128,64 F,2,27796,28096,1,0 S,2,27796,28096,1,0.2 P,0,27796,28096,A
Sprite,Foreground,Centre,"SB\background\highlight.png",314,230 C,0,27946,,255,128,64 F,2,27946,28246,1,0 S,2,27946,28246,1,0.2 P,0,27946,28246,A
Sprite,Foreground,Centre,"SB\background\highlight.png",0,0 C,0,28096,,255,128,64 M,0,28096,28114,376,116,371.1625,107.2708 F,2,28096,28546,1,0 S,2,28096,28546,1,0.2 P,0,28096,28546,A M,0,28114,28133,371.1625,107.2708,365.3381,99.17952 M,0,28133,28152,365.3381,99.17952,358.6082,91.83586 M,0,28152,28171,358.6082,91.83586,351.0663,85.33942 M,0,28171,28189,351.0663,85.33942,342.8164,79.77833 M,0,28189,28208,342.8164,79.77833,333.9724,75.22814 M,0,28208,28227,333.9724,75.22814,324.7833,71.34522 M,0,28227,28246,324.7833,71.34522,315.0669,69.02834
Sprite,Foreground,Centre,"SB\background\highlight.png",221,165 C,0,28396,,255,128,64 F,2,28396,28696,1,0 S,2,28396,28696,1,0.2 P,0,28396,28696,A
Sprite,Foreground,Centre,"SB\background\highlight.png",221,165 C,0,28471,,255,128,64 F,2,28471,28771,1,0 S,2,28471,28771,1,0.2 P,0,28471,28771,A
Sprite,Foreground,Centre,"SB\background\highlight.png",0,0 C,0,28546,,255,128,64 M,0,28546,28564,221,165,230.8313,163.1709 F,2,28546,28996,1,0 S,2,28546,28996,1,0.2 P,0,28546,28996,A M,0,28564,28583,230.8313,163.1709,240.6626,161.3418 M,0,28583,28602,240.6626,161.3418,250.4939,159.5128 M,0,28602,28621,250.4939,159.5128,260.3252,157.6837 M,0,28621,28639,260.3252,157.6837,270.1565,155.8546 M,0,28639,28658,270.1565,155.8546,279.9878,154.0255 M,0,28658,28677,279.9878,154.0255,289.8191,152.1964 M,0,28677,28696,289.8191,152.1964,299.6504,150.3674
Sprite,Foreground,Centre,"SB\background\highlight.png",0,0 C,0,28846,,255,128,255 M,0,28846,28864,444,276,434.1649,274.1913 F,2,28846,29296,1,0 S,2,28846,29296,1,0.2 P,0,28846,29296,A M,0,28864,28883,434.1649,274.1913,424.3299,272.3825 M,0,28883,28902,424.3299,272.3825,414.4948,270.5738 M,0,28902,28921,414.4948,270.5738,404.6598,268.765 M,0,28921,28939,404.6598,268.765,394.8247,266.9563 M,0,28939,28958,394.8247,266.9563,384.9896,265.1475 M,0,28958,28977,384.9896,265.1475,375.1546,263.3388 M,0,28977,28996,375.1546,263.3388,365.3195,261.53
Sprite,Foreground,Centre,"SB\background\highlight.png",192,248 C,0,29146,,255,128,255 F,2,29146,29446,1,0 S,2,29146,29446,1,0.2 P,0,29146,29446,A
Sprite,Foreground,Centre,"SB\background\highlight.png",218,377 C,0,29296,,255,128,255 F,2,29296,29596,1,0 S,2,29296,29596,1,0.2 P,0,29296,29596,A
Sprite,Foreground,Centre,"SB\background\highlight.png",280,236 C,0,29446,,255,128,255 F,2,29446,29746,1,0 S,2,29446,29746,1,0.2 P,0,29446,29746,A
Sprite,Foreground,Centre,"SB\background\highlight.png",306,365 C,0,29596,,255,128,255 F,2,29596,29896,1,0 S,2,29596,29896,1,0.2 P,0,29596,29896,A
Sprite,Foreground,Centre,"SB\background\highlight.png",192,248 C,0,29746,,255,128,255 F,2,29746,30046,1,0 S,2,29746,30046,1,0.2 P,0,29746,30046,A
Sprite,Foreground,Centre,"SB\background\highlight.png",0,0 C,0,29896,,128,0,64 M,0,29896,29914,348,288,353.511,279.6808 F,2,29896,30496,1,0 S,2,29896,30496,1,0.2 P,0,29896,30496,A M,0,29914,29933,353.511,279.6808,358.0621,270.8116 M,0,29933,29952,358.0621,270.8116,361.6003,261.4993 M,0,29952,29971,361.6003,261.4993,364.0841,251.8557 M,0,29971,29989,364.0841,251.8557,365.6732,242.0243 M,0,29989,30008,365.6732,242.0243,365.7904,232.0561 M,0,30008,30027,365.7904,232.0561,364.8033,222.1431 M,0,30027,30046,364.8033,222.1431,362.7249,212.404 M,0,30046,30064,362.7249,212.404,359.7657,202.8943 M,0,30064,30083,359.7657,202.8943,355.4242,193.9203 M,0,30083,30102,355.4242,193.9203,350.119,185.4883 M,0,30102,30121,350.119,185.4883,343.9147,177.6987 M,0,30121,30139,343.9147,177.6987,337.0271,170.5042 M,0,30139,30158,337.0271,170.5042,329.1383,164.4087 M,0,30158,30177,329.1383,164.4087,320.629,159.2283 M,0,30177,30196,320.629,159.2283,311.6015,155.024
Sprite,Foreground,Centre,"SB\background\highlight.png",288,148 C,0,30271,,128,0,64 F,2,30271,30571,1,0 S,2,30271,30571,1,0.2 P,0,30271,30571,A
Sprite,Foreground,Centre,"SB\background\highlight.png",264,151 C,0,30346,,128,0,64 F,2,30346,30646,1,0 S,2,30346,30646,1,0.2 P,0,30346,30646,A
Sprite,Foreground,Centre,"SB\background\highlight.png",156,236 C,0,30496,,128,0,64 F,2,30496,30796,1,0 S,2,30496,30796,1,0.2 P,0,30496,30796,A
Sprite,Foreground,Centre,"SB\background\highlight.png",156,236 C,0,30571,,128,0,64 F,2,30571,30871,1,0 S,2,30571,30871,1,0.2 P,0,30571,30871,A
Sprite,Foreground,Centre,"SB\background\highlight.png",0,0 C,0,30646,,128,0,64 M,0,30646,30664,156,236,157.7379,245.8478 F,2,30646,31171,1,0 S,2,30646,31171,1,0.2 P,0,30646,31171,A M,0,30664,30683,157.7379,245.8478,159.4757,255.6957 M,0,30683,30702,159.4757,255.6957,161.2136,265.5435 M,0,30702,30721,161.2136,265.5435,162.9514,275.3914 M,0,30721,30739,162.9514,275.3914,161.2136,265.5435 M,0,30739,30758,161.2136,265.5435,159.4757,255.6957 M,0,30758,30777,159.4757,255.6957,157.7379,245.8478 M,0,30777,30796,157.7379,245.8478,156,236 M,0,30796,30814,156,236,157.7379,245.8478 M,0,30814,30833,157.7379,245.8478,159.4757,255.6957 M,0,30833,30852,159.4757,255.6957,161.2136,265.5435 M,0,30852,30871,161.2136,265.5435,162.9514,275.3914
Sprite,Foreground,Centre,"SB\background\highlight.png",244,312 C,0,30946,,128,0,64 F,2,30946,31246,1,0 S,2,30946,31246,1,0.2 P,0,30946,31246,A
Sprite,Foreground,Centre,"SB\background\highlight.png",219,343 C,0,31021,,128,0,64 F,2,31021,31321,1,0 S,2,31021,31321,1,0.2 P,0,31021,31321,A
Sprite,Foreground,Centre,"SB\background\highlight.png",184,361 C,0,31096,,128,0,64 F,2,31096,31396,1,0 S,2,31096,31396,1,0.2 P,0,31096,31396,A
Sprite,Foreground,Centre,"SB\background\highlight.png",144,362 C,0,31171,,128,0,64 F,2,31171,31471,1,0 S,2,31171,31471,1,0.2 P,0,31171,31471,A
Sprite,Foreground,Centre,"SB\background\highlight.png",108,346 C,0,31246,,255,0,0 F,2,31246,31546,1,0 S,2,31246,31546,1,0.2 P,0,31246,31546,A
Sprite,Foreground,Centre,"SB\background\highlight.png",168,136 C,0,33646,,255,128,64 F,2,33646,33946,1,0 S,2,33646,33946,1,0.2 P,0,33646,33946,A
Sprite,Foreground,Centre,"SB\background\highlight.png",187,130 C,0,33721,,255,128,64 F,2,33721,34021,1,0 S,2,33721,34021,1,0.2 P,0,33721,34021,A
Sprite,Foreground,Centre,"SB\background\highlight.png",206,128 C,0,33796,,255,128,64 F,2,33796,34096,1,0 S,2,33796,34096,1,0.2 P,0,33796,34096,A
Sprite,Foreground,Centre,"SB\background\highlight.png",226,132 C,0,33871,,255,128,64 F,2,33871,34171,1,0 S,2,33871,34171,1,0.2 P,0,33871,34171,A
Sprite,Foreground,Centre,"SB\background\highlight.png",244,140 C,0,33946,,255,128,64 F,2,33946,34246,1,0 S,2,33946,34246,1,0.2 P,0,33946,34246,A
Sprite,Foreground,Centre,"SB\background\highlight.png",262,148 C,0,34021,,255,128,64 F,2,34021,34321,1,0 S,2,34021,34321,1,0.2 P,0,34021,34321,A
Sprite,Foreground,Centre,"SB\background\highlight.png",282,154 C,0,34096,,255,128,64 F,2,34096,34396,1,0 S,2,34096,34396,1,0.2 P,0,34096,34396,A
Sprite,Foreground,Centre,"SB\background\highlight.png",302,155 C,0,34171,,255,128,64 F,2,34171,34471,1,0 S,2,34171,34471,1,0.2 P,0,34171,34471,A
Sprite,Foreground,Centre,"SB\background\highlight.png",0,0 C,0,34246,,255,128,255 M,0,34246,34264,321,152,326.8364,143.8799 F,2,34246,34771,1,0 S,2,34246,34771,1,0.2 P,0,34246,34771,A M,0,34264,34283,326.8364,143.8799,332.6727,135.7597 M,0,34283,34302,332.6727,135.7597,338.5091,127.6395 M,0,34302,34321,338.5091,127.6395,344,120 M,0,34321,34339,344,120,338.5091,127.6395 M,0,34339,34358,338.5091,127.6395,332.6727,135.7597 M,0,34358,34377,332.6727,135.7597,326.8364,143.8799 M,0,34377,34396,326.8364,143.8799,321,152 M,0,34396,34414,321,152,326.8364,143.8799 M,0,34414,34433,326.8364,143.8799,332.6727,135.7597 M,0,34433,34452,332.6727,135.7597,338.5091,127.6395 M,0,34452,34471,338.5091,127.6395,344,120
Sprite,Foreground,Centre,"SB\background\highlight.png",276,232 C,0,34546,,128,0,64 F,2,34546,34846,1,0 S,2,34546,34846,1,0.2 P,0,34546,34846,A
Sprite,Foreground,Centre,"SB\background\highlight.png",285,260 C,0,34621,,128,0,64 F,2,34621,34921,1,0 S,2,34621,34921,1,0.2 P,0,34621,34921,A
Sprite,Foreground,Centre,"SB\background\highlight.png",306,281 C,0,34696,,128,0,64 F,2,34696,34996,1,0 S,2,34696,34996,1,0.2 P,0,34696,34996,A
Sprite,Foreground,Centre,"SB\background\highlight.png",335,290 C,0,34771,,128,0,64 F,2,34771,35071,1,0 S,2,34771,35071,1,0.2 P,0,34771,35071,A
Sprite,Foreground,Centre,"SB\background\highlight.png",0,0 C,0,34846,,255,0,0 M,0,34846,34864,364,287,369.8364,278.8799 F,2,34846,35371,1,0 S,2,34846,35371,1,0.2 P,0,34846,35371,A M,0,34864,34883,369.8364,278.8799,375.6727,270.7597 M,0,34883,34902,375.6727,270.7597,381.5091,262.6395 M,0,34902,34921,381.5091,262.6395,387,255 M,0,34921,34939,387,255,381.5091,262.6395 M,0,34939,34958,381.5091,262.6395,375.6727,270.7597 M,0,34958,34977,375.6727,270.7597,369.8364,278.8799 M,0,34977,34996,369.8364,278.8799,364,287 M,0,34996,35014,364,287,369.8364,278.8799 M,0,35014,35033,369.8364,278.8799,375.6727,270.7597 M,0,35033,35052,375.6727,270.7597,381.5091,262.6395 M,0,35052,35071,381.5091,262.6395,387,255
Sprite,Foreground,Centre,"SB\background\highlight.png",0,0 C,0,35146,,255,0,0 M,0,35146,35164,344,376,348.4721,384.9443 F,2,35146,35671,1,0 S,2,35146,35671,1,0.2 P,0,35146,35671,A M,0,35164,35183,348.4721,384.9443,352.9443,393.8885 M,0,35183,35202,352.9443,393.8885,357.4164,402.8328 M,0,35202,35221,357.4164,402.8328,361.8885,411.7771 M,0,35221,35239,361.8885,411.7771,357.4164,402.8328 M,0,35239,35258,357.4164,402.8328,352.9443,393.8885 M,0,35258,35277,352.9443,393.8885,348.4721,384.9443 M,0,35277,35296,348.4721,384.9443,344,376 M,0,35296,35314,344,376,348.4721,384.9443 M,0,35314,35333,348.4721,384.9443,352.9443,393.8885 M,0,35333,35352,352.9443,393.8885,357.4164,402.8328 M,0,35352,35371,357.4164,402.8328,361.8885,411.7771
Sprite,Foreground,Centre,"SB\background\highlight.png",255,339 C,0,35446,,255,128,64 F,2,35446,35746,1,0 S,2,35446,35746,1,0.2 P,0,35446,35746,A
Sprite,Foreground,Centre,"SB\background\highlight.png",219,325 C,0,35521,,255,128,64 F,2,35521,35821,1,0 S,2,35521,35821,1,0.2 P,0,35521,35821,A
Sprite,Foreground,Centre,"SB\background\highlight.png",179,330 C,0,35596,,255,128,64 F,2,35596,35896,1,0 S,2,35596,35896,1,0.2 P,0,35596,35896,A
Sprite,Foreground,Centre,"SB\background\highlight.png",148,354 C,0,35671,,255,128,64 F,2,35671,35971,1,0 S,2,35671,35971,1,0.2 P,0,35671,35971,A
Sprite,Foreground,Centre,"SB\background\highlight.png",132,391 C,0,35746,,255,128,255 F,2,35746,36046,1,0 S,2,35746,36046,1,0.2 P,0,35746,36046,A
Sprite,Foreground,Centre,"SB\background\highlight.png",151,394 C,0,35821,,255,128,255 F,2,35821,36121,1,0 S,2,35821,36121,1,0.2 P,0,35821,36121,A
Sprite,Foreground,Centre,"SB\background\highlight.png",171,397 C,0,35896,,255,128,255 F,2,35896,36196,1,0 S,2,35896,36196,1,0.2 P,0,35896,36196,A
Sprite,Foreground,Centre,"SB\background\highlight.png",191,401 C,0,35971,,255,128,255 F,2,35971,36271,1,0 S,2,35971,36271,1,0.2 P,0,35971,36271,A
//Storyboard Sound Samples

[TimingPoints]
10846,300,4,1,4,50,1,0
11746,-76.9230769230769,4,1,4,50,0,0
12046,-111.111111111111,4,1,4,60,0,0
21496,-100,4,1,4,60,0,0
33346,-100,4,1,4,5,0,0
33646,-100,4,1,4,40,0,0
36346,-142.857142857143,4,2,3,50,0,0
50446,-200,4,1,4,40,0,0
51496,-166.666666666667,4,1,4,45,0,0
52846,-142.857142857143,4,1,4,50,0,0
54046,-100,4,1,4,55,0,0
55246,-100,4,1,4,60,0,0
61996,-125,4,1,4,60,0,0
62446,-100,4,1,4,60,0,0
64846,-125,4,1,4,50,0,0
74446,-100,4,1,4,60,0,0
84046,300,3,2,1,50,1,0
84046,-166.666666666667,3,2,1,50,0,0
89446,300,4,1,4,50,1,0
89446,-125,4,1,4,50,0,0
93046,-100,4,1,4,60,0,0
96646,-90.9090909090909,4,1,4,70,0,1
106171,-90.9090909090909,4,1,4,5,0,1
106246,-90.9090909090909,4,1,4,70,0,1
113446,-100,4,1,4,65,0,0
115846,-90.9090909090909,4,1,4,70,0,1
139846,-100,4,1,4,60,0,0
142396,-100,4,1,4,40,0,0
143446,-100,4,1,4,30,0,0
144646,-100,4,1,4,20,0,0
145846,-100,4,1,4,10,0,0
147046,-100,4,2,3,10,0,0

[Colours]
Combo1 : 255,128,64
Combo2 : 255,128,255
Combo3 : 128,0,64
Combo4 : 255,0,0

[HitObjects]
312,236,10846,5,2,0:0:0:0:
312,236,10921,1,2,0:0:0:0:
312,236,10996,2,0,L|326:153,1,80,2|2,0:0|0:0,0:0:0:0:
220,100,11296,1,2,0:0:0:0:
220,100,11371,1,2,0:0:0:0:
220,100,11446,2,0,L|234:182,1,80,2|2,0:0|0:0,0:0:0:0:
404,159,11746,6,0,P|370:92|320:80,1,103.999995239258,8|0,0:0|0:0,0:0:0:0:
162,191,12046,6,0,L|240:177,1,71.9999978027344,6|0,0:0|0:0,0:0:0:0:
136,116,12346,2,0,P|100:140|84:168,1,71.9999978027344,2|0,0:0|0:0,0:0:0:0:
176,272,12646,2,0,L|259:257,1,71.9999978027344,2|0,0:0|0:0,0:0:0:0:
162,191,12946,1,2,0:0:0:0:
100,316,13096,6,0,P|158:359|236:340,1,143.999995605469,2|2,0:0|0:0,0:0:0:0:
340,276,13546,2,0,L|353:354,1,71.9999978027344,2|0,0:0|0:0,0:0:0:0:
260,272,13846,2,0,P|276:228|304:204,1,71.9999978027344,2|0,0:0|0:0,0:0:0:0:
388,172,14146,1,2,0:0:0:0:
480,280,14296,6,0,B|428:270|428:270|389:284|389:284|334:274,1,143.999995605469,2|2,0:0|0:0,0:0:0:0:
188,224,14746,2,0,L|175:294,1,71.9999978027344,2|0,0:0|0:0,0:0:0:0:
276,216,15046,2,0,P|264:180|236:152,1,71.9999978027344,2|0,0:0|0:0,0:0:0:0:
152,104,15346,1,2,0:0:0:0:
59,192,15496,6,0,P|117:231|187:223,1,143.999995605469,2|2,0:0|0:0,0:0:0:0:
304,132,15946,2,0,L|233:119,1,71.9999978027344,2|0,0:0|0:0,0:0:0:0:
240,288,16246,1,2,0:0:0:0:
274,295,16321,1,0,0:0:0:0:
309,288,16396,1,0,0:0:0:0:
338,266,16471,1,0,0:0:0:0:
354,234,16546,2,0,L|360:194,3,35.9999989013672,2|0|0|0,0:0|0:0|0:0|0:0,0:0:0:0:
276,216,16846,6,0,L|205:202,1,71.9999978027344,6|0,0:0|0:0,0:0:0:0:
304,132,17146,2,0,L|233:118,1,71.9999978027344,2|0,0:0|0:0,0:0:0:0:
332,52,17446,2,0,L|261:38,1,71.9999978027344,2|0,0:0|0:0,0:0:0:0:
156,104,17746,1,2,0:0:0:0:
276,216,17896,6,0,P|348:208|392:140,1,143.999995605469,2|2,0:0|0:0,0:0:0:0:
291,61,18346,2,0,L|307:155,1,71.9999978027344,2|0,0:0|0:0,0:0:0:0:
200,40,18646,2,0,L|216:134,1,71.9999978027344,2|0,0:0|0:0,0:0:0:0:
276,216,18946,1,2,0:0:0:0:
132,268,19096,6,0,B|122:216|122:216|137:181|137:181|127:126,1,143.999995605469,2|2,0:0|0:0,0:0:0:0:
276,216,19546,2,0,L|182:232,1,71.9999978027344,2|0,0:0|0:0,0:0:0:0:
296,128,19846,2,0,L|202:144,1,71.9999978027344,2|0,0:0|0:0,0:0:0:0:
316,48,20146,1,2,0:0:0:0:
416,214,20296,6,0,B|359:242|340:193|275:215,1,143.999995605469,2|2,0:0|0:0,0:0:0:0:
144,308,20746,1,2,0:0:0:0:
144,308,21046,1,8,0:0:0:0:
48,240,21196,2,0,L|120:228,1,71.9999978027344,2|2,0:0|0:0,0:0:0:0:
312,284,21496,6,0,P|248:288|196:212,1,160,6|2,0:0|0:0,0:0:0:0:
308,144,21946,2,0,L|386:157,1,80,8|0,0:0|0:0,0:0:0:0:
275,215,22246,1,2,0:0:0:0:
160,148,22396,2,0,P|128:180|120:216,1,80,2|8,0:0|0:0,0:0:0:0:
229,369,22696,6,0,B|223:309|223:309|200:271|200:271|195:215,1,160,2|2,0:0|0:0,0:0:0:0:
204,64,23146,2,0,L|286:49,1,80,8|0,0:0|0:0,0:0:0:0:
384,156,23446,1,2,0:0:0:0:
275,215,23596,2,0,P|260:176|260:136,1,80,2|8,0:0|0:0,0:0:0:0:
460,96,23896,6,0,B|471:159|471:159|457:197|457:197|467:253,1,160,2|2,0:0|0:0,0:0:0:0:
376,352,24346,2,0,P|340:352|296:328,1,80,8|0,0:0|0:0,0:0:0:0:
256,164,24646,1,2,0:0:0:0:
356,264,24796,1,2,0:0:0:0:
219,300,24946,1,8,0:0:0:0:
336,184,25096,6,0,P|324:116|236:84,1,160,2|2,0:0|0:0,0:0:0:0:
224,88,25471,1,2,0:0:0:0:
204,104,25546,1,8,0:0:0:0:
136,224,25696,1,0,0:0:0:0:
136,224,25771,1,0,0:0:0:0:
136,224,25846,2,0,L|183:232,3,40,2|0|2|0,0:0|0:0|0:0|0:0,0:0:0:0:
256,164,26146,2,0,L|295:157,3,40,8|0|0|0,0:0|0:0|0:0|0:0,0:0:0:0:
380,220,26446,6,0,L|458:233,1,80,6|2,0:0|0:0,0:0:0:0:
328,316,26746,2,0,L|406:329,1,80,8|2,0:0|0:0,0:0:0:0:
264,256,27046,2,0,P|244:288|244:332,1,80,8|2,0:0|0:0,0:0:0:0:
380,220,27346,1,8,0:0:0:0:
380,220,27496,6,0,L|365:137,1,80,8|0,0:0|0:0,0:0:0:0:
236,96,27796,1,2,0:0:0:0:
250,174,27946,1,2,0:0:0:0:
312,60,28096,2,0,P|280:24|244:12,1,80,8|0,0:0|0:0,0:0:0:0:
157,109,28396,1,2,0:0:0:0:
157,109,28471,1,2,0:0:0:0:
157,109,28546,2,0,L|243:93,1,80,8|2,0:0|0:0,0:0:0:0:
380,220,28846,6,0,L|293:204,1,80,0|2,0:0|0:0,0:0:0:0:
128,192,29146,1,8,0:0:0:0:
154,321,29296,1,2,0:0:0:0:
216,180,29446,1,8,0:0:0:0:
242,309,29596,1,2,0:0:0:0:
128,192,29746,1,8,0:0:0:0:
284,232,29896,6,0,P|300:160|240:96,1,160,6|2,0:0|0:0,0:0:0:0:
224,92,30271,1,2,0:0:0:0:
200,95,30346,1,8,0:0:0:0:
92,180,30496,1,0,0:0:0:0:
92,180,30571,1,0,0:0:0:0:
92,180,30646,2,0,L|101:231,3,40,2|0|2|0,0:0|0:0|0:0|0:0,0:0:0:0:
180,256,30946,1,8,0:0:0:0:
155,287,31021,1,8,0:0:0:0:
120,305,31096,1,8,0:0:0:0:
80,306,31171,1,8,0:0:0:0:
44,290,31246,5,6,0:0:0:0:
256,192,31396,12,2,33346,0:0:0:0:
104,80,33646,5,2,0:0:0:0:
123,74,33721,1,0,0:0:0:0:
142,72,33796,1,0,0:0:0:0:
162,76,33871,1,0,0:0:0:0:
180,84,33946,1,2,0:0:0:0:
198,92,34021,1,0,0:0:0:0:
218,98,34096,1,0,0:0:0:0:
238,99,34171,1,0,0:0:0:0:
257,96,34246,6,0,L|280:64,3,40,2|0|0|0,0:0|0:0|0:0|0:0,0:0:0:0:
212,176,34546,5,2,0:0:0:0:
221,204,34621,1,0,0:0:0:0:
242,225,34696,1,2,0:0:0:0:
271,234,34771,1,0,0:0:0:0:
300,231,34846,6,0,L|323:199,3,40,2|0|0|0,0:0|0:0|0:0|0:0,0:0:0:0:
280,320,35146,2,0,L|300:360,3,40,2|0|0|0,0:0|0:0|0:0|0:0,0:0:0:0:
191,283,35446,5,2,0:0:0:0:
155,269,35521,1,0,0:0:0:0:
115,274,35596,1,2,0:0:0:0:
84,298,35671,1,0,0:0:0:0:
68,335,35746,5,2,0:0:0:0:
87,338,35821,1,0,0:0:0:0:
107,341,35896,1,2,0:0:0:0:
127,345,35971,1,0,0:0:0:0:
146,348,36046,1,6,0:0:0:0:
120,192,36346,5,2,0:0:0:0:
120,192,36646,2,0,L|2:171,1,111.999996582031,2|0,0:0|0:0,0:0:0:0:
120,116,37096,2,0,P|187:157|179:236,1,167.999994873047,2|0,0:0|0:0,0:0:0:0:
178,237,37846,2,0,L|296:216,1,111.999996582031,2|0,0:0|0:0,0:0:0:0:
388,84,38446,6,0,B|424:168|348:168|388:248,2,167.999994873047,2|2|2,0:0|0:0|0:0,0:0:0:0:
312,124,39646,2,0,L|197:144,1,111.999996582031,2|0,0:0|0:0,0:0:0:0:
292,13,40246,2,0,L|311:123,1,111.999996582031,2|2,0:0|0:0,0:0:0:0:
220,84,40696,1,2,0:0:0:0:
384,52,40846,5,2,0:0:0:0:
336,244,41146,1,2,0:0:0:0:
336,244,41446,2,0,L|203:220,1,111.999996582031,2|2,0:0|0:0,0:0:0:0:
372,172,41896,2,0,P|416:240|376:312,1,167.999994873047,2|0,0:0|0:0,0:0:0:0:
378,310,42646,2,0,L|507:287,1,111.999996582031,2|0,0:0|0:0,0:0:0:0:
336,244,43246,6,0,L|509:213,1,167.999994873047,2|2,0:0|0:0,0:0:0:0:
336,244,44146,6,0,B|280:136|396:136|324:24,2,223.999993164063,2|2|2,0:0|0:0|0:0,0:0:0:0:
272,92,45646,1,2,0:0:0:0:
173,224,45946,5,2,0:0:0:0:
173,224,46246,2,0,L|302:246,1,111.999996582031,2|2,0:0|0:0,0:0:0:0:
188,140,46696,2,0,P|116:160|92:256,1,167.999994873047,2|2,0:0|0:0,0:0:0:0:
88,242,47446,2,0,L|65:112,1,111.999996582031,2|0,0:0|0:0,0:0:0:0:
188,56,48046,6,0,B|120:92|96:20|24:61,2,167.999994873047,2|2|2,0:0|0:0|0:0,0:0:0:0:
276,24,49246,2,0,L|296:142,1,111.999996582031,2|0,0:0|0:0,0:0:0:0:
184,154,49846,2,0,L|294:134,1,111.999996582031,2|0,0:0|0:0,0:0:0:0:
294,133,50446,6,0,L|302:175,1,40,2|0,0:0|0:0,0:0:0:0:
328,308,50746,2,0,L|370:299,1,40,2|0,0:0|0:0,0:0:0:0:
220,256,51046,2,0,L|262:247,1,40,2|0,0:0|0:0,0:0:0:0:
372,224,51346,1,2,0:0:0:0:
220,172,51496,6,0,P|209:129|227:81,1,95.9999970703126
341,125,51946,2,0,L|293:132,1,47.9999985351563,2|0,0:0|0:0,0:0:0:0:
419,215,52246,2,0,L|359:225,1,47.9999985351563,2|0,0:0|0:0,0:0:0:0:
220,172,52546,2,0,L|228:219,1,47.9999985351563,2|0,0:0|0:0,0:0:0:0:
328,320,52846,5,2,0:0:0:0:
312,244,52996,1,2,0:0:0:0:
252,332,53146,5,2,0:0:0:0:
228,219,53296,1,2,0:0:0:0:
172,344,53446,5,2,0:0:0:0:
144,194,53596,1,2,0:0:0:0:
96,356,53746,5,2,0:0:0:0:
60,169,53896,1,2,0:0:0:0:
228,219,54046,6,0,L|338:199,1,80,12|2,0:0|0:0,0:0:0:0:
380,152,54346,1,2,0:0:0:0:
264,48,54496,2,0,P|248:88|252:124,1,80,12|2,0:0|0:0,0:0:0:0:
306,205,54796,1,2,0:0:0:0:
404,111,54946,2,0,L|326:98,1,80,12|2,0:0|0:0,0:0:0:0:
149,232,55246,6,0,L|227:218,1,80,6|0,0:0|0:0,0:0:0:0:
384,188,55546,1,8,0:0:0:0:
250,141,55696,1,0,0:0:0:0:
278,280,55846,2,0,P|324:284|356:268,1,80,0|2,0:0|0:0,0:0:0:0:
306,205,56146,1,8,0:0:0:0:
180,324,56296,6,0,B|170:268|170:268|187:229|187:229|175:162,1,160,2|2,0:0|0:0,0:0:0:0:
88,104,56746,2,0,P|68:140|68:184,1,80,8|0,0:0|0:0,0:0:0:0:
176,169,57046,1,0,0:0:0:0:
140,44,57196,2,0,P|96:28|60:32,1,80,2|8,0:0|0:0,0:0:0:0:
66,178,57496,1,0,0:0:0:0:
204,92,57646,5,2,0:0:0:0:
88,104,57796,1,2,0:0:0:0:
176,169,57946,2,0,P|220:172|260:152,1,80,8|0,0:0|0:0,0:0:0:0:
364,96,58246,2,0,L|377:174,1,80,0|2,0:0|0:0,0:0:0:0:
312,268,58546,1,8,0:0:0:0:
176,169,58696,6,0,B|156:268|156:268|184:324,1,160,0|2,0:0|0:0,0:0:0:0:
312,268,59146,2,0,P|274:256|234:259,1,80,8|0,0:0|0:0,0:0:0:0:
67,323,59446,2,0,B|114:339|114:339|186:319,2,120,2|2|2,0:0|0:0|0:0,0:0:0:0:
108,176,60046,6,0,P|124:216|124:252,1,80,2|2,0:0|0:0,0:0:0:0:
8,236,60346,1,8,0:0:0:0:
64,104,60496,1,0,0:0:0:0:
192,172,60646,2,0,P|232:184|284:172,1,80,0|2,0:0|0:0,0:0:0:0:
236,92,60946,1,8,0:0:0:0:
108,176,61096,6,0,B|88:252|88:252|116:332,1,160,2|2,0:0|0:0,0:0:0:0:
232,332,61546,2,0,P|252:292|252:252,1,80,8|0,0:0|0:0,0:0:0:0:
180,152,61846,1,0,0:0:0:0:
52,268,61996,2,0,B|99:276|99:276|133:266|133:266|176:273,1,128,2|0,0:0|0:0,0:0:0:0:
336,296,62446,5,12,0:0:0:0:
264,220,62596,2,0,B|264:172|264:172|277:141,1,80,2|2,0:0|0:0,0:0:0:0:
424,236,62896,1,12,0:0:0:0:
336,296,63046,2,0,P|284:320|244:320,1,80,2|2,0:0|0:0,0:0:0:0:
236,320,63271,1,0,0:0:0:0:
236,320,63346,2,0,L|180:260,1,80,12|0,0:0|0:0,0:0:0:0:
224,132,63646,5,8,0:0:0:0:
240,148,63721,1,8,0:0:0:0:
248,172,63796,2,0,L|239:219,3,40,2|2|2|2,0:0|0:0|0:0|0:0,0:0:0:0:
164,184,64096,5,8,0:0:0:0:
148,168,64171,1,8,0:0:0:0:
140,144,64246,2,0,L|148:96,3,40,2|2|2|2,0:0|0:0|0:0|0:0,0:0:0:0:
224,132,64546,5,8,0:0:0:0:
263,125,64621,1,8,0:0:0:0:
302,118,64696,1,8,0:0:0:0:
342,111,64771,1,8,0:0:0:0:
381,104,64846,6,0,L|392:170,1,64,6|0,0:0|0:0,0:0:0:0:
376,260,65146,2,0,P|412:260|439:248,1,64,2|0,0:0|0:0,0:0:0:0:
308,204,65446,2,0,L|241:215,1,64,2|0,0:0|0:0,0:0:0:0:
326,113,65746,2,0,L|259:124,1,64,2|0,0:0|0:0,0:0:0:0:
344,32,66046,6,0,P|392:64|400:148,1,128,2|2,0:0|0:0,0:0:0:0:
308,204,66496,1,0,0:0:0:0:
436,272,66646,2,0,L|424:205,1,64,10|0,0:0|0:0,0:0:0:0:
319,267,66946,2,0,L|307:200,1,64,2|0,0:0|0:0,0:0:0:0:
352,72,67246,6,0,B|265:42|250:114|166:76,1,192,2|0,0:0|0:0,0:0:0:0:
89,45,67846,2,0,P|81:77|94:124,1,64,2|0,0:0|0:0,0:0:0:0:
144,216,68146,2,0,L|155:140,1,64,2|0,0:0|0:0,0:0:0:0:
22,149,68446,2,0,P|44:171|75:181,1,64,2|0,0:0|0:0,0:0:0:0:
217,107,68746,2,0,P|194:84|163:74,1,64,2|0,0:0|0:0,0:0:0:0:
144,216,69046,5,10,0:0:0:0:
232,203,69196,1,0,0:0:0:0:
137,292,69346,1,2,0:0:0:0:
225,279,69496,1,0,0:0:0:0:
128,368,69646,6,0,P|96:356|72:332,1,64,2|0,0:0|0:0,0:0:0:0:
9,285,69946,2,0,P|33:265|64:256,1,64,2|0,0:0|0:0,0:0:0:0:
225,279,70246,2,0,L|234:216,1,64,2|0,0:0|0:0,0:0:0:0:
137,292,70546,2,0,L|146:229,1,64,2|0,0:0|0:0,0:0:0:0:
248,136,70846,6,0,P|300:168|312:240,1,128,2|2,0:0|0:0,0:0:0:0:
260,320,71296,1,0,0:0:0:0:
172,226,71446,2,0,L|254:211,1,64,10|0,0:0|0:0,0:0:0:0:
196,331,71746,2,0,L|278:316,1,64,2|0,0:0|0:0,0:0:0:0:
440,208,72046,6,0,P|428:264|360:300,1,128,2|2,0:0|0:0,0:0:0:0:
360,220,72496,2,0,B|340:136|340:136|348:92,1,128,2|2,0:0|0:0,0:0:0:0:
424,128,72946,1,2,0:0:0:0:
276,192,73096,1,8,0:0:0:0:
260,195,73171,1,8,0:0:0:0:
244,196,73246,1,8,0:0:0:0:
96,152,74446,5,6,0:0:0:0:
172,84,74596,1,2,0:0:0:0:
248,152,74746,2,0,L|262:234,1,80,8|0,0:0|0:0,0:0:0:0:
408,200,75046,2,0,P|372:180|332:180,1,80,0|2,0:0|0:0,0:0:0:0:
233,305,75346,2,0,P|276:307|316:286,1,80,8|0,0:0|0:0,0:0:0:0:
248,152,75646,6,0,B|188:162|188:162|149:148|149:148|79:161,1,160,2|8,0:0|0:0,0:0:0:0:
200,80,76096,2,0,P|280:72|336:132,1,160,2|2,0:0|0:0,0:0:0:0:
234,230,76546,2,0,L|248:147,1,80,8|0,0:0|0:0,0:0:0:0:
364,268,76846,6,0,B|308:277|308:277|269:309|269:309|214:318,1,160,2|8,0:0|0:0,0:0:0:0:
112,177,77296,2,0,P|187:168|233:229,1,160,0|2,0:0|0:0,0:0:0:0:
138,313,77746,2,0,L|161:224,1,80,8|0,0:0|0:0,0:0:0:0:
286,126,78046,6,0,P|312:159|321:201,1,80,2|2,0:0|0:0,0:0:0:0:
200,104,78346,2,0,P|221:65|258:42,1,80,8|2,0:0|0:0,0:0:0:0:
372,116,78646,1,0,0:0:0:0:
232,196,78796,1,2,0:0:0:0:
232,196,78871,1,0,0:0:0:0:
232,196,78946,2,0,L|144:184,1,80,12|2,0:0|0:0,0:0:0:0:
249,45,79246,6,0,L|337:33,1,80,12|2,0:0|0:0,0:0:0:0:
308,148,79546,2,0,L|396:136,1,80,8|2,0:0|0:0,0:0:0:0:
372,248,79846,2,0,L|460:236,1,80,8|2,0:0|0:0,0:0:0:0:
312,352,80146,1,8,0:0:0:0:
428,336,80296,1,2,0:0:0:0:
312,352,80446,6,0,L|232:341,1,80,8|2,0:0|0:0,0:0:0:0:
372,248,80746,2,0,L|292:237,1,80,8|2,0:0|0:0,0:0:0:0:
436,148,81046,2,0,L|356:137,1,80,8|2,0:0|0:0,0:0:0:0:
216,224,81346,1,8,0:0:0:0:
196,226,81421,1,2,0:0:0:0:
176,229,81496,1,2,0:0:0:0:
156,232,81571,1,2,0:0:0:0:
136,234,81646,6,0,L|56:223,1,80,8|2,0:0|0:0,0:0:0:0:
196,130,81946,2,0,L|116:119,1,80,8|2,0:0|0:0,0:0:0:0:
260,30,82246,2,0,L|180:19,1,80,8|2,0:0|0:0,0:0:0:0:
40,104,82546,1,8,0:0:0:0:
101,5,82696,1,2,0:0:0:0:
196,130,82846,5,8,0:0:0:0:
214,141,82921,1,8,0:0:0:0:
239,143,82996,2,0,L|282:123,3,40,2|2|2|2,0:0|0:0|0:0|0:0,0:0:0:0:
232,64,83296,5,8,0:0:0:0:
214,53,83371,1,8,0:0:0:0:
189,51,83446,2,0,L|146:71,3,40,2|2|2|2,0:0|0:0|0:0|0:0,0:0:0:0:
116,136,83746,5,8,0:0:0:0:
122,175,83821,1,8,0:0:0:0:
129,214,83896,1,8,0:0:0:0:
136,254,83971,1,8,0:0:0:0:
143,293,84046,6,0,L|238:308,1,95.9999970703126,6|0,0:0|0:0,0:0:0:0:
237,308,84646,1,0,0:0:0:0:
336,212,84946,2,0,L|241:227,2,95.9999970703126,2|0|0,0:0|0:0|0:0,0:0:0:0:
241,312,85846,6,0,P|168:272|180:168,1,191.999994140625,2|0,0:0|0:0,0:0:0:0:
241,227,86746,1,2,0:0:0:0:
241,227,87346,1,0,0:0:0:0:
336,128,87646,6,0,L|241:143,2,95.9999970703126,2|0|0,0:0|0:0|0:0,0:0:0:0:
146,211,88546,2,0,L|240:226,2,95.9999970703126,2|0|0,0:0|0:0|0:0,0:0:0:0:
344,312,89446,6,0,L|414:299,1,64,6|0,0:0|0:0,0:0:0:0:
364,224,89746,2,0,L|434:211,1,64,2|0,0:0|0:0,0:0:0:0:
384,136,90046,2,0,L|454:123,1,64,2|0,0:0|0:0,0:0:0:0:
404,48,90346,2,0,L|474:35,1,64,2|0,0:0|0:0,0:0:0:0:
384,136,90646,6,0,B|336:144|336:144|307:165|307:165|252:175,1,128,2|2,0:0|0:0,0:0:0:0:
376,220,91096,2,0,P|428:208|468:136,1,128,0|0,0:0|0:0,0:0:0:0:
395,72,91546,2,0,L|383:135,1,64,2|0,0:0|0:0,0:0:0:0:
224,272,91846,6,0,L|153:284,1,64,2|0,0:0|0:0,0:0:0:0:
175,196,92146,2,0,L|104:208,1,64,2|0,0:0|0:0,0:0:0:0:
126,120,92446,2,0,L|55:132,1,64,2|0,0:0|0:0,0:0:0:0:
77,44,92746,1,2,0:0:0:0:
187,208,92896,1,2,0:0:0:0:
187,208,92971,1,2,0:0:0:0:
187,208,93046,6,0,L|274:192,1,80,12|0,0:0|0:0,0:0:0:0:
336,132,93346,1,2,0:0:0:0:
216,40,93496,2,0,P|204:76|212:124,1,80,12|0,0:0|0:0,0:0:0:0:
265,194,93796,1,2,0:0:0:0:
412,116,93946,2,0,P|388:76|344:56,1,80,12|0,0:0|0:0,0:0:0:0:
265,194,94246,6,0,L|281:281,1,80,12|2,0:0|0:0,0:0:0:0:
408,188,94546,1,8,0:0:0:0:
336,132,94696,1,8,0:0:0:0:
336,132,95146,6,0,P|296:104|260:100,1,80,12|2,0:0|0:0,0:0:0:0:
84,72,95446,1,8,0:0:0:0:
152,132,95596,1,8,0:0:0:0:
84,196,95746,5,0,0:0:0:0:
256,68,96046,1,0,0:0:0:0:
428,276,96346,1,0,0:0:0:0:
84,196,96646,6,0,P|72:152|80:112,1,88.000002685547,6|2,0:0|0:0,0:0:0:0:
212,152,96946,1,8,0:0:0:0:
112,272,97096,1,0,0:0:0:0:
240,228,97246,2,0,L|334:244,1,88.000002685547,2|2,0:0|0:0,0:0:0:0:
208,344,97546,1,8,0:0:0:0:
164,216,97696,1,0,0:0:0:0:
326,242,97846,6,0,P|336:200|320:156,1,88.000002685547,2|0,0:0|0:0,0:0:0:0:
184,80,98146,1,8,0:0:0:0:
240,228,98296,1,0,0:0:0:0:
339,108,98446,1,2,0:0:0:0:
212,152,98596,2,0,P|165:154|123:125,1,88.000002685547,2|8,0:0|0:0,0:0:0:0:
272,12,98896,6,0,B|277:79|277:79|306:115|306:115|312:186,1,176.000005371094,2|2,0:0|0:0,0:0:0:0:
324,312,99346,1,8,0:0:0:0:
392,188,99496,1,0,0:0:0:0:
244,296,99646,2,0,L|137:277,1,88.000002685547,2|2,0:0|0:0,0:0:0:0:
176,135,99946,2,0,P|204:175|204:227,1,88.000002685547,8|0,0:0|0:0,0:0:0:0:
80,333,100246,5,2,0:0:0:0:
129,200,100396,1,2,0:0:0:0:
158,346,100546,1,8,0:0:0:0:
207,213,100696,1,0,0:0:0:0:
60,244,100846,2,0,P|48:212|66:148,1,88.000002685547,2|2,0:0|0:0,0:0:0:0:
76,140,101071,1,0,0:0:0:0:
100,128,101146,2,0,L|202:109,1,88.000002685547,12|2,0:0|0:0,0:0:0:0:
368,244,101446,6,0,L|281:228,1,88.000002685547,0|2,0:0|0:0,0:0:0:0:
308,76,101746,2,0,P|335:121|332:172,1,88.000002685547,8|0,0:0|0:0,0:0:0:0:
200,260,102046,1,2,0:0:0:0:
252,140,102196,1,2,0:0:0:0:
368,244,102346,6,0,P|408:216|428:172,1,88.000002685547,8|0,0:0|0:0,0:0:0:0:
281,228,102646,2,0,P|288:280|312:312,1,88.000002685547,2|2,0:0|0:0,0:0:0:0:
336,155,102946,2,8,P|295:137|252:140,1,88.000002685547,8|2,0:0|0:0,0:0:0:0:
113,244,103246,2,0,L|211:261,1,88.000002685547,0|2,0:0|0:0,0:0:0:0:
252,140,103546,2,0,L|165:124,1,88.000002685547,8|0,0:0|0:0,0:0:0:0:
36,224,103846,6,0,P|36:268|60:308,1,88.000002685547,2|0,0:0|0:0,0:0:0:0:
199,259,104146,1,8,0:0:0:0:
165,124,104296,1,2,0:0:0:0:
113,244,104446,1,0,0:0:0:0:
252,140,104596,1,2,0:0:0:0:
199,259,104746,1,0,0:0:0:0:
89,117,104896,1,2,0:0:0:0:
87,103,104971,1,0,0:0:0:0:
84,89,105046,6,0,L|70:3,2,88.000002685547,12|2|2,0:0|0:0|0:0,0:0:0:0:
113,244,105496,1,8,0:0:0:0:
252,140,105646,5,2,0:0:0:0:
224,122,105721,1,2,0:0:0:0:
193,130,105796,1,2,0:0:0:0:
177,158,105871,1,2,0:0:0:0:
185,188,105946,2,0,P|242:221|312:198,1,132.00000402832,12|0,0:0|0:0,0:0:0:0:
376,84,106246,5,6,0:0:0:0:
252,140,106396,1,2,0:0:0:0:
392,172,106546,2,0,P|436:152|464:108,1,88.000002685547,8|0,0:0|0:0,0:0:0:0:
296,64,106846,1,2,0:0:0:0:
302,205,106996,1,2,0:0:0:0:
159,124,107146,6,0,P|179:79|219:52,1,88.000002685547,8|0,0:0|0:0,0:0:0:0:
189,206,107446,2,0,P|136:208|100:190,1,88.000002685547,2|2,0:0|0:0,0:0:0:0:
252,140,107746,2,0,P|276:177|281:220,1,88.000002685547,8|2,0:0|0:0,0:0:0:0:
120,280,108046,2,0,L|104:193,1,88.000002685547,0|2,0:0|0:0,0:0:0:0:
281,219,108346,2,0,L|296:305,1,88.000002685547,8|0,0:0|0:0,0:0:0:0:
135,367,108646,6,0,P|56:342|35:251,1,176.000005371094,2|8,0:0|0:0,0:0:0:0:
172,140,109096,2,0,P|183:223|119:279,1,176.000005371094,0|2,0:0|0:0,0:0:0:0:
23,167,109546,2,0,P|66:171|104:193,1,88.000002685547,8|0,0:0|0:0,0:0:0:0:
164,356,109846,5,2,0:0:0:0:
32,259,109996,1,2,0:0:0:0:
206,277,110146,2,0,L|292:261,1,88.000002685547,8|2,0:0|0:0,0:0:0:0:
260,108,110446,2,0,P|236:148|236:192,1,88.000002685547,0|2,0:0|0:0,0:0:0:0:
383,234,110746,1,8,0:0:0:0:
372,215,110821,1,0,0:0:0:0:
358,198,110896,1,2,0:0:0:0:
341,184,110971,1,0,0:0:0:0:
321,173,111046,6,0,L|206:193,1,88.000002685547,6|2,0:0|0:0,0:0:0:0:
360,312,111346,2,0,P|404:312|448:284,1,88.000002685547,8|0,0:0|0:0,0:0:0:0:
504,172,111646,1,2,0:0:0:0:
383,234,111796,2,0,L|366:139,1,88.000002685547,2|8,0:0|0:0,0:0:0:0:
348,32,112096,1,0,0:0:0:0:
280,164,112246,6,0,L|296:258,1,88.000002685547,2|2,0:0|0:0,0:0:0:0:
315,366,112546,1,8,0:0:0:0:
383,234,112696,2,0,L|366:139,1,88.000002685547,2|0,0:0|0:0,0:0:0:0:
348,32,112996,1,2,0:0:0:0:
280,164,113146,1,8,0:0:0:0:
264,179,113221,1,0,0:0:0:0:
245,189,113296,1,0,0:0:0:0:
223,195,113371,1,0,0:0:0:0:
201,195,113446,6,0,L|118:180,1,80,2|2,0:0|0:0,0:0:0:0:
148,36,113746,2,0,P|172:76|172:116,1,80,8|0,0:0|0:0,0:0:0:0:
36,204,114046,2,0,L|51:113,1,80,2|2,0:0|0:0,0:0:0:0:
148,36,114346,1,8,0:0:0:0:
122,180,114496,1,2,0:0:0:0:
272,108,114646,5,8,0:0:0:0:
294,117,114721,1,8,0:0:0:0:
311,136,114796,2,0,L|320:182,3,40,2|2|2|2,0:0|0:0|0:0|0:0,0:0:0:0:
239,175,115096,5,8,0:0:0:0:
217,166,115171,1,8,0:0:0:0:
200,147,115246,2,0,L|190:100,3,40,2|2|2|2,0:0|0:0|0:0|0:0,0:0:0:0:
272,108,115546,5,8,0:0:0:0:
311,101,115621,1,8,0:0:0:0:
350,94,115696,1,8,0:0:0:0:
390,87,115771,1,8,0:0:0:0:
429,80,115846,6,0,P|456:121|457:162,1,88.000002685547,6|2,0:0|0:0,0:0:0:0:
352,288,116146,1,8,0:0:0:0:
376,144,116296,1,0,0:0:0:0:
440,304,116446,2,0,P|428:340|385:375,1,88.000002685547,2|2,0:0|0:0,0:0:0:0:
212,320,116746,1,8,0:0:0:0:
352,288,116896,1,0,0:0:0:0:
166,240,117046,6,0,P|136:266|119:313,1,88.000002685547,2|0,0:0|0:0,0:0:0:0:
296,376,117346,1,8,0:0:0:0:
264,236,117496,1,2,0:0:0:0:
198,380,117646,1,0,0:0:0:0:
166,240,117796,2,0,P|172:200|203:160,1,88.000002685547,2|8,0:0|0:0,0:0:0:0:
423,179,118096,6,0,B|358:190|358:190|328:224|328:224|257:236,1,176.000005371094,0|2,0:0|0:0,0:0:0:0:
144,96,118546,1,8,0:0:0:0:
280,152,118696,1,0,0:0:0:0:
166,240,118846,2,0,L|55:259,1,88.000002685547,2|2,0:0|0:0,0:0:0:0:
204,160,119146,2,0,P|244:196|256:236,1,88.000002685547,8|0,0:0|0:0,0:0:0:0:
94,341,119446,6,0,L|77:246,1,88.000002685547,2|2,0:0|0:0,0:0:0:0:
144,96,119746,1,8,0:0:0:0:
166,240,119896,1,2,0:0:0:0:
60,108,120046,2,0,P|64:64|100:24,1,88.000002685547,0|2,0:0|0:0,0:0:0:0:
114,19,120271,1,0,0:0:0:0:
140,16,120346,2,0,L|242:33,1,88.000002685547,12|2,0:0|0:0,0:0:0:0:
376,216,120646,6,0,L|289:200,1,88.000002685547,6|2,0:0|0:0,0:0:0:0:
316,48,120946,2,0,P|343:93|340:144,1,88.000002685547,8|0,0:0|0:0,0:0:0:0:
208,232,121246,1,2,0:0:0:0:
260,112,121396,1,2,0:0:0:0:
376,216,121546,2,0,P|416:188|436:144,1,88.000002685547,8|0,0:0|0:0,0:0:0:0:
289,200,121846,6,0,P|296:252|320:284,1,88.000002685547,2|2,0:0|0:0,0:0:0:0:
344,127,122146,2,8,P|303:109|260:112,1,88.000002685547,8|2,0:0|0:0,0:0:0:0:
124,192,122446,2,0,L|107:97,1,88.000002685547,0|2,0:0|0:0,0:0:0:0:
245,25,122746,2,0,L|260:111,1,88.000002685547,8|0,0:0|0:0,0:0:0:0:
176,264,123046,6,0,P|92:276|36:208,1,176.000005371094,12|2,0:0|0:0,0:0:0:0:
139,105,123496,2,0,L|123:191,1,88.000002685547,12|2,0:0|0:0,0:0:0:0:
76,360,123796,1,2,0:0:0:0:
76,360,123871,1,0,0:0:0:0:
76,360,123946,2,0,L|170:376,1,88.000002685547,12|0,0:0|0:0,0:0:0:0:
300,256,124246,5,8,0:0:0:0:
291,234,124321,1,8,0:0:0:0:
272,217,124396,2,0,L|220:208,3,44.0000013427735,2|2|2|2,0:0|0:0|0:0|0:0,0:0:0:0:
228,288,124696,5,8,0:0:0:0:
237,310,124771,1,8,0:0:0:0:
256,327,124846,2,0,L|308:336,3,44.0000013427735,2|2|2|2,0:0|0:0|0:0|0:0,0:0:0:0:
368,300,125146,5,8,0:0:0:0:
375,256,125221,1,8,0:0:0:0:
383,213,125296,1,8,0:0:0:0:
390,170,125371,1,8,0:0:0:0:
398,126,125446,6,0,P|392:96|352:52,1,88.000002685547,6|2,0:0|0:0,0:0:0:0:
232,140,125746,2,0,L|318:124,1,88.000002685547,8|0,0:0|0:0,0:0:0:0:
452,248,126046,1,2,0:0:0:0:
292,208,126196,1,2,0:0:0:0:
428,84,126346,2,0,L|443:170,1,88.000002685547,8|0,0:0|0:0,0:0:0:0:
276,288,126646,6,0,P|232:264|212:224,1,88.000002685547,2|0,0:0|0:0,0:0:0:0:
360,144,126946,2,0,L|375:230,1,88.000002685547,8|2,0:0|0:0,0:0:0:0:
213,232,127246,2,0,L|198:146,1,88.000002685547,0|2,0:0|0:0,0:0:0:0:
268,24,127546,1,8,0:0:0:0:
443,170,127696,6,0,P|376:224|288:192,1,176.000005371094,0|2,0:0|0:0,0:0:0:0:
334,63,128146,2,0,P|358:102|358:150,1,88.000002685547,8|0,0:0|0:0,0:0:0:0:
232,272,128446,1,2,0:0:0:0:
284,124,128596,1,2,0:0:0:0:
396,248,128746,2,0,L|297:265,1,88.000002685547,8|0,0:0|0:0,0:0:0:0:
197,108,129046,6,0,L|295:125,1,88.000002685547,2|0,0:0|0:0,0:0:0:0:
420,168,129346,1,8,0:0:0:0:
309,262,129496,1,2,0:0:0:0:
283,123,129646,6,0,L|273:71,3,44.0000013427735,0|0|2|0,0:0|0:0|0:0|0:0,0:0:0:0:
338,188,129946,1,8,0:0:0:0:
359,190,130021,1,0,0:0:0:0:
381,187,130096,1,2,0:0:0:0:
402,180,130171,1,0,0:0:0:0:
419,167,130246,6,0,B|441:293|441:293|425:340,1,176.000005371094,6|8,0:0|0:0,0:0:0:0:
256,336,130696,2,0,B|268:292|320:268|364:288|364:288|356:240,1,176.000005371094,2|2,0:0|0:0,0:0:0:0:
264,120,131146,2,0,P|256:164|268:204,1,88.000002685547,8|2,0:0|0:0,0:0:0:0:
445,265,131446,6,0,P|420:184|340:160,1,176.000005371094,2|8,0:0|0:0,0:0:0:0:
185,248,131896,2,0,B|261:216|285:280|361:244,1,176.000005371094,2|2,0:0|0:0,0:0:0:0:
364,88,132346,2,0,P|316:88|280:112,1,88.000002685547,8|0,0:0|0:0,0:0:0:0:
185,248,132646,6,0,L|166:145,1,88.000002685547,6|8,0:0|0:0,0:0:0:0:
166,143,132871,1,8,0:0:0:0:
163,125,132946,1,8,0:0:0:0:
96,264,133096,6,0,L|77:161,1,88.000002685547,6|8,0:0|0:0,0:0:0:0:
77,159,133321,1,8,0:0:0:0:
74,141,133396,1,8,0:0:0:0:
12,280,133546,5,6,0:0:0:0:
29,319,133621,1,8,0:0:0:0:
64,345,133696,1,8,0:0:0:0:
107,351,133771,1,8,0:0:0:0:
147,334,133846,2,0,L|184:300,3,44.0000013427735,8|8|8|8,0:0|0:0|0:0|0:0,0:0:0:0:
251,260,134146,2,0,L|218:230,3,44.0000013427735,2|2|2|2,0:0|0:0|0:0|0:0,0:0:0:0:
181,204,134446,5,8,0:0:0:0:
167,162,134521,1,8,0:0:0:0:
181,121,134596,1,8,0:0:0:0:
216,96,134671,1,8,0:0:0:0:
259,97,134746,1,2,0:0:0:0:
275,111,134821,1,2,0:0:0:0:
292,125,134896,1,2,0:0:0:0:
308,140,134971,1,2,0:0:0:0:
325,154,135046,6,0,L|427:135,1,88.000002685547,12|2,0:0|0:0,0:0:0:0:
347,240,135346,2,0,L|449:221,1,88.000002685547,8|2,0:0|0:0,0:0:0:0:
364,328,135646,2,0,L|466:309,1,88.000002685547,8|0,0:0|0:0,0:0:0:0:
347,240,135946,2,0,P|304:260|280:292,1,88.000002685547,8|2,0:0|0:0,0:0:0:0:
450,311,136246,6,0,L|431:209,1,88.000002685547,8|2,0:0|0:0,0:0:0:0:
304,76,136546,2,0,P|304:120|329:156,1,88.000002685547,8|2,0:0|0:0,0:0:0:0:
496,156,136846,2,0,P|454:135|406:138,1,88.000002685547,8|2,0:0|0:0,0:0:0:0:
266,214,137146,2,0,P|306:237|354:238,1,88.000002685547,8|2,0:0|0:0,0:0:0:0:
390,60,137446,5,12,0:0:0:0:
390,60,137596,2,0,L|287:78,1,88.000002685547,8|0,0:0|0:0,0:0:0:0:
179,198,137896,5,12,0:0:0:0:
179,198,138046,2,0,L|282:216,1,88.000002685547,8|0,0:0|0:0,0:0:0:0:
400,344,138346,5,12,0:0:0:0:
400,344,138496,2,0,L|297:362,1,88.000002685547,8|0,0:0|0:0,0:0:0:0:
168,276,138796,5,8,0:0:0:0:
189,280,138871,1,0,0:0:0:0:
210,285,138946,1,8,0:0:0:0:
210,285,139846,6,0,P|232:248|232:200,1,80,12|2,0:0|0:0,0:0:0:0:
184,80,140146,1,2,0:0:0:0:
83,201,140296,2,0,P|117:222|157:226,1,80,12|2,0:0|0:0,0:0:0:0:
312,196,140596,1,2,0:0:0:0:
184,80,140746,6,0,P|156:108|144:146,1,80,12|2,0:0|0:0,0:0:0:0:
172,304,141046,1,2,0:0:0:0:
312,196,141196,2,0,P|283:168|245:156,1,80,12|2,0:0|0:0,0:0:0:0:
96,268,141496,5,2,0:0:0:0:
92,289,141571,1,2,0:0:0:0:
87,310,141646,5,12,0:0:0:0:
256,48,141946,1,12,0:0:0:0:
425,310,142246,1,4,0:0:0:0:
256,192,142396,12,0,147046,0:0:0:0:
