osu file format v14

[General]
AudioFilename: 02. .mp3
AudioLeadIn: 0
PreviewTime: 95750
Countdown: 0
SampleSet: Soft
StackLeniency: 0.7
Mode: 3
LetterboxInBreaks: 0
SpecialStyle: 0
WidescreenStoryboard: 0

[Editor]
DistanceSpacing: 1.2
BeatDivisor: 4
GridSize: 4
TimelineZoom: 2.899999

[Metadata]
Title:Towa yori Towa ni
TitleUnicode:永久より永遠に
Artist:marina
ArtistUnicode:marina
Creator:Aphrodena
Version:MX
Source:少女神域∽少女天獄 -The Garden of Fifth Zoa-
Tags:shoujo shiniki tengoku lass sakura
BeatmapID:520841
BeatmapSetID:222855

[Difficulty]
HPDrainRate:8
CircleSize:4
OverallDifficulty:8
ApproachRate:5
SliderMultiplier:1.4
SliderTickRate:1

[Events]
//Background and Video events
Video,0,"ed2.avi"
0,0,"towa.jpg",0,0
//Break Periods
//Storyboard Layer 0 (Background)
//Storyboard Layer 1 (Fail)
//Storyboard Layer 2 (Pass)
//Storyboard Layer 3 (Foreground)
//Storyboard Layer 4 (Overlay)
//Storyboard Sound Samples

[TimingPoints]
50,300,4,2,1,40,1,0
33725,-100,4,2,1,15,0,0
36050,-133.333333333334,4,2,1,15,0,0
50450,-125,4,2,1,40,0,0
51350,-117.647058823529,4,2,1,40,0,0
51650,-111.111111111111,4,2,1,40,0,0
52400,-105.263157894737,4,2,1,40,0,0
52850,-100,4,2,1,40,0,0
55250,-100,4,2,1,40,0,1
55325,-100,4,2,1,40,0,0
84050,310.077519379845,3,2,1,15,1,0
84050,-125,3,2,1,15,0,0
84980,300,3,2,1,15,1,0
84980,-125,3,2,1,15,0,0
89450,300,4,2,1,40,1,0
96650,-100,4,2,1,40,0,1
115775,-100,4,2,1,40,0,0
115850,-100,4,2,1,40,0,1
135050,-100,4,2,1,40,0,0

[HitObjects]
64,192,10850,5,0,2:2:0:0:
448,192,10850,1,4,0:0:0:0:
320,192,10925,1,4,0:0:0:0:
192,192,11000,1,4,2:2:0:0:
320,192,11150,1,0,0:0:0:0:
192,192,11150,1,0,0:0:0:0:
448,192,11300,1,0,0:0:0:0:
64,192,11300,1,4,0:0:0:0:
192,192,11375,1,4,0:0:0:0:
320,192,11450,1,4,0:0:0:0:
320,192,11600,1,0,0:0:0:0:
64,192,11600,1,0,0:0:0:0:
64,192,11750,1,2,2:2:0:0:
448,192,11750,1,0,2:2:0:0:
320,192,11750,1,0,2:2:0:0:
192,192,11900,1,0,0:0:0:0:
64,192,12050,1,0,2:2:0:0:
448,192,12050,128,0,12500:2:2:0:0:
320,192,12050,128,0,12500:2:2:0:0:
192,192,12200,1,0,2:2:0:0:
64,192,12350,1,0,2:2:0:0:
192,192,12500,1,0,2:2:0:0:
448,192,12650,1,0,2:2:0:0:
64,192,12650,1,0,2:2:0:0:
320,192,12800,1,0,2:2:0:0:
64,192,12950,1,0,2:2:0:0:
448,192,12950,1,0,2:2:0:0:
192,192,13100,1,0,2:2:0:0:
320,192,13100,128,0,13700:2:2:0:0:
64,192,13100,128,0,13700:2:2:0:0:
448,192,13250,1,0,2:2:0:0:
192,192,13400,1,0,2:2:0:0:
448,192,13550,1,0,2:2:0:0:
192,192,13700,1,0,2:2:0:0:
320,192,13850,1,0,2:2:0:0:
64,192,13850,1,0,2:2:0:0:
192,192,14000,1,0,2:2:0:0:
64,192,14150,1,0,2:2:0:0:
320,192,14150,1,0,2:2:0:0:
320,192,14300,128,0,14900:2:2:0:0:
448,192,14300,128,0,14900:2:2:0:0:
192,192,14300,1,0,2:2:0:0:
64,192,14450,1,0,2:2:0:0:
192,192,14600,1,0,2:2:0:0:
64,192,14750,1,0,2:2:0:0:
192,192,14900,1,0,2:2:0:0:
320,192,15050,1,0,2:2:0:0:
448,192,15050,1,0,2:2:0:0:
64,192,15200,1,0,2:2:0:0:
192,192,15350,1,0,2:2:0:0:
448,192,15350,1,0,2:2:0:0:
64,192,15500,128,0,16100:2:2:0:0:
320,192,15500,128,0,16100:2:2:0:0:
448,192,15500,1,0,2:2:0:0:
192,192,15650,1,0,2:2:0:0:
448,192,15800,1,0,2:2:0:0:
192,192,15950,1,0,2:2:0:0:
448,192,16100,1,0,2:2:0:0:
320,192,16250,1,4,2:2:0:0:
192,192,16325,1,4,2:2:0:0:
64,192,16400,1,4,2:2:0:0:
448,192,16475,1,4,2:2:0:0:
320,192,16550,1,4,2:2:0:0:
64,192,16625,1,4,2:2:0:0:
192,192,16700,1,4,2:2:0:0:
320,192,16775,1,4,2:2:0:0:
448,192,16850,1,0,2:2:0:0:
64,192,16850,128,0,17300:2:2:0:0:
192,192,16850,128,0,17300:2:2:0:0:
320,192,17000,1,0,2:2:0:0:
448,192,17150,1,0,2:2:0:0:
320,192,17300,1,0,2:2:0:0:
448,192,17450,1,0,2:2:0:0:
192,192,17450,1,0,2:2:0:0:
320,192,17600,1,0,2:2:0:0:
448,192,17750,1,0,2:2:0:0:
192,192,17750,1,0,2:2:0:0:
320,192,17900,128,0,18500:2:2:0:0:
448,192,17900,128,0,18500:2:2:0:0:
64,192,17900,1,0,2:2:0:0:
192,192,18050,1,0,2:2:0:0:
64,192,18200,1,0,2:2:0:0:
192,192,18350,1,0,2:2:0:0:
64,192,18500,1,0,2:2:0:0:
448,192,18650,1,0,2:2:0:0:
320,192,18650,1,0,2:2:0:0:
64,192,18800,1,0,2:2:0:0:
448,192,18950,1,0,2:2:0:0:
320,192,18950,1,0,2:2:0:0:
192,192,19100,128,0,19700:2:2:0:0:
448,192,19100,128,0,19700:2:2:0:0:
320,192,19100,1,0,2:2:0:0:
64,192,19250,1,0,2:2:0:0:
320,192,19400,1,0,2:2:0:0:
64,192,19550,1,0,2:2:0:0:
320,192,19700,1,0,2:2:0:0:
448,192,19850,1,0,2:2:0:0:
192,192,19850,1,0,2:2:0:0:
320,192,20000,1,0,2:2:0:0:
448,192,20150,1,0,2:2:0:0:
64,192,20150,1,0,2:2:0:0:
320,192,20300,1,0,2:2:0:0:
192,192,20300,1,0,2:2:0:0:
448,192,20300,1,0,0:0:0:0:
192,192,20450,1,0,0:0:0:0:
320,192,20600,1,0,2:2:0:0:
448,192,20600,1,0,2:2:0:0:
64,192,20600,1,0,2:2:0:0:
64,192,20750,1,0,2:2:0:0:
192,192,20750,1,0,2:2:0:0:
448,192,20750,1,0,2:2:0:0:
448,192,21050,1,0,2:2:0:0:
64,192,21050,1,0,2:2:0:0:
192,192,21050,1,2,2:2:0:0:
320,192,21200,1,0,2:2:0:0:
448,192,21350,1,0,2:2:0:0:
64,192,21350,1,0,0:0:0:0:
192,192,21400,1,0,0:0:0:0:
320,192,21450,1,0,0:0:0:0:
192,192,21500,1,0,2:2:0:0:
448,192,21500,1,4,1:0:0:0:
64,192,21500,128,0,22100:0:0:0:0:
448,192,21800,1,0,2:2:0:0:
320,192,21800,1,0,2:2:0:0:
192,192,21950,1,2,2:2:0:0:
448,192,21950,1,0,0:0:0:0:
320,192,21950,1,0,0:0:0:0:
320,192,22250,1,0,2:2:0:0:
448,192,22250,1,0,2:2:0:0:
192,192,22400,1,0,2:2:0:0:
64,192,22400,1,0,2:2:0:0:
448,192,22550,1,2,2:2:0:0:
192,192,22550,1,0,2:2:0:0:
320,192,22550,1,0,0:0:0:0:
320,192,22700,128,0,23300:2:2:0:0:
64,192,22700,1,0,2:2:0:0:
448,192,22850,1,0,0:0:0:0:
192,192,23000,1,0,2:2:0:0:
64,192,23000,1,0,2:2:0:0:
448,192,23150,1,0,2:2:0:0:
192,192,23150,1,2,2:2:0:0:
64,192,23150,1,0,0:0:0:0:
192,192,23300,1,0,2:2:0:0:
64,192,23450,1,0,2:2:0:0:
448,192,23450,1,0,2:2:0:0:
192,192,23600,1,0,2:2:0:0:
320,192,23600,1,0,2:2:0:0:
320,192,23750,1,2,2:2:0:0:
64,192,23750,1,0,2:2:0:0:
448,192,23750,1,0,0:0:0:0:
64,192,23900,128,0,24500:2:2:0:0:
448,192,23900,1,0,2:2:0:0:
192,192,23900,1,0,2:2:0:0:
448,192,24050,1,0,0:0:0:0:
192,192,24200,1,0,2:2:0:0:
320,192,24200,1,0,2:2:0:0:
448,192,24350,1,2,2:2:0:0:
192,192,24350,1,0,2:2:0:0:
320,192,24350,1,0,0:0:0:0:
320,192,24500,1,0,2:2:0:0:
192,192,24650,1,0,2:2:0:0:
64,192,24650,1,0,2:2:0:0:
320,192,24800,1,0,2:2:0:0:
448,192,24800,1,0,2:2:0:0:
64,192,24950,1,0,2:2:0:0:
192,192,24950,1,2,2:2:0:0:
448,192,24950,1,0,0:0:0:0:
448,192,25100,128,0,25700:2:2:0:0:
320,192,25100,1,0,2:2:0:0:
64,192,25100,1,0,2:2:0:0:
192,192,25250,1,0,2:2:0:0:
64,192,25400,1,0,2:2:0:0:
192,192,25475,1,0,2:2:0:0:
64,192,25550,1,2,2:2:0:0:
320,192,25550,1,0,2:2:0:0:
320,192,25700,1,0,2:2:0:0:
192,192,25775,1,0,2:2:0:0:
64,192,25850,1,0,2:2:0:0:
320,192,25925,1,0,2:2:0:0:
192,192,26000,1,0,2:2:0:0:
64,192,26075,1,0,2:2:0:0:
192,192,26150,1,2,2:2:0:0:
448,192,26150,1,0,2:2:0:0:
320,192,26225,1,0,2:2:0:0:
448,192,26300,1,0,2:2:0:0:
320,192,26375,1,0,2:2:0:0:
192,192,26450,1,0,2:2:0:0:
64,192,26450,128,0,26750:2:2:0:0:
320,192,26600,1,0,0:0:0:0:
320,192,26750,1,2,2:2:0:0:
448,192,26750,1,0,2:2:0:0:
192,192,26750,1,0,0:0:0:0:
192,192,26900,1,0,2:2:0:0:
320,192,27050,1,0,2:2:0:0:
448,192,27050,1,2,2:2:0:0:
64,192,27050,1,0,0:0:0:0:
64,192,27200,1,0,2:2:0:0:
320,192,27350,1,2,2:2:0:0:
448,192,27350,1,0,2:2:0:0:
192,192,27350,1,0,0:0:0:0:
64,192,27500,1,0,2:2:0:0:
192,192,27500,1,2,2:2:0:0:
320,192,27500,1,0,0:0:0:0:
320,192,27650,1,4,2:2:0:0:
192,192,27800,1,4,2:2:0:0:
448,192,27950,1,4,2:2:0:0:
192,192,28100,1,2,2:2:0:0:
64,192,28100,1,0,2:2:0:0:
448,192,28100,1,0,0:0:0:0:
320,192,28250,1,0,2:2:0:0:
448,192,28400,1,0,2:2:0:0:
320,192,28475,1,0,2:2:0:0:
192,192,28550,1,2,2:2:0:0:
64,192,28550,1,0,2:2:0:0:
448,192,28550,1,0,0:0:0:0:
448,192,28700,1,0,2:2:0:0:
64,192,28850,1,0,2:2:0:0:
320,192,29000,1,0,0:0:0:0:
448,192,29150,1,0,2:2:0:0:
64,192,29150,1,0,0:0:0:0:
192,192,29150,1,2,0:0:0:0:
192,192,29300,1,0,0:0:0:0:
320,192,29450,1,2,2:2:0:0:
448,192,29450,1,0,2:2:0:0:
64,192,29450,1,0,0:0:0:0:
192,192,29600,1,0,2:2:0:0:
64,192,29675,1,0,0:0:0:0:
320,192,29750,1,2,2:2:0:0:
448,192,29750,1,0,2:2:0:0:
192,192,29750,1,0,0:0:0:0:
64,192,29900,1,0,2:2:0:0:
192,192,30050,1,0,2:2:0:0:
320,192,30200,1,0,2:2:0:0:
192,192,30275,1,0,2:2:0:0:
64,192,30350,1,0,2:2:0:0:
448,192,30350,1,0,2:2:0:0:
320,192,30350,1,2,0:0:0:0:
320,192,30500,1,0,2:2:0:0:
192,192,30575,1,0,2:2:0:0:
64,192,30650,1,0,2:2:0:0:
320,192,30725,1,0,2:2:0:0:
448,192,30800,1,0,2:2:0:0:
320,192,30875,1,0,2:2:0:0:
192,192,30950,1,2,2:2:0:0:
64,192,30950,1,0,2:2:0:0:
448,192,30950,1,0,0:0:0:0:
320,192,31025,1,0,0:0:0:0:
192,192,31100,1,0,0:0:0:0:
64,192,31175,1,0,0:0:0:0:
320,192,31250,1,0,2:2:0:0:
448,192,31250,128,0,32150:2:2:0:0:
192,192,31250,1,0,0:0:0:0:
192,192,31550,1,4,2:2:0:0:
64,192,31550,1,0,2:2:0:0:
192,192,31850,1,0,2:2:0:0:
320,192,31850,1,4,2:2:0:0:
192,192,32150,1,0,2:2:0:0:
64,192,32150,1,0,2:2:0:0:
320,192,32300,1,4,2:2:0:0:
448,192,32300,1,0,0:0:0:0:
64,192,32450,1,0,2:2:0:0:
192,192,32450,1,0,2:2:0:0:
448,192,32600,1,0,2:2:0:0:
320,192,32750,1,4,2:2:0:0:
192,192,32750,1,0,2:2:0:0:
192,192,33050,1,0,2:2:0:0:
320,192,33050,1,4,2:2:0:0:
64,192,33200,1,0,2:2:0:0:
320,192,33350,1,0,2:2:0:0:
448,192,33350,1,0,2:2:0:0:
192,192,33500,1,4,2:2:0:0:
64,192,33500,1,0,2:2:0:0:
320,192,33650,1,0,2:2:0:0:
448,192,33800,1,0,2:2:0:0:
320,192,33875,1,0,2:2:0:0:
192,192,33950,1,0,2:2:0:0:
448,192,33950,1,4,0:0:0:0:
64,192,34025,1,0,2:2:0:0:
320,192,34100,1,0,2:2:0:0:
192,192,34175,1,0,2:2:0:0:
320,192,34250,1,0,2:2:0:0:
64,192,34250,1,4,0:0:0:0:
448,192,34325,1,0,2:2:0:0:
320,192,34400,1,0,2:2:0:0:
192,192,34475,1,0,2:2:0:0:
64,192,34550,1,0,2:2:0:0:
448,192,34550,1,4,0:0:0:0:
320,192,34625,1,0,2:2:0:0:
192,192,34700,1,0,2:2:0:0:
448,192,34700,1,4,0:0:0:0:
64,192,34775,1,0,2:2:0:0:
448,192,34850,1,4,2:2:0:0:
192,192,34850,1,0,0:0:0:0:
320,192,34925,1,0,2:2:0:0:
192,192,35000,1,0,2:2:0:0:
64,192,35075,1,0,2:2:0:0:
448,192,35150,1,4,2:2:0:0:
192,192,35150,1,0,0:0:0:0:
320,192,35225,1,0,2:2:0:0:
192,192,35300,1,0,2:2:0:0:
320,192,35375,1,0,2:2:0:0:
64,192,35450,1,4,2:2:0:0:
448,192,35450,1,0,0:0:0:0:
192,192,35525,1,0,2:2:0:0:
320,192,35600,1,0,2:2:0:0:
64,192,35600,1,4,0:0:0:0:
448,192,35675,1,0,2:2:0:0:
320,192,35750,1,0,2:2:0:0:
192,192,35825,1,0,2:2:0:0:
320,192,35900,1,0,2:2:0:0:
192,192,35975,1,0,2:2:0:0:
448,192,36050,1,0,2:2:0:0:
64,192,36050,1,0,2:2:0:0:
192,192,36650,1,0,2:2:0:0:
64,192,36950,1,0,2:2:0:0:
320,192,37250,1,0,2:2:0:0:
448,192,37550,1,0,2:2:0:0:
320,192,37700,1,0,2:2:0:0:
192,192,37850,1,0,2:2:0:0:
64,192,38450,1,0,2:2:0:0:
320,192,38450,1,0,2:2:0:0:
448,192,38450,1,0,2:2:0:0:
320,192,38900,1,0,2:2:0:0:
192,192,39350,1,0,2:2:0:0:
64,192,39350,1,0,2:2:0:0:
192,192,40250,1,0,2:2:0:0:
448,192,40250,1,0,2:2:0:0:
64,192,40550,1,0,2:2:0:0:
192,192,40700,1,0,2:2:0:0:
320,192,40850,1,0,2:2:0:0:
448,192,40850,1,0,2:2:0:0:
64,192,40850,1,0,2:2:0:0:
192,192,41450,1,0,2:2:0:0:
320,192,41450,1,0,2:2:0:0:
64,192,41750,1,0,2:2:0:0:
320,192,41750,1,0,2:2:0:0:
320,192,41900,1,0,2:2:0:0:
448,192,41900,1,0,2:2:0:0:
64,192,42350,1,0,2:2:0:0:
64,192,42600,1,0,2:2:0:0:
192,192,42650,1,0,2:2:0:0:
320,192,42700,1,0,2:2:0:0:
448,192,42750,1,0,2:2:0:0:
448,192,43250,1,0,2:2:0:0:
320,192,43250,1,0,2:2:0:0:
192,192,43250,1,0,2:2:0:0:
64,192,43700,1,0,2:2:0:0:
192,192,43700,1,0,2:2:0:0:
192,192,44150,1,0,2:2:0:0:
448,192,44750,1,0,2:2:0:0:
64,192,44750,1,0,2:2:0:0:
64,192,45350,1,0,2:2:0:0:
320,192,45350,1,0,2:2:0:0:
448,192,45650,1,0,2:2:0:0:
320,192,45650,1,0,2:2:0:0:
64,192,45950,1,0,2:2:0:0:
192,192,46250,1,0,2:2:0:0:
64,192,46550,1,0,2:2:0:0:
448,192,46700,1,0,2:2:0:0:
192,192,47150,1,0,2:2:0:0:
320,192,47150,1,0,2:2:0:0:
448,192,47450,1,0,2:2:0:0:
320,192,47450,1,0,2:2:0:0:
192,192,47750,1,0,2:2:0:0:
320,192,48050,1,0,2:2:0:0:
448,192,48050,1,0,2:2:0:0:
64,192,48050,1,0,2:2:0:0:
192,192,48500,1,0,2:2:0:0:
320,192,48500,1,0,2:2:0:0:
448,192,48950,1,0,2:2:0:0:
320,192,48950,1,0,2:2:0:0:
192,192,48950,1,0,2:2:0:0:
64,192,49550,1,0,2:2:0:0:
320,192,49850,5,0,2:2:0:0:
192,192,49850,1,0,2:2:0:0:
64,192,50150,1,0,2:2:0:0:
192,192,50300,1,0,2:2:0:0:
64,192,50450,1,0,2:2:0:0:
448,192,50450,128,0,51350:0:0:0:0:
320,192,50750,5,0,2:2:0:0:
64,192,50900,1,0,2:2:0:0:
320,192,51050,1,0,2:2:0:0:
192,192,51200,1,0,2:2:0:0:
64,192,51350,1,0,2:2:0:0:
192,192,51350,128,0,51500:0:0:0:0:
320,192,51500,128,0,51650:0:0:0:0:
448,192,51500,1,0,0:0:0:0:
64,192,51650,128,0,52400:0:0:0:0:
192,192,51650,1,0,0:0:0:0:
448,192,51800,1,0,0:0:0:0:
320,192,51950,1,0,2:2:0:0:
448,192,52100,1,0,0:0:0:0:
192,192,52250,1,0,2:2:0:0:
448,192,52400,1,0,2:2:0:0:
64,192,52550,128,0,52850:0:0:0:0:
192,192,52550,1,0,0:0:0:0:
320,192,52700,1,0,2:2:0:0:
192,192,52850,1,0,2:2:0:0:
448,192,52850,1,0,2:2:0:0:
192,192,53000,1,0,2:2:0:0:
64,192,53000,1,0,2:2:0:0:
320,192,53150,1,0,2:2:0:0:
448,192,53150,1,0,2:2:0:0:
64,192,53300,1,0,2:2:0:0:
320,192,53300,1,0,2:2:0:0:
320,192,53450,1,0,2:2:0:0:
192,192,53450,1,0,2:2:0:0:
448,192,53600,1,0,2:2:0:0:
320,192,53600,1,0,2:2:0:0:
192,192,53750,1,0,2:2:0:0:
320,192,53750,1,0,2:2:0:0:
64,192,53900,1,0,2:2:0:0:
192,192,53900,1,0,2:2:0:0:
448,192,54050,1,0,2:2:0:0:
320,192,54050,1,2,2:2:0:0:
64,192,54050,1,0,0:0:0:0:
320,192,54200,1,0,2:2:0:0:
192,192,54200,1,0,2:2:0:0:
192,192,54350,1,0,2:2:0:0:
320,192,54350,1,0,2:2:0:0:
448,192,54500,1,0,2:2:0:0:
64,192,54500,1,0,2:2:0:0:
192,192,54500,1,2,0:0:0:0:
320,192,54650,1,0,2:2:0:0:
192,192,54650,1,0,2:2:0:0:
320,192,54800,1,0,2:2:0:0:
192,192,54800,1,0,2:2:0:0:
448,192,54950,1,0,2:2:0:0:
320,192,54950,1,2,2:2:0:0:
64,192,54950,1,0,0:0:0:0:
192,192,55100,1,0,2:2:0:0:
320,192,55100,1,0,2:2:0:0:
192,192,55250,1,0,2:2:0:0:
448,192,55250,1,0,2:2:0:0:
64,192,55250,128,0,55400:2:2:0:0:
320,192,55400,1,0,2:2:0:0:
448,192,55400,1,0,2:2:0:0:
192,192,55550,1,2,2:2:0:0:
448,192,55550,1,0,2:2:0:0:
64,192,55550,1,0,2:2:0:0:
320,192,55700,128,0,56300:2:2:0:0:
448,192,55850,1,0,2:2:0:0:
64,192,56000,1,0,2:2:0:0:
192,192,56000,1,0,2:2:0:0:
448,192,56150,1,0,2:2:0:0:
192,192,56150,1,2,2:2:0:0:
192,192,56450,128,0,56600:2:2:0:0:
320,192,56450,1,0,2:2:0:0:
448,192,56450,1,0,2:2:0:0:
320,192,56600,1,0,2:2:0:0:
448,192,56600,1,0,2:2:0:0:
192,192,56750,1,2,2:2:0:0:
64,192,56750,1,0,2:2:0:0:
448,192,56750,1,0,2:2:0:0:
448,192,56900,128,0,57500:2:2:0:0:
320,192,56900,1,0,2:2:0:0:
64,192,56900,1,0,2:2:0:0:
192,192,57050,1,0,2:2:0:0:
64,192,57200,1,0,2:2:0:0:
320,192,57200,1,0,2:2:0:0:
192,192,57350,1,2,2:2:0:0:
320,192,57350,1,0,2:2:0:0:
192,192,57650,128,0,57800:2:2:0:0:
320,192,57650,1,0,2:2:0:0:
448,192,57650,1,0,2:2:0:0:
448,192,57800,1,0,2:2:0:0:
320,192,57800,1,0,2:2:0:0:
64,192,57950,1,0,2:2:0:0:
192,192,57950,1,2,2:2:0:0:
448,192,57950,1,0,2:2:0:0:
64,192,58100,128,0,58850:2:2:0:0:
448,192,58250,1,0,2:2:0:0:
192,192,58400,1,0,2:2:0:0:
320,192,58400,1,0,2:2:0:0:
448,192,58550,1,0,2:2:0:0:
320,192,58550,1,2,2:2:0:0:
448,192,58850,1,0,2:2:0:0:
320,192,58850,128,0,59300:2:2:0:0:
192,192,58850,1,0,2:2:0:0:
448,192,59000,1,0,2:2:0:0:
192,192,59000,1,0,2:2:0:0:
64,192,59150,1,2,2:2:0:0:
192,192,59150,1,0,2:2:0:0:
448,192,59300,128,0,59900:2:2:0:0:
64,192,59300,1,0,2:2:0:0:
192,192,59450,1,0,2:2:0:0:
64,192,59600,1,0,2:2:0:0:
192,192,59675,1,0,2:2:0:0:
64,192,59750,1,0,2:2:0:0:
320,192,59750,1,2,2:2:0:0:
320,192,59900,1,0,2:2:0:0:
192,192,59900,1,0,2:2:0:0:
192,192,60050,128,0,60200:0:0:0:0:
448,192,60050,1,0,2:2:0:0:
320,192,60200,1,0,2:2:0:0:
64,192,60200,1,0,2:2:0:0:
192,192,60350,1,2,2:2:0:0:
448,192,60350,1,0,2:2:0:0:
64,192,60350,1,0,2:2:0:0:
320,192,60500,128,0,60950:2:2:0:0:
448,192,60650,1,0,0:0:0:0:
64,192,60800,1,0,2:2:0:0:
192,192,60800,1,0,2:2:0:0:
192,192,60950,1,2,2:2:0:0:
448,192,60950,1,0,2:2:0:0:
64,192,61250,128,0,61400:2:2:0:0:
320,192,61250,1,0,2:2:0:0:
448,192,61250,1,0,2:2:0:0:
320,192,61400,1,0,2:2:0:0:
448,192,61400,1,0,2:2:0:0:
448,192,61550,1,0,2:2:0:0:
64,192,61550,1,0,2:2:0:0:
192,192,61550,1,2,2:2:0:0:
64,192,61700,1,0,2:2:0:0:
320,192,61700,128,0,62150:2:2:0:0:
192,192,61700,1,0,2:2:0:0:
448,192,61850,1,0,2:2:0:0:
448,192,62000,1,0,2:2:0:0:
192,192,62000,1,0,2:2:0:0:
64,192,62150,1,0,2:2:0:0:
192,192,62150,1,2,2:2:0:0:
192,192,62450,1,0,2:2:0:0:
320,192,62450,1,2,2:2:0:0:
448,192,62450,1,0,2:2:0:0:
64,192,62600,1,0,2:2:0:0:
192,192,62600,1,0,2:2:0:0:
320,192,62750,1,0,2:2:0:0:
448,192,62750,1,0,2:2:0:0:
192,192,62900,1,2,2:2:0:0:
320,192,62900,1,0,2:2:0:0:
64,192,62900,1,0,2:2:0:0:
448,192,63050,1,0,2:2:0:0:
192,192,63050,1,0,2:2:0:0:
64,192,63200,1,0,2:2:0:0:
320,192,63200,1,0,2:2:0:0:
192,192,63350,1,0,2:2:0:0:
320,192,63350,1,2,2:2:0:0:
448,192,63350,1,0,2:2:0:0:
64,192,63650,1,0,2:2:0:0:
192,192,63650,1,2,2:2:0:0:
320,192,63725,1,2,2:2:0:0:
448,192,63725,1,0,2:2:0:0:
192,192,63800,1,4,2:2:0:0:
64,192,63875,1,4,2:2:0:0:
192,192,63950,1,4,2:2:0:0:
64,192,64025,1,4,2:2:0:0:
448,192,64100,1,0,2:2:0:0:
320,192,64100,1,2,2:2:0:0:
192,192,64175,1,2,2:2:0:0:
64,192,64175,1,0,2:2:0:0:
320,192,64250,1,4,2:2:0:0:
448,192,64325,1,4,2:2:0:0:
320,192,64400,1,4,2:2:0:0:
448,192,64475,1,4,2:2:0:0:
64,192,64550,1,0,2:2:0:0:
192,192,64550,1,2,2:2:0:0:
320,192,64625,1,2,2:2:0:0:
448,192,64625,1,0,2:2:0:0:
192,192,64700,1,2,2:2:0:0:
64,192,64700,1,0,2:2:0:0:
320,192,64775,1,2,2:2:0:0:
448,192,64775,1,0,2:2:0:0:
192,192,64850,1,0,2:2:0:0:
64,192,64850,128,0,65000:2:2:0:0:
192,192,65000,128,0,65150:2:2:0:0:
320,192,65150,128,0,65300:2:2:0:0:
192,192,65300,128,0,65450:2:2:0:0:
64,192,65450,128,0,65600:2:2:0:0:
192,192,65600,128,0,65750:2:2:0:0:
320,192,65750,128,0,65900:2:2:0:0:
192,192,65900,128,0,66050:2:2:0:0:
320,192,66050,128,0,66200:2:2:0:0:
448,192,66200,128,0,66350:2:2:0:0:
192,192,66350,128,0,66500:2:2:0:0:
64,192,66500,128,0,66650:2:2:0:0:
192,192,66650,128,0,66800:2:2:0:0:
448,192,66650,1,0,2:2:0:0:
320,192,66650,1,2,2:2:0:0:
320,192,66800,128,0,66950:2:2:0:0:
448,192,66950,128,0,67100:2:2:0:0:
192,192,67100,128,0,67250:2:2:0:0:
320,192,67250,128,0,67400:2:2:0:0:
192,192,67400,128,0,67550:2:2:0:0:
448,192,67550,128,0,67700:2:2:0:0:
320,192,67700,128,0,67850:2:2:0:0:
192,192,67850,128,0,68000:2:2:0:0:
320,192,68000,128,0,68150:2:2:0:0:
192,192,68150,128,0,68300:2:2:0:0:
64,192,68300,128,0,68450:2:2:0:0:
192,192,68450,128,0,68600:2:2:0:0:
320,192,68600,128,0,68750:2:2:0:0:
192,192,68750,128,0,68900:2:2:0:0:
64,192,68900,128,0,69050:2:2:0:0:
448,192,69050,128,0,69200:2:2:0:0:
192,192,69050,1,0,2:2:0:0:
320,192,69050,1,2,2:2:0:0:
320,192,69200,128,0,69350:2:2:0:0:
448,192,69350,128,0,69500:2:2:0:0:
320,192,69500,128,0,69650:2:2:0:0:
192,192,69650,128,0,69800:2:2:0:0:
320,192,69800,128,0,69950:2:2:0:0:
64,192,69950,128,0,70100:2:2:0:0:
192,192,70100,128,0,70250:2:2:0:0:
320,192,70250,128,0,70400:2:2:0:0:
192,192,70400,128,0,70550:2:2:0:0:
320,192,70550,128,0,70700:2:2:0:0:
64,192,70700,128,0,70850:2:2:0:0:
192,192,70850,128,0,71000:2:2:0:0:
320,192,71000,128,0,71150:2:2:0:0:
192,192,71150,128,0,71300:2:2:0:0:
320,192,71300,128,0,71450:2:2:0:0:
448,192,71450,128,0,71600:2:2:0:0:
64,192,71450,1,2,2:2:0:0:
192,192,71450,1,0,2:2:0:0:
192,192,71600,128,0,71750:2:2:0:0:
64,192,71750,128,0,71900:2:2:0:0:
320,192,71900,128,0,72050:2:2:0:0:
192,192,72050,128,0,72200:2:2:0:0:
320,192,72200,128,0,72350:2:2:0:0:
64,192,72350,128,0,72500:2:2:0:0:
192,192,72500,128,0,72650:2:2:0:0:
320,192,72650,128,0,72800:2:2:0:0:
192,192,72800,128,0,72950:2:2:0:0:
448,192,72950,128,0,73100:2:2:0:0:
64,192,73100,1,0,2:2:0:0:
192,192,73100,1,2,2:2:0:0:
320,192,73175,1,2,2:2:0:0:
448,192,73175,1,0,2:2:0:0:
192,192,73250,1,2,2:2:0:0:
64,192,73250,1,0,2:2:0:0:
448,192,73550,128,0,74450:2:2:0:0:
64,192,73550,128,0,73700:0:0:0:0:
192,192,73700,128,0,73850:0:0:0:0:
320,192,73850,128,0,74000:0:0:0:0:
192,192,74000,128,0,74150:0:0:0:0:
64,192,74150,128,0,74450:0:0:0:0:
320,192,74450,1,0,2:2:0:0:
192,192,74450,1,0,2:2:0:0:
192,192,74600,1,0,2:2:0:0:
320,192,74600,1,0,2:2:0:0:
64,192,74750,1,0,2:2:0:0:
320,192,74750,1,0,2:2:0:0:
448,192,74750,1,2,2:2:0:0:
192,192,75050,1,0,2:2:0:0:
64,192,75200,1,0,2:2:0:0:
448,192,75200,1,0,2:2:0:0:
192,192,75350,1,2,2:2:0:0:
320,192,75350,1,0,2:2:0:0:
448,192,75350,1,0,2:2:0:0:
192,192,75650,1,0,2:2:0:0:
64,192,75650,1,0,2:2:0:0:
192,192,75800,1,0,2:2:0:0:
320,192,75800,1,0,2:2:0:0:
320,192,75950,1,2,2:2:0:0:
448,192,75950,1,0,2:2:0:0:
64,192,75950,1,0,2:2:0:0:
192,192,76100,1,0,2:2:0:0:
320,192,76100,1,0,2:2:0:0:
64,192,76250,1,0,2:2:0:0:
320,192,76400,1,0,2:2:0:0:
192,192,76400,1,0,2:2:0:0:
448,192,76550,1,0,2:2:0:0:
64,192,76550,1,0,2:2:0:0:
320,192,76550,1,2,2:2:0:0:
64,192,76850,1,0,2:2:0:0:
192,192,76850,1,0,2:2:0:0:
320,192,77000,1,0,2:2:0:0:
448,192,77000,1,0,2:2:0:0:
64,192,77150,1,0,2:2:0:0:
320,192,77150,1,0,2:2:0:0:
192,192,77150,1,2,2:2:0:0:
320,192,77450,1,0,2:2:0:0:
192,192,77600,1,0,2:2:0:0:
64,192,77600,1,0,2:2:0:0:
320,192,77750,1,2,2:2:0:0:
448,192,77750,1,0,2:2:0:0:
64,192,77750,1,0,2:2:0:0:
192,192,78050,1,0,2:2:0:0:
320,192,78050,1,0,2:2:0:0:
192,192,78200,1,0,2:2:0:0:
448,192,78200,1,0,2:2:0:0:
192,192,78350,1,2,2:2:0:0:
448,192,78350,1,0,2:2:0:0:
64,192,78350,1,0,2:2:0:0:
64,192,78500,1,0,2:2:0:0:
320,192,78500,1,0,2:2:0:0:
192,192,78650,1,0,2:2:0:0:
64,192,78800,1,0,2:2:0:0:
192,192,78875,1,0,2:2:0:0:
320,192,78950,1,2,2:2:0:0:
448,192,78950,1,0,2:2:0:0:
64,192,78950,1,0,2:2:0:0:
320,192,79100,1,0,2:2:0:0:
192,192,79100,1,0,2:2:0:0:
320,192,79250,1,2,2:2:0:0:
448,192,79250,1,0,2:2:0:0:
64,192,79250,1,0,0:0:0:0:
192,192,79400,1,0,2:2:0:0:
320,192,79400,1,0,2:2:0:0:
320,192,79550,1,2,2:2:0:0:
448,192,79550,1,0,2:2:0:0:
64,192,79550,1,0,0:0:0:0:
192,192,79700,1,0,2:2:0:0:
320,192,79700,1,0,0:0:0:0:
64,192,79850,1,0,0:0:0:0:
192,192,79850,1,2,0:0:0:0:
448,192,79850,1,0,0:0:0:0:
192,192,80000,1,0,2:2:0:0:
320,192,80000,1,0,2:2:0:0:
448,192,80150,1,0,2:2:0:0:
64,192,80150,1,0,0:0:0:0:
192,192,80150,1,2,0:0:0:0:
192,192,80300,1,0,2:2:0:0:
320,192,80300,1,0,0:0:0:0:
320,192,80450,1,2,2:2:0:0:
448,192,80450,1,0,2:2:0:0:
64,192,80450,1,0,0:0:0:0:
192,192,80600,1,0,2:2:0:0:
320,192,80600,1,0,2:2:0:0:
64,192,80750,1,0,2:2:0:0:
320,192,80750,1,2,0:0:0:0:
448,192,80750,1,0,0:0:0:0:
320,192,80900,1,0,2:2:0:0:
192,192,80900,1,0,2:2:0:0:
64,192,81050,1,0,2:2:0:0:
192,192,81050,1,2,2:2:0:0:
448,192,81050,1,0,0:0:0:0:
192,192,81200,1,0,2:2:0:0:
320,192,81200,1,0,2:2:0:0:
192,192,81350,1,2,2:2:0:0:
64,192,81350,1,0,2:2:0:0:
448,192,81350,1,0,0:0:0:0:
320,192,81425,1,0,0:0:0:0:
448,192,81500,1,4,2:2:0:0:
192,192,81500,1,0,2:2:0:0:
320,192,81575,1,4,2:2:0:0:
64,192,81650,1,0,2:2:0:0:
192,192,81650,1,2,2:2:0:0:
448,192,81650,1,0,0:0:0:0:
192,192,81800,1,0,2:2:0:0:
320,192,81800,1,0,2:2:0:0:
448,192,81950,1,0,2:2:0:0:
320,192,81950,1,2,2:2:0:0:
64,192,81950,1,0,0:0:0:0:
320,192,82100,1,0,2:2:0:0:
192,192,82100,1,0,2:2:0:0:
64,192,82250,1,0,2:2:0:0:
192,192,82250,1,2,2:2:0:0:
448,192,82250,1,0,0:0:0:0:
320,192,82400,1,0,2:2:0:0:
192,192,82400,1,0,2:2:0:0:
64,192,82550,1,0,0:0:0:0:
320,192,82550,1,2,0:0:0:0:
448,192,82550,1,0,0:0:0:0:
448,192,82700,1,4,2:2:0:0:
192,192,82700,1,0,2:2:0:0:
320,192,82775,1,4,2:2:0:0:
64,192,82850,1,0,2:2:0:0:
192,192,82850,1,2,2:2:0:0:
320,192,82925,1,2,2:2:0:0:
448,192,82925,1,0,2:2:0:0:
192,192,83000,1,4,2:2:0:0:
64,192,83075,1,4,2:2:0:0:
448,192,83150,1,4,2:2:0:0:
320,192,83225,1,4,2:2:0:0:
192,192,83300,1,4,2:2:0:0:
320,192,83375,1,4,2:2:0:0:
192,192,83450,1,4,2:2:0:0:
64,192,83525,1,4,2:2:0:0:
320,192,83600,1,4,2:2:0:0:
448,192,83750,1,0,0:0:0:0:
320,192,83825,1,4,2:2:0:0:
192,192,83900,1,4,2:2:0:0:
64,192,83975,1,4,2:2:0:0:
192,192,84050,1,0,2:2:0:0:
448,192,84050,128,0,84670:2:2:0:0:
320,192,84670,128,0,84980:2:2:0:0:
192,192,84980,128,0,85880:2:2:0:0:
64,192,85280,1,0,2:2:0:0:
320,192,85580,1,0,2:2:0:0:
64,192,85880,128,0,86780:2:2:0:0:
448,192,85880,1,0,2:2:0:0:
192,192,86480,1,0,2:2:0:0:
192,192,86780,128,0,87680:2:2:0:0:
320,192,86780,1,0,2:2:0:0:
320,192,87380,1,0,2:2:0:0:
320,192,87680,128,0,87980:2:2:0:0:
64,192,87680,1,0,2:2:0:0:
448,192,87980,128,0,88280:2:2:0:0:
192,192,87980,1,0,2:2:0:0:
320,192,88280,128,0,88580:2:2:0:0:
64,192,88280,1,0,2:2:0:0:
64,192,88580,128,0,88880:2:2:0:0:
448,192,88580,1,0,2:2:0:0:
192,192,88880,128,0,89180:2:2:0:0:
320,192,88880,1,0,2:2:0:0:
320,192,89180,128,0,89450:2:2:0:0:
448,192,89180,1,0,2:2:0:0:
192,192,89450,128,0,90050:2:2:0:0:
64,192,89450,1,4,1:0:0:0:
320,192,89750,1,0,2:2:0:0:
448,192,89750,1,0,2:2:0:0:
64,192,90050,1,0,2:2:0:0:
448,192,90050,1,0,2:2:0:0:
320,192,90200,1,0,2:2:0:0:
64,192,90350,1,0,2:2:0:0:
192,192,90350,1,0,2:2:0:0:
320,192,90500,1,0,2:2:0:0:
448,192,90650,1,0,2:2:0:0:
192,192,90650,1,0,2:2:0:0:
64,192,90800,1,0,2:2:0:0:
320,192,90950,1,0,2:2:0:0:
448,192,90950,1,0,2:2:0:0:
192,192,91100,1,0,2:2:0:0:
320,192,91250,1,0,2:2:0:0:
448,192,91250,1,0,2:2:0:0:
192,192,91400,1,0,2:2:0:0:
64,192,91550,1,0,2:2:0:0:
320,192,91550,1,0,2:2:0:0:
192,192,91700,1,0,2:2:0:0:
64,192,91850,1,0,2:2:0:0:
320,192,91850,1,0,2:2:0:0:
448,192,92000,1,0,2:2:0:0:
192,192,92150,1,0,2:2:0:0:
64,192,92150,1,0,2:2:0:0:
320,192,92300,1,0,2:2:0:0:
448,192,92450,1,0,2:2:0:0:
192,192,92450,1,0,2:2:0:0:
320,192,92600,1,0,2:2:0:0:
192,192,92750,1,0,2:2:0:0:
64,192,92750,1,0,2:2:0:0:
320,192,92900,1,2,2:2:0:0:
192,192,92975,1,2,0:0:0:0:
320,192,93050,1,2,2:2:0:0:
64,192,93050,1,0,0:0:0:0:
448,192,93050,1,0,0:0:0:0:
192,192,93200,1,0,2:2:0:0:
64,192,93200,1,0,2:2:0:0:
448,192,93350,1,0,2:2:0:0:
320,192,93350,1,0,2:2:0:0:
64,192,93500,1,0,2:2:0:0:
192,192,93500,1,2,2:2:0:0:
448,192,93500,1,0,2:2:0:0:
448,192,93650,1,0,2:2:0:0:
320,192,93650,1,0,2:2:0:0:
192,192,93800,1,0,2:2:0:0:
64,192,93800,1,0,2:2:0:0:
448,192,93950,1,0,2:2:0:0:
192,192,93950,1,2,2:2:0:0:
64,192,93950,1,0,2:2:0:0:
192,192,94250,5,2,2:2:0:0:
320,192,94250,1,0,2:2:0:0:
448,192,94250,1,0,2:2:0:0:
320,192,94400,1,0,2:2:0:0:
192,192,94400,1,2,2:2:0:0:
448,192,94550,1,0,2:2:0:0:
64,192,94550,1,0,2:2:0:0:
320,192,94550,1,2,0:0:0:0:
448,192,94700,1,0,2:2:0:0:
64,192,94700,1,0,2:2:0:0:
192,192,94700,1,2,0:0:0:0:
192,192,95000,1,2,0:0:0:0:
320,192,95075,1,2,0:0:0:0:
448,192,95150,1,0,2:2:0:0:
64,192,95150,1,0,2:2:0:0:
192,192,95150,1,2,0:0:0:0:
320,192,95300,1,0,2:2:0:0:
192,192,95300,1,2,2:2:0:0:
192,192,95450,1,2,2:2:0:0:
448,192,95450,1,0,2:2:0:0:
64,192,95450,1,0,0:0:0:0:
64,192,95600,1,0,2:2:0:0:
320,192,95600,1,2,2:2:0:0:
448,192,95600,1,0,0:0:0:0:
192,192,95750,128,0,96050:2:2:0:0:
64,192,95750,128,0,96650:2:2:0:0:
320,192,96050,128,0,96350:2:2:0:0:
448,192,96050,1,0,2:2:0:0:
192,192,96200,1,0,2:2:0:0:
448,192,96200,1,2,2:2:0:0:
448,192,96350,128,0,96650:2:2:0:0:
192,192,96650,1,4,1:0:0:0:
320,192,96650,1,0,2:2:0:0:
192,192,96800,1,0,2:2:0:0:
320,192,96800,1,0,2:2:0:0:
64,192,96950,1,0,2:2:0:0:
192,192,96950,1,2,2:2:0:0:
448,192,96950,1,0,2:2:0:0:
64,192,97250,1,0,2:2:0:0:
192,192,97250,1,0,2:2:0:0:
320,192,97400,1,0,2:2:0:0:
448,192,97400,1,0,2:2:0:0:
64,192,97550,1,0,2:2:0:0:
192,192,97550,1,2,2:2:0:0:
320,192,97550,1,0,2:2:0:0:
320,192,97850,1,0,2:2:0:0:
192,192,97850,1,0,2:2:0:0:
64,192,98000,1,0,2:2:0:0:
448,192,98000,1,0,2:2:0:0:
448,192,98150,1,0,2:2:0:0:
320,192,98150,1,0,2:2:0:0:
192,192,98150,1,2,2:2:0:0:
64,192,98300,1,0,2:2:0:0:
192,192,98300,1,0,2:2:0:0:
448,192,98450,1,0,2:2:0:0:
192,192,98450,1,0,2:2:0:0:
64,192,98600,1,0,2:2:0:0:
320,192,98600,1,0,2:2:0:0:
64,192,98750,1,0,2:2:0:0:
192,192,98750,1,2,2:2:0:0:
448,192,98750,1,0,2:2:0:0:
64,192,99050,1,0,2:2:0:0:
320,192,99050,1,0,2:2:0:0:
192,192,99200,1,0,2:2:0:0:
448,192,99200,1,0,2:2:0:0:
320,192,99350,1,2,2:2:0:0:
64,192,99350,1,0,2:2:0:0:
448,192,99350,1,0,2:2:0:0:
64,192,99650,1,0,2:2:0:0:
192,192,99650,1,0,2:2:0:0:
192,192,99800,1,0,2:2:0:0:
320,192,99800,1,0,2:2:0:0:
192,192,99950,1,2,2:2:0:0:
448,192,99950,1,0,2:2:0:0:
64,192,99950,1,0,2:2:0:0:
448,192,100250,1,0,2:2:0:0:
320,192,100250,1,0,2:2:0:0:
192,192,100325,1,0,2:2:0:0:
320,192,100400,1,0,2:2:0:0:
448,192,100400,1,0,2:2:0:0:
64,192,100475,1,0,2:2:0:0:
320,192,100550,1,2,2:2:0:0:
448,192,100550,1,0,2:2:0:0:
192,192,100625,1,0,2:2:0:0:
320,192,100700,1,0,2:2:0:0:
448,192,100700,1,0,2:2:0:0:
64,192,100775,1,0,2:2:0:0:
192,192,100850,1,0,2:2:0:0:
64,192,100925,1,0,2:2:0:0:
448,192,101000,1,0,2:2:0:0:
320,192,101000,1,0,2:2:0:0:
192,192,101075,1,0,2:2:0:0:
448,192,101150,1,0,2:2:0:0:
320,192,101150,1,2,2:2:0:0:
64,192,101225,1,0,2:2:0:0:
448,192,101300,1,0,2:2:0:0:
320,192,101300,1,0,2:2:0:0:
192,192,101375,1,0,2:2:0:0:
448,192,101450,1,0,2:2:0:0:
320,192,101450,1,0,2:2:0:0:
320,192,101600,1,0,2:2:0:0:
192,192,101600,1,0,2:2:0:0:
64,192,101750,1,0,2:2:0:0:
192,192,101750,1,2,2:2:0:0:
448,192,101750,1,0,2:2:0:0:
448,192,102050,1,0,2:2:0:0:
320,192,102050,1,0,2:2:0:0:
192,192,102200,1,0,2:2:0:0:
64,192,102200,1,0,2:2:0:0:
192,192,102350,1,2,2:2:0:0:
448,192,102350,1,0,2:2:0:0:
64,192,102350,1,0,2:2:0:0:
192,192,102650,1,0,2:2:0:0:
320,192,102650,1,0,2:2:0:0:
192,192,102800,1,0,2:2:0:0:
320,192,102800,1,0,2:2:0:0:
64,192,102950,1,0,2:2:0:0:
192,192,102950,1,0,2:2:0:0:
448,192,102950,1,2,2:2:0:0:
320,192,103100,1,0,2:2:0:0:
192,192,103100,1,0,2:2:0:0:
448,192,103400,1,0,2:2:0:0:
320,192,103400,1,0,2:2:0:0:
64,192,103550,1,0,2:2:0:0:
192,192,103550,1,0,2:2:0:0:
448,192,103550,1,2,2:2:0:0:
64,192,103850,1,0,2:2:0:0:
192,192,103850,1,0,2:2:0:0:
192,192,104000,1,0,2:2:0:0:
320,192,104000,1,0,2:2:0:0:
320,192,104150,1,2,2:2:0:0:
448,192,104150,1,0,2:2:0:0:
64,192,104150,1,0,2:2:0:0:
192,192,104300,1,0,2:2:0:0:
320,192,104300,1,0,2:2:0:0:
448,192,104450,1,0,2:2:0:0:
192,192,104600,1,4,2:2:0:0:
448,192,104600,1,0,0:0:0:0:
320,192,104750,1,0,2:2:0:0:
64,192,104750,1,4,2:2:0:0:
448,192,104900,1,4,2:2:0:0:
320,192,104975,1,4,2:2:0:0:
192,192,105050,1,0,2:2:0:0:
64,192,105050,1,2,2:2:0:0:
320,192,105200,1,0,2:2:0:0:
448,192,105200,1,0,2:2:0:0:
64,192,105275,1,0,2:2:0:0:
448,192,105350,1,0,2:2:0:0:
320,192,105350,1,0,2:2:0:0:
64,192,105500,1,0,2:2:0:0:
192,192,105500,1,2,2:2:0:0:
448,192,105575,1,0,2:2:0:0:
192,192,105650,1,0,2:2:0:0:
64,192,105650,1,0,2:2:0:0:
320,192,105725,1,0,2:2:0:0:
192,192,105800,1,0,2:2:0:0:
64,192,105800,1,0,2:2:0:0:
448,192,105875,1,0,2:2:0:0:
192,192,105950,1,2,2:2:0:0:
64,192,105950,1,0,2:2:0:0:
320,192,106025,1,0,2:2:0:0:
448,192,106100,1,0,2:2:0:0:
320,192,106175,1,0,2:2:0:0:
64,192,106250,1,4,1:0:0:0:
192,192,106250,1,0,2:2:0:0:
320,192,106400,1,0,2:2:0:0:
448,192,106400,1,0,2:2:0:0:
192,192,106550,1,2,2:2:0:0:
64,192,106550,1,0,2:2:0:0:
448,192,106550,1,0,2:2:0:0:
192,192,106700,1,0,2:2:0:0:
320,192,106850,1,0,2:2:0:0:
448,192,106850,1,0,2:2:0:0:
192,192,107000,1,0,2:2:0:0:
64,192,107000,1,0,2:2:0:0:
448,192,107150,1,0,2:2:0:0:
320,192,107150,1,2,2:2:0:0:
64,192,107150,1,0,2:2:0:0:
448,192,107300,1,0,2:2:0:0:
192,192,107450,1,0,2:2:0:0:
320,192,107450,1,0,2:2:0:0:
192,192,107600,1,0,2:2:0:0:
64,192,107600,1,0,2:2:0:0:
192,192,107750,1,2,2:2:0:0:
448,192,107750,1,0,2:2:0:0:
64,192,107750,1,0,2:2:0:0:
320,192,107900,1,0,2:2:0:0:
448,192,107900,1,0,2:2:0:0:
448,192,108050,1,0,2:2:0:0:
320,192,108200,1,0,2:2:0:0:
64,192,108200,1,0,2:2:0:0:
192,192,108350,1,2,2:2:0:0:
320,192,108350,1,0,2:2:0:0:
448,192,108350,1,0,2:2:0:0:
64,192,108500,1,0,2:2:0:0:
448,192,108650,1,0,2:2:0:0:
320,192,108650,1,0,2:2:0:0:
192,192,108800,1,0,2:2:0:0:
64,192,108800,1,0,2:2:0:0:
192,192,108950,1,2,2:2:0:0:
448,192,108950,1,0,2:2:0:0:
320,192,108950,1,0,2:2:0:0:
64,192,109100,1,0,2:2:0:0:
448,192,109250,1,0,2:2:0:0:
320,192,109250,1,0,2:2:0:0:
192,192,109400,1,0,2:2:0:0:
64,192,109400,1,0,2:2:0:0:
448,192,109550,1,0,2:2:0:0:
320,192,109550,1,2,2:2:0:0:
64,192,109550,1,0,2:2:0:0:
192,192,109700,1,0,2:2:0:0:
320,192,109850,1,0,2:2:0:0:
64,192,109850,1,0,2:2:0:0:
192,192,110000,1,0,2:2:0:0:
320,192,110000,1,0,2:2:0:0:
448,192,110150,1,0,2:2:0:0:
192,192,110150,1,2,2:2:0:0:
64,192,110150,1,0,2:2:0:0:
320,192,110300,1,0,2:2:0:0:
448,192,110300,1,0,2:2:0:0:
192,192,110375,1,0,2:2:0:0:
64,192,110450,1,0,2:2:0:0:
192,192,110525,1,0,2:2:0:0:
320,192,110600,1,0,2:2:0:0:
448,192,110600,1,0,2:2:0:0:
192,192,110675,1,0,2:2:0:0:
64,192,110750,1,0,2:2:0:0:
320,192,110750,1,2,2:2:0:0:
448,192,110825,1,0,2:2:0:0:
320,192,110900,1,0,2:2:0:0:
192,192,110900,1,0,2:2:0:0:
64,192,110975,1,0,2:2:0:0:
320,192,111050,1,0,2:2:0:0:
448,192,111050,128,0,111200:2:2:0:0:
64,192,111200,128,0,111350:2:2:0:0:
192,192,111200,1,0,2:2:0:0:
448,192,111350,1,0,2:2:0:0:
320,192,111350,128,0,111500:2:2:0:0:
192,192,111350,1,2,2:2:0:0:
192,192,111500,128,0,111650:2:2:0:0:
64,192,111500,1,0,2:2:0:0:
320,192,111650,1,0,2:2:0:0:
448,192,111650,128,0,111800:2:2:0:0:
192,192,111800,1,0,2:2:0:0:
64,192,111800,128,0,111950:2:2:0:0:
320,192,111950,1,0,2:2:0:0:
448,192,111950,128,0,112100:2:2:0:0:
192,192,111950,1,2,2:2:0:0:
192,192,112100,1,0,2:2:0:0:
64,192,112100,128,0,112250:2:2:0:0:
448,192,112250,1,0,2:2:0:0:
320,192,112250,128,0,112400:2:2:0:0:
192,192,112400,128,0,112550:2:2:0:0:
64,192,112400,1,0,2:2:0:0:
448,192,112550,1,2,2:2:0:0:
64,192,112550,1,0,2:2:0:0:
320,192,112550,128,0,112700:2:2:0:0:
64,192,112700,128,0,112850:2:2:0:0:
192,192,112700,1,0,2:2:0:0:
448,192,112850,128,0,113000:2:2:0:0:
320,192,112850,1,0,2:2:0:0:
192,192,113000,128,0,113150:2:2:0:0:
64,192,113000,1,0,2:2:0:0:
448,192,113150,1,2,2:2:0:0:
320,192,113150,128,0,113300:2:2:0:0:
64,192,113150,1,0,2:2:0:0:
192,192,113300,1,0,2:2:0:0:
64,192,113300,128,0,113450:2:2:0:0:
192,192,113450,1,0,2:2:0:0:
320,192,113600,1,0,2:2:0:0:
448,192,113600,1,0,2:2:0:0:
64,192,113750,1,0,2:2:0:0:
192,192,113750,1,2,2:2:0:0:
448,192,113750,1,0,2:2:0:0:
320,192,113900,1,0,2:2:0:0:
192,192,114050,1,0,2:2:0:0:
64,192,114050,1,0,2:2:0:0:
320,192,114200,1,0,2:2:0:0:
448,192,114200,1,0,2:2:0:0:
192,192,114350,1,2,2:2:0:0:
448,192,114350,1,0,2:2:0:0:
64,192,114350,1,0,2:2:0:0:
192,192,114500,1,0,2:2:0:0:
320,192,114500,1,0,2:2:0:0:
64,192,114650,1,0,2:2:0:0:
192,192,114650,1,2,2:2:0:0:
320,192,114725,1,2,2:2:0:0:
448,192,114725,1,0,2:2:0:0:
192,192,114800,1,4,2:2:0:0:
64,192,114875,1,4,2:2:0:0:
192,192,114950,1,4,0:0:0:0:
320,192,115025,1,4,2:2:0:0:
64,192,115100,1,4,0:0:0:0:
448,192,115175,1,4,0:0:0:0:
192,192,115250,1,4,2:2:0:0:
320,192,115325,1,4,0:0:0:0:
448,192,115400,1,4,2:2:0:0:
192,192,115475,1,4,0:0:0:0:
64,192,115550,1,4,2:2:0:0:
448,192,115625,1,4,0:0:0:0:
192,192,115700,1,4,2:2:0:0:
320,192,115775,1,4,2:2:0:0:
64,192,115850,1,0,2:2:0:0:
192,192,115850,1,4,1:0:0:0:
448,192,115850,1,0,2:2:0:0:
192,192,116000,1,0,2:2:0:0:
320,192,116000,1,0,2:2:0:0:
320,192,116150,1,2,2:2:0:0:
448,192,116150,1,0,2:2:0:0:
64,192,116150,1,0,2:2:0:0:
192,192,116300,1,0,2:2:0:0:
64,192,116450,1,0,2:2:0:0:
192,192,116450,1,0,2:2:0:0:
320,192,116600,1,0,2:2:0:0:
448,192,116600,1,0,2:2:0:0:
448,192,116750,1,0,2:2:0:0:
64,192,116750,1,0,2:2:0:0:
192,192,116750,1,2,2:2:0:0:
320,192,116900,1,0,2:2:0:0:
64,192,117050,1,0,2:2:0:0:
448,192,117050,1,0,2:2:0:0:
320,192,117200,1,0,2:2:0:0:
192,192,117200,1,0,2:2:0:0:
64,192,117350,1,0,2:2:0:0:
192,192,117350,1,2,2:2:0:0:
448,192,117350,1,0,2:2:0:0:
320,192,117500,1,0,2:2:0:0:
448,192,117500,1,0,2:2:0:0:
320,192,117650,1,0,2:2:0:0:
64,192,117800,1,0,2:2:0:0:
192,192,117800,1,0,2:2:0:0:
192,192,117950,1,0,2:2:0:0:
320,192,117950,1,2,2:2:0:0:
448,192,117950,1,0,2:2:0:0:
64,192,118100,1,0,2:2:0:0:
320,192,118250,1,0,2:2:0:0:
448,192,118250,1,0,2:2:0:0:
192,192,118400,1,0,2:2:0:0:
64,192,118400,1,0,2:2:0:0:
64,192,118550,1,0,2:2:0:0:
192,192,118550,1,2,2:2:0:0:
448,192,118550,1,0,2:2:0:0:
320,192,118700,1,0,2:2:0:0:
192,192,118850,5,0,2:2:0:0:
64,192,118850,1,0,2:2:0:0:
320,192,119000,1,0,2:2:0:0:
448,192,119000,1,0,2:2:0:0:
192,192,119150,1,0,2:2:0:0:
320,192,119150,1,2,2:2:0:0:
64,192,119150,1,0,2:2:0:0:
192,192,119300,1,0,2:2:0:0:
320,192,119450,1,0,2:2:0:0:
64,192,119450,1,0,2:2:0:0:
192,192,119600,1,0,2:2:0:0:
448,192,119600,1,0,2:2:0:0:
320,192,119675,1,0,2:2:0:0:
448,192,119750,1,0,2:2:0:0:
192,192,119750,1,2,2:2:0:0:
64,192,119750,1,0,2:2:0:0:
448,192,119900,1,0,2:2:0:0:
320,192,119900,1,0,2:2:0:0:
64,192,119975,1,0,2:2:0:0:
192,192,120050,1,0,2:2:0:0:
320,192,120125,1,0,2:2:0:0:
192,192,120200,1,0,2:2:0:0:
448,192,120200,1,0,2:2:0:0:
64,192,120275,1,0,2:2:0:0:
192,192,120350,1,2,2:2:0:0:
448,192,120350,1,0,2:2:0:0:
320,192,120425,1,0,2:2:0:0:
448,192,120500,1,0,2:2:0:0:
192,192,120500,1,0,2:2:0:0:
64,192,120575,1,0,2:2:0:0:
192,192,120650,1,0,2:2:0:0:
448,192,120650,1,0,2:2:0:0:
192,192,120800,1,0,2:2:0:0:
64,192,120800,1,0,2:2:0:0:
448,192,120950,1,0,2:2:0:0:
320,192,120950,1,2,2:2:0:0:
64,192,120950,1,0,2:2:0:0:
320,192,121100,1,0,2:2:0:0:
64,192,121250,1,0,2:2:0:0:
192,192,121250,1,0,2:2:0:0:
320,192,121400,1,0,2:2:0:0:
448,192,121400,1,0,2:2:0:0:
320,192,121550,1,0,2:2:0:0:
192,192,121550,1,2,2:2:0:0:
64,192,121550,1,0,2:2:0:0:
192,192,121700,1,0,2:2:0:0:
448,192,121850,1,0,2:2:0:0:
64,192,121850,1,0,2:2:0:0:
64,192,122000,1,0,2:2:0:0:
448,192,122000,1,0,2:2:0:0:
192,192,122150,1,0,2:2:0:0:
320,192,122150,1,2,2:2:0:0:
448,192,122150,1,0,2:2:0:0:
64,192,122300,1,0,2:2:0:0:
192,192,122450,1,0,2:2:0:0:
64,192,122450,1,0,0:0:0:0:
320,192,122600,1,0,2:2:0:0:
448,192,122600,1,0,2:2:0:0:
64,192,122750,1,0,2:2:0:0:
192,192,122750,1,2,2:2:0:0:
448,192,122750,1,0,2:2:0:0:
320,192,122900,1,0,2:2:0:0:
448,192,123050,1,0,2:2:0:0:
192,192,123050,1,2,2:2:0:0:
64,192,123050,128,0,123350:2:2:0:0:
192,192,123200,1,0,2:2:0:0:
320,192,123200,1,0,2:2:0:0:
320,192,123350,1,0,2:2:0:0:
192,192,123350,1,0,2:2:0:0:
64,192,123500,1,0,2:2:0:0:
320,192,123500,1,2,2:2:0:0:
448,192,123500,128,0,123800:2:2:0:0:
192,192,123650,1,0,2:2:0:0:
320,192,123650,1,0,2:2:0:0:
320,192,123800,1,0,2:2:0:0:
192,192,123800,1,0,2:2:0:0:
448,192,123950,1,0,2:2:0:0:
192,192,123950,1,2,2:2:0:0:
64,192,123950,128,0,124250:2:2:0:0:
192,192,124100,1,0,2:2:0:0:
320,192,124250,1,2,2:2:0:0:
448,192,124250,1,0,2:2:0:0:
192,192,124325,1,2,2:2:0:0:
64,192,124325,1,0,2:2:0:0:
320,192,124400,1,4,2:2:0:0:
192,192,124475,1,4,2:2:0:0:
320,192,124550,1,4,2:2:0:0:
448,192,124625,1,4,2:2:0:0:
64,192,124700,1,0,2:2:0:0:
192,192,124700,1,2,2:2:0:0:
448,192,124775,1,0,2:2:0:0:
320,192,124775,1,2,2:2:0:0:
192,192,124850,1,4,2:2:0:0:
64,192,124925,1,4,2:2:0:0:
448,192,125000,1,4,2:2:0:0:
320,192,125075,1,4,2:2:0:0:
64,192,125150,1,2,2:2:0:0:
192,192,125150,1,0,2:2:0:0:
448,192,125225,1,0,2:2:0:0:
320,192,125225,1,2,2:2:0:0:
64,192,125300,1,0,2:2:0:0:
192,192,125300,1,2,2:2:0:0:
320,192,125375,1,0,2:2:0:0:
448,192,125375,1,2,2:2:0:0:
64,192,125450,1,0,2:2:0:0:
448,192,125450,1,0,2:2:0:0:
192,192,125450,1,4,1:0:0:0:
320,192,125750,1,2,2:2:0:0:
448,192,125750,1,0,2:2:0:0:
64,192,125750,1,0,2:2:0:0:
320,192,125900,1,0,2:2:0:0:
64,192,126050,1,0,2:2:0:0:
192,192,126050,1,0,2:2:0:0:
320,192,126200,1,0,2:2:0:0:
448,192,126200,1,0,2:2:0:0:
192,192,126350,1,2,2:2:0:0:
64,192,126350,1,0,2:2:0:0:
448,192,126350,1,0,2:2:0:0:
64,192,126500,1,0,2:2:0:0:
320,192,126650,1,0,2:2:0:0:
448,192,126650,1,0,2:2:0:0:
320,192,126800,1,0,2:2:0:0:
64,192,126950,1,0,2:2:0:0:
192,192,126950,1,2,2:2:0:0:
448,192,126950,1,0,2:2:0:0:
192,192,127100,1,0,2:2:0:0:
320,192,127100,1,0,2:2:0:0:
64,192,127250,1,0,2:2:0:0:
320,192,127400,1,0,2:2:0:0:
448,192,127400,1,0,2:2:0:0:
64,192,127550,1,0,2:2:0:0:
448,192,127550,1,0,2:2:0:0:
192,192,127550,1,2,2:2:0:0:
64,192,127700,1,0,2:2:0:0:
320,192,127850,1,0,2:2:0:0:
448,192,127850,1,0,2:2:0:0:
192,192,128000,1,0,2:2:0:0:
64,192,128150,1,0,2:2:0:0:
192,192,128150,1,2,2:2:0:0:
448,192,128150,1,0,2:2:0:0:
64,192,128300,1,0,2:2:0:0:
320,192,128450,1,0,2:2:0:0:
448,192,128450,1,0,2:2:0:0:
192,192,128600,1,0,2:2:0:0:
64,192,128600,1,0,2:2:0:0:
448,192,128750,1,0,2:2:0:0:
320,192,128750,1,2,2:2:0:0:
64,192,128750,1,0,2:2:0:0:
448,192,128900,1,0,2:2:0:0:
64,192,129050,1,0,2:2:0:0:
192,192,129050,1,0,2:2:0:0:
192,192,129200,1,0,2:2:0:0:
448,192,129200,1,0,2:2:0:0:
320,192,129275,1,0,2:2:0:0:
64,192,129350,1,0,2:2:0:0:
192,192,129350,1,2,2:2:0:0:
448,192,129350,1,0,2:2:0:0:
64,192,129500,1,0,2:2:0:0:
448,192,129500,1,0,2:2:0:0:
320,192,129575,1,0,2:2:0:0:
192,192,129650,1,0,2:2:0:0:
64,192,129725,1,0,2:2:0:0:
192,192,129800,1,0,2:2:0:0:
320,192,129800,1,0,2:2:0:0:
448,192,129875,1,0,2:2:0:0:
320,192,129950,1,0,2:2:0:0:
192,192,129950,1,2,2:2:0:0:
64,192,129950,1,0,2:2:0:0:
448,192,130025,1,0,2:2:0:0:
320,192,130100,1,0,2:2:0:0:
192,192,130175,1,0,2:2:0:0:
320,192,130250,128,0,130550:2:2:0:0:
448,192,130250,128,0,130550:2:2:0:0:
64,192,130250,1,0,2:2:0:0:
192,192,130400,1,0,2:2:0:0:
64,192,130550,1,0,2:2:0:0:
192,192,130550,1,2,2:2:0:0:
320,192,130700,128,0,131000:2:2:0:0:
448,192,130700,128,0,131000:2:2:0:0:
192,192,130700,1,0,2:2:0:0:
64,192,130850,1,0,2:2:0:0:
192,192,131000,1,0,2:2:0:0:
192,192,131150,1,2,2:2:0:0:
64,192,131150,1,0,2:2:0:0:
448,192,131150,1,0,0:0:0:0:
320,192,131300,1,0,2:2:0:0:
448,192,131300,1,0,2:2:0:0:
192,192,131450,128,0,131750:2:2:0:0:
64,192,131450,128,0,131750:2:2:0:0:
448,192,131450,1,0,2:2:0:0:
320,192,131600,1,0,2:2:0:0:
448,192,131750,1,2,2:2:0:0:
320,192,131750,1,0,2:2:0:0:
192,192,131900,128,0,132200:2:2:0:0:
64,192,131900,128,0,132200:2:2:0:0:
320,192,131900,1,0,2:2:0:0:
448,192,132050,1,0,2:2:0:0:
320,192,132200,1,0,2:2:0:0:
192,192,132350,1,2,2:2:0:0:
64,192,132350,1,0,2:2:0:0:
448,192,132350,1,0,2:2:0:0:
320,192,132500,1,0,2:2:0:0:
448,192,132650,1,0,2:2:0:0:
64,192,132650,1,0,2:2:0:0:
192,192,132650,1,2,2:2:0:0:
192,192,132800,1,2,2:2:0:0:
320,192,132875,1,2,2:2:0:0:
192,192,132950,1,2,2:2:0:0:
448,192,133100,1,0,2:2:0:0:
64,192,133100,1,0,2:2:0:0:
192,192,133100,1,0,2:2:0:0:
320,192,133250,1,2,2:2:0:0:
192,192,133325,1,2,2:2:0:0:
320,192,133400,1,2,2:2:0:0:
448,192,133550,1,0,2:2:0:0:
192,192,133550,1,0,2:2:0:0:
64,192,133550,1,0,2:2:0:0:
192,192,133700,1,2,2:2:0:0:
320,192,133775,1,2,2:2:0:0:
192,192,133850,1,2,2:2:0:0:
192,192,134000,1,0,2:2:0:0:
64,192,134000,1,0,2:2:0:0:
448,192,134000,1,0,2:2:0:0:
320,192,134150,1,4,2:2:0:0:
192,192,134225,1,4,2:2:0:0:
64,192,134300,1,2,2:2:0:0:
320,192,134375,1,2,2:2:0:0:
448,192,134450,1,0,2:2:0:0:
192,192,134450,1,2,2:2:0:0:
64,192,134450,1,0,2:2:0:0:
320,192,134525,1,2,2:2:0:0:
192,192,134600,1,4,2:2:0:0:
64,192,134675,1,4,2:2:0:0:
192,192,134750,1,4,2:2:0:0:
320,192,134825,1,4,2:2:0:0:
448,192,134900,1,4,2:2:0:0:
192,192,134975,1,4,2:2:0:0:
448,192,135050,1,0,2:2:0:0:
320,192,135050,1,2,2:2:0:0:
64,192,135050,1,4,1:0:0:0:
192,192,135350,1,0,2:2:0:0:
320,192,135350,1,2,2:2:0:0:
448,192,135350,1,0,0:0:0:0:
448,192,135500,1,0,2:2:0:0:
64,192,135650,1,0,2:2:0:0:
192,192,135650,1,2,2:2:0:0:
320,192,135650,1,0,0:0:0:0:
64,192,135800,1,0,2:2:0:0:
192,192,135950,1,2,2:2:0:0:
320,192,135950,1,0,2:2:0:0:
448,192,135950,1,0,0:0:0:0:
320,192,136100,1,0,2:2:0:0:
64,192,136250,1,0,2:2:0:0:
192,192,136250,1,2,2:2:0:0:
448,192,136250,1,0,0:0:0:0:
64,192,136400,1,0,2:2:0:0:
320,192,136550,1,0,2:2:0:0:
448,192,136550,1,0,2:2:0:0:
192,192,136550,1,2,0:0:0:0:
448,192,136700,1,0,2:2:0:0:
64,192,136850,1,0,0:0:0:0:
192,192,136850,1,2,0:0:0:0:
320,192,136850,1,0,0:0:0:0:
64,192,137000,1,4,2:2:0:0:
192,192,137075,1,4,2:2:0:0:
320,192,137150,1,2,2:2:0:0:
448,192,137150,1,0,2:2:0:0:
64,192,137150,1,0,0:0:0:0:
320,192,137300,1,4,2:2:0:0:
64,192,137450,1,0,2:2:0:0:
192,192,137450,1,2,2:2:0:0:
448,192,137450,1,0,2:2:0:0:
192,192,137600,1,2,2:2:0:0:
64,192,137600,1,0,2:2:0:0:
448,192,137600,1,0,2:2:0:0:
192,192,137750,1,4,2:2:0:0:
448,192,137900,1,0,2:2:0:0:
320,192,137900,1,2,2:2:0:0:
64,192,137900,1,0,2:2:0:0:
64,192,138050,1,0,2:2:0:0:
320,192,138050,1,2,2:2:0:0:
448,192,138050,1,0,2:2:0:0:
448,192,138200,1,4,2:2:0:0:
64,192,138350,1,0,2:2:0:0:
192,192,138350,1,2,2:2:0:0:
320,192,138350,1,0,2:2:0:0:
320,192,138500,1,0,2:2:0:0:
64,192,138500,1,0,2:2:0:0:
192,192,138500,1,2,2:2:0:0:
448,192,138575,1,4,2:2:0:0:
320,192,138650,1,4,2:2:0:0:
192,192,138800,1,2,2:2:0:0:
320,192,138800,1,0,2:2:0:0:
448,192,138800,1,0,2:2:0:0:
64,192,138875,1,4,2:2:0:0:
192,192,138950,1,0,2:2:0:0:
320,192,138950,1,2,2:2:0:0:
448,192,138950,1,0,2:2:0:0:
448,192,139850,1,4,2:2:0:0:
64,192,139850,128,0,140150:0:0:0:0:
192,192,139850,1,0,0:0:0:0:
320,192,140000,1,4,2:2:0:0:
192,192,140150,1,4,2:2:0:0:
448,192,140150,1,0,0:0:0:0:
64,192,140300,1,0,0:0:0:0:
448,192,140300,128,0,140600:0:0:0:0:
320,192,140300,1,4,0:0:0:0:
192,192,140450,1,4,2:2:0:0:
320,192,140600,1,4,2:2:0:0:
64,192,140600,1,0,0:0:0:0:
64,192,140750,1,2,2:2:0:0:
448,192,140750,1,0,2:2:0:0:
192,192,140750,128,0,141050:0:0:0:0:
320,192,140900,1,4,2:2:0:0:
448,192,140900,1,0,2:2:0:0:
64,192,141050,1,0,2:2:0:0:
448,192,141200,1,0,2:2:0:0:
320,192,141200,1,2,2:2:0:0:
64,192,141200,128,0,141500:0:0:0:0:
192,192,141350,1,0,2:2:0:0:
320,192,141350,1,4,2:2:0:0:
320,192,141500,1,2,2:2:0:0:
448,192,141500,1,0,2:2:0:0:
192,192,141575,1,2,2:2:0:0:
64,192,141575,1,0,0:0:0:0:
320,192,141650,1,2,2:2:0:0:
448,192,141650,128,0,141950:0:0:0:0:
192,192,141800,1,4,2:2:0:0:
320,192,141875,1,4,2:2:0:0:
192,192,141950,1,2,2:2:0:0:
64,192,141950,128,0,142250:0:0:0:0:
448,192,142100,1,0,0:0:0:0:
320,192,142175,1,0,0:0:0:0:
192,192,142250,1,4,1:0:0:0:
448,192,142250,1,0,2:2:0:0:
