osu file format v14

[General]
AudioFilename: 02. .mp3
AudioLeadIn: 0
PreviewTime: 95750
Countdown: 0
SampleSet: Soft
StackLeniency: 0.7
Mode: 3
LetterboxInBreaks: 0
SpecialStyle: 0
WidescreenStoryboard: 0

[Editor]
DistanceSpacing: 1.2
BeatDivisor: 2
GridSize: 4
TimelineZoom: 1.9

[Metadata]
Title:Towa yori Towa ni
TitleUnicode:永久より永遠に
Artist:marina
ArtistUnicode:marina
Creator:Aphrodena
Version:EZ
Source:少女神域∽少女天獄 -The Garden of Fifth Zoa-
Tags:shoujo shiniki tengoku lass ayachi-
BeatmapID:520804
BeatmapSetID:222855

[Difficulty]
HPDrainRate:6
CircleSize:4
OverallDifficulty:6
ApproachRate:5
SliderMultiplier:1.4
SliderTickRate:1

[Events]
//Background and Video events
Video,0,"ed2.avi"
0,0,"towa.jpg",0,0
//Break Periods
//Storyboard Layer 0 (Background)
//Storyboard Layer 1 (Fail)
//Storyboard Layer 2 (Pass)
//Storyboard Layer 3 (Foreground)
//Storyboard Sound Samples

[TimingPoints]
50,300,4,2,1,40,1,0
33725,-100,4,2,1,10,0,0
50450,-100,4,2,1,40,0,0
55250,-100,4,2,1,40,0,1
55325,-100,4,2,1,40,0,0
84050,310.077519379845,3,2,1,15,1,0
84980,300,3,2,1,15,1,0
89450,300,4,2,1,40,1,0
96650,-100,4,2,1,40,0,1
115775,-100,4,2,1,40,0,0
115850,-100,4,2,1,40,0,1
135050,-100,4,2,1,40,0,0

[HitObjects]
192,192,10850,5,4,2:2:0:0:
192,192,11300,1,4,2:2:0:0:
64,192,11750,1,2,2:2:0:0:
448,192,11750,1,2,2:2:0:0:
320,192,12050,128,2,12500:2:2:0:0:
192,192,13100,128,4,13550:2:2:0:0:
64,192,14300,128,4,14750:2:2:0:0:
448,192,15500,128,4,15950:2:2:0:0:
192,192,16850,128,4,17300:2:2:0:0:
64,192,17900,128,4,18350:2:2:0:0:
448,192,19100,128,4,19550:2:2:0:0:
192,192,20300,128,4,20750:2:2:0:0:
64,192,21050,1,2,2:2:0:0:
448,192,21050,1,0,2:2:0:0:
192,192,21500,1,0,2:2:0:0:
320,192,21500,1,4,1:0:0:0:
448,192,21950,1,2,2:2:0:0:
320,192,22550,1,2,2:2:0:0:
192,192,23150,1,2,2:2:0:0:
64,192,23750,1,2,2:2:0:0:
448,192,24350,1,2,2:2:0:0:
192,192,24950,1,2,2:2:0:0:
64,192,25550,1,2,2:2:0:0:
320,192,26150,1,2,2:2:0:0:
64,192,26450,1,0,2:2:0:0:
192,192,26750,1,2,2:2:0:0:
448,192,26750,1,0,2:2:0:0:
192,192,27050,1,2,2:2:0:0:
448,192,27050,1,0,2:2:0:0:
448,192,27500,1,2,2:2:0:0:
320,192,27500,1,0,0:0:0:0:
64,192,28100,1,4,2:2:0:0:
192,192,28100,1,2,2:2:0:0:
320,192,28550,1,2,2:2:0:0:
448,192,28850,1,0,2:2:0:0:
192,192,29150,1,0,2:2:0:0:
64,192,29150,1,2,2:2:0:0:
192,192,29450,1,0,2:2:0:0:
64,192,29450,1,2,2:2:0:0:
448,192,29750,1,2,2:2:0:0:
64,192,30350,1,2,2:2:0:0:
448,192,30650,1,0,0:0:0:0:
320,192,30950,1,2,2:2:0:0:
64,192,31250,1,0,2:2:0:0:
192,192,31550,1,0,0:0:0:0:
192,192,31850,1,0,0:0:0:0:
320,192,32150,1,0,0:0:0:0:
64,192,32300,1,0,0:0:0:0:
448,192,32450,1,0,0:0:0:0:
320,192,32750,1,0,2:2:0:0:
320,192,33050,1,0,0:0:0:0:
192,192,33350,1,0,0:0:0:0:
448,192,33500,1,0,0:0:0:0:
64,192,33650,1,0,0:0:0:0:
192,192,33950,1,0,0:0:0:0:
192,192,34250,1,0,2:2:0:0:
320,192,34550,1,0,0:0:0:0:
64,192,34700,1,0,0:0:0:0:
448,192,34850,1,4,2:2:0:0:
320,192,35150,1,4,2:2:0:0:
320,192,35450,1,0,0:0:0:0:
64,192,35600,1,0,0:0:0:0:
448,192,35750,1,4,2:2:0:0:
320,192,36050,1,4,2:2:0:0:
192,192,36650,1,0,2:2:0:0:
64,192,36950,1,0,2:2:0:0:
320,192,37250,1,0,2:2:0:0:
448,192,37550,1,0,2:2:0:0:
320,192,37850,1,0,2:2:0:0:
64,192,38150,1,0,2:2:0:0:
320,192,38450,1,0,2:2:0:0:
448,192,38450,1,0,2:2:0:0:
192,192,38900,1,0,2:2:0:0:
64,192,39350,1,0,2:2:0:0:
448,192,40250,1,0,2:2:0:0:
64,192,40550,1,0,2:2:0:0:
192,192,40700,1,0,2:2:0:0:
320,192,40850,1,0,2:2:0:0:
320,192,41450,1,0,2:2:0:0:
64,192,41750,1,0,2:2:0:0:
448,192,41900,1,0,2:2:0:0:
192,192,42350,1,0,2:2:0:0:
448,192,42650,1,0,2:2:0:0:
448,192,43250,1,0,2:2:0:0:
192,192,43250,1,0,2:2:0:0:
64,192,43700,1,0,2:2:0:0:
320,192,44150,1,0,2:2:0:0:
448,192,44750,1,0,2:2:0:0:
320,192,44750,1,0,2:2:0:0:
64,192,45350,1,0,2:2:0:0:
448,192,45650,1,0,2:2:0:0:
64,192,45950,1,0,2:2:0:0:
192,192,46250,1,0,2:2:0:0:
448,192,46550,1,0,2:2:0:0:
320,192,46700,1,0,2:2:0:0:
192,192,47150,1,0,2:2:0:0:
320,192,47450,1,0,2:2:0:0:
64,192,47750,1,0,2:2:0:0:
320,192,48050,1,0,2:2:0:0:
448,192,48050,1,0,2:2:0:0:
192,192,48500,1,0,2:2:0:0:
64,192,48500,1,0,0:0:0:0:
448,192,48950,1,0,2:2:0:0:
192,192,48950,1,0,2:2:0:0:
64,192,49550,1,0,0:0:0:0:
192,192,49850,1,0,2:2:0:0:
320,192,49850,1,0,2:2:0:0:
448,192,50450,128,0,51350:2:2:0:0:
320,192,51350,1,4,2:2:0:0:
192,192,51500,1,4,2:2:0:0:
64,192,51650,128,4,52400:2:2:0:0:
320,192,52550,1,0,2:2:0:0:
192,192,52850,1,0,2:2:0:0:
320,192,53150,1,0,2:2:0:0:
192,192,53450,1,0,2:2:0:0:
320,192,53750,1,0,2:2:0:0:
192,192,54050,1,0,2:2:0:0:
64,192,54050,1,2,2:2:0:0:
320,192,54500,1,0,2:2:0:0:
448,192,54500,1,2,2:2:0:0:
192,192,54950,1,2,2:2:0:0:
320,192,54950,1,0,2:2:0:0:
64,192,55250,1,0,2:2:0:0:
448,192,55250,1,0,2:2:0:0:
192,192,55550,1,2,2:2:0:0:
64,192,56150,1,2,2:2:0:0:
192,192,56450,1,0,2:2:0:0:
448,192,56750,1,2,2:2:0:0:
192,192,57350,1,2,2:2:0:0:
64,192,57650,1,0,2:2:0:0:
448,192,57950,1,2,2:2:0:0:
320,192,58550,1,2,2:2:0:0:
448,192,58850,1,0,2:2:0:0:
64,192,59150,1,2,2:2:0:0:
320,192,59750,1,2,2:2:0:0:
192,192,60050,1,0,2:2:0:0:
448,192,60350,1,2,2:2:0:0:
64,192,60950,1,2,2:2:0:0:
448,192,61250,1,0,2:2:0:0:
320,192,61550,1,2,2:2:0:0:
64,192,62150,1,2,2:2:0:0:
448,192,62450,1,0,2:2:0:0:
320,192,62450,1,2,2:2:0:0:
64,192,62900,1,0,2:2:0:0:
192,192,62900,1,2,2:2:0:0:
448,192,63350,1,0,2:2:0:0:
320,192,63350,1,2,2:2:0:0:
64,192,63650,1,2,2:2:0:0:
192,192,63950,1,4,2:2:0:0:
320,192,64250,1,2,2:2:0:0:
448,192,64550,1,4,2:2:0:0:
192,192,64850,1,0,2:2:0:0:
64,192,64850,128,0,67250:2:2:0:0:
320,192,65450,1,0,2:2:0:0:
320,192,66050,1,0,2:2:0:0:
448,192,66650,1,2,2:2:0:0:
320,192,67250,128,0,69650:2:2:0:0:
192,192,67850,1,0,2:2:0:0:
192,192,68450,1,0,2:2:0:0:
64,192,69050,1,2,2:2:0:0:
192,192,69650,128,0,71750:2:2:0:0:
320,192,70250,1,0,2:2:0:0:
320,192,70850,1,0,2:2:0:0:
448,192,71450,1,2,0:0:0:0:
320,192,71750,128,0,72050:2:2:0:0:
64,192,72050,1,0,2:2:0:0:
192,192,72350,1,0,2:2:0:0:
320,192,72650,1,0,2:2:0:0:
64,192,72950,1,2,2:2:0:0:
192,192,73250,1,0,2:2:0:0:
448,192,73250,1,2,2:2:0:0:
64,192,73850,128,0,74450:2:2:0:0:
320,192,74450,1,0,2:2:0:0:
64,192,74750,1,2,2:2:0:0:
320,192,75200,1,0,2:2:0:0:
192,192,75350,1,2,2:2:0:0:
448,192,75650,1,0,2:2:0:0:
64,192,75950,1,2,2:2:0:0:
320,192,76400,1,0,2:2:0:0:
448,192,76550,1,2,2:2:0:0:
192,192,76850,1,0,2:2:0:0:
448,192,77150,1,2,2:2:0:0:
192,192,77600,1,0,2:2:0:0:
320,192,77750,1,2,2:2:0:0:
64,192,78050,1,0,2:2:0:0:
448,192,78350,1,2,2:2:0:0:
320,192,78800,1,0,2:2:0:0:
64,192,78950,1,2,2:2:0:0:
192,192,79250,1,0,2:2:0:0:
320,192,79250,1,2,2:2:0:0:
448,192,79850,1,0,2:2:0:0:
64,192,79850,1,2,2:2:0:0:
320,192,80450,1,2,2:2:0:0:
192,192,80450,1,0,2:2:0:0:
64,192,81050,1,2,2:2:0:0:
448,192,81050,1,0,2:2:0:0:
320,192,81650,1,0,2:2:0:0:
64,192,81650,1,2,2:2:0:0:
192,192,82250,1,0,2:2:0:0:
448,192,82250,1,2,2:2:0:0:
64,192,82850,1,0,2:2:0:0:
448,192,82850,1,0,2:2:0:0:
320,192,83150,1,0,2:2:0:0:
192,192,83450,1,0,2:2:0:0:
64,192,83750,1,0,2:2:0:0:
448,192,84050,128,0,84670:2:2:0:0:
192,192,84050,1,0,2:2:0:0:
320,192,84670,128,0,84980:2:2:0:0:
192,192,84980,128,0,85880:2:2:0:0:
320,192,85880,128,0,86480:2:2:0:0:
192,192,86480,128,0,86780:2:2:0:0:
64,192,86780,128,0,87680:2:2:0:0:
192,192,87680,128,0,87980:2:2:0:0:
320,192,87980,128,0,88280:2:2:0:0:
448,192,88280,128,0,88580:2:2:0:0:
320,192,88580,128,0,88880:2:2:0:0:
64,192,88880,128,0,89180:2:2:0:0:
320,192,89180,128,0,89450:2:2:0:0:
192,192,89450,1,4,1:1:0:0:
448,192,89450,1,0,0:0:0:0:
64,192,89750,1,0,2:2:0:0:
192,192,90050,1,0,2:2:0:0:
320,192,90350,1,0,2:2:0:0:
192,192,90650,1,0,2:2:0:0:
64,192,90950,1,0,2:2:0:0:
448,192,91250,1,0,2:2:0:0:
320,192,91550,1,0,2:2:0:0:
192,192,91850,1,0,2:2:0:0:
64,192,92150,1,0,2:2:0:0:
192,192,92450,1,0,2:2:0:0:
320,192,92750,1,0,2:2:0:0:
448,192,93050,128,2,93500:2:2:0:0:
64,192,93500,128,2,93950:2:2:0:0:
320,192,93950,128,2,94250:2:2:0:0:
192,192,94250,128,2,95300:2:2:0:0:
320,192,95750,128,0,96650:2:2:0:0:
192,192,96050,1,0,0:0:0:0:
448,192,96650,1,0,2:2:0:0:
64,192,96650,1,4,1:1:0:0:
192,192,96950,1,2,2:2:0:0:
64,192,97250,1,0,2:2:0:0:
320,192,97550,1,2,2:2:0:0:
64,192,97850,1,0,2:2:0:0:
448,192,98150,1,2,2:2:0:0:
192,192,98450,1,0,2:2:0:0:
320,192,98750,1,2,2:2:0:0:
64,192,99050,1,0,2:2:0:0:
192,192,99350,1,2,2:2:0:0:
448,192,99650,1,0,2:2:0:0:
64,192,99950,1,2,2:2:0:0:
192,192,100250,1,0,2:2:0:0:
320,192,100550,1,2,2:2:0:0:
64,192,100850,1,0,2:2:0:0:
448,192,101150,1,2,2:2:0:0:
192,192,101450,1,0,2:2:0:0:
320,192,101750,1,2,2:2:0:0:
64,192,102050,1,0,2:2:0:0:
448,192,102350,1,2,2:2:0:0:
64,192,102650,1,0,2:2:0:0:
320,192,102950,1,2,2:2:0:0:
192,192,103250,1,0,2:2:0:0:
448,192,103550,1,2,2:2:0:0:
64,192,103850,1,0,2:2:0:0:
448,192,104150,1,2,2:2:0:0:
320,192,104450,1,0,2:2:0:0:
192,192,104750,1,4,2:2:0:0:
448,192,105050,1,2,2:2:0:0:
64,192,105050,1,0,0:0:0:0:
320,192,105500,1,0,0:0:0:0:
192,192,105500,1,2,0:0:0:0:
448,192,105950,1,2,2:2:0:0:
64,192,105950,1,0,0:0:0:0:
192,192,106250,1,0,2:2:0:0:
320,192,106250,1,4,1:1:0:0:
64,192,106550,1,2,2:2:0:0:
192,192,106850,1,0,2:2:0:0:
64,192,107150,1,2,2:2:0:0:
448,192,107450,1,0,2:2:0:0:
192,192,107750,1,2,2:2:0:0:
448,192,108050,1,0,2:2:0:0:
64,192,108350,1,2,2:2:0:0:
320,192,108650,1,0,2:2:0:0:
448,192,108950,1,2,2:2:0:0:
320,192,109250,1,0,2:2:0:0:
192,192,109550,1,2,2:2:0:0:
64,192,109850,1,0,2:2:0:0:
320,192,110150,1,2,2:2:0:0:
64,192,110450,1,0,2:2:0:0:
320,192,110750,1,2,2:2:0:0:
448,192,111050,128,0,113300:2:2:0:0:
192,192,111350,1,2,2:2:0:0:
192,192,111950,1,2,0:0:0:0:
192,192,112550,1,2,0:0:0:0:
192,192,113150,1,2,0:0:0:0:
64,192,113450,1,0,2:2:0:0:
192,192,113750,1,2,2:2:0:0:
320,192,114050,1,0,2:2:0:0:
64,192,114350,1,2,2:2:0:0:
192,192,114650,1,2,2:2:0:0:
448,192,115100,1,4,2:2:0:0:
64,192,115550,1,4,2:2:0:0:
192,192,115850,1,0,2:2:0:0:
320,192,115850,1,4,1:0:0:0:
448,192,116150,1,2,2:2:0:0:
64,192,116450,1,0,2:2:0:0:
448,192,116750,1,2,2:2:0:0:
192,192,117050,1,0,2:2:0:0:
64,192,117350,1,2,2:2:0:0:
320,192,117650,1,0,2:2:0:0:
192,192,117950,1,2,2:2:0:0:
320,192,118250,1,0,2:2:0:0:
64,192,118550,1,2,2:2:0:0:
320,192,118850,1,0,2:2:0:0:
448,192,119150,1,2,2:2:0:0:
64,192,119450,1,0,2:2:0:0:
192,192,119750,1,2,2:2:0:0:
448,192,120050,1,0,2:2:0:0:
192,192,120350,1,2,2:2:0:0:
64,192,120650,1,0,2:2:0:0:
448,192,120950,1,2,2:2:0:0:
192,192,121250,1,0,2:2:0:0:
448,192,121550,1,2,2:2:0:0:
64,192,121850,1,0,2:2:0:0:
320,192,122150,1,2,2:2:0:0:
448,192,122450,1,0,2:2:0:0:
64,192,122750,1,2,2:2:0:0:
192,192,123050,1,2,2:2:0:0:
320,192,123050,1,0,2:2:0:0:
64,192,123500,1,0,2:2:0:0:
448,192,123500,1,2,2:2:0:0:
192,192,123950,1,0,2:2:0:0:
320,192,123950,1,2,2:2:0:0:
64,192,124250,1,2,2:2:0:0:
448,192,124700,1,2,0:0:0:0:
64,192,125150,1,2,0:0:0:0:
192,192,125450,1,4,1:0:0:0:
320,192,125450,1,0,0:0:0:0:
448,192,125750,1,2,2:2:0:0:
64,192,126050,1,0,2:2:0:0:
320,192,126350,1,2,2:2:0:0:
192,192,126650,1,0,2:2:0:0:
448,192,126950,1,2,2:2:0:0:
320,192,127250,1,0,2:2:0:0:
64,192,127550,1,2,2:2:0:0:
192,192,127850,1,0,2:2:0:0:
320,192,128150,1,2,2:2:0:0:
192,192,128450,1,0,2:2:0:0:
320,192,128750,1,2,2:2:0:0:
448,192,129050,1,0,2:2:0:0:
320,192,129350,1,2,2:2:0:0:
64,192,129650,1,0,2:2:0:0:
192,192,129950,1,2,2:2:0:0:
320,192,130250,128,0,130550:2:2:0:0:
64,192,130250,1,0,2:2:0:0:
448,192,130700,128,0,131000:2:2:0:0:
64,192,131450,128,0,131750:2:2:0:0:
192,192,131900,128,0,132200:2:2:0:0:
320,192,132650,128,0,132950:2:2:0:0:
192,192,133100,128,0,133400:2:2:0:0:
320,192,133550,128,0,133850:2:2:0:0:
64,192,134000,128,0,134300:2:2:0:0:
448,192,134450,128,0,135050:2:2:0:0:
192,192,135050,1,4,1:0:0:0:
192,192,135350,1,2,2:2:0:0:
448,192,135650,1,2,2:2:0:0:
448,192,135950,1,2,2:2:0:0:
64,192,136250,1,2,0:0:0:0:
64,192,136550,1,2,0:0:0:0:
320,192,136850,1,2,0:0:0:0:
320,192,137150,1,2,0:0:0:0:
64,192,137450,1,2,0:0:0:0:
192,192,137600,1,2,0:0:0:0:
448,192,137900,1,2,2:2:0:0:
320,192,138050,1,2,2:2:0:0:
64,192,138350,1,2,2:2:0:0:
192,192,138500,1,2,2:2:0:0:
448,192,138800,1,2,2:2:0:0:
320,192,138950,1,2,2:2:0:0:
320,192,139850,128,2,140150:0:0:0:0:
448,192,140300,128,4,140600:0:0:0:0:
192,192,140750,128,2,141050:0:0:0:0:
64,192,141200,128,2,141500:0:0:0:0:
320,192,141650,128,2,141950:0:0:0:0:
64,192,141950,128,2,142250:0:0:0:0:
192,192,142250,1,0,0:0:0:0:
448,192,142250,1,4,1:0:0:0:
