osu file format v14

[General]
AudioFilename: audio.mp3
AudioLeadIn: 0
PreviewTime: 97240
Countdown: 0
SampleSet: Normal
StackLeniency: 0.7
Mode: 2
LetterboxInBreaks: 0
WidescreenStoryboard: 0

[Editor]
DistanceSpacing: 0.8
BeatDivisor: 4
GridSize: 8
TimelineZoom: 2.2

[Metadata]
Title:Towa yori Towa ni
TitleUnicode:永久より永遠に
Artist:marina
ArtistUnicode:marina
Creator:-Luminate
Version:Imperishable
Source:少女神域∽少女天獄 -The Garden of Fifth Zoa-
Tags:Lass キミ∽ツナグ Kimi ~ Tsunagu Shoujo Shiniki ~ Shoujo Tengoku eroge visual novel ending
BeatmapID:2015842
BeatmapSetID:962747

[Difficulty]
HPDrainRate:6
CircleSize:4.3
OverallDifficulty:9.5
ApproachRate:9.5
SliderMultiplier:1.7
SliderTickRate:2

[Events]
//Background and Video events
0,0,"bggggggg.png",0,0
//Break Periods
2,11040,11815
//Storyboard Layer 0 (Background)
//Storyboard Layer 1 (Fail)
//Storyboard Layer 2 (Pass)
//Storyboard Layer 3 (Foreground)
//Storyboard Sound Samples

[TimingPoints]
1540.83718689181,300,4,2,1,60,1,0
12340,-100,4,1,1,60,0,0
13540,-100,4,1,1,75,0,0
18340,-93.4579439252336,4,1,1,75,0,0
33040,-93.4579439252336,4,1,1,60,0,0
35290,-93.4579439252336,4,2,1,50,0,0
37840,-93.4579439252336,4,2,1,40,0,0
54340,-93.4579439252336,4,1,1,50,0,0
55540,-93.4579439252336,4,1,1,60,0,0
56740,-93.4579439252336,4,1,1,70,0,0
66340,-93.4579439252336,4,1,1,60,0,0
75940,-93.4579439252336,4,1,1,70,0,0
85240,315.789473684211,4,1,1,70,1,8
85560,300,3,2,1,55,1,0
90060,303.030303030303,3,2,1,55,1,0
90940,300,4,1,1,65,1,0
94540,-100,4,1,1,70,0,0
97315,-100,4,1,1,50,0,0
98140,-86.9565217391304,4,1,1,80,0,1
124540,-78.7401574803149,4,1,1,80,0,1
125740,-86.9565217391304,4,1,1,80,0,1
135940,-86.9565217391304,4,1,1,70,0,1
136540,-86.9565217391304,4,1,1,80,0,1
140440,-86.9565217391304,4,1,1,70,0,0
143740,-90.9090909090909,4,1,1,70,0,0
152590,-90.9090909090909,4,1,1,60,0,0
172540,-90.9090909090909,4,1,1,70,0,0
182140,-90.9090909090909,4,1,1,60,0,0
196540,-90.9090909090909,4,1,1,70,0,0
201040,315.789473684211,4,2,1,70,1,8
201360,300,3,2,1,50,1,0
205860,303.030303030303,3,2,1,50,1,0
206740,300,4,1,1,60,1,0
213940,303.030303030303,4,1,1,70,1,0
215000,300,4,1,1,70,1,0
215750,303.030303030303,4,1,1,70,1,0
215977,297.029702970297,4,1,1,70,1,0
216793,-100,4,2,1,5,0,0
216868,300,4,1,1,70,1,0
217243,-100,4,2,1,5,0,0
217393,-100,4,1,1,70,0,0
217693,312.5,4,1,1,70,1,0
217850,300,4,1,1,60,1,0
219950,300,4,1,1,70,1,0
221375,-100,4,1,1,5,0,0
221450,-100,4,1,1,70,0,0
221675,-100,4,1,1,5,0,0
221750,-100,4,1,1,70,0,0
221975,-100,4,1,1,5,0,0
222050,-100,4,1,1,70,0,0
222275,-100,4,1,1,5,0,0
222350,-100,4,1,1,70,0,0
226100,300,4,1,1,70,1,0
226250,-100,4,1,1,5,0,0
226400,-100,4,1,1,70,0,0
226550,-100,4,1,1,5,0,0
226700,-100,4,1,1,70,0,0
226850,-100,4,1,1,5,0,0
227000,300,4,1,1,70,1,0
228050,-100,4,1,1,50,0,0
228650,-100,4,1,1,40,0,0
229100,315.789473684211,4,2,1,30,1,8
229420,300,3,2,1,50,1,0
230020,-100,3,2,1,40,0,0
233920,303.030303030303,3,2,1,30,1,0
234800,300,4,2,1,70,1,0
234800,-90.9090909090909,4,1,1,60,0,0
238400,-90.9090909090909,4,1,1,70,0,0
244400,-90.9090909090909,4,1,1,45,0,0
245600,-90.9090909090909,4,1,1,60,0,0
246350,-90.9090909090909,4,2,1,50,0,0
247850,-90.9090909090909,4,1,1,62,0,0
248750,-90.9090909090909,4,2,1,50,0,0
249950,-90.9090909090909,4,1,1,64,0,0
252800,-90.9090909090909,4,1,1,70,0,0
255190,300,4,1,1,80,1,1
255190,-86.9565217391304,4,1,1,80,0,1
287890,-86.9565217391304,4,1,1,70,0,0
291190,-100,4,1,1,60,0,0
300640,-93.4579439252336,4,1,1,70,0,0
310540,-93.4579439252336,4,1,1,50,0,0
310990,-93.4579439252336,4,1,1,40,0,0
311590,-93.4579439252336,4,1,1,30,0,0
312190,-93.4579439252336,4,1,1,20,0,0
312790,-93.4579439252336,4,1,1,10,0,0

[Colours]
Combo1 : 205,63,163
Combo2 : 208,132,17

[HitObjects]
160,296,1540,6,0,P|56:216|176:96,1,340,2|0,0:0|0:0,0:0:0:0:
368,96,2440,1,0,0:0:0:0:
152,328,2740,2,0,P|312:256|144:56,1,510,2|0,0:0|0:0,0:0:0:0:
448,104,3940,6,0,L|88:104,1,340,2|0,0:0|0:0,0:0:0:0:
304,176,4840,1,0,0:0:0:0:
104,312,5140,2,0,P|8:208|144:88,1,340,2|0,0:0|0:0,0:0:0:0:
296,88,6040,1,0,0:0:0:0:
48,320,6340,6,0,L|400:320,1,340,2|0,0:0|0:0,0:0:0:0:
208,264,7240,1,0,0:0:0:0:
408,328,7540,2,0,P|472:136|232:40,1,510,2|0,0:0|0:0,0:0:0:0:
448,336,8740,6,0,L|464:160,1,170,2|0,0:0|0:0,0:0:0:0:
264,224,9340,2,0,L|256:48,1,170,2|0,0:0|0:0,0:0:0:0:
336,48,9715,1,0,0:0:0:0:
400,80,9790,1,0,0:0:0:0:
336,120,9865,1,0,0:0:0:0:
256,48,9940,6,0,L|80:48,1,170,2|0,0:0|0:0,0:0:0:0:
256,272,10540,2,0,L|48:272,1,170,2|0,0:0|0:0,0:0:0:0:
144,192,12340,5,2,0:0:0:0:
192,192,12415,1,2,0:0:0:0:
240,192,12490,1,2,0:0:0:0:
112,88,12640,1,0,0:0:0:0:
368,192,12790,1,2,0:0:0:0:
320,192,12865,1,2,0:0:0:0:
264,192,12940,1,2,0:0:0:0:
392,88,13090,1,0,0:0:0:0:
112,288,13240,2,0,P|88:208|128:160,1,127.5,8|0,0:0|0:0,0:0:0:0:
352,168,13540,6,0,L|472:168,2,85,4|2|2,0:0|0:0|0:0,0:0:0:0:
128,168,14140,1,2,0:0:0:0:
352,232,14440,1,2,0:0:0:0:
128,304,14590,6,0,L|328:304,1,170,4|0,0:3|0:0,0:0:0:0:
200,248,15040,1,2,0:0:0:0:
416,176,15340,1,2,0:0:0:0:
200,128,15640,1,2,0:0:0:0:
416,296,15790,6,0,L|208:296,1,170,4|0,0:3|0:0,0:0:0:0:
344,256,16240,1,2,0:0:0:0:
120,168,16540,1,2,0:0:0:0:
344,112,16840,1,2,0:0:0:0:
120,256,16990,6,0,P|40:224|24:128,1,170,4|0,0:3|0:0,0:0:0:0:
168,304,17440,2,0,L|208:216,1,85,2|0,0:0|0:0,0:0:0:0:
352,288,17740,1,2,0:0:0:0:
408,256,17815,1,2,0:0:0:0:
440,192,17890,1,2,0:0:0:0:
440,128,17965,1,2,0:0:0:0:
376,96,18040,2,0,L|368:24,1,42.5,2|2,0:0|0:0,0:0:0:0:
434,32,18190,2,0,L|392:32,1,42.5,2|0,0:0|0:0,0:0:0:0:
208,32,18340,6,0,L|88:32,1,90.9499972244264,2|0,0:0|0:0,0:0:0:0:
272,104,18640,2,0,L|384:104,1,90.9499972244264,2|0,0:3|0:0,0:0:0:0:
120,192,18940,2,0,L|-8:192,2,90.9499972244264,2|0|0,0:0|0:0|0:0,0:0:0:0:
392,288,19390,6,0,P|368:232|240:184,1,181.899994448853,4|0,0:3|0:0,0:0:0:0:
120,168,19840,2,0,L|112:40,1,90.9499972244264,2|0,0:3|0:0,0:0:0:0:
352,72,20140,2,0,L|464:72,2,90.9499972244264,2|0|2,0:0|0:0|0:0,0:0:0:0:
32,304,20590,6,0,P|80:224|176:200,1,181.899994448853,4|0,0:3|0:0,0:0:0:0:
320,200,21040,1,2,0:3:0:0:
432,128,21190,1,0,0:0:0:0:
320,72,21340,1,4,0:3:0:0:
192,40,21490,1,2,0:0:0:0:
320,24,21640,1,2,0:0:0:0:
80,304,21790,6,0,P|32:224|96:184,1,181.899994448853,8|2,0:3|0:0,0:0:0:0:
328,160,22240,1,4,0:3:0:0:
160,160,22540,2,0,L|96:160,1,45.4749986122132,8|0,0:0|0:0,0:0:0:0:
288,320,22690,1,2,0:0:0:0:
296,264,22765,1,2,0:0:0:0:
224,264,22840,1,2,0:0:0:0:
216,208,22915,1,2,0:0:0:0:
432,192,22990,6,0,P|480:160|392:80,1,181.899994448853,4|0,0:0|0:0,0:0:0:0:
296,56,23440,2,0,L|192:56,1,90.9499972244264,8|0,0:0|0:0,0:0:0:0:
424,160,23740,2,0,L|296:160,2,90.9499972244264,2|2|8,0:0|0:0|0:0,0:0:0:0:
80,312,24190,6,0,P|112:256|240:216,1,181.899994448853,2|2,0:0|0:0,0:0:0:0:
352,152,24640,2,0,L|256:152,1,90.9499972244264,8|0,0:0|0:0,0:0:0:0:
384,64,24940,1,2,0:0:0:0:
144,248,25090,2,0,L|128:128,1,90.9499972244264,2|8,0:0|0:0,0:0:0:0:
480,96,25390,6,0,L|256:96,1,181.899994448853,2|2,0:0|0:0,0:0:0:0:
144,176,25840,2,0,L|136:280,1,90.9499972244264,8|0,0:0|0:0,0:0:0:0:
264,272,26140,1,2,0:0:0:0:
40,352,26290,2,0,L|168:352,1,90.9499972244264,2|8,0:0|0:0,0:0:0:0:
416,248,26590,6,0,P|464:192|376:120,1,181.899994448853,2|2,0:0|0:0,0:0:0:0:
352,112,26965,1,2,0:0:0:0:
176,304,27040,1,8,0:0:0:0:
136,256,27115,1,0,0:0:0:0:
152,192,27190,1,2,0:0:0:0:
208,184,27265,1,2,0:0:0:0:
376,184,27340,2,0,L|448:184,3,45.4749986122132,4|0|2|2,0:3|0:0|0:0|0:0,0:0:0:0:
256,288,27640,1,8,0:0:0:0:
200,272,27715,1,2,0:0:0:0:
160,232,27790,1,2,0:0:0:0:
144,176,27865,1,2,0:0:0:0:
368,80,27940,6,0,L|480:80,1,90.9499972244264,6|0,0:0|0:0,0:0:0:0:
240,136,28240,2,0,L|144:136,1,90.9499972244264,8|0,0:0|0:0,0:0:0:0:
456,192,28540,1,8,0:0:0:0:
344,232,28690,1,2,0:0:0:0:
456,288,28840,1,8,0:0:0:0:
152,304,28990,6,0,L|32:304,1,90.9499972244264,12|0,0:0|0:0,0:0:0:0:
184,192,29290,1,2,0:0:0:0:
64,168,29440,1,2,0:0:0:0:
368,248,29590,2,0,L|376:128,1,90.9499972244264,8|0,0:0|0:0,0:0:0:0:
248,112,29890,1,2,0:0:0:0:
376,88,30040,1,2,0:0:0:0:
96,328,30190,6,0,P|48:256|120:208,1,181.899994448853,12|0,0:0|0:0,0:0:0:0:
240,208,30640,1,8,0:0:0:0:
80,136,30790,2,0,L|200:136,1,90.9499972244264,2|0,0:0|0:0,0:0:0:0:
296,136,31090,1,2,0:0:0:0:
136,56,31240,1,8,0:0:0:0:
368,320,31390,6,0,P|432:304|496:200,1,181.899994448853,6|2,0:0|0:0,0:0:0:0:
256,192,31840,2,0,L|248:112,1,45.4749986122132,8|0,0:0|0:0,0:0:0:0:
320,136,31990,2,0,L|400:136,1,45.4749986122132,2|0,0:0|0:0,0:0:0:0:
192,288,32140,2,0,L|104:288,3,45.4749986122132,8|8|2|0,0:0|0:0|0:0|0:0,0:0:0:0:
320,288,32440,2,0,L|328:208,1,45.4749986122132,10|2,0:0|0:0,0:0:0:0:
256,232,32590,2,0,L|184:232,1,45.4749986122132,2|2,0:0|0:0,0:0:0:0:
424,224,32740,6,0,L|240:136,2,181.899994448853,4|2|2,0:0|0:0|0:0,0:0:0:0:
280,336,33640,2,0,L|280:232,1,90.9499972244264,2|2,0:0|0:0,0:0:0:0:
120,200,33940,6,0,L|304:120,2,181.899994448853,4|2|2,0:3|0:0|0:0,0:0:0:0:
240,336,34840,2,0,L|240:232,1,90.9499972244264,2|2,0:0|0:0,0:0:0:0:
424,200,35140,5,4,0:3:0:0:
312,184,35290,1,2,0:0:0:0:
256,176,35365,1,0,0:0:0:0:
216,144,35440,1,2,0:1:0:0:
200,88,35515,1,0,0:0:0:0:
272,336,35590,1,0,0:1:0:0:
320,312,35665,1,0,0:0:0:0:
360,264,35740,1,2,0:1:0:0:
368,200,35815,1,0,0:0:0:0:
344,144,35890,1,0,0:0:0:0:
288,112,35965,1,0,0:0:0:0:
208,104,36040,2,2,L|200:16,1,45.4749986122132,2|0,0:1|0:0,0:0:0:0:
280,72,36190,2,2,L|288:8,1,45.4749986122132,2|0,0:1|0:0,0:0:0:0:
192,320,36340,5,2,0:1:0:0:
158,291,36415,1,0,0:0:0:0:
153,246,36490,1,0,0:0:0:0:
181,212,36565,1,0,0:0:0:0:
264,232,36640,1,2,0:1:0:0:
312,208,36715,1,0,0:0:0:0:
320,160,36790,1,0,0:0:0:0:
264,128,36865,1,0,0:0:0:0:
176,112,36940,2,2,L|96:112,1,45.4749986122132,2|0,0:1|0:0,0:0:0:0:
200,64,37090,2,0,L|264:64,1,45.4749986122132,2|0,0:0|0:0,0:0:0:0:
168,328,37240,2,2,L|160:248,1,45.4749986122132,4|0,0:3|0:0,0:0:0:0:
240,280,37390,2,2,L|248:200,1,45.4749986122132,2|0,0:1|0:0,0:0:0:0:
64,240,37540,5,4,0:2:0:0:
232,232,37840,2,0,L|416:128,2,181.899994448853,2|0|0,0:0|0:0|0:0,0:0:0:0:
368,320,38590,2,0,P|424:272|344:192,1,181.899994448853,2|0,0:0|0:0,0:0:0:0:
232,176,39040,2,0,L|64:72,2,181.899994448853,2|0|0,0:0|0:0|0:0,0:0:0:0:
456,328,39940,6,0,P|352:296|304:128,1,272.849991673279,4|0,0:3|0:0,0:0:0:0:
40,304,40840,2,0,P|64:200|304:96,1,363.799988897705,2|0,0:0|0:0,0:0:0:0:
112,272,41740,2,0,P|72:192|160:112,1,181.899994448853,2|0,0:0|0:0,0:0:0:0:
384,120,42340,5,2,0:1:0:0:
224,288,42640,2,0,L|416:192,2,181.899994448853,0|2|0,0:0|0:0|0:0,0:0:0:0:
72,280,43390,2,0,P|40:168|184:112,1,272.849991673279,2|0,0:0|0:0,0:0:0:0:
320,80,44140,2,0,L|128:80,1,181.899994448853,2|0,0:0|0:0,0:0:0:0:
416,320,44740,6,0,P|488:264|368:152,1,272.849991673279,2|0,0:1|0:0,0:0:0:0:
88,72,45640,2,0,L|392:304,2,363.799988897705,2|2|2,0:0|0:0|0:0,0:0:0:0:
320,72,47140,5,2,0:1:0:0:
152,152,47440,1,0,0:0:0:0:
320,168,47740,2,0,P|424:232|464:312,1,181.899994448853,2|0,0:0|0:0,0:0:0:0:
304,336,48190,2,0,P|240:272|368:168,1,272.849991673279,2|0,0:0|0:0,0:0:0:0:
168,80,48940,1,2,0:0:0:0:
368,32,49240,1,0,0:0:0:0:
88,280,49540,6,0,L|384:264,1,272.849991673279,2|0,0:0|0:0,0:0:0:0:
80,336,50440,2,0,P|40:176|352:96,1,545.699983346558,2|0,0:0|0:0,0:0:0:0:
160,112,51640,1,0,0:0:0:0:
384,336,51940,6,0,P|432:264|368:200,1,181.899994448853,2|0,0:1|0:0,0:0:0:0:
200,192,52540,2,0,P|152:144|216:56,1,181.899994448853,0|0,0:1|0:0,0:0:0:0:
344,80,52990,2,0,L|64:80,1,272.849991673279,2|2,0:1|0:1,0:0:0:0:
168,136,53590,1,2,0:1:0:0:
224,216,53740,1,2,0:1:0:0:
176,304,53890,1,2,0:1:0:0:
80,328,54040,1,2,0:1:0:0:
192,360,54190,1,2,0:1:0:0:
440,288,54340,5,2,1:1:0:0:
320,256,54490,1,2,1:1:0:0:
192,216,54640,1,2,1:1:0:0:
320,192,54790,1,2,1:1:0:0:
456,160,54940,1,2,1:1:0:0:
320,96,55090,1,2,1:1:0:0:
456,64,55240,1,2,1:1:0:0:
176,48,55390,1,2,1:1:0:0:
448,208,55540,6,0,P|432:320|360:352,1,181.899994448853,8|2,0:0|0:0,0:0:0:0:
144,272,55990,2,0,L|360:272,1,181.899994448853,8|2,0:0|0:0,0:0:0:0:
120,96,56440,2,0,L|24:96,1,90.9499972244264,8|0,0:0|0:0,0:0:0:0:
328,80,56740,5,4,0:0:0:0:
144,144,57040,2,0,L|136:264,1,90.9499972244264,8|0,0:0|0:0,0:0:0:0:
288,280,57340,2,0,L|120:360,1,181.899994448853,2|8,0:0|0:0,0:0:0:0:
264,200,57790,6,0,P|360:168|416:88,1,181.899994448853,2|2,0:0|0:0,0:0:0:0:
285,328,58240,2,0,P|233:255|305:199,1,181.899994448853,8|2,0:0|0:0,0:0:0:0:
432,200,58690,2,0,L|320:200,2,90.9499972244264,2|8|2,0:0|0:0|0:0,0:0:0:0:
136,80,59140,5,4,0:3:0:0:
360,112,59440,2,0,L|368:232,1,90.9499972244264,8|0,0:0|0:0,0:0:0:0:
208,336,59740,2,0,P|168:240|216:216,1,181.899994448853,2|8,0:0|0:0,0:0:0:0:
384,208,60190,6,0,P|424:112|352:72,1,181.899994448853,2|2,0:0|0:0,0:0:0:0:
240,64,60640,2,0,L|56:64,1,181.899994448853,8|2,0:0|0:0,0:0:0:0:
192,136,61090,2,0,L|256:136,2,45.4749986122132,2|2|8,0:0|0:0|0:0,0:0:0:0:
56,208,61390,1,2,0:0:0:0:
384,312,61540,6,0,L|392:184,1,90.9499972244264,4|0,0:3|0:0,0:0:0:0:
264,176,61840,1,8,0:0:0:0:
392,152,61990,1,0,0:0:0:0:
240,232,62140,2,0,P|192:152|248:104,1,181.899994448853,2|8,0:0|0:0,0:0:0:0:
408,312,62590,6,0,L|239:231,1,181.899994448853,2|2,0:0|0:0,0:0:0:0:
400,328,63040,2,0,P|448:240|384:192,1,181.899994448853,8|2,0:0|0:0,0:0:0:0:
240,192,63490,2,0,P|104:144|80:88,1,181.899994448853,8|2,0:0|0:0,0:0:0:0:
384,48,63940,6,0,L|392:152,1,90.9499972244264,4|2,0:0|0:0,0:0:0:0:
272,144,64240,1,8,0:0:0:0:
432,184,64390,2,0,L|440:296,1,90.9499972244264,4|2,0:0|0:0,0:0:0:0:
312,288,64690,1,8,0:0:0:0:
72,272,64840,2,0,L|184:272,1,90.9499972244264,4|0,0:0|0:0,0:0:0:0:
392,240,65140,6,0,L|328:240,1,45.4749986122132,8|2,0:0|0:0,0:0:0:0:
272,184,65290,2,0,L|344:184,1,45.4749986122132,2|2,0:0|0:0,0:0:0:0:
392,104,65440,2,0,L|320:104,1,45.4749986122132,2|0,0:0|0:0,0:0:0:0:
144,88,65590,2,0,L|96:88,1,45.4749986122132,8|2,0:0|0:0,0:0:0:0:
272,320,65740,5,2,0:0:0:0:
328,312,65815,1,2,0:0:0:0:
368,272,65890,1,2,0:0:0:0:
384,224,65965,1,0,0:0:0:0:
240,176,66040,2,0,L|176:176,1,45.4749986122132,8|2,0:0|0:0,0:0:0:0:
344,56,66190,2,0,L|416:56,1,45.4749986122132,8|8,0:0|0:0,0:0:0:0:
128,320,66340,5,6,0:0:0:0:
48,272,66490,1,2,0:0:0:0:
16,184,66640,1,2,0:0:0:0:
40,88,66790,1,2,0:0:0:0:
120,40,66940,1,2,0:0:0:0:
208,40,67090,1,2,0:0:0:0:
112,192,67240,1,2,0:0:0:0:
208,192,67390,1,2,0:0:0:0:
344,304,67540,5,2,0:0:0:0:
248,264,67690,1,2,0:0:0:0:
200,176,67840,1,2,0:0:0:0:
208,80,67990,1,2,0:0:0:0:
360,256,68140,1,10,0:0:0:0:
440,208,68290,1,2,0:0:0:0:
480,128,68440,1,2,0:0:0:0:
440,56,68590,1,2,0:0:0:0:
208,328,68740,5,4,0:3:0:0:
120,280,68890,1,2,0:0:0:0:
208,232,69040,1,2,0:0:0:0:
64,208,69190,1,2,0:0:0:0:
56,112,69340,1,2,0:0:0:0:
160,80,69490,1,2,0:0:0:0:
344,320,69640,5,2,0:0:0:0:
384,224,69790,1,2,0:0:0:0:
312,136,69940,1,2,0:0:0:0:
208,104,70090,1,2,0:0:0:0:
320,64,70240,1,2,0:0:0:0:
208,24,70390,1,2,0:0:0:0:
440,328,70540,5,10,0:0:0:0:
336,304,70690,1,2,0:0:0:0:
232,280,70840,1,0,0:0:0:0:
136,240,70990,1,8,0:3:0:0:
344,216,71140,5,2,0:0:0:0:
440,184,71290,1,2,0:0:0:0:
336,112,71440,1,2,0:0:0:0:
440,80,71590,1,2,0:0:0:0:
288,320,71740,1,2,0:0:0:0:
184,288,71890,1,2,0:0:0:0:
280,224,72040,1,2,0:0:0:0:
176,184,72190,1,2,0:0:0:0:
344,320,72340,5,2,0:0:0:0:
400,232,72490,1,2,0:0:0:0:
384,136,72640,1,2,0:0:0:0:
280,72,72790,1,2,0:0:0:0:
112,280,72940,1,10,0:0:0:0:
104,176,73090,1,2,0:0:0:0:
224,136,73240,1,2,0:0:0:0:
88,80,73390,1,2,0:0:0:0:
360,272,73540,5,4,0:3:0:0:
456,224,73690,1,2,0:0:0:0:
360,160,73840,1,2,0:0:0:0:
192,128,73990,1,2,0:0:0:0:
288,104,74140,1,2,0:0:0:0:
376,72,74290,1,2,0:0:0:0:
216,64,74440,1,2,0:0:0:0:
352,256,74590,2,0,L|360:168,1,45.4749986122132,8|8,0:0|0:0,0:0:0:0:
168,184,74740,5,2,0:0:0:0:
336,168,75040,2,0,L|344:64,1,90.9499972244264
232,72,75340,2,0,L|120:72,1,90.9499972244264,2|0,0:0|0:0,0:0:0:0:
272,264,75640,2,0,L|376:264,1,90.9499972244264,2|0,0:0|0:0,0:0:0:0:
64,224,75940,6,0,L|56:352,1,90.9499972244264,4|0,0:0|0:0,0:0:0:0:
192,344,76240,2,0,L|312:344,1,90.9499972244264,8|0,0:0|0:0,0:0:0:0:
154,224,76540,2,0,L|42:224,1,90.9499972244264,2|0,0:0|0:0,0:0:0:0:
192,96,76840,2,0,L|72:96,1,90.9499972244264,8|0,0:0|0:0,0:0:0:0:
368,296,77140,6,0,L|480:296,2,90.9499972244264,2|0|8,0:0|0:0|0:0,0:0:0:0:
200,200,77590,2,0,L|96:200,2,90.9499972244264,2|0|2,0:0|0:0|0:0,0:0:0:0:
368,120,78040,2,0,L|472:120,1,90.9499972244264,8|0,0:0|0:0,0:0:0:0:
192,320,78340,6,0,L|72:320,2,90.9499972244264,2|0|8,0:0|0:0|0:0,0:0:0:0:
360,240,78790,1,2,0:0:0:0:
256,232,78940,1,0,0:0:0:0:
152,224,79090,1,2,0:0:0:0:
448,80,79240,2,0,L|456:200,1,90.9499972244264,8|0,0:0|0:0,0:0:0:0:
232,296,79540,6,0,L|344:296,1,90.9499972244264,2|0,0:0|0:0,0:0:0:0:
112,120,79840,2,0,L|0:120,1,90.9499972244264,8|0,0:0|0:0,0:0:0:0:
312,56,80140,2,0,L|320:168,1,90.9499972244264,2|0,0:0|0:0,0:0:0:0:
192,192,80440,2,0,L|80:192,1,90.9499972244264,8|0,0:0|0:0,0:0:0:0:
416,336,80740,6,0,L|424:216,1,90.9499972244264,4|0,0:0|0:0,0:0:0:0:
184,248,81040,2,0,L|72:248,1,90.9499972244264,8|0,0:0|0:0,0:0:0:0:
344,96,81340,2,0,L|456:96,1,90.9499972244264,8|0,0:0|0:0,0:0:0:0:
208,280,81640,1,8,0:0:0:0:
336,280,81790,1,0,0:0:0:0:
88,232,81940,6,0,L|72:112,1,90.9499972244264,8|0,0:0|0:0,0:0:0:0:
368,104,82240,2,0,L|264:104,1,90.9499972244264,8|0,0:0|0:0,0:0:0:0:
56,56,82540,2,0,L|160:56,1,90.9499972244264,8|0,0:0|0:0,0:0:0:0:
384,56,82840,1,8,0:0:0:0:
440,80,82915,1,8,0:0:0:0:
440,136,82990,1,8,0:3:0:0:
384,168,83065,1,8,0:3:0:0:
152,240,83140,6,0,L|48:240,1,90.9499972244264,4|0,0:3|0:0,0:0:0:0:
320,312,83440,2,0,L|200:312,1,90.9499972244264,8|0,0:0|0:0,0:0:0:0:
464,128,83740,2,0,L|344:128,1,90.9499972244264,8|0,0:0|0:0,0:0:0:0:
128,104,84040,1,8,0:0:0:0:
376,56,84190,2,0,L|312:56,1,45.4749986122132,2|2,0:0|0:0,0:0:0:0:
120,272,84340,5,10,0:0:0:0:
111,227,84415,1,2,0:0:0:0:
126,185,84490,1,2,0:0:0:0:
161,157,84565,1,2,0:0:0:0:
240,136,84640,2,0,L|152:136,1,45.4749986122132,2|0,0:0|0:0,0:0:0:0:
112,160,84790,1,8,0:0:0:0:
128,208,84865,1,2,0:0:0:0:
168,240,84940,1,2,0:0:0:0:
216,256,85015,1,2,0:0:0:0:
152,296,85090,2,0,L|64:296,1,45.4749986122132,2|0,0:0|0:0,0:0:0:0:
328,312,85240,2,0,L|440:312,1,85,4|0,0:3|0:0,0:0:0:0:
168,288,85560,6,0,P|72:208|216:88,1,340,2|0,0:2|0:0,0:0:0:0:
416,72,86460,2,0,L|232:72,2,170,2|0|0,0:2|0:0|0:0,0:0:0:0:
192,328,87360,6,0,P|328:288|392:80,1,340,2|0,0:0|0:0,0:0:0:0:
144,240,88260,2,0,P|64:176|208:48,1,340,2|0,0:0|0:0,0:0:0:0:
424,112,89160,6,0,L|224:48,2,170,2|0|0,0:0|0:0|0:0,0:0:0:0:
176,320,90060,6,0,L|344:224,1,170,2|0,0:0|0:0,0:0:0:0:
80,208,90666,1,2,0:0:0:0:
448,192,90940,6,0,L|456:80,1,85,4|0,0:3|0:0,0:0:0:0:
304,80,91240,2,0,L|424:80,1,85,2|0,0:0|0:0,0:0:0:0:
240,280,91540,2,0,L|336:280,2,85,2|0|2,0:0|0:0|0:0,0:0:0:0:
384,208,91990,1,0,0:0:0:0:
160,136,92140,6,0,L|40:136,2,85,2|0|2,0:0|0:0|0:0,0:0:0:0:
320,56,92590,2,0,L|224:56,2,85,0|2|0,0:0|0:0|0:0,0:0:0:0:
168,256,93040,2,0,L|56:256,1,85,2|0,0:0|0:0,0:0:0:0:
384,312,93340,6,0,L|392:208,1,85,2|0,0:0|0:0,0:0:0:0:
248,224,93640,2,0,L|240:112,1,85,2|0,0:0|0:0,0:0:0:0:
392,120,93940,2,0,L|496:120,1,85,2|0,0:0|0:0,0:0:0:0:
320,264,94240,1,2,0:0:0:0:
440,296,94390,2,8,L|368:296,1,42.5
144,296,94540,6,0,L|32:296,1,85,4|0,0:0|0:0,0:0:0:0:
168,216,94840,1,2,0:0:0:0:
416,128,94990,1,12,0:0:0:0:
296,112,95140,1,0,0:0:0:0:
176,104,95290,1,0,0:0:0:0:
448,304,95440,2,0,L|456:192,1,85,12|2,0:0|0:0,0:0:0:0:
392,216,95665,1,2,0:0:0:0:
136,224,95740,5,12,0:0:0:0:
256,152,95890,1,2,0:0:0:0:
104,96,96040,1,8,0:0:0:0:
392,88,96190,1,2,0:0:0:0:
216,88,96490,2,0,L|216:160,1,42.5,2|2,0:0|0:0,0:0:0:0:
392,304,96640,5,8,0:0:0:0:
280,224,96790,1,2,0:0:0:0:
416,176,96940,1,8,0:0:0:0:
152,160,97090,1,2,0:0:0:0:
320,120,97315,2,0,L|504:72,2,170,2|2|2,0:2|0:2|0:2,0:2:0:0:
40,224,98140,6,0,L|168:224,2,97.7500018644333,4|0|8,0:0|0:0|0:0,0:0:0:0:
304,168,98590,1,0,0:0:0:0:
184,136,98740,2,0,L|176:24,1,97.7500018644333,2|2,0:0|0:0,0:0:0:0:
312,32,99040,2,0,L|200:32,1,97.7500018644333,8|0,0:0|0:0,0:0:0:0:
448,256,99340,6,0,L|328:256,2,97.7500018644333,2|0|8,0:0|0:0|0:0,0:0:0:0:
312,216,99790,1,0,0:0:0:0:
80,192,99940,1,2,0:0:0:0:
208,160,100090,2,0,L|320:160,1,97.7500018644333,2|8,0:0|0:0,0:0:0:0:
64,328,100390,6,0,L|272:328,1,195.500003728867,2|2,0:0|0:0,0:0:0:0:
128,280,100840,2,0,L|120:168,1,97.7500018644333,8|0,0:0|0:0,0:0:0:0:
256,144,101140,2,0,L|152:144,2,97.7500018644333,2|2|8,0:0|0:0|0:0,0:0:0:0:
408,120,101590,1,0,0:0:0:0:
184,192,101740,5,2,0:0:0:0:
304,184,101890,2,0,L|312:72,1,97.7500018644333,2|8,0:0|0:0,0:0:0:0:
184,56,102190,1,0,0:0:0:0:
328,48,102340,1,2,0:0:0:0:
96,312,102490,1,2,0:0:0:0:
24,216,102640,1,8,0:0:0:0:
48,168,102715,1,2,0:0:0:0:
96,136,102790,1,2,0:0:0:0:
152,128,102865,1,2,0:0:0:0:
368,160,102940,6,0,L|496:160,1,97.7500018644333,4|0,0:0|0:0,0:0:0:0:
320,296,103240,2,0,L|312:168,1,97.7500018644333,8|0,0:0|0:0,0:0:0:0:
464,288,103540,2,0,L|472:160,1,97.7500018644333,2|2,0:0|0:0,0:0:0:0:
320,152,103840,2,0,L|456:152,1,97.7500018644333,8|0,0:0|0:0,0:0:0:0:
160,304,104140,6,0,L|32:304,1,97.7500018644333,2|0,0:0|0:0,0:0:0:0:
224,208,104440,2,0,L|344:208,1,97.7500018644333,8|0,0:0|0:0,0:0:0:0:
48,104,104740,2,0,L|168:104,1,97.7500018644333,2|2,0:0|0:0,0:0:0:0:
303,72,105040,1,8,0:0:0:0:
144,48,105190,1,2,0:0:0:0:
376,288,105340,6,0,L|496:288,1,97.7500018644333,4|0,0:0|0:0,0:0:0:0:
312,192,105640,2,0,L|176:192,1,97.7500018644333,8|0,0:0|0:0,0:0:0:0:
360,56,105940,2,0,L|232:56,2,97.7500018644333,2|2|8,0:0|0:0|0:0,0:0:0:0:
216,112,106390,2,0,L|208:192,1,48.8750009322167,2|2,0:0|0:0,0:0:0:0:
424,240,106540,5,8,0:0:0:0:
304,232,106690,1,2,0:0:0:0:
248,232,106765,1,2,0:0:0:0:
192,232,106840,1,2,0:0:0:0:
424,96,106990,1,8,0:0:0:0:
368,96,107065,1,2,0:0:0:0:
312,96,107140,1,2,0:0:0:0:
80,96,107290,1,2,0:0:0:0:
211,160,107440,2,0,L|275:160,1,48.8750009322167,8|2,0:0|0:0,0:0:0:0:
80,280,107590,2,0,L|152:280,1,48.8750009322167,2|2,0:0|0:0,0:0:0:0:
368,264,107740,6,0,L|480:264,1,97.7500018644333,4|0,0:0|0:0,0:0:0:0:
312,200,108040,2,0,L|304:88,1,97.7500018644333,8|0,0:0|0:0,0:0:0:0:
464,64,108340,2,0,L|336:64,1,97.7500018644333,2|2,0:0|0:0,0:0:0:0:
128,64,108640,2,0,L|16:64,1,97.7500018644333,8|0,0:0|0:0,0:0:0:0:
264,208,108940,6,0,L|408:208,1,97.7500018644333,2|0,0:0|0:0,0:0:0:0:
480,304,109240,2,0,L|352:304,1,97.7500018644333,8|0,0:0|0:0,0:0:0:0:
112,240,109540,2,0,L|232:240,1,97.7500018644333,2|2,0:0|0:0,0:0:0:0:
352,216,109840,2,0,L|368:96,1,97.7500018644333,8|0,0:0|0:0,0:0:0:0:
120,40,110140,6,0,L|8:40,1,97.7500018644333,2|0,0:0|0:0,0:0:0:0:
368,128,110440,1,8,0:0:0:0:
96,136,110590,2,0,L|88:256,1,97.7500018644333,2|0,0:0|0:0,0:0:0:0:
368,256,110890,1,2,0:0:0:0:
88,296,111040,2,0,L|192:296,1,97.7500018644333,8|0,0:0|0:0,0:0:0:0:
472,288,111340,5,2,0:0:0:0:
232,216,111490,2,0,L|224:80,1,97.7500018644333,2|8,0:0|0:0,0:0:0:0:
352,96,111790,1,0,0:0:0:0:
104,48,111940,2,0,L|48:48,2,48.8750009322167,2|2|2,0:0|0:0|0:0,0:0:0:0:
344,176,112240,1,8,0:0:0:0:
272,176,112315,1,8,1:3:0:0:
200,176,112390,1,8,0:3:0:0:
128,176,112465,1,8,2:3:0:0:
360,320,112540,5,4,2:3:0:0:
472,288,112690,1,0,0:0:0:0:
352,216,112840,1,8,0:0:0:0:
472,168,112990,1,2,0:0:0:0:
328,184,113140,1,2,0:0:0:0:
208,144,113290,1,2,0:0:0:0:
344,72,113440,1,8,0:0:0:0:
208,40,113590,1,2,0:0:0:0:
48,328,113740,5,2,0:0:0:0:
184,288,113890,1,0,0:0:0:0:
320,232,114040,1,8,0:0:0:0:
176,192,114190,1,2,0:0:0:0:
336,184,114340,1,2,0:0:0:0:
192,152,114490,1,2,0:0:0:0:
64,104,114640,1,8,0:0:0:0:
208,64,114790,1,0,0:0:0:0:
64,248,114940,5,2,0:0:0:0:
56,136,115090,1,2,0:0:0:0:
392,104,115240,2,0,L|408:240,1,97.7500018644333,8|0,0:0|0:0,0:0:0:0:
272,224,115540,1,2,0:0:0:0:
400,264,115690,1,2,0:0:0:0:
136,296,115840,2,0,L|16:296,1,97.7500018644333,8|0,0:0|0:0,0:0:0:0:
280,240,116140,6,0,L|288:160,1,48.8750009322167,8|0,0:0|0:0,0:0:0:0:
208,184,116290,2,0,L|200:112,1,48.8750009322167,2|0,0:0|0:0,0:0:0:0:
296,304,116440,1,2,0:0:0:0:
344,296,116515,1,0,0:0:0:0:
392,272,116590,1,8,0:0:0:0:
408,216,116665,1,0,0:0:0:0:
240,160,116740,2,0,L|168:160,1,48.8750009322167,2|0,0:0|0:0,0:0:0:0:
272,104,116890,2,0,L|352:104,1,48.8750009322167,2|0,0:0|0:0,0:0:0:0:
224,64,117040,2,0,L|168:64,1,48.8750009322167,8|8,0:3|0:3,0:0:0:0:
88,64,117190,2,0,L|8:64,1,48.8750009322167,8|8,0:3|0:3,0:0:0:0:
344,320,117340,6,0,L|464:320,2,97.7500018644333,4|0|8,0:0|0:0|0:0,0:0:0:0:
200,320,117790,1,0,0:0:0:0:
440,224,117940,1,2,0:0:0:0:
320,216,118090,2,0,L|208:216,1,97.7500018644333,2|8,0:0|0:0,0:0:0:0:
344,128,118390,1,0,0:0:0:0:
120,160,118540,6,0,L|112:56,1,97.7500018644333,2|0,0:0|0:0,0:0:0:0:
240,40,118840,1,8,0:0:0:0:
112,24,118990,1,0,0:0:0:0:
352,240,119140,1,2,0:0:0:0:
216,224,119290,2,0,L|232:112,1,97.7500018644333,2|8,0:0|0:0,0:0:0:0:
456,80,119590,6,0,L|240:80,1,195.500003728867,2|0,0:2|0:0,0:0:0:0:
392,160,120040,2,0,L|520:160,1,97.7500018644333,8|0,0:0|0:0,0:0:0:0:
312,264,120340,2,0,L|192:264,2,97.7500018644333,0|0|8,0:0|0:0|0:0,0:0:0:0:
448,264,120790,1,0,0:0:0:0:
208,144,120940,6,0,L|104:144,1,97.7500018644333,0|0,0:0|0:0,0:0:0:0:
350,264,121240,2,0,L|478:264,1,97.7500018644333,8|0,0:0|0:0,0:0:0:0:
192,328,121540,1,8,0:3:0:0:
144,320,121615,1,2,0:0:0:0:
105,290,121690,1,2,0:0:0:0:
85,246,121765,1,2,0:0:0:0:
160,232,121840,1,8,0:0:0:0:
168,176,121915,1,2,0:0:0:0:
88,136,121990,1,4,0:3:0:0:
136,128,122065,1,4,0:3:0:0:
344,128,122140,6,0,L|480:128,1,97.7500018644333,4|0,0:0|0:0,0:0:0:0:
160,288,122440,2,0,L|272:288,1,97.7500018644333,8|0,0:0|0:0,0:0:0:0:
400,232,122740,2,0,L|288:232,1,97.7500018644333,2|2,0:0|0:0,0:0:0:0:
56,192,123040,2,0,L|48:80,1,97.7500018644333,8|0,0:0|0:0,0:0:0:0:
408,200,123340,6,0,L|416:80,1,97.7500018644333,2|0,0:0|0:0,0:0:0:0:
272,96,123640,2,0,L|160:96,1,97.7500018644333,8|0,0:0|0:0,0:0:0:0:
408,312,123940,2,0,L|296:312,1,97.7500018644333,2|2,0:0|0:0,0:0:0:0:
48,232,124240,2,0,L|168:232,1,97.7500018644333,8|0,0:0|0:0,0:0:0:0:
408,144,124540,6,0,L|168:144,1,215.899998352814,8|0,0:0|0:0,0:0:0:0:
464,320,124990,2,0,L|208:320,1,215.899998352814,8|0,0:0|0:0,0:0:0:0:
472,224,125440,2,0,L|480:96,1,107.949999176407,8|2,0:0|0:0,0:0:0:0:
208,96,125740,6,0,L|136:96,1,48.8750009322167,8|0,0:0|0:0,0:0:0:0:
352,168,125890,2,0,L|360:248,1,48.8750009322167,2|2,0:0|0:0,0:0:0:0:
280,224,126040,2,0,L|272:288,1,48.8750009322167,2|0,0:0|0:0,0:0:0:0:
456,328,126190,2,0,L|384:328,1,48.8750009322167,8|0,0:0|0:0,0:0:0:0:
248,328,126340,2,0,L|240:264,1,48.8750009322167,2|2,0:0|0:0,0:0:0:0:
320,256,126490,2,0,L|328:184,1,48.8750009322167,2|2,0:0|0:0,0:0:0:0:
144,152,126640,2,0,L|200:152,1,48.8750009322167,8|8,0:0|0:0,0:0:0:0:
400,56,126790,2,0,L|351:56,1,48.8750009322167,8|8,0:0|0:0,0:0:0:0:
144,232,126940,6,0,L|24:232,1,97.7500018644333,4|0,0:0|0:0,0:0:0:0:
208,320,127240,2,0,L|328:320,1,97.7500018644333,8|0,0:0|0:0,0:0:0:0:
144,152,127540,2,0,L|264:152,1,97.7500018644333,2|2,0:0|0:0,0:0:0:0:
80,304,127840,2,0,L|72:184,1,97.7500018644333,8|0,0:0|0:0,0:0:0:0:
368,168,128140,6,0,L|232:168,1,97.7500018644333,2|0,0:0|0:0,0:0:0:0:
432,240,128440,2,0,L|440:352,1,97.7500018644333,8|0,0:0|0:0,0:0:0:0:
192,336,128740,2,0,L|88:336,1,97.7500018644333,2|2,0:0|0:0,0:0:0:0:
360,248,129040,1,8,0:0:0:0:
224,208,129190,6,0,L|368:208,1,97.7500018644333,2|0,0:0|0:0,0:0:0:0:
464,208,129490,1,2,0:0:0:0:
224,88,129640,2,0,L|120:88,1,97.7500018644333,8|0,0:0|0:0,0:0:0:0:
296,168,129940,2,0,L|304:288,1,97.7500018644333,2|2,0:0|0:0,0:0:0:0:
48,312,130240,2,0,L|192:312,1,97.7500018644333,8|0,0:0|0:0,0:0:0:0:
424,312,130540,6,0,L|488:312,2,48.8750009322167,8|2|2,0:0|0:0|0:0,0:0:0:0:
264,248,130840,1,8,0:0:0:0:
400,160,130990,2,8,L|328:160,1,48.8750009322167,8|2,0:0|0:0,0:0:0:0:
296,160,131140,1,2,0:0:0:0:
424,56,131290,1,2,0:0:0:0:
128,304,131440,1,8,0:0:0:0:
92,272,131515,1,8,0:3:0:0:
92,224,131590,1,8,0:3:0:0:
127,193,131665,1,4,0:3:0:0:
336,184,131740,6,0,P|456:136|488:80,1,195.500003728867,4|8,0:0|0:0,0:0:0:0:
192,240,132190,2,0,P|88:208|48:120,1,195.500003728867,2|2,0:0|0:0,0:0:0:0:
160,80,132640,1,8,0:0:0:0:
48,64,132790,1,0,0:0:0:0:
464,296,132940,6,0,P|405:219|312:195,1,195.500003728867,2|8,0:0|0:0,0:0:0:0:
48,296,133390,2,0,P|106:219|199:195,1,195.500003728867,2|2,0:0|0:0,0:0:0:0:
328,192,133840,1,8,0:0:0:0:
448,176,133990,1,0,0:0:0:0:
128,296,134140,5,4,0:3:0:0:
248,256,134290,2,0,L|304:256,2,48.8750009322167,2|2|8,0:0|0:0|0:0,0:0:0:0:
112,224,134590,1,2,0:0:0:0:
256,200,134740,1,8,0:0:0:0:
200,176,134815,1,2,0:0:0:0:
168,120,134890,1,2,0:0:0:0:
200,64,134965,1,2,0:0:0:0:
256,48,135040,1,2,0:0:0:0:
408,48,135190,2,0,L|336:48,1,48.8750009322167,2|8,0:0|0:0,0:0:0:0:
160,280,135340,5,8,0:0:0:0:
272,224,135490,1,2,0:0:0:0:
160,160,135640,1,2,0:0:0:0:
312,104,135790,2,0,L|320:184,1,48.8750009322167,8|2,0:0|0:0,0:0:0:0:
128,328,135940,1,8,0:0:0:0:
80,288,136015,1,2,0:0:0:0:
128,240,136090,1,8,0:3:0:0:
208,232,136165,1,8,0:3:0:0:
280,256,136240,1,8,0:3:0:0:
360,256,136315,1,8,0:3:0:0:
408,208,136390,1,4,0:3:0:0:
360,152,136465,1,4,0:3:0:0:
136,136,136540,6,0,L|0:136,1,97.7500018644333,4|0,0:0|0:0,0:0:0:0:
312,264,136840,2,0,L|184:264,1,97.7500018644333,8|0,0:0|0:0,0:0:0:0:
464,64,137140,2,0,L|472:192,1,97.7500018644333,8|0,0:0|0:0,0:0:0:0:
216,168,137440,2,0,L|328:168,1,97.7500018644333,8|0,0:0|0:0,0:0:0:0:
64,296,137740,6,0,L|56:176,1,97.7500018644333,8|0,0:0|0:0,0:0:0:0:
392,272,138040,2,0,L|400:152,1,97.7500018644333,8|0,0:0|0:0,0:0:0:0:
56,96,138340,2,0,L|176:96,1,97.7500018644333,8|0,0:0|0:0,0:0:0:0:
440,48,138640,2,0,L|304:48,1,97.7500018644333,8|0,0:0|0:0,0:0:0:0:
56,176,138940,5,8,0:0:0:0:
304,184,139090,1,8,0:0:0:0:
144,248,139390,1,8,0:0:0:0:
400,248,139540,1,8,0:0:0:0:
256,320,139840,1,8,0:0:0:0:
480,184,139990,1,8,0:0:0:0:
344,96,140140,5,2,0:0:0:0:
400,96,140215,1,2,0:0:0:0:
456,96,140290,1,8,0:0:0:0:
96,88,140440,1,8,0:0:0:0:
384,264,141340,6,0,L|488:264,2,97.7500018644333,12|2|2,0:0|0:0|0:0,0:0:0:0:
128,272,141790,2,0,L|24:272,2,97.7500018644333,8|2|2,0:0|0:0|0:0,0:0:0:0:
384,152,142240,6,0,L|280:152,2,97.7500018644333,12|2|2,0:0|0:0|0:0,0:0:0:0:
128,80,142690,2,0,L|16:80,1,97.7500018644333,8|0,0:0|0:0,0:0:0:0:
280,248,142990,2,0,L|344:248,1,48.8750009322167,8|8,0:0|0:0,0:0:0:0:
136,328,143140,2,0,L|128:192,1,97.7500018644333,8|0,0:0|0:0,0:0:0:0:
384,112,143440,2,0,L|512:112,1,97.7500018644333,8|0,0:0|0:0,0:0:0:0:
216,208,143740,6,0,L|88:208,1,93.5000028533936,4|0,0:0|0:0,0:0:0:0:
376,296,144040,2,0,L|384:176,1,93.5000028533936,8|0,0:0|0:0,0:0:0:0:
256,200,144340,1,2,0:0:0:0:
400,136,144490,2,0,L|504:136,1,93.5000028533936,2|8,0:0|0:0,0:0:0:0:
176,312,144790,6,0,P|120:232|208:184,1,187.000005706787,2|2,0:0|0:0,0:0:0:0:
384,136,145240,2,0,L|264:136,1,93.5000028533936,8|0,0:0|0:0,0:0:0:0:
144,128,145540,1,2,0:0:0:0:
272,48,145690,2,0,L|160:48,1,93.5000028533936,2|8,0:0|0:0,0:0:0:0:
408,320,145990,6,0,P|456:288|392:192,1,187.000005706787,2|2,0:0|0:0,0:0:0:0:
152,192,146440,2,0,L|144:88,1,93.5000028533936,8|0,0:0|0:0,0:0:0:0:
264,72,146740,1,0,0:0:0:0:
120,40,146890,2,0,L|-8:40,1,93.5000028533936,2|8,0:0|0:0,0:0:0:0:
304,304,147190,6,0,P|448:232|464:200,1,187.000005706787,2|2,0:0|0:0,0:0:0:0:
384,208,147565,1,2,0:0:0:0:
224,144,147640,2,0,L|168:144,3,46.7500014266968,8|2|2|2,0:0|0:0|0:0|0:0,0:0:0:0:
328,64,147940,1,4,0:3:0:0:
384,88,148015,1,2,0:0:0:0:
384,136,148090,1,2,0:0:0:0:
328,160,148165,1,2,0:0:0:0:
160,200,148240,2,0,L|40:200,1,93.5000028533936,8|0,0:0|0:0,0:0:0:0:
376,312,148540,6,0,L|488:312,1,93.5000028533936,4|0,0:0|0:0,0:0:0:0:
312,192,148840,2,0,L|448:192,1,93.5000028533936,8|0,0:0|0:0,0:0:0:0:
104,80,149140,2,0,L|240:80,2,93.5000028533936,2|2|8,0:0|0:0|0:0,0:0:0:0:
376,240,149590,6,0,L|160:240,1,187.000005706787,2|0,0:0|0:0,0:0:0:0:
312,168,150040,1,2,0:0:0:0:
64,104,150190,2,0,L|280:104,1,187.000005706787,8|2,0:0|0:0,0:0:0:0:
128,32,150640,1,8,0:0:0:0:
392,264,150790,6,0,P|440:216|352:128,1,187.000005706787,4|0,0:0|0:0,0:0:0:0:
272,120,151240,1,8,0:0:0:0:
152,48,151390,2,0,L|368:48,1,187.000005706787,2|2,0:0|0:0,0:0:0:0:
224,120,151840,1,8,0:0:0:0:
472,232,151990,6,0,L|248:232,1,187.000005706787,4|0,0:0|0:0,0:0:0:0:
152,232,152440,1,2,0:0:0:0:
384,328,152590,1,2,0:0:0:0:
425,306,152665,1,2,0:0:0:0:
449,267,152740,1,2,0:0:0:0:
449,221,152815,1,2,0:0:0:0:
426,181,152890,1,2,0:0:0:0:
386,159,152965,1,2,0:0:0:0:
296,144,153040,1,2,0:0:0:0:
304,88,153115,1,2,0:0:0:0:
352,56,153190,1,2,0:0:0:0:
400,48,153265,1,2,0:0:0:0:
200,40,153340,5,4,0:3:0:0:
80,40,153490,1,2,0:0:0:0:
379,147,153940,1,8,0:0:0:0:
168,240,154240,1,2,0:0:0:0:
304,240,154390,1,2,0:0:0:0:
168,312,154690,5,2,0:0:0:0:
304,312,154840,1,2,0:0:0:0:
56,240,155140,2,0,P|64:160|168:104,1,187.000005706787,8|0,0:0|0:0,0:0:0:0:
416,96,155740,5,2,0:0:0:0:
280,96,155890,1,2,0:0:0:0:
48,104,156340,1,8,0:0:0:0:
232,240,156640,1,2,0:0:0:0:
104,240,156790,1,2,0:0:0:0:
232,312,157090,5,2,0:0:0:0:
104,312,157240,1,2,0:0:0:0:
368,272,157540,2,0,P|440:240|496:136,1,187.000005706787,8|0,0:0|0:0,0:0:0:0:
200,120,158140,5,2,0:0:0:0:
328,120,158290,1,2,0:0:0:0:
40,240,158740,1,8,0:0:0:0:
224,80,159040,1,2,0:0:0:0:
96,80,159190,1,2,0:0:0:0:
224,152,159490,5,2,0:0:0:0:
96,152,159640,1,2,0:0:0:0:
352,328,159940,2,0,P|400:256|328:184,1,187.000005706787,8|0,0:0|0:0,0:0:0:0:
88,168,160540,5,2,0:0:0:0:
200,168,160690,1,2,0:0:0:0:
448,168,161140,1,8,0:0:0:0:
304,264,161440,1,2,0:0:0:0:
184,264,161590,1,2,0:0:0:0:
304,320,161890,5,2,0:0:0:0:
184,328,162040,1,2,0:0:0:0:
440,224,162340,1,8,0:0:0:0:
248,160,162640,1,8,0:0:0:0:
360,80,162790,2,0,L|408:80,1,46.7500014266968,8|8,0:0|0:0,0:0:0:0:
192,240,162940,5,2,0:0:0:0:
72,240,163090,1,2,0:0:0:0:
360,120,163540,1,8,0:0:0:0:
168,288,163840,1,2,0:0:0:0:
296,288,163990,1,2,0:0:0:0:
168,168,164290,5,2,0:0:0:0:
296,168,164440,1,2,0:0:0:0:
56,64,164740,2,0,L|160:64,2,93.5000028533936,8|0|2,0:0|0:0|0:0,0:0:0:0:
320,144,165340,5,2,0:0:0:0:
192,144,165490,1,2,0:0:0:0:
472,240,165940,1,8,0:0:0:0:
280,304,166240,1,2,0:0:0:0:
168,304,166390,1,2,0:0:0:0:
352,168,166690,5,2,0:0:0:0:
472,168,166840,1,2,0:0:0:0:
280,56,167140,1,8,0:0:0:0:
392,56,167290,1,2,0:0:0:0:
160,176,167440,2,0,L|48:176,1,93.5000028533936,8|0,0:0|0:0,0:0:0:0:
336,312,167740,5,2,0:0:0:0:
216,312,167890,1,2,0:0:0:0:
480,184,168340,1,8,0:0:0:0:
288,96,168640,1,2,0:0:0:0:
408,96,168790,1,2,0:0:0:0:
288,200,169090,5,2,0:0:0:0:
408,200,169240,1,2,0:0:0:0:
200,328,169540,1,8,0:0:0:0:
320,328,169690,1,2,0:0:0:0:
80,240,169840,2,0,L|72:112,1,93.5000028533936,8|8,0:0|0:0,0:0:0:0:
408,112,170140,6,0,L|120:192,2,280.500008560181,4|2|2,0:0|0:2|0:2,0:0:0:0:
200,88,171340,5,8,0:3:0:0:
368,128,171540,1,2,0:0:0:0:
200,168,171740,1,2,0:0:0:0:
480,248,171940,1,8,0:3:0:0:
296,256,172140,1,2,0:0:0:0:
96,272,172340,1,2,0:0:0:0:
432,192,172540,6,0,L|440:64,1,93.5000028533936,4|0,0:0|0:0,0:0:0:0:
320,64,172840,1,8,0:0:0:0:
440,40,172990,1,0,0:0:0:0:
272,280,173140,2,0,L|264:168,1,93.5000028533936,2|2,0:0|0:0,0:0:0:0:
392,184,173440,1,8,0:0:0:0:
128,176,173590,6,0,P|72:112|136:48,1,187.000005706787,2|2,0:0|0:0,0:0:0:0:
272,48,174040,2,0,L|144:48,1,93.5000028533936,8|0,0:0|0:0,0:0:0:0:
320,152,174340,1,2,0:0:0:0:
168,152,174490,2,0,L|56:152,1,93.5000028533936,2|8,0:0|0:0,0:0:0:0:
216,224,174790,1,2,0:0:0:0:
472,224,174940,5,4,0:3:0:0:
280,184,175240,2,0,L|272:72,1,93.5000028533936,8|0,0:0|0:0,0:0:0:0:
416,144,175540,2,0,L|424:16,1,93.5000028533936,2|2,0:0|0:0,0:0:0:0:
288,48,175840,1,8,0:0:0:0:
40,304,175990,6,0,L|264:304,1,187.000005706787,2|2,0:0|0:0,0:0:0:0:
112,216,176440,2,0,L|8:216,1,93.5000028533936,8|0,0:0|0:0,0:0:0:0:
320,104,176740,2,0,L|144:104,2,140.25000428009,2|8|2,0:0|0:0|0:0,0:0:0:0:
64,312,177340,6,0,L|56:184,1,93.5000028533936,4|0,0:3|0:0,0:0:0:0:
176,160,177640,1,8,0:0:0:0:
56,128,177790,1,0,0:0:0:0:
224,288,177940,2,0,L|232:176,1,93.5000028533936,2|2,0:0|0:0,0:0:0:0:
104,192,178240,1,8,0:0:0:0:
360,88,178390,6,0,L|464:88,1,93.5000028533936,0|4,0:0|0:3,0:0:0:0:
328,160,178690,1,0,0:0:0:0:
184,272,178840,2,0,L|176:152,1,93.5000028533936,8|0,0:0|0:0,0:0:0:0:
296,176,179140,1,2,0:0:0:0:
144,104,179290,2,0,L|32:104,1,93.5000028533936,2|8,0:0|0:0,0:0:0:0:
176,32,179590,1,0,0:0:0:0:
432,256,179740,6,0,L|312:256,2,93.5000028533936,12|0|0,0:0|0:0|0:0,0:0:0:0:
144,320,180190,2,0,L|264:320,2,93.5000028533936,8|0|0,0:0|0:0|0:0,0:0:0:0:
432,328,180640,2,0,L|440:200,1,93.5000028533936,8|0,0:0|0:0,0:0:0:0:
192,168,180940,6,0,L|112:168,1,46.7500014266968,8|0,0:0|0:0,0:0:0:0:
320,280,181090,2,0,L|304:200,1,46.7500014266968,2|2,0:0|0:0,0:0:0:0:
240,232,181240,2,0,L|256:152,1,46.7500014266968,2|0,0:0|0:0,0:0:0:0:
392,112,181390,2,0,L|448:112,1,46.7500014266968,8|0,0:0|0:0,0:0:0:0:
264,320,181540,1,2,0:0:0:0:
288,272,181615,1,2,0:0:0:0:
328,240,181690,1,2,0:0:0:0:
384,232,181765,1,2,0:0:0:0:
208,144,181840,2,0,L|120:144,1,46.7500014266968,8|8,0:0|0:0,0:0:0:0:
336,48,181990,2,0,L|400:48,1,46.7500014266968,8|8,0:0|0:0,0:0:0:0:
160,256,182140,6,0,L|56:256,2,93.5000028533936,4|2|2,0:0|0:0|0:0,0:0:0:0:
280,256,182590,1,2,0:0:0:0:
416,216,182740,2,0,L|424:104,1,93.5000028533936,2|2,0:0|0:0,0:0:0:0:
288,168,183040,2,0,L|280:64,1,93.5000028533936,2|2,0:0|0:0,0:0:0:0:
432,288,183340,6,0,L|320:288,2,93.5000028533936,2|2|2,0:0|0:0|0:0,0:0:0:0:
296,192,183790,2,0,L|184:192,2,93.5000028533936,2|8|2,0:0|0:0|0:0,0:0:0:0:
456,128,184240,2,0,L|352:128,1,93.5000028533936,2|2,0:0|0:0,0:0:0:0:
208,272,184540,6,0,L|200:144,1,93.5000028533936,4|0,0:3|0:0,0:0:0:0:
320,176,184840,1,2,0:0:0:0:
144,144,184990,2,0,L|136:32,1,93.5000028533936,2|2,0:0|0:0,0:0:0:0:
264,48,185290,1,2,0:0:0:0:
120,272,185440,6,0,P|80:232|160:160,1,187.000005706787,2|2,0:0|0:0,0:0:0:0:
272,160,185890,1,2,0:0:0:0:
136,96,186040,2,0,L|40:96,1,93.5000028533936,2|2,0:0|0:0,0:0:0:0:
184,184,186340,1,8,0:0:0:0:
312,216,186490,1,2,0:0:0:0:
184,272,186640,1,2,0:0:0:0:
328,296,186790,1,2,0:0:0:0:
72,320,186940,6,0,L|64:192,1,93.5000028533936,4|2,0:0|0:0,0:0:0:0:
176,216,187240,1,2,0:0:0:0:
264,184,187390,1,2,0:0:0:0:
304,96,187540,1,2,0:0:0:0:
264,16,187690,1,2,0:0:0:0:
176,8,187840,1,2,0:0:0:0:
304,32,187990,1,2,0:0:0:0:
160,320,188140,6,0,L|56:320,2,93.5000028533936,2|2|2,0:0|0:0|0:0,0:0:0:0:
320,248,188590,2,0,L|424:248,2,93.5000028533936,2|8|2,0:0|0:0|0:0,0:0:0:0:
160,192,189040,2,0,L|40:192,1,93.5000028533936,2|2,0:0|0:0,0:0:0:0:
416,176,189340,6,0,L|424:48,1,93.5000028533936,4|2,0:3|0:0,0:0:0:0:
288,72,189640,1,2,0:0:0:0:
416,288,189790,2,0,L|320:288,2,93.5000028533936,2|8|2,0:0|0:0|0:0,0:0:0:0:
264,176,190240,2,0,L|152:176,1,93.5000028533936,2|2,0:0|0:0,0:0:0:0:
424,128,190540,6,0,L|312:128,1,93.5000028533936,4|0,0:3|0:0,0:0:0:0:
208,240,190840,2,0,L|328:240,1,93.5000028533936,2|0,0:0|0:0,0:0:0:0:
240,208,191065,1,2,0:0:0:0:
72,184,191140,2,0,L|64:64,1,93.5000028533936,8|2,0:0|0:0,0:0:0:0:
176,56,191440,1,2,0:0:0:0:
56,32,191590,1,4,0:3:0:0:
352,328,191740,6,0,P|440:256|344:144,1,280.500008560181,4|2,0:0|0:0,0:0:0:0:
208,128,192340,2,0,L|104:128,1,93.5000028533936,2|0,0:0|0:0,0:0:0:0:
272,32,192640,2,0,L|392:32,1,93.5000028533936,2|0,0:0|0:0,0:0:0:0:
112,328,192940,6,0,P|64:256|136:200,1,187.000005706787,8|0,0:0|0:0,0:0:0:0:
272,152,193390,2,0,L|80:152,1,187.000005706787,2|2,0:0|0:0,0:0:0:0:
240,56,193840,2,0,L|360:56,1,93.5000028533936,2|0,0:0|0:0,0:0:0:0:
104,304,194140,6,0,L|304:304,1,187.000005706787,4|0,0:3|0:0,0:0:0:0:
416,232,194590,2,0,L|200:232,1,187.000005706787,2|0,0:0|0:0,0:0:0:0:
72,216,195040,2,0,L|56:104,1,93.5000028533936,8|0,0:0|0:0,0:0:0:0:
336,96,195340,6,0,L|224:96,1,93.5000028533936,8|0,0:0|0:0,0:0:0:0:
96,176,195640,2,0,L|208:176,1,93.5000028533936,8|0,0:3|0:0,0:0:0:0:
432,176,195940,1,8,0:0:0:0:
480,192,196015,1,2,0:0:0:0:
480,248,196090,1,2,0:0:0:0:
432,272,196165,1,2,0:0:0:0:
280,296,196240,2,8,L|216:296,1,46.7500014266968
64,296,196390,2,8,L|110:296,1,46.7500014266968
280,240,196540,6,0,L|416:240,1,93.5000028533936,4|0,0:0|0:0,0:0:0:0:
56,176,196840,2,0,L|48:72,1,93.5000028533936,8|0,0:0|0:0,0:0:0:0:
176,72,197140,2,0,L|280:72,1,93.5000028533936,8|0,0:0|0:0,0:0:0:0:
480,312,197440,2,0,L|360:312,1,93.5000028533936,8|0,0:0|0:0,0:0:0:0:
136,272,197740,6,0,L|256:272,1,93.5000028533936,8|0,0:0|0:0,0:0:0:0:
472,264,198040,2,0,L|480:128,1,93.5000028533936,8|0,0:0|0:0,0:0:0:0:
232,136,198340,2,0,L|136:136,1,93.5000028533936,8|0,0:0|0:0,0:0:0:0:
376,272,198640,1,8,0:0:0:0:
432,256,198715,1,8,0:3:0:0:
432,192,198790,1,2,0:0:0:0:
376,168,198865,1,4,0:3:0:0:
136,152,198940,6,0,L|32:152,1,93.5000028533936,4|0,0:3|0:0,0:0:0:0:
280,40,199240,2,0,L|392:40,1,93.5000028533936,8|0,0:0|0:0,0:0:0:0:
136,272,199540,2,0,L|272:272,1,93.5000028533936,8|0,0:0|0:0,0:0:0:0:
472,264,199840,1,8,0:0:0:0:
232,184,199990,2,0,L|152:184,1,46.7500014266968,2|2,0:0|0:0,0:0:0:0:
371,347,200140,5,8,0:0:0:0:
415,335,200215,1,2,0:0:0:0:
451,305,200290,1,2,0:0:0:0:
472,264,200365,1,2,0:0:0:0:
392,256,200440,2,0,L|336:256,1,46.7500014266968,2|2,0:0|0:0,0:0:0:0:
264,216,200590,1,8,0:0:0:0:
320,208,200665,1,2,0:0:0:0:
360,160,200740,1,0,0:0:0:0:
360,96,200815,1,2,0:0:0:0:
320,48,200890,1,2,0:0:0:0:
264,40,200965,1,2,0:0:0:0:
120,32,201040,2,0,L|16:32,1,85,4|2,0:3|0:1,0:0:0:0:
320,288,201360,6,0,P|416:208|272:88,1,340,2|0,0:2|0:0,0:0:0:0:
72,72,202260,2,0,L|256:72,2,170,2|0|0,0:0|0:0|0:0,0:0:0:0:
296,328,203160,6,0,L|96:328,2,170,2|0|0,0:0|0:0|0:0,0:0:0:0:
96,240,204060,2,0,P|16:176|160:48,1,340,2|0,0:0|0:0,0:0:0:0:
408,176,204960,6,0,L|208:112,2,170,2|0|0,0:0|0:0|0:0,0:0:0:0:
168,328,205860,2,0,L|160:152,1,170,2|0,0:0|0:0,0:0:0:0:
408,208,206466,1,2,0:0:0:0:
40,192,206740,6,0,L|32:80,1,85,4|0,0:0|0:0,0:0:0:0:
184,80,207040,2,0,L|64:80,1,85,2|2,0:0|0:0,0:0:0:0:
248,280,207340,2,0,L|152:280,2,85,2|0|2,0:0|0:0|0:0,0:0:0:0:
104,208,207790,1,0,0:0:0:0:
328,136,207940,6,0,L|448:136,2,85,2|0|2,0:0|0:0|0:0,0:0:0:0:
168,56,208390,2,0,L|264:56,2,85,0|2|0,0:0|0:0|0:0,0:0:0:0:
320,256,208840,2,0,L|432:256,1,85,2|0,0:0|0:0,0:0:0:0:
128,320,209140,6,0,L|32:320,1,85,2|0,0:0|0:0,0:0:0:0:
200,200,209440,2,0,L|320:200,1,85,2|0,0:0|0:0,0:0:0:0:
432,128,209740,2,0,L|320:128,2,85,2|0|2,0:0|0:0|0:0,0:0:0:0:
280,64,210190,2,8,L|224:64,1,42.5
456,320,210340,6,0,L|464:208,1,85,12|0,0:0|0:0,0:0:0:0:
336,224,210640,1,2,0:0:0:0:
48,240,210790,2,0,L|40:120,1,85,12|0,0:0|0:0,0:0:0:0:
168,152,211090,1,2,0:0:0:0:
440,104,211240,2,0,L|320:104,1,85,12|2,0:0|0:0,0:0:0:0:
296,104,211465,1,2,0:0:0:0:
64,288,211540,5,8,0:0:0:0:
200,280,211690,1,2,0:0:0:0:
344,264,211840,1,8,0:0:0:0:
56,184,211990,1,8,0:0:0:0:
352,240,212440,5,8,0:0:0:0:
224,224,212590,1,2,0:0:0:0:
96,208,212740,1,8,0:0:0:0:
392,136,212890,1,8,0:0:0:0:
96,80,213340,2,8,L|48:80,1,42.5
288,80,213490,2,0,P|376:104|424:224,1,212.5,4|0,0:0|0:0,0:0:0:0:
176,296,213940,6,0,L|0:288,2,170,4|2|8,0:2|0:0|0:0,0:0:0:0:
424,240,214811,1,2,0:0:0:0:
72,184,215037,1,0,0:2:0:0:
280,152,215300,1,0,0:0:0:0:
456,104,215525,1,2,0:2:0:0:
128,80,215750,1,8,0:0:0:0:
456,312,215977,6,0,P|456:216|304:144,1,255,2|0,0:2|0:0,0:0:0:0:
240,128,216533,1,2,0:0:0:0:
144,128,216645,2,0,P|96:112|64:88,1,85,8|0,0:0|0:0,0:0:0:0:
360,328,216868,6,0,P|376:256|200:184,1,297.5,2|10,0:2|0:0,0:0:0:0:
320,112,217543,1,2,0:0:0:0:
176,64,217693,1,8,0:0:0:0:
432,224,217850,5,2,0:0:0:0:
465,250,217925,1,2,0:0:0:0:
472,291,218000,1,2,0:0:0:0:
450,326,218075,1,2,0:0:0:0:
296,232,218150,2,0,L|240:232,3,42.5,2|2|2|2,0:2|0:0|0:0|0:0,0:0:0:0:
104,80,218450,5,8,0:0:0:0:
71,106,218525,1,2,0:0:0:0:
64,147,218600,1,2,0:0:0:0:
86,182,218675,1,2,0:0:0:0:
240,264,218750,2,0,L|320:264,3,42.5,2|2|2|2,0:2|0:0|0:0|0:0,0:0:0:0:
448,168,219050,6,0,L|376:168,1,42.5,2|2,0:2|0:0,0:0:0:0:
232,128,219200,1,2,0:0:0:0:
248,72,219275,1,2,0:0:0:0:
320,88,219350,1,2,0:2:0:0:
296,24,219425,1,2,0:0:0:0:
136,128,219500,1,2,0:0:0:0:
152,184,219575,1,2,0:0:0:0:
232,176,219650,1,4,0:3:0:0:
248,240,219725,1,2,0:0:0:0:
80,328,219800,1,2,0:0:0:0:
144,328,219875,1,2,0:0:0:0:
344,264,219950,5,4,0:0:0:0:
288,280,220025,1,0,0:0:0:0:
232,280,220100,1,0,0:0:0:0:
176,264,220175,1,0,0:0:0:0:
120,224,220250,1,2,0:2:0:0:
88,160,220325,1,0,0:0:0:0:
96,88,220400,1,0,0:0:0:0:
152,48,220475,1,0,0:0:0:0:
318,289,220550,1,8,0:0:0:0:
358,249,220625,1,0,0:0:0:0:
342,193,220700,1,8,0:3:0:0:
286,177,220775,1,0,0:0:0:0:
366,137,220850,2,0,L|422:137,1,42.5,8|2,0:0|0:0,0:0:0:0:
134,337,221000,6,0,P|70:297|166:209,1,212.5,4|0,0:0|0:0,0:0:0:0:
408,144,221450,2,0,L|256:144,1,127.5,8|0,0:0|0:0,0:0:0:0:
32,80,221750,2,0,L|176:80,1,127.5,8|0,0:0|0:0,0:0:0:0:
416,72,222050,2,0,P|448:136|400:184,1,127.5,8|0,0:0|0:0,0:0:0:0:
160,224,222350,6,0,L|272:224,2,85,4|2|8,0:0|0:0|0:0,0:0:0:0:
336,160,222800,1,2,0:0:0:0:
96,320,223100,1,8,0:0:0:0:
224,264,223250,1,2,0:0:0:0:
80,224,223400,1,8,0:0:0:0:
344,200,223700,5,2,0:0:0:0:
216,144,223850,1,8,0:0:0:0:
88,104,224000,1,2,0:0:0:0:
464,40,224300,1,8,0:0:0:0:
312,24,224450,1,2,0:0:0:0:
48,160,224750,5,8,0:0:0:0:
288,200,224900,1,2,0:0:0:0:
144,104,225200,5,8,0:0:0:0:
384,80,225350,1,2,0:0:0:0:
256,296,225650,5,8,0:0:0:0:
472,224,225800,1,2,0:0:0:0:
248,200,226100,6,0,L|120:200,1,127.5,8|0,0:0|0:0,0:0:0:0:
416,272,226400,2,0,P|424:216|360:160,1,127.5,8|0,0:0|0:0,0:0:0:0:
112,160,226700,2,0,P|104:104|168:48,1,127.5,8|0,0:0|0:0,0:0:0:0:
368,48,227000,6,0,L|480:56,2,85,8|0|0,0:0|0:0|0:0,0:0:0:0:
128,208,227450,2,0,L|32:200,2,85,8|2|2,0:3|0:0|0:0,0:0:0:0:
456,208,227900,1,12,0:0:0:0:
256,192,228050,12,2,229415,0:2:0:0:
376,216,230020,5,0,0:0:0:0:
96,208,230320,1,2,0:0:0:0:
240,144,230620,1,0,0:0:0:0:
80,96,230920,1,0,0:0:0:0:
360,312,231220,6,0,P|456:200|328:112,1,340,2|0,0:0|0:0,0:0:0:0:
80,120,232120,1,2,0:0:0:0:
320,168,232720,1,0,0:0:0:0:
80,288,233020,6,0,L|272:288,2,170,2|0|0,0:0|0:0|0:0,0:0:0:0:
400,136,233920,2,0,L|208:136,2,170,2|0|0,0:0|0:0|0:0,0:0:0:0:
64,304,234800,6,0,L|56:184,1,93.5000028533936,4|0,0:0|0:0,0:0:0:0:
200,224,235100,2,0,L|208:104,1,93.5000028533936,2|0,0:0|0:0,0:0:0:0:
48,80,235400,2,0,L|160:80,2,93.5000028533936,2|0|2,0:0|0:0|0:0,0:0:0:0:
192,232,235850,1,0,0:0:0:0:
424,184,236000,6,0,L|440:48,1,93.5000028533936,2|0,0:0|0:0,0:0:0:0:
312,80,236300,1,2,0:0:0:0:
104,224,236450,2,0,L|224:224,2,93.5000028533936,0|2|0,0:0|0:0|0:0,0:0:0:0:
432,320,236900,2,0,L|312:320,1,93.5000028533936,2|0,0:0|0:0,0:0:0:0:
88,320,237200,6,0,L|80:184,1,93.5000028533936,2|0,0:0|0:0,0:0:0:0:
232,224,237500,2,0,L|240:96,1,93.5000028533936,2|0,0:0|0:0,0:0:0:0:
80,104,237800,2,0,L|192:104,2,93.5000028533936,2|0|0,0:0|0:0|0:0,0:0:0:0:
384,48,238250,2,8,L|432:48,1,46.7500014266968
176,288,238400,5,12,0:0:0:0:
64,216,238550,1,2,0:0:0:0:
192,168,238700,1,2,0:0:0:0:
440,216,238850,1,12,0:0:0:0:
320,136,239000,1,2,0:0:0:0:
456,96,239150,1,2,0:0:0:0:
176,48,239300,1,12,0:0:0:0:
48,48,239450,1,2,0:0:0:0:
440,248,239600,5,8,0:0:0:0:
192,192,239750,1,8,0:3:0:0:
320,144,239900,1,8,0:0:0:0:
48,112,240050,1,8,0:0:0:0:
232,232,240350,2,0,L|240:304,1,46.7500014266968,2|2,0:0|0:0,0:0:0:0:
48,248,240500,5,8,0:0:0:0:
304,184,240650,1,8,0:3:0:0:
160,152,240800,1,8,0:0:0:0:
440,112,240950,1,8,0:0:0:0:
288,48,241250,2,0,L|280:120,1,46.7500014266968,2|2,0:0|0:0,0:0:0:0:
440,200,241400,1,8,0:0:0:0:
296,296,241550,2,0,P|280:192|352:176,1,187.000005706787,4|0,0:0|0:0,0:0:0:0:
48,176,242000,6,0,L|40:48,1,93.5000028533936,8|0,0:0|0:0,0:0:0:0:
272,304,242300,2,0,L|280:176,1,93.5000028533936,8|0,0:0|0:0,0:0:0:0:
48,296,242600,2,0,L|40:184,1,93.5000028533936,8|0,0:0|0:0,0:0:0:0:
272,136,242900,2,0,L|144:136,1,93.5000028533936,8|0,0:0|0:0,0:0:0:0:
440,56,243200,5,10,0:0:0:0:
176,48,243350,2,0,L|64:48,1,93.5000028533936,2|0,0:0|0:0,0:0:0:0:
336,144,243650,2,0,L|408:144,1,46.7500014266968,2|2,0:0|0:0,0:0:0:0:
176,256,243800,1,8,0:0:0:0:
304,256,243950,2,0,P|416:216|456:144,1,187.000005706787,2|0,0:2|0:0,0:0:0:0:
336,144,244400,5,2,0:3:0:0:
96,120,244700,2,0,L|304:80,2,187.000005706787
456,168,245600,6,0,L|464:272,1,93.5000028533936,8|8,0:0|0:0,0:0:0:0:
80,200,245900,2,0,L|72:304,1,93.5000028533936,8|2,0:0|0:0,0:0:0:0:
288,336,246350,2,0,L|80:328,1,187.000005706787,2|0,0:2|0:0,0:0:0:0:
216,296,246800,5,0,0:0:0:0:
312,240,246950,1,0,0:0:0:0:
296,144,247100,1,0,0:0:0:0:
184,112,247250,1,0,0:0:0:0:
304,72,247400,1,0,0:0:0:0:
160,200,247550,2,0,L|32:200,1,93.5000028533936,2|0,0:0|0:0,0:0:0:0:
360,288,247850,6,0,L|488:288,1,93.5000028533936,12|0,0:0|0:0,0:0:0:0:
176,152,248150,1,8,0:0:0:0:
464,96,248300,1,2,0:0:0:0:
352,72,248450,1,2,0:0:0:0:
152,184,248750,6,0,L|160:288,1,93.5000028533936,2|0,0:0|0:0,0:0:0:0:
296,240,249050,2,0,L|280:352,1,93.5000028533936,0|2,0:0|0:0,0:0:0:0:
160,336,249350,1,0,0:0:0:0:
64,280,249500,1,0,0:0:0:0:
160,224,249650,1,0,0:0:0:0:
40,184,249800,1,2,0:1:0:0:
312,304,249950,2,0,P|408:272|464:176,1,187.000005706787,8|0,0:0|0:0,0:0:0:0:
216,152,250400,5,8,0:0:0:0:
352,104,250550,1,8,0:0:0:0:
56,80,250700,1,8,0:0:0:0:
312,256,251300,2,0,L|320:128,1,93.5000028533936,0|0,0:3|0:0,0:0:0:0:
56,104,251600,5,8,0:0:0:0:
192,48,251750,1,2,0:0:0:0:
136,48,251825,1,2,0:0:0:0:
80,48,251900,1,2,0:0:0:0:
376,104,252050,1,8,0:0:0:0:
240,48,252200,1,2,0:0:0:0:
296,48,252275,1,2,0:0:0:0:
352,48,252350,1,2,0:0:0:0:
88,296,252500,2,0,L|80:176,1,93.5000028533936,8|0,0:0|0:0,0:0:0:0:
416,192,252800,5,2,0:0:0:0:
288,144,252950,1,2,0:0:0:0:
416,104,253100,1,2,0:0:0:0:
256,96,253250,1,2,0:0:0:0:
96,184,253400,1,2,0:0:0:0:
216,136,253550,1,2,0:0:0:0:
88,80,253700,1,2,0:0:0:0:
408,232,253850,1,2,0:0:0:0:
88,304,254000,5,8,0:0:0:0:
224,288,254150,1,2,0:0:0:0:
270,285,254225,1,2,0:0:0:0:
317,282,254300,1,2,0:0:0:0:
88,160,254450,1,8,0:0:0:0:
144,160,254525,1,2,0:0:0:0:
200,160,254600,1,2,0:0:0:0:
328,152,254750,1,2,0:0:0:0:
80,72,254900,2,0,L|72:176,1,93.5000028533936,12|0,0:0|0:0,0:0:0:0:
432,312,255190,6,0,L|440:192,1,97.7500018644333,6|0,0:0|0:0,0:0:0:0:
296,200,255490,2,0,L|168:200,1,97.7500018644333,8|0,0:0|0:0,0:0:0:0:
336,64,255790,2,0,L|456:64,1,97.7500018644333,2|2,0:0|0:0,0:0:0:0:
192,296,256090,2,0,L|296:296,1,97.7500018644333,8|0,0:0|0:0,0:0:0:0:
64,160,256390,6,0,L|56:40,1,97.7500018644333,2|0,0:0|0:0,0:0:0:0:
304,32,256690,2,0,L|176:32,1,97.7500018644333,8|0,0:0|0:0,0:0:0:0:
448,120,256990,2,0,L|456:256,1,97.7500018644333,2|0,0:0|0:0,0:0:0:0:
168,224,257290,2,0,L|160:328,1,97.7500018644333,8|0,0:0|0:0,0:0:0:0:
448,320,257590,6,0,L|328:320,1,97.7500018644333,2|0,0:0|0:0,0:0:0:0:
64,320,257890,1,8,0:0:0:0:
321,192,258040,2,0,L|193:192,1,97.7500018644333,2|0,0:0|0:0,0:0:0:0:
464,112,258340,1,2,0:0:0:0:
216,136,258490,2,0,L|208:16,1,97.7500018644333,8|0,0:0|0:0,0:0:0:0:
464,32,258790,5,2,0:0:0:0:
208,32,258940,2,0,L|328:32,1,97.7500018644333,8|0,0:0|0:0,0:0:0:0:
160,160,259240,1,0,0:0:0:0:
424,48,259390,2,0,L|480:48,2,48.8750009322167,8|2|2,0:0|0:0|0:0,0:0:0:0:
184,176,259690,1,8,0:0:0:0:
256,176,259765,1,8,1:3:0:0:
328,176,259840,1,8,0:3:0:0:
400,176,259915,1,8,2:3:0:0:
168,320,259990,5,4,2:3:0:0:
40,264,260140,1,0,0:0:0:0:
176,208,260290,1,8,0:0:0:0:
40,160,260440,1,0,0:0:0:0:
328,240,260590,1,2,0:0:0:0:
200,184,260740,1,0,0:0:0:0:
336,128,260890,1,8,0:0:0:0:
200,80,261040,1,0,0:0:0:0:
472,296,261190,5,2,0:0:0:0:
344,240,261340,1,0,0:0:0:0:
480,184,261490,1,8,0:0:0:0:
344,136,261640,1,0,0:0:0:0:
40,96,261790,1,2,0:0:0:0:
176,72,261940,1,0,0:0:0:0:
320,56,262090,1,8,0:0:0:0:
176,32,262240,1,2,0:0:0:0:
464,320,262390,6,0,L|472:200,1,97.7500018644333,4|2,0:3|0:0,0:0:0:0:
336,200,262690,2,0,L|232:200,1,97.7500018644333,8|0,0:0|0:0,0:0:0:0:
352,72,262990,1,2,0:0:0:0:
232,48,263140,1,2,0:0:0:0:
400,320,263290,2,0,L|520:320,1,97.7500018644333,8|0,0:0|0:0,0:0:0:0:
248,240,263590,6,0,L|184:240,1,48.8750009322167,8|0,0:0|0:0,0:0:0:0:
288,176,263740,2,0,L|296:104,1,48.8750009322167,2|0,0:0|0:0,0:0:0:0:
200,136,263890,2,0,L|192:72,1,48.8750009322167,2|0,0:0|0:0,0:0:0:0:
288,64,264040,2,0,L|368:64,1,48.8750009322167,8|0,0:0|0:0,0:0:0:0:
160,320,264190,1,2,0:0:0:0:
120,293,264265,1,0,0:0:0:0:
103,247,264340,1,2,0:0:0:0:
117,201,264415,1,2,0:0:0:0:
155,172,264490,1,4,0:3:0:0:
203,171,264565,1,4,0:3:0:0:
296,144,264640,2,0,L|224:144,1,48.8750009322167,4|4,0:3|0:3,0:0:0:0:
48,112,264790,6,0,L|176:112,2,97.7500018644333,4|0|8,0:0|0:0|0:0,0:0:0:0:
192,160,265240,1,0,0:0:0:0:
336,168,265390,1,2,0:0:0:0:
64,312,265540,2,0,L|56:192,1,97.7500018644333,2|8,0:0|0:0,0:0:0:0:
192,200,265840,1,0,0:0:0:0:
472,88,265990,6,0,L|336:88,1,97.7500018644333,2|0,0:0|0:0,0:0:0:0:
248,88,266290,1,8,0:0:0:0:
408,160,266440,1,0,0:0:0:0:
272,192,266590,1,2,0:0:0:0:
48,296,266740,2,0,L|168:296,1,97.7500018644333,2|8,0:0|0:0,0:0:0:0:
416,240,267040,6,0,L|184:240,1,195.500003728867,2|0,0:2|0:0,0:0:0:0:
344,136,267490,2,0,L|472:136,1,97.7500018644333,8|0,0:0|0:0,0:0:0:0:
296,312,267790,2,0,L|152:312,2,97.7500018644333,2|2|8,0:0|0:0|0:0,0:0:0:0:
160,216,268240,1,0,0:0:0:0:
456,216,268390,6,0,L|464:88,1,97.7500018644333,2|0,0:0|0:0,0:0:0:0:
208,80,268690,1,8,0:0:0:0:
352,56,268840,1,0,0:0:0:0:
72,328,268990,1,8,0:0:0:0:
88,264,269065,1,2,0:0:0:0:
136,216,269140,1,2,0:0:0:0:
192,200,269215,1,2,0:0:0:0:
280,184,269290,1,8,0:3:0:0:
216,160,269365,1,8,0:3:0:0:
160,128,269440,1,8,0:3:0:0:
128,64,269515,1,8,0:3:0:0:
352,56,269590,6,0,L|464:56,1,97.7500018644333,4|0,0:0|0:0,0:0:0:0:
232,240,269890,2,0,L|112:240,1,97.7500018644333,8|0,0:0|0:0,0:0:0:0:
312,192,270190,2,0,L|320:48,1,97.7500018644333,2|2,0:0|0:0,0:0:0:0:
48,296,270490,2,0,L|40:160,1,97.7500018644333,8|0,0:0|0:0,0:0:0:0:
312,136,270790,6,0,L|176:136,1,97.7500018644333,2|0,0:0|0:0,0:0:0:0:
496,40,271090,2,0,L|352:40,1,97.7500018644333,8|0,0:0|0:0,0:0:0:0:
184,256,271390,2,0,L|296:256,1,97.7500018644333,2|2,0:0|0:0,0:0:0:0:
24,112,271690,2,0,L|144:112,1,97.7500018644333,8|0,0:0|0:0,0:0:0:0:
400,336,271990,6,0,P|456:288|368:200,1,195.500003728867,8|0,0:0|0:0,0:0:0:0:
168,192,272440,2,0,P|88:168|16:56,1,195.500003728867,8|0,0:0|0:0,0:0:0:0:
272,48,272890,1,8,0:0:0:0:
128,40,273040,1,2,0:0:0:0:
368,272,273190,6,0,L|424:272,1,48.8750009322167,8|2,0:0|0:0,0:0:0:0:
176,248,273340,2,0,L|112:248,1,48.8750009322167,2|2,0:0|0:0,0:0:0:0:
320,160,273490,2,0,L|304:72,1,48.8750009322167,2|0,0:0|0:0,0:0:0:0:
232,120,273640,2,0,L|248:48,1,48.8750009322167,8|2,0:0|0:0,0:0:0:0:
336,40,273790,2,0,L|264:40,1,48.8750009322167,2|2,0:0|0:0,0:0:0:0:
184,192,273940,2,0,L|256:192,1,48.8750009322167,2|2,0:0|0:0,0:0:0:0:
408,248,274090,2,0,L|480:248,1,48.8750009322167,8|8,0:0|0:0,0:0:0:0:
176,264,274240,2,0,L|80:264,1,48.8750009322167,8|8,0:0|0:0,0:0:0:0:
376,328,274390,6,0,L|488:328,1,97.7500018644333,4|0,0:0|0:0,0:0:0:0:
328,248,274690,2,0,L|208:248,1,97.7500018644333,8|0,0:0|0:0,0:0:0:0:
376,152,274990,2,0,L|520:152,1,97.7500018644333,2|2,0:0|0:0,0:0:0:0:
192,264,275290,2,8,L|72:264,1,97.7500018644333,8|0,0:0|0:0,0:0:0:0:
392,272,275590,6,0,L|400:136,1,97.7500018644333,2|0,0:0|0:0,0:0:0:0:
248,176,275890,2,0,L|240:56,1,97.7500018644333,8|0,0:0|0:0,0:0:0:0:
480,48,276190,2,0,L|368:48,1,97.7500018644333,2|2,0:0|0:0,0:0:0:0:
80,56,276490,1,8,0:0:0:0:
216,80,276640,6,0,L|360:80,1,97.7500018644333,2|0,0:0|0:0,0:0:0:0:
184,192,276940,1,2,0:0:0:0:
432,296,277090,2,0,L|440:176,1,97.7500018644333,8|0,0:0|0:0,0:0:0:0:
304,200,277390,2,0,L|424:200,1,97.7500018644333,2|2,0:0|0:0,0:0:0:0:
144,304,277690,2,0,L|40:304,1,97.7500018644333,8|0,0:0|0:0,0:0:0:0:
304,144,277990,6,0,L|360:144,2,48.8750009322167,8|2|2,0:0|0:0|0:0,0:0:0:0:
152,96,278290,1,2,0:0:0:0:
304,64,278440,1,8,0:0:0:0:
352,64,278515,1,2,0:0:0:0:
400,64,278590,1,2,0:0:0:0:
256,184,278740,1,2,0:0:0:0:
408,320,278890,1,8,0:0:0:0:
443,288,278965,1,2,0:0:0:0:
443,241,279040,1,2,0:0:0:0:
407,210,279115,1,2,0:0:0:0:
144,200,279190,6,0,L|32:200,1,97.7500018644333,4|0,0:0|0:0,0:0:0:0:
352,88,279490,2,0,L|488:88,1,97.7500018644333,8|0,0:0|0:0,0:0:0:0:
152,176,279790,2,0,L|144:56,1,97.7500018644333,8|0,0:0|0:0,0:0:0:0:
440,280,280090,2,0,L|448:168,1,97.7500018644333,8|0,0:0|0:0,0:0:0:0:
48,64,280390,6,0,L|168:64,1,97.7500018644333,8|0,0:0|0:0,0:0:0:0:
448,112,280690,2,0,L|336:112,1,97.7500018644333,8|0,0:0|0:0,0:0:0:0:
48,160,280990,2,0,L|40:272,1,97.7500018644333,8|0,0:0|0:0,0:0:0:0:
336,288,281290,2,0,L|352:160,1,97.7500018644333,8|0,0:0|0:0,0:0:0:0:
56,296,281590,5,8,0:0:0:0:
200,256,281740,1,0,0:0:0:0:
56,192,281890,1,8,0:0:0:0:
184,152,282040,1,0,0:0:0:0:
456,296,282190,1,8,0:0:0:0:
304,248,282340,1,0,0:0:0:0:
448,184,282490,1,8,0:0:0:0:
320,144,282640,1,0,0:0:0:0:
56,112,282790,5,8,0:0:0:0:
272,336,282940,2,0,L|56:336,1,195.500003728867,4|2,0:3|0:0,0:0:0:0:
144,312,283315,1,2,0:0:0:0:
304,240,283390,2,0,L|376:240,1,48.8750009322167,8|2,0:0|0:0,0:0:0:0:
264,280,283540,1,2,0:0:0:0:
208,267,283615,1,2,0:0:0:0:
172,220,283690,1,4,0:3:0:0:
175,162,283765,1,4,0:3:0:0:
214,119,283840,1,4,0:3:0:0:
272,111,283915,1,4,0:3:0:0:
456,304,283990,6,0,L|464:168,1,97.7500018644333,4|0,0:0|0:0,0:0:0:0:
112,304,284290,2,0,L|104:176,1,97.7500018644333,8|0,0:0|0:0,0:0:0:0:
368,136,284590,2,0,L|488:136,1,97.7500018644333,8|0,0:0|0:0,0:0:0:0:
128,136,284890,2,0,L|16:136,1,97.7500018644333,8|0,0:0|0:0,0:0:0:0:
464,256,285190,6,0,L|344:256,1,97.7500018644333,8|0,0:0|0:0,0:0:0:0:
32,256,285490,2,0,L|144:256,1,97.7500018644333,8|0,0:0|0:0,0:0:0:0:
456,184,285790,2,0,L|464:64,1,97.7500018644333,8|0,0:0|0:0,0:0:0:0:
56,184,286090,2,0,L|48:56,1,97.7500018644333,8|0,0:0|0:0,0:0:0:0:
456,176,286390,5,12,0:0:0:0:
208,184,286540,1,8,0:0:0:0:
368,248,286840,1,8,0:0:0:0:
112,248,286990,1,8,0:0:0:0:
256,320,287290,1,8,0:0:0:0:
32,184,287440,1,8,0:0:0:0:
168,96,287590,5,2,0:0:0:0:
112,96,287665,1,2,0:0:0:0:
56,96,287740,1,8,0:0:0:0:
416,88,287890,1,8,0:0:0:0:
128,264,288790,6,0,L|24:264,2,97.7500018644333,12|2|2,0:0|0:0|0:0,0:0:0:0:
384,272,289240,2,0,L|488:272,2,97.7500018644333,8|2|2,0:0|0:0|0:0,0:0:0:0:
128,152,289690,6,0,L|232:152,2,97.7500018644333,12|2|2,0:0|0:0|0:0,0:0:0:0:
384,80,290140,2,0,L|496:80,1,97.7500018644333,8|0,0:0|0:0,0:0:0:0:
232,248,290440,2,0,L|296:248,1,48.8750009322167
480,328,290590,2,0,L|344:328,1,97.7500018644333,8|0,0:0|0:0,0:0:0:0:
96,328,290890,2,0,L|224:328,1,97.7500018644333,8|0,0:0|0:0,0:0:0:0:
456,256,291190,6,0,L|464:160,1,85,4|0,0:0|0:0,0:0:0:0:
344,160,291490,1,2,0:0:0:0:
144,112,291790,1,2,0:0:0:0:
344,80,292090,1,2,0:0:0:0:
128,304,292240,6,0,P|88:232|144:184,1,170,4|0,0:3|0:0,0:0:0:0:
256,184,292690,1,2,0:0:0:0:
56,120,292990,1,2,0:0:0:0:
256,80,293290,1,2,0:0:0:0:
472,296,293440,6,0,L|272:296,1,170,4|0,0:3|0:0,0:0:0:0:
192,296,293890,1,2,0:0:0:0:
416,200,294190,1,2,0:0:0:0:
192,128,294490,1,2,0:0:0:0:
416,288,294640,6,0,P|448:248|384:160,1,170,4|0,0:3|0:0,0:0:0:0:
256,128,295090,2,0,L|368:128,1,85,2|0,0:0|0:0,0:0:0:0:
184,320,295390,1,2,0:0:0:0:
175,279,295465,1,0,0:0:0:0:
191,240,295540,1,2,0:0:0:0:
226,218,295615,1,2,0:0:0:0:
304,192,295690,2,0,L|240:192,1,42.5,2|2,0:0|0:0,0:0:0:0:
192,160,295840,2,0,L|256:160,1,42.5,2|2,0:0|0:0,0:0:0:0:
440,160,295990,6,0,L|448:40,1,85,4|0,0:0|0:0,0:0:0:0:
320,56,296290,2,0,L|216:56,1,85,2|0,0:0|0:0,0:0:0:0:
392,232,296590,2,0,L|504:232,1,85,2|0,0:0|0:0,0:0:0:0:
344,328,296890,1,2,0:0:0:0:
112,288,297040,6,0,P|72:232|160:168,1,170,4|0,0:3|0:0,0:0:0:0:
264,200,297490,2,0,L|272:80,1,85,2|0,0:0|0:0,0:0:0:0:
128,112,297790,2,0,L|32:112,1,85,2|0,0:0|0:0,0:0:0:0:
152,48,298090,1,2,0:0:0:0:
400,304,298240,6,0,P|440:256|360:176,1,170,4|0,0:3|0:0,0:0:0:0:
240,176,298690,2,0,L|232:72,1,85,2|0,0:0|0:0,0:0:0:0:
376,72,298990,2,0,L|264:72,1,85,2|0,0:0|0:0,0:0:0:0:
408,32,299290,1,2,0:0:0:0:
200,312,299440,6,0,P|88:272|64:192,1,170,8|0,0:0|0:0,0:0:0:0:
328,224,299890,1,8,0:0:0:0:
160,160,300190,2,0,L|208:160,1,42.5,8|0,0:0|0:0,0:0:0:0:
376,96,300340,2,0,L|320:96,1,42.5,2|2,0:0|0:0,0:0:0:0:
160,88,300490,2,0,L|80:88,1,42.5,2|2,0:0|0:0,0:0:0:0:
408,320,300640,6,0,P|456:232|384:200,1,181.899994448853,4|0,0:0|0:0,0:0:0:0:
128,192,301090,2,0,L|120:72,1,90.9499972244264,8|0,0:0|0:0,0:0:0:0:
256,104,301390,1,2,0:0:0:0:
40,296,301540,2,0,L|168:296,1,90.9499972244264,2|8,0:0|0:0,0:0:0:0:
376,320,301840,6,0,L|176:320,1,181.899994448853,2|2,0:0|0:0,0:0:0:0:
408,192,302290,2,0,L|520:192,1,90.9499972244264,8|0,0:0|0:0,0:0:0:0:
360,96,302590,1,2,0:0:0:0:
120,208,302740,2,0,L|112:96,1,90.9499972244264,2|8,0:0|0:0,0:0:0:0:
360,328,303040,6,0,P|408:272|336:192,1,181.899994448853,2|2,0:0|0:0,0:0:0:0:
104,144,303490,2,0,L|208:144,1,90.9499972244264,8|0,0:0|0:0,0:0:0:0:
320,144,303790,1,2,0:0:0:0:
72,64,303940,2,0,L|64:192,1,90.9499972244264,2|8,0:0|0:0,0:0:0:0:
320,336,304240,6,0,P|424:304|464:232,1,181.899994448853,2|2,0:0|0:0,0:0:0:0:
392,240,304615,1,2,0:0:0:0:
224,192,304690,2,0,L|216:104,1,45.4749986122132,8|2,0:0|0:0,0:0:0:0:
288,128,304840,2,0,L|344:128,1,45.4749986122132,2|2,0:0|0:0,0:0:0:0:
160,80,304990,2,0,L|104:80,3,45.4749986122132,4|2|2|2,0:3|0:0|0:0|0:0,0:0:0:0:
276,296,305290,1,8,0:0:0:0:
321,293,305365,1,2,0:0:0:0:
361,273,305440,1,2,0:0:0:0:
392,240,305515,1,2,0:0:0:0:
204,208,305590,6,0,L|113:208,1,90.9499972244264,4|0,0:0|0:0,0:0:0:0:
356,64,305890,2,0,L|446:64,1,90.9499972244264,8|0,0:0|0:0,0:0:0:0:
200,304,306190,1,8,0:0:0:0:
88,240,306340,1,2,0:0:0:0:
200,192,306490,1,8,0:0:0:0:
448,168,306640,6,0,L|224:168,1,181.899994448853,4|0,0:0|0:0,0:0:0:0:
392,136,307090,1,2,0:0:0:0:
80,264,307240,2,0,L|304:264,1,181.899994448853,8|2,0:0|0:0,0:0:0:0:
144,232,307690,1,8,0:0:0:0:
448,232,307840,6,0,P|480:168|384:104,1,181.899994448853,4|2,0:0|0:0,0:0:0:0:
288,96,308290,1,8,0:0:0:0:
128,200,308440,2,0,L|120:72,1,90.9499972244264,2|0,0:0|0:0,0:0:0:0:
248,56,308740,1,2,0:0:0:0:
120,24,308890,1,8,0:0:0:0:
376,320,309040,6,0,P|416:280|336:192,1,181.899994448853,4|0,0:0|0:0,0:0:0:0:
96,192,309490,1,8,0:0:0:0:
216,320,309640,1,2,0:0:0:0:
261,321,309715,1,2,0:0:0:0:
302,304,309790,1,8,0:0:0:0:
332,270,309865,1,2,0:0:0:0:
264,232,309940,1,2,0:0:0:0:
221,217,310015,1,2,0:0:0:0:
195,181,310090,1,8,0:3:0:0:
195,136,310165,1,8,0:3:0:0:
221,100,310240,1,4,0:3:0:0:
263,86,310315,1,4,0:3:0:0:
456,88,310390,5,4,0:0:0:0:
256,192,310540,12,4,312790,0:2:0:0:
