osu file format v14

[General]
AudioFilename: audio.mp3
AudioLeadIn: 0
PreviewTime: 108923
Countdown: 0
SampleSet: Soft
StackLeniency: 0.5
Mode: 0
LetterboxInBreaks: 0
WidescreenStoryboard: 1

[Editor]
DistanceSpacing: 1
BeatDivisor: 4
GridSize: 8
TimelineZoom: 1

[Metadata]
Title:Unbreakable
TitleUnicode:Unbreakable
Artist:marie
ArtistUnicode:marie
Creator:Silent Rock
Version:Unreadable
Source:DastinIa
Tags:真理絵
BeatmapID:1103069
BeatmapSetID:518349

[Difficulty]
HPDrainRate:5
CircleSize:4
OverallDifficulty:5
ApproachRate:7
SliderMultiplier:1.4
SliderTickRate:1

[Events]
//Background and Video events
0,0,"maxresdefault.jpg",0,0
//Break Periods
//Storyboard Layer 0 (Background)
//Storyboard Layer 1 (Fail)
//Storyboard Layer 2 (Pass)
//Storyboard Layer 3 (Foreground)
//Storyboard Sound Samples

[TimingPoints]
1256.96025641087,333.333333333333,4,2,0,50,1,0
13256,-80,4,2,0,50,0,0
24590,-100,4,2,0,50,0,0
33923,-66.6666666666667,4,2,0,50,0,0
34423,-100,4,2,0,50,0,0
50590,-80,4,2,0,50,0,1
71923,-80,4,2,0,50,0,0
82590,-100,4,2,0,50,0,0
109256,-80,4,2,0,50,0,1
130590,-80,4,2,0,50,0,0
151256,-80,4,2,0,50,0,0
157256,-80,4,2,0,50,0,1
194590,-80,4,2,0,50,0,0

[HitObjects]
128,112,1256,6,0,P|112:176|128:256,1,140
240,320,1923,2,0,P|304:288|384:296,1,140
504,336,2590,1,0,0:0:0:0:
504,336,2923,1,0,0:0:0:0:
448,208,3256,1,0,0:0:0:0:
448,208,3590,1,0,0:0:0:0:
320,256,3923,6,0,B|272:208|272:208|256:136,1,140
136,64,4590,2,0,P|88:96|64:176,1,140
176,264,5256,1,0,0:0:0:0:
264,160,5590,1,0,0:0:0:0:
176,264,5923,2,0,P|112:320|40:328,1,140
56,192,6590,6,0,P|136:120|176:120,1,140
248,232,7256,2,0,B|296:288|296:288|368:288,1,140
408,160,7923,1,0,0:0:0:0:
408,160,8256,1,0,0:0:0:0:
280,96,8590,1,0,0:0:0:0:
280,96,8923,1,0,0:0:0:0:
168,184,9256,6,0,L|168:328,1,140
312,320,9923,2,0,L|312:176,1,140
312,40,10590,1,0,0:0:0:0:
200,120,10923,1,0,0:0:0:0:
320,200,11256,1,0,0:0:0:0:
256,192,11423,12,0,12923,0:0:0:0:
424,184,13256,6,0,P|384:280|320:304,1,175
232,296,13756,1,0,0:0:0:0:
160,240,13923,2,0,P|136:192|128:152,1,87.5
152,72,14256,2,0,P|192:88|240:88,1,87.5
320,96,14590,6,0,P|368:152|384:256,1,175
344,328,15090,1,0,0:0:0:0:
256,344,15256,2,0,P|216:336|168:344,1,87.5
88,368,15590,2,0,P|56:328|56:280,1,87.5
88,208,15923,6,0,B|160:152|160:152|176:64,1,175
104,16,16423,1,0,0:0:0:0:
32,64,16590,2,0,P|0:120|8:144,1,87.5
80,184,16923,2,0,P|128:216|176:200,1,87.5
200,136,17256,6,0,P|256:104|368:112,1,175
432,168,17756,1,0,0:0:0:0:
408,256,17923,2,0,B|408:304|408:304|392:344,1,87.5
304,352,18256,2,0,B|264:328|264:328|224:328,1,87.5
160,264,18590,6,0,L|160:88,1,175
80,136,19090,1,0,0:0:0:0:
112,216,19256,2,0,P|152:248|200:240,1,87.5
264,288,19590,2,0,P|312:272|352:224,1,87.5
424,240,19923,6,0,P|448:168|416:72,1,175
344,32,20423,1,0,0:0:0:0:
264,72,20590,2,0,P|224:120|224:152,1,87.5
272,216,20923,2,0,P|264:280|232:304,1,87.5
176,344,21256,6,0,P|120:352|40:272,1,175
40,184,21756,1,0,0:0:0:0:
88,112,21923,2,0,P|152:80|184:88,1,87.5
248,112,22256,2,0,P|224:152|168:160,1,87.5
144,240,22590,6,0,P|232:256|304:208,1,175
352,136,23090,1,0,0:0:0:0:
312,56,23256,2,0,L|264:80,2,43.75
232,24,23590,2,0,L|200:72,4,43.75
408,0,24256,1,0,0:0:0:0:
408,0,24590,6,0,P|448:32|456:64,2,70
280,56,25256,2,0,P|192:112|152:112,1,140
64,216,25923,2,0,P|88:288|144:328,1,140
280,320,26590,6,0,B|336:264|336:264|336:184,1,140
248,96,27256,2,0,P|184:96|168:112,2,70
360,176,27923,2,0,P|368:240|336:320,1,140
222,226,28590,2,0,P|214:170|262:82,1,140
384,64,29256,6,0,P|440:104|464:176,1,140
440,304,29923,2,0,P|416:344|384:352,2,70
384,176,30590,2,0,B|328:144|328:144|240:144,1,140
152,248,31256,2,0,B|128:280|128:280|88:280,2,70
216,120,31923,5,0,0:0:0:0:
304,224,32256,1,0,0:0:0:0:
360,96,32590,2,0,P|400:64|432:64,2,70
288,216,33256,2,0,P|280:296|240:336,1,140
72,208,33923,2,0,L|184:208,1,105.000004005432
384,216,34590,6,0,L|384:288,2,70
328,176,35090,2,0,L|328:104,2,70
272,216,35590,1,0,0:0:0:0:
160,136,35923,6,0,P|184:56|248:32,1,140
320,144,36590,2,0,P|360:184|448:200,1,140
400,64,37256,6,0,P|400:24|416:-8,2,70
344,112,37756,2,0,P|336:152|304:192,2,70
288,72,38256,1,0,0:0:0:0:
176,160,38590,6,0,L|176:304,1,140
48,360,39256,2,0,L|48:216,1,140
136,112,39923,2,0,L|208:112,2,70
176,168,40423,2,0,L|248:168,2,70
224,224,40923,1,0,0:0:0:0:
344,288,41256,6,0,L|272:288,2,70
384,232,41756,2,0,L|304:232,2,70
424,176,42256,1,0,0:0:0:0:
328,72,42590,5,0,0:0:0:0:
200,120,42923,1,0,0:0:0:0:
200,192,43090,1,0,0:0:0:0:
72,240,43423,1,0,0:0:0:0:
72,312,43590,1,0,0:0:0:0:
200,360,43923,6,0,L|200:288,3,70
200,216,44590,1,0,0:0:0:0:
224,152,44756,1,0,0:0:0:0:
280,112,44923,1,0,0:0:0:0:
352,112,45090,1,0,0:0:0:0:
408,152,45256,6,0,P|456:216|512:240,1,140
416,344,45923,2,0,L|272:344,1,140
160,264,46590,6,0,P|136:240|128:200,1,70
136,136,46923,1,0,0:0:0:0:
264,72,47256,2,0,P|296:80|328:112,3,70
360,168,47923,6,0,B|408:232|312:256|376:320,1,140
480,376,48590,2,0,P|504:304|488:224,1,140
464,184,49090,1,0,0:0:0:0:
408,144,49256,6,0,P|384:128|368:88,2,70
192,312,50590,6,0,P|152:248|168:144,1,175
240,112,51090,1,0,0:0:0:0:
312,160,51256,2,0,L|376:232,1,87.5
456,208,51590,2,0,L|392:136,1,87.5
336,80,51923,5,0,0:0:0:0:
312,160,52090,1,0,0:0:0:0:
256,88,52256,1,0,0:0:0:0:
232,168,52423,1,0,0:0:0:0:
144,176,52590,1,0,0:0:0:0:
168,96,52756,1,0,0:0:0:0:
80,96,52923,2,0,L|48:184,1,87.5
56,264,53256,6,0,P|112:336|192:344,1,175
256,288,53756,1,0,0:0:0:0:
232,200,53923,2,0,P|264:160|304:152,1,87.5
344,80,54256,2,0,P|392:88|424:120,1,87.5
504,144,54590,6,0,P|504:184|472:232,1,87.5
496,312,54923,2,0,P|456:336|408:336,1,87.5
344,384,55256,1,0,0:0:0:0:
280,320,55423,1,0,0:0:0:0:
216,376,55590,1,0,0:0:0:0:
200,288,55756,1,0,0:0:0:0:
120,320,55923,6,0,B|80:240|80:240|80:152,1,175
96,72,56423,1,0,0:0:0:0:
160,16,56590,2,0,P|208:8|248:24,1,87.5
264,104,56923,2,0,P|288:168|320:184,1,87.5
384,192,57256,5,0,0:0:0:0:
464,232,57423,1,0,0:0:0:0:
464,320,57590,1,0,0:0:0:0:
384,288,57756,1,0,0:0:0:0:
304,248,57923,1,0,0:0:0:0:
304,336,58090,1,0,0:0:0:0:
384,376,58256,2,0,P|432:368|472:320,1,87.5
496,264,58590,6,0,B|496:200|456:184|424:136|440:80,1,175
456,16,59090,1,0,0:0:0:0:
368,16,59256,2,0,P|336:64|336:96,1,87.5
248,104,59590,2,0,P|248:152|280:192,1,87.5
224,272,59923,5,0,0:0:0:0:
312,296,60090,1,0,0:0:0:0:
168,328,60256,5,0,0:0:0:0:
264,384,60423,1,0,0:0:0:0:
224,272,60590,5,0,0:0:0:0:
328,288,60756,1,0,0:0:0:0:
184,368,60923,6,0,L|136:368,1,43.75
112,336,61090,2,0,L|72:312,1,43.75
72,272,61256,6,0,B|32:200|32:200|24:104,1,175
80,40,61756,1,0,0:0:0:0:
168,32,61923,2,0,P|240:48|256:64,1,87.5
272,136,62256,2,0,P|320:184|352:192,1,87.5
424,176,62590,5,0,0:0:0:0:
432,88,62756,1,0,0:0:0:0:
352,112,62923,1,0,0:0:0:0:
360,24,63090,1,0,0:0:0:0:
272,56,63256,1,0,0:0:0:0:
264,144,63423,1,0,0:0:0:0:
184,176,63590,2,0,L|192:80,1,87.5
112,120,63923,6,0,B|104:208|104:208|136:296,1,175
200,344,64423,1,0,0:0:0:0:
288,336,64590,2,0,P|328:320|360:280,1,87.5
360,200,64923,2,0,P|312:216|288:248,1,87.5
232,312,65256,6,0,P|176:312|152:288,1,87.5
112,216,65590,2,0,P|112:176|88:136,1,87.5
24,192,65923,1,0,0:0:0:0:
112,216,66090,1,0,0:0:0:0:
88,136,66256,1,0,0:0:0:0:
24,192,66423,1,0,0:0:0:0:
112,216,66590,6,0,B|176:248|216:208|256:192|304:232,1,175
352,272,67090,1,0,0:0:0:0:
440,280,67256,2,0,P|496:272|520:248,1,87.5
488,168,67590,2,0,P|440:144|424:112,1,87.5
392,32,67923,5,0,0:0:0:0:
312,0,68090,1,0,0:0:0:0:
240,48,68256,1,0,0:0:0:0:
312,0,68423,1,0,0:0:0:0:
240,48,68590,1,0,0:0:0:0:
224,136,68756,1,0,0:0:0:0:
208,224,68923,2,0,B|192:272|152:296,1,87.5
72,296,69256,6,0,P|32:272|24:144,1,175
88,96,69756,1,0,0:0:0:0:
176,112,69923,2,0,P|216:136|256:136,1,87.5
296,216,70256,2,0,P|352:200|376:160,1,87.5
384,88,70590,5,0,0:0:0:0:
296,104,70756,1,0,0:0:0:0:
256,184,70923,5,0,0:0:0:0:
296,104,71090,1,0,0:0:0:0:
240,32,71256,5,0,0:0:0:0:
296,104,71423,1,0,0:0:0:0:
256,184,71590,2,0,P|208:224|176:224,1,87.5
112,272,71923,6,0,P|120:344|208:392,1,175
288,376,72423,1,0,0:0:0:0:
336,304,72590,2,0,P|352:240|376:216,1,87.5
432,280,72923,2,0,P|424:344|400:376,1,87.5
328,360,73256,6,0,P|288:336|160:352,1,175
80,368,73756,1,0,0:0:0:0:
8,320,73923,2,0,P|-8:280|8:232,1,87.5
80,192,74256,2,0,P|120:160|128:120,1,87.5
152,40,74590,6,0,B|232:8|232:8|320:16,1,175
376,80,75090,1,0,0:0:0:0:
368,168,75256,2,0,P|352:224|328:248,1,87.5
248,256,75590,2,0,P|264:192|288:168,1,87.5
368,168,75923,6,0,P|432:168|488:80,1,175
432,16,76423,1,0,0:0:0:0:
360,64,76590,2,0,L|360:152,1,87.5
424,208,76923,2,0,L|424:296,1,87.5
352,352,77256,6,0,P|248:352|200:304,1,175
192,216,77756,1,0,0:0:0:0:
264,168,77923,2,0,P|336:160|360:136,1,87.5
360,64,78256,2,0,P|320:32|272:32,1,87.5
208,72,78590,6,0,P|208:128|136:224,1,175
64,264,79090,1,0,0:0:0:0:
88,344,79256,2,0,P|136:376|192:376,1,87.5
240,328,79590,2,0,P|280:312|336:328,1,87.5
408,352,79923,6,0,B|448:280|448:280|448:184,1,175
400,112,80423,1,0,0:0:0:0:
336,56,80590,2,0,L|248:56,1,87.5
208,136,80923,2,0,L|120:136,1,87.5
64,208,81256,6,0,P|80:288|176:344,1,175
224,296,81756,1,0,0:0:0:0:
184,216,81923,2,0,P|168:192|168:160,2,43.75
240,144,82256,2,0,P|256:120|280:104,3,43.75
304,104,82590,6,0,P|352:136|448:120,1,140
496,256,83256,2,0,L|496:328,2,70
408,144,83923,2,0,P|336:144|272:176,1,140
208,296,84590,2,0,P|144:328|72:328,1,140
16,208,85256,6,0,P|40:136|88:96,1,140
224,56,85923,2,0,P|272:48|296:32,2,70
160,184,86590,2,0,B|192:216|192:216|208:280|208:280|240:304,1,140
360,352,87256,2,0,B|416:296|416:296|416:216,1,140
336,120,87923,6,0,P|288:144|200:128,1,140
112,24,88590,2,0,P|56:32|32:56,2,70
248,48,89256,6,0,P|288:72|336:152,1,140
224,232,89923,2,0,P|184:288|112:312,1,140
0,248,90590,1,0,0:0:0:0:
80,136,90923,1,0,0:0:0:0:
152,136,91090,1,0,0:0:0:0:
232,16,91423,1,0,0:0:0:0:
304,16,91590,1,0,0:0:0:0:
408,112,91923,6,0,P|416:208|392:264,1,140
280,320,92590,1,0,0:0:0:0:
224,272,92756,2,0,L|224:224,2,35
168,312,93090,2,0,L|168:360,2,35
112,272,93423,5,0,0:0:0:0:
48,240,93590,1,0,0:0:0:0:
24,176,93756,1,0,0:0:0:0:
24,104,93923,2,0,P|32:64|56:32,2,70
48,240,94590,6,0,P|112:288|184:288,1,140
256,184,95256,2,0,P|336:176|384:136,1,140
472,32,95923,2,0,P|504:104|480:168,1,140
368,240,96590,2,0,P|352:280|360:312,2,70
432,120,97256,6,0,B|376:72|376:72|288:72,1,140
200,160,97923,2,0,B|200:232|200:232|152:288,1,140
40,208,98590,2,0,P|48:120|96:72,1,140
208,24,99256,2,0,P|272:24|296:40,2,70
128,136,99923,6,0,P|168:200|160:272,1,140
264,360,100590,2,0,P|336:368|400:344,1,140
448,216,101256,2,0,P|443:159|392:88,1,140
264,40,101923,2,0,P|224:40|200:56,2,70
368,136,102590,6,0,P|416:152|432:184,1,70
464,224,102923,1,0,0:0:0:0:
464,224,103256,1,0,0:0:0:0:
477,321,103423,1,0,0:0:0:0:
389,289,103590,1,0,0:0:0:0:
405,377,103756,1,0,0:0:0:0:
309,337,103923,6,0,P|301:273|269:201,1,140
160,120,104590,2,0,P|96:192|80:240,1,140
144,360,105256,6,0,P|192:368|216:360,1,70
272,336,105590,1,0,0:0:0:0:
320,208,105923,2,0,P|331:177|366:148,3,70
432,152,106590,6,0,B|496:199|411:250|491:292,1,140
440,344,107257,2,0,P|352:336|288:360,1,140
232,352,107757,1,0,0:0:0:0:
176,312,107923,6,0,P|160:288|160:240,2,70
232,352,108423,1,0,0:0:0:0:
264,360,108506,1,0,0:0:0:0:
296,352,108590,1,0,0:0:0:0:
352,312,108756,1,0,0:0:0:0:
