osu file format v14

[General]
AudioFilename: audio.mp3
AudioLeadIn: 0
PreviewTime: 108923
Countdown: 0
SampleSet: Soft
StackLeniency: 0.4
Mode: 0
LetterboxInBreaks: 0
WidescreenStoryboard: 0

[Editor]
DistanceSpacing: 1.6
BeatDivisor: 4
GridSize: 8
TimelineZoom: 1

[Metadata]
Title:Unbreakable
TitleUnicode:Unbreakable
Artist:marie
ArtistUnicode:marie
Creator:Silent Rock
Version:Unbreakable
Source:DastinIa
Tags:真理絵
BeatmapID:1101189
BeatmapSetID:518349

[Difficulty]
HPDrainRate:7
CircleSize:4.5
OverallDifficulty:9
ApproachRate:9.2
SliderMultiplier:1.4
SliderTickRate:1

[Events]
//Background and Video events
0,0,"maxresdefault.jpg",0,0
//Break Periods
2,151456,156686
//Storyboard Layer 0 (Background)
//Storyboard Layer 1 (Fail)
//Storyboard Layer 2 (Pass)
//Storyboard Layer 3 (Foreground)
//Storyboard Sound Samples

[TimingPoints]
1256.96025641087,333.333333333333,4,2,0,50,1,0
13256,-80,4,2,0,50,0,0
24590,-100,4,2,0,50,0,0
33923,-66.6666666666667,4,2,0,50,0,0
34423,-100,4,2,0,50,0,0
50590,-80,4,2,0,50,0,1
71923,-80,4,2,0,50,0,0
82590,-100,4,2,0,50,0,0
109256,-80,4,2,0,50,0,1
130590,-80,4,2,0,50,0,0
151256,-80,4,2,0,50,0,0
157256,-80,4,2,0,50,0,1
194590,-80,4,2,0,50,0,0

[HitObjects]
104,88,1256,6,0,P|173:92|208:152,1,140
408,88,1923,2,0,P|336:96|304:152,1,140
432,312,2590,5,0,0:0:0:0:
256,192,2923,1,0,0:0:0:0:
88,312,3256,1,0,0:0:0:0:
152,112,3590,1,0,0:0:0:0:
360,112,3923,6,0,B|384:184|384:184|360:256,1,140
148,244,4590,2,0,B|128:184|128:184|152:112,1,140
256,88,5090,1,0,0:0:0:0:
256,192,5256,6,0,B|256:264|256:264|224:328,1,140
96,160,5923,2,0,B|96:88|96:88|136:24,1,140
288,168,6590,6,0,P|312:240|376:256,1,140
504,96,7256,2,0,P|456:64|376:88,1,140
288,272,7923,1,0,0:0:0:0:
152,112,8256,1,0,0:0:0:0:
360,136,8590,1,0,0:0:0:0:
184,248,8923,1,0,0:0:0:0:
208,40,9256,6,0,P|280:80|304:136,1,140
184,304,9923,2,0,P|144:248|152:176,1,140
232,112,10423,1,0,0:0:0:0:
320,168,10590,2,0,P|368:208|448:200,1,140
256,192,11256,12,0,12923,0:0:0:0:
128,88,13256,6,0,B|128:176|128:176|160:256,1,175
304,352,13756,1,0,0:0:0:0:
264,160,13923,1,0,0:0:0:0:
176,336,14090,1,0,0:0:0:0:
336,232,14256,1,0,0:0:0:0:
232,80,14423,2,0,P|184:80|144:96,2,87.5
408,152,14923,6,0,B|408:240|408:240|376:320,1,175
200,336,15423,1,0,0:0:0:0:
312,168,15590,1,0,0:0:0:0:
152,296,15756,1,0,0:0:0:0:
360,224,15923,6,0,B|401:208|401:208|448:208,1,87.5
344,344,16256,2,0,P|256:296|248:224,1,175
304,64,16756,1,0,0:0:0:0:
444,208,16923,1,0,0:0:0:0:
304,328,17090,1,0,0:0:0:0:
320,144,17256,6,0,L|328:56,1,87.5
444,208,17590,2,0,P|420:272|324:320,1,175
128,272,18090,1,0,0:0:0:0:
272,152,18256,2,0,P|304:184|312:232,1,87.5
224,360,18590,6,0,B|176:312|104:384|48:328,1,175
0,160,19090,1,0,0:0:0:0:
200,232,19256,1,0,0:0:0:0:
16,280,19423,1,0,0:0:0:0:
144,120,19590,2,0,B|176:88|176:88|224:80,1,87.5
288,240,19923,6,0,P|232:304|144:304,1,175
32,184,20423,1,0,0:0:0:0:
152,32,20590,1,0,0:0:0:0:
184,224,20756,1,0,0:0:0:0:
312,96,20923,2,0,P|323:145|344:176,1,87.5
488,88,21256,6,0,P|440:24|344:0,1,175
192,160,21756,1,0,0:0:0:0:
392,208,21923,1,0,0:0:0:0:
312,16,22090,1,0,0:0:0:0:
120,72,22256,2,0,P|80:104|64:144,1,87.5
96,312,22590,6,0,B|184:312|184:312|256:256,1,175
304,96,23090,2,0,P|280:64|232:48,1,87.5
208,48,23340,1,0,0:0:0:0:
176,56,23423,1,0,0:0:0:0:
64,216,23589,1,0,0:0:0:0:
72,232,23673,1,0,0:0:0:0:
80,248,23756,1,0,0:0:0:0:
88,264,23840,1,0,0:0:0:0:
96,280,23923,6,0,B|120:328|176:344|216:312|264:336,1,175
416,176,24590,2,0,L|480:144,2,70
232,80,25256,6,0,L|112:152,1,140
80,304,25756,1,0,0:0:0:0:
80,304,25923,2,0,P|104:328|144:336,1,70
240,240,26256,2,0,P|272:224|312:224,1,70
400,328,26590,5,0,0:0:0:0:
336,208,26756,1,0,0:0:0:0:
464,160,26923,2,0,P|464:112|448:80,1,70
328,32,27256,2,0,P|320:72|328:104,2,70
200,280,27923,6,0,P|216:208|200:136,1,140
64,120,28423,1,0,0:0:0:0:
64,120,28590,2,0,L|64:192,1,70
120,320,28923,1,0,0:0:0:0:
264,224,29090,1,0,0:0:0:0:
296,360,29256,6,0,P|328:384|360:384,1,70
472,296,29590,2,0,P|448:264|416:256,1,70
280,264,29923,2,0,P|280:296|328:336,2,70
464,192,30590,6,0,L|464:48,1,140
336,112,31090,1,0,0:0:0:0:
336,112,31256,2,0,P|304:152|272:160,1,70
160,104,31590,2,0,P|104:136|96:160,1,70
88,280,31923,5,0,0:0:0:0:
224,296,32090,1,0,0:0:0:0:
296,176,32256,2,0,B|320:144|320:144|360:128,1,70
352,272,32590,2,0,B|328:304|328:304|296:320,2,70
120,120,33256,6,0,L|120:264,1,140
240,328,33756,1,0,0:0:0:0:
336,224,33923,2,0,P|296:176|248:168,1,105.000004005432
256,167,34590,6,0,L|256:96,1,70
408,8,34923,2,0,L|408:80,1,70
256,167,35256,2,0,L|256:95,2,70
96,320,35923,6,0,P|128:336|168:320,1,70
288,208,36256,1,0,0:0:0:0:
368,368,36423,1,0,0:0:0:0:
248,328,36590,1,0,0:0:0:0:
432,280,36756,1,0,0:0:0:0:
288,208,36923,2,0,B|256:192|256:192|216:192,1,70
88,304,37256,5,0,0:0:0:0:
88,80,37423,1,0,0:0:0:0:
208,264,37590,1,0,0:0:0:0:
208,120,37756,1,0,0:0:0:0:
88,192,37923,2,0,L|160:192,2,70
424,192,38590,6,0,L|352:192,1,70
160,192,38923,1,0,0:0:0:0:
354,192,39090,1,0,0:0:0:0:
208,80,39256,2,0,B|232:112|232:112|264:128,1,70
288,296,39590,2,0,B|261:268|261:268|224:256,1,70
64,208,39923,5,0,0:0:0:0:
144,368,40090,1,0,0:0:0:0:
192,200,40256,1,0,0:0:0:0:
48,304,40423,1,0,0:0:0:0:
224,304,40590,2,0,P|256:304|296:280,2,70
456,40,41256,6,0,L|456:112,1,70
368,264,41590,1,0,0:0:0:0:
256,128,41756,1,0,0:0:0:0:
56,40,41923,2,0,L|56:112,1,70
144,264,42256,1,0,0:0:0:0:
256,128,42422,1,0,0:0:0:0:
344,280,42590,6,0,L|344:200,1,70
168,208,42923,2,0,L|168:288,1,70
320,184,43256,2,0,L|264:128,2,70
256,352,43756,2,0,L|200:304,1,70
144,136,44090,1,0,0:0:0:0:
320,120,44256,1,0,0:0:0:0:
320,120,44590,1,0,0:0:0:0:
192,240,44756,1,0,0:0:0:0:
336,216,44923,1,0,0:0:0:0:
320,320,45090,1,0,0:0:0:0:
416,296,45256,6,0,P|472:272|504:200,1,140
288,120,45923,2,0,P|208:160|184:208,1,140
400,344,46590,6,0,P|400:272|360:216,1,140
112,128,47256,1,0,0:0:0:0:
192,192,47423,1,0,0:0:0:0:
296,160,47590,1,0,0:0:0:0:
376,224,47756,1,0,0:0:0:0:
368,328,47923,6,0,P|296:336|240:296,1,140
192,64,48590,2,0,P|144:128|88:144,1,140
0,176,49090,1,0,0:0:0:0:
56,256,49256,2,0,P|80:288|80:320,2,70
336,336,50590,6,0,P|400:280|416:192,1,175
224,96,51090,1,0,0:0:0:0:
64,248,51256,2,0,B|80:296|80:296|112:320,2,87.5
128,40,51756,1,0,0:0:0:0:
312,152,51923,6,0,P|320:200|312:240,1,87.5
96,280,52256,1,0,0:0:0:0:
264,136,52423,1,0,0:0:0:0:
32,136,52590,1,0,0:0:0:0:
216,264,52756,1,0,0:0:0:0:
32,136,52923,1,0,0:0:0:0:
240,40,53090,1,0,0:0:0:0:
392,192,53256,6,0,P|392:264|320:336,1,175
112,272,53756,1,0,0:0:0:0:
200,72,53923,2,0,P|256:40|288:40,2,87.5
208,288,54423,1,0,0:0:0:0:
424,320,54590,6,0,P|448:256|440:224,1,87.5
296,80,54923,1,0,0:0:0:0:
336,296,55090,1,0,0:0:0:0:
400,88,55256,1,0,0:0:0:0:
248,248,55423,1,0,0:0:0:0:
248,32,55590,1,0,0:0:0:0:
376,208,55756,1,0,0:0:0:0:
184,104,55923,6,0,P|112:80|16:96,1,175
104,296,56423,1,0,0:0:0:0:
320,320,56590,2,0,P|368:312|408:280,2,87.5
104,296,57090,1,0,0:0:0:0:
312,240,57256,6,0,P|352:216|368:176,1,87.5
184,64,57590,1,0,0:0:0:0:
216,280,57756,1,0,0:0:0:0:
344,64,57923,1,0,0:0:0:0:
304,280,58090,1,0,0:0:0:0:
184,64,58256,1,0,0:0:0:0:
216,280,58423,1,0,0:0:0:0:
344,64,58590,6,0,P|408:112|432:200,1,175
280,352,59090,1,0,0:0:0:0:
256,176,59256,1,0,0:0:0:0:
368,360,59423,1,0,0:0:0:0:
176,208,59590,1,0,0:0:0:0:
432,296,59756,1,0,0:0:0:0:
144,288,59923,6,0,P|64:256|32:176,2,175
368,272,60756,1,0,0:0:0:0:
248,80,60923,2,0,L|208:112,1,43.75
160,208,61090,2,0,L|112:176,1,43.75
48,96,61256,6,0,B|7:146|14:179|47:218|17:265,1,175
224,360,61756,1,0,0:0:0:0:
224,360,61923,2,0,P|272:360|312:336,1,87.5
288,152,62256,2,0,P|264:104|232:80,1,87.5
32,128,62590,5,0,0:0:0:0:
120,336,62756,1,0,0:0:0:0:
232,144,62923,5,0,0:0:0:0:
48,280,63090,1,0,0:0:0:0:
80,40,63256,5,0,0:0:0:0:
224,224,63423,1,0,0:0:0:0:
216,24,63590,2,0,B|264:16|264:16|304:24,1,87.5
424,160,63923,6,0,P|368:168|288:264,1,175
496,360,64423,1,0,0:0:0:0:
272,368,64590,2,0,P|224:352|200:320,1,87.5
264,104,64923,2,0,P|288:152|288:192,1,87.5
128,344,65256,5,0,0:0:0:0:
176,120,65423,1,0,0:0:0:0:
360,256,65590,1,0,0:0:0:0:
120,240,65756,1,0,0:0:0:0:
312,360,65923,1,0,0:0:0:0:
328,136,66090,1,0,0:0:0:0:
200,320,66256,2,0,P|160:352|120:360,1,87.5
8,200,66590,6,0,P|24:144|128:88,1,175
312,208,67090,1,0,0:0:0:0:
136,344,67256,2,0,P|104:304|104:264,1,87.5
240,88,67590,2,0,P|208:128|208:168,1,87.5
352,344,67923,6,0,P|320:304|320:264,1,87.5
456,88,68256,2,0,P|424:128|424:168,1,87.5
280,344,68590,1,0,0:0:0:0:
288,120,68756,1,0,0:0:0:0:
424,304,68923,1,0,0:0:0:0:
432,80,69090,1,0,0:0:0:0:
288,256,69256,6,0,P|216:288|120:272,1,175
8,80,69756,1,0,0:0:0:0:
232,56,69923,2,0,L|232:152,1,87.5
80,312,70256,2,0,L|80:224,1,87.5
232,56,70590,5,0,0:0:0:0:
232,280,70756,1,0,0:0:0:0:
72,112,70923,1,0,0:0:0:0:
288,176,71090,1,0,0:0:0:0:
72,256,71256,1,0,0:0:0:0:
192,56,71423,1,0,0:0:0:0:
232,280,71590,2,0,B|248:328|248:328|288:352,1,87.5
488,248,71923,6,0,L|488:72,1,175
264,72,72423,1,0,0:0:0:0:
160,280,72590,2,0,P|200:304|256:304,2,87.5
56,72,73090,1,0,0:0:0:0:
280,72,73256,6,0,P|304:144|280:248,1,175
72,320,73756,1,0,0:0:0:0:
0,104,73923,2,0,P|48:56|88:48,2,87.5
184,240,74423,1,0,0:0:0:0:
344,80,74590,6,0,P|376:48|416:40,1,87.5
320,248,74923,1,0,0:0:0:0:
504,120,75090,1,0,0:0:0:0:
280,128,75256,1,0,0:0:0:0:
488,224,75423,1,0,0:0:0:0:
280,128,75590,1,0,0:0:0:0:
480,24,75756,1,0,0:0:0:0:
256,24,75923,6,0,P|184:40|104:104,1,175
88,328,76423,1,0,0:0:0:0:
312,272,76590,2,0,P|351:227|352:192,2,87.5
88,248,77090,1,0,0:0:0:0:
280,360,77256,6,0,P|368:336|416:272,1,175
256,104,77756,1,0,0:0:0:0:
480,136,77923,2,0,L|480:224,2,87.5
288,256,78423,1,0,0:0:0:0:
72,184,78590,6,0,P|72:112|88:88,1,87.5
216,280,78923,2,0,P|200:336|176:360,1,87.5
16,200,79256,1,0,0:0:0:0:
240,168,79423,1,0,0:0:0:0:
80,328,79590,1,0,0:0:0:0:
136,112,79756,1,0,0:0:0:0:
232,320,79923,6,0,P|296:360|400:344,1,175
480,136,80423,1,0,0:0:0:0:
272,40,80590,2,0,P|224:40|192:64,2,87.5
432,200,81090,1,0,0:0:0:0:
248,336,81256,6,0,P|224:256|168:184,1,175
32,368,81756,2,0,P|88:376|128:368,1,87.5
248,272,82090,1,0,0:0:0:0:
280,240,82173,1,0,0:0:0:0:
280,200,82256,1,0,0:0:0:0:
136,72,82423,1,0,0:0:0:0:
120,112,82506,1,0,0:0:0:0:
120,152,82590,6,0,P|128:184|152:216,1,70
304,176,82923,2,0,P|344:168|384:192,1,70
416,336,83256,2,0,P|376:344|344:328,2,70
416,336,83923,6,0,P|440:248|424:192,1,140
272,144,84423,2,0,P|256:176|256:216,1,70
120,272,84756,2,0,P|136:240|136:200,1,70
8,144,85090,2,0,P|16:200|32:216,1,70
80,336,85423,2,0,P|128:344|160:328,1,70
288,336,85756,1,0,0:0:0:0:
288,336,85923,2,0,P|304:304|304:264,2,70
160,272,86423,1,0,0:0:0:0:
240,160,86590,6,0,P|312:200|336:256,1,140
432,352,87090,1,0,0:0:0:0:
320,208,87256,1,0,0:0:0:0:
496,224,87423,1,0,0:0:0:0:
352,328,87590,2,0,P|296:328|264:304,1,70
216,200,87923,6,0,B|184:176|184:176|144:176,1,70
48,264,88256,2,0,B|80:296|80:296|112:296,1,70
208,200,88590,2,0,P|192:160|208:128,2,70
336,256,89090,1,0,0:0:0:0:
448,168,89256,6,0,P|408:96|352:80,1,140
224,136,89756,1,0,0:0:0:0:
328,232,89923,2,0,P|360:200|368:176,2,70
224,320,90423,1,0,0:0:0:0:
112,232,90590,5,0,0:0:0:0:
200,120,90756,2,0,L|272:120,1,70
112,232,91090,1,0,0:0:0:0:
144,96,91256,2,0,L|224:72,1,70
112,232,91590,1,0,0:0:0:0:
88,96,91756,2,0,L|128:32,1,70
112,232,92090,5,0,0:0:0:0:
256,320,92256,1,0,0:0:0:0:
248,168,92423,1,0,0:0:0:0:
144,320,92590,1,0,0:0:0:0:
312,256,92756,1,0,0:0:0:0:
312,256,92840,1,0,0:0:0:0:
312,256,92923,1,0,0:0:0:0:
128,104,93090,1,0,0:0:0:0:
128,104,93173,1,0,0:0:0:0:
128,104,93256,6,0,L|128:176,2,70
256,48,93756,2,0,L|256:120,1,70
392,96,94090,2,0,L|392:168,1,70
504,200,94423,1,0,0:0:0:0:
504,200,94590,6,0,P|480:288|440:320,1,140
336,232,95090,1,0,0:0:0:0:
384,104,95256,2,0,P|432:144|440:168,1,70
432,288,95590,2,0,P|408:328|384:344,1,70
248,344,95923,6,0,P|216:320|184:320,1,70
80,232,96256,2,0,P|128:232|152:208,1,70
256,136,96590,2,0,P|208:128|184:104,2,70
384,72,97090,1,0,0:0:0:0:
384,72,97256,6,0,L|384:216,1,140
272,296,97756,1,0,0:0:0:0:
272,296,97923,2,0,L|272:224,1,70
136,248,98256,2,0,L|136:176,1,70
200,56,98590,6,0,P|240:48|272:56,1,70
360,160,98923,2,0,P|320:176|288:168,1,70
176,248,99256,2,0,P|168:288|184:320,2,70
264,136,99756,1,0,0:0:0:0:
264,136,99923,6,0,P|320:200|328:256,1,140
232,352,100423,2,0,B|200:328|200:328|200:296,1,70
96,208,100756,2,0,B|96:168|96:168|72:144,1,70
192,72,101090,1,0,0:0:0:0:
312,144,101256,6,0,P|362:203|384:272,1,140
129,261,101756,6,0,P|153:196|200:144,1,140
320,336,102256,2,0,P|256:360|192:336,1,140
256,216,102756,2,0,L|256:296,1,70
256,216,103256,5,0,0:0:0:0:
256,200,103423,1,0,0:0:0:0:
256,184,103590,1,0,0:0:0:0:
256,168,103756,1,0,0:0:0:0:
256,152,103923,6,0,B|208:104|288:64|248:16,1,140
290,212,104590,2,0,B|356:194|350:283|412:273,1,140
221,212,105256,2,0,B|203:277|129:228|107:286,1,140
328,128,105923,1,0,0:0:0:0:
184,128,106090,1,0,0:0:0:0:
184,264,106256,1,0,0:0:0:0:
328,264,106423,1,0,0:0:0:0:
256,152,106590,6,0,B|232:200|280:240|256:296,2,140
184,264,107590,2,0,L|112:264,1,70
336,192,107923,2,0,L|408:192,1,70
406,192,108256,1,0,0:0:0:0:
184,120,108423,1,0,0:0:0:0:
149,120,108506,1,0,0:0:0:0:
114,120,108589,1,0,0:0:0:0:
288,120,108756,1,0,0:0:0:0:
56,256,109256,6,0,P|80:312|184:352,1,175
360,200,109756,1,0,0:0:0:0:
192,32,109923,2,0,P|144:40|112:64,1,87.5
104,296,110256,2,0,P|144:336|192:344,1,87.5
392,240,110590,2,0,P|400:192|392:152,1,87.5
176,64,110923,1,0,0:0:0:0:
176,304,111090,1,0,0:0:0:0:
376,176,111256,1,0,0:0:0:0:
136,184,111423,1,0,0:0:0:0:
352,280,111590,1,0,0:0:0:0:
320,48,111756,1,0,0:0:0:0:
200,256,111923,6,0,P|248:312|344:336,1,175
312,104,112423,1,0,0:0:0:0:
456,296,112590,1,0,0:0:0:0:
312,104,112756,1,0,0:0:0:0:
272,336,112923,1,0,0:0:0:0:
448,176,113090,1,0,0:0:0:0:
216,184,113256,6,0,B|168:184|168:184|128:160,1,87.5
336,40,113590,2,0,B|352:80|352:80|352:128,1,87.5
200,304,113923,2,0,B|200:256|200:256|216:208,1,87.5
424,104,114256,2,0,B|424:152|424:152|408:192,1,87.5
232,352,114590,6,0,P|208:280|128:216,1,175
224,32,115090,1,0,0:0:0:0:
336,208,115256,2,0,P|280:256|256:264,1,87.5
72,120,115590,2,0,P|136:104|176:112,1,87.5
288,304,115923,5,0,0:0:0:0:
56,240,116090,1,0,0:0:0:0:
264,120,116256,1,0,0:0:0:0:
160,336,116423,1,0,0:0:0:0:
128,104,116590,1,0,0:0:0:0:
320,240,116756,1,0,0:0:0:0:
88,280,116923,2,0,P|48:264|24:224,1,87.5
160,32,117256,6,0,P|184:80|176:120,1,87.5
72,328,117590,1,0,0:0:0:0:
256,176,117756,1,0,0:0:0:0:
16,184,117923,2,0,P|16:232|56:272,1,87.5
240,336,118256,1,0,0:0:0:0:
160,168,118423,1,0,0:0:0:0:
336,80,118590,6,0,P|440:72|512:96,2,175
216,216,119423,1,0,0:0:0:0:
304,368,119590,2,0,L|352:352,1,43.75
464,328,119756,2,0,L|472:280,1,43.75
504,168,119923,6,0,B|456:96|456:96|368:56,1,175
136,80,120423,1,0,0:0:0:0:
136,80,120590,2,0,P|112:144|128:176,1,87.5
296,288,120923,2,0,P|312:240|296:200,1,87.5
88,160,121256,5,0,0:0:0:0:
232,328,121423,1,0,0:0:0:0:
392,176,121590,1,0,0:0:0:0:
200,272,121756,1,0,0:0:0:0:
112,88,121923,1,0,0:0:0:0:
24,288,122090,1,0,0:0:0:0:
208,176,122256,2,0,P|256:160|304:176,1,87.5
496,288,122590,6,0,P|440:360|360:384,1,175
144,344,123090,1,0,0:0:0:0:
64,144,123256,2,0,P|88:104|128:88,1,87.5
336,152,123590,2,0,P|296:200|256:208,1,87.5
72,224,123923,5,0,0:0:0:0:
248,72,124090,1,0,0:0:0:0:
192,304,124256,1,0,0:0:0:0:
128,80,124423,1,0,0:0:0:0:
192,304,124590,2,0,P|224:344|264:352,1,87.5
456,224,124923,2,0,P|400:200|376:208,1,87.5
160,232,125256,6,0,P|104:144|120:72,1,175
352,72,125756,1,0,0:0:0:0:
272,280,125923,2,0,P|216:304|176:304,1,87.5
96,88,126256,2,0,P|152:112|176:136,1,87.5
248,352,126590,5,0,0:0:0:0:
72,192,126756,1,0,0:0:0:0:
312,200,126923,1,0,0:0:0:0:
112,328,127090,1,0,0:0:0:0:
344,328,127256,1,0,0:0:0:0:
160,176,127423,1,0,0:0:0:0:
352,32,127590,2,0,P|424:72|432:88,1,87.5
304,280,127923,6,0,P|256:208|264:120,1,175
488,64,128423,1,0,0:0:0:0:
416,288,128590,2,0,L|416:192,1,87.5
248,32,128923,2,0,B|248:80|248:80|240:120,1,87.5
104,312,129256,6,0,P|152:344|200:344,1,87.5
400,256,129590,5,0,0:0:0:0:
120,240,129756,1,0,0:0:0:0:
376,136,129923,5,0,0:0:0:0:
192,352,130090,1,0,0:0:0:0:
376,336,130256,5,0,0:0:0:0:
192,128,130423,1,0,0:0:0:0:
56,336,130590,6,0,P|112:344|144:328,2,87.5
112,192,131090,2,0,P|152:176|200:192,1,87.5
456,336,131590,2,0,P|400:344|368:328,2,87.5
400,192,132090,2,0,P|360:176|312:192,1,87.5
318,187,132590,1,0,0:0:0:0:
288,272,132756,1,0,0:0:0:0:
208,312,132923,1,0,0:0:0:0:
120,304,133090,1,0,0:0:0:0:
104,152,133256,5,0,0:0:0:0:
184,184,133423,1,0,0:0:0:0:
240,248,133590,1,0,0:0:0:0:
256,336,133756,1,0,0:0:0:0:
272,248,133923,2,0,P|328:184|416:152,1,175
410,152,134590,6,0,P|384:120|336:112,1,87.5
256,112,134923,1,0,0:0:0:0:
128,232,135256,1,0,0:0:0:0:
176,328,135423,1,0,0:0:0:0:
272,376,135590,1,0,0:0:0:0:
376,360,135756,1,0,0:0:0:0:
464,176,135923,5,0,0:0:0:0:
392,96,136090,1,0,0:0:0:0:
320,168,136256,1,0,0:0:0:0:
264,80,136423,1,0,0:0:0:0:
184,152,136590,2,0,P|160:224|200:320,1,175
296,320,137090,1,0,0:0:0:0:
296,320,137173,1,0,0:0:0:0:
296,320,137256,6,0,P|344:288|352:256,2,87.5
296,320,137923,1,0,0:0:0:0:
216,248,138090,1,0,0:0:0:0:
288,176,138256,1,0,0:0:0:0:
208,104,138423,1,0,0:0:0:0:
128,184,138590,5,0,0:0:0:0:
184,296,138756,1,0,0:0:0:0:
304,336,138923,1,0,0:0:0:0:
416,288,139090,1,0,0:0:0:0:
464,176,139256,2,0,P|440:96|360:64,1,175
160,104,139923,6,0,P|168:184|240:240,1,175
304,144,140423,1,0,0:0:0:0:
304,144,140506,1,0,0:0:0:0:
304,144,140590,2,0,P|360:128|392:144,1,87.5
344,312,140923,1,0,0:0:0:0:
200,120,141090,1,0,0:0:0:0:
376,48,141256,6,0,P|416:80|432:120,2,87.5
376,48,141590,1,0,0:0:0:0:
256,40,141756,1,0,0:0:0:0:
176,128,141923,2,0,P|208:224|184:296,1,175
280,368,142423,1,0,0:0:0:0:
280,368,142506,1,0,0:0:0:0:
280,368,142590,6,0,P|328:368|368:352,1,87.5
464,280,142923,1,0,0:0:0:0:
464,280,143256,1,0,0:0:0:0:
344,320,143423,1,0,0:0:0:0:
232,280,143590,1,0,0:0:0:0:
176,168,143756,1,0,0:0:0:0:
288,56,143923,5,0,0:0:0:0:
392,120,144090,1,0,0:0:0:0:
296,192,144256,1,0,0:0:0:0:
416,232,144423,1,0,0:0:0:0:
328,320,144590,2,0,P|240:336|168:296,1,175
120,56,145256,6,0,P|184:64|208:96,2,87.5
120,56,145923,1,0,0:0:0:0:
64,168,146090,1,0,0:0:0:0:
184,192,146256,1,0,0:0:0:0:
144,312,146423,1,0,0:0:0:0:
312,296,146590,5,0,0:0:0:0:
336,160,146756,1,0,0:0:0:0:
256,48,146923,1,0,0:0:0:0:
120,32,147090,1,0,0:0:0:0:
8,112,147256,2,0,P|0:184|48:272,1,175
176,320,147756,1,0,0:0:0:0:
256,208,147923,6,0,P|184:176|80:184,1,175
16,368,148590,2,0,P|128:344|168:296,1,175
208,192,149090,1,0,0:0:0:0:
208,192,149256,1,0,0:0:0:0:
256,192,149423,12,0,151256,0:0:0:0:
144,280,157256,6,0,B|128:224|128:224|160:168|160:168|144:104,1,175
256,328,157756,1,0,0:0:0:0:
424,160,157923,2,0,B|424:112|424:112|464:96,1,87.5
256,216,158256,2,0,L|256:128,1,87.5
88,160,158590,2,0,B|88:112|88:112|48:96,1,87.5
176,296,158923,1,0,0:0:0:0:
392,200,159090,1,0,0:0:0:0:
168,136,159256,1,0,0:0:0:0:
392,48,159423,1,0,0:0:0:0:
160,0,159590,2,0,P|104:8|80:32,1,87.5
72,264,159923,6,0,P|160:336|224:344,1,175
408,208,160423,2,0,P|424:264|408:296,2,87.5
320,136,160923,5,0,0:0:0:0:
128,272,161090,1,0,0:0:0:0:
360,296,161256,5,0,0:0:0:0:
152,176,161423,1,0,0:0:0:0:
384,200,161590,5,0,0:0:0:0:
160,336,161756,1,0,0:0:0:0:
232,96,161923,5,0,0:0:0:0:
304,352,162090,1,0,0:0:0:0:
304,144,162256,6,0,L|352:128,1,43.75
232,240,162423,2,0,L|176:264,1,43.75
336,272,162590,6,0,B|400:248|400:248|424:200|424:200|472:176,1,175
264,160,163090,1,0,0:0:0:0:
128,304,163256,2,0,P|192:328|224:320,1,87.5
384,248,163590,2,0,P|320:216|280:224,1,87.5
88,280,163923,5,0,0:0:0:0:
288,160,164090,1,0,0:0:0:0:
24,112,164256,1,0,0:0:0:0:
200,256,164423,1,0,0:0:0:0:
224,32,164590,2,0,P|248:0|304:0,1,87.5
472,152,164923,2,0,P|440:192|392:192,1,87.5
176,176,165256,6,0,P|184:264|256:336,1,175
440,224,165756,1,0,0:0:0:0:
216,96,165923,1,0,0:0:0:0:
448,152,166090,1,0,0:0:0:0:
216,264,166256,1,0,0:0:0:0:
440,224,166423,1,0,0:0:0:0:
216,96,166590,6,0,P|152:96|128:112,1,87.5
48,280,166923,2,0,P|56:336|88:360,1,87.5
288,368,167256,2,0,P|320:344|336:296,1,87.5
304,88,167590,2,0,P|344:48|376:48,1,87.5
400,296,167923,6,0,P|336:328|232:320,1,175
104,144,168423,1,0,0:0:0:0:
336,112,168590,2,0,P|360:168|352:208,1,87.5
160,320,168923,2,0,P|136:264|144:224,1,87.5
296,64,169256,5,0,0:0:0:0:
360,288,169423,1,0,0:0:0:0:
216,72,169590,1,0,0:0:0:0:
208,312,169756,1,0,0:0:0:0:
136,80,169923,1,0,0:0:0:0:
88,320,170090,1,0,0:0:0:0:
272,128,170256,1,0,0:0:0:0:
296,352,170423,1,0,0:0:0:0:
464,208,170590,6,0,B|480:136|480:136|456:88|456:88|464:40,1,175
264,168,171090,2,0,P|296:232|320:240,1,87.5
440,40,171423,1,0,0:0:0:0:
440,40,171590,2,0,P|392:24|352:32,1,87.5
152,144,171923,2,0,P|200:128|240:136,1,87.5
448,240,172256,2,0,P|400:224|360:232,1,87.5
192,344,172590,2,0,P|176:360|152:368,2,43.75
264,176,172923,2,0,P|280:160|304:152,2,43.75
144,320,173256,6,0,P|104:336|56:336,2,87.5
336,88,173923,2,0,P|352:184|400:248,1,175
200,312,174423,1,0,0:0:0:0:
136,128,174590,6,0,P|152:96|208:64,2,87.5
304,328,175256,2,0,P|400:328|480:368,1,175
472,88,175923,6,0,P|392:122|305:120,1,175
128,64,176423,1,0,0:0:0:0:
80,256,176590,2,0,L|176:248,1,87.5
312,64,176923,2,0,L|216:72,1,87.5
160,296,177256,5,0,0:0:0:0:
328,128,177423,1,0,0:0:0:0:
96,160,177590,1,0,0:0:0:0:
312,256,177756,1,0,0:0:0:0:
88,336,177923,2,0,P|80:280|88:248,1,87.5
280,112,178256,2,0,P|288:168|280:200,1,87.5
40,216,178590,6,0,B|64:152|144:184|184:120,1,175
400,32,179090,1,0,0:0:0:0:
424,264,179256,2,0,P|414:297|376:336,1,87.5
264,128,179590,2,0,P|312:136|336:168,1,87.5
104,216,179923,5,0,0:0:0:0:
312,328,180090,1,0,0:0:0:0:
224,112,180256,1,0,0:0:0:0:
168,344,180423,1,0,0:0:0:0:
224,112,180590,1,0,0:0:0:0:
312,328,180756,1,0,0:0:0:0:
104,216,180923,2,0,P|56:168|48:144,1,87.5
280,88,181256,6,0,P|319:117|336:160,1,87.5
184,336,181590,1,0,0:0:0:0:
112,112,181756,1,0,0:0:0:0:
344,168,181923,1,0,0:0:0:0:
128,264,182090,1,0,0:0:0:0:
288,96,182256,1,0,0:0:0:0:
360,320,182423,1,0,0:0:0:0:
208,144,182590,6,0,P|288:96|368:96,2,175
152,320,183423,1,0,0:0:0:0:
184,352,183506,1,0,0:0:0:0:
224,360,183590,1,0,0:0:0:0:
392,272,183756,1,0,0:0:0:0:
368,240,183840,1,0,0:0:0:0:
328,224,183923,6,0,P|256:184|224:96,1,175
456,56,184423,1,0,0:0:0:0:
456,56,184590,2,0,P|472:112|464:144,1,87.5
296,304,184923,2,0,P|256:240|256:208,1,87.5
80,72,185256,6,0,P|64:160|72:176,1,87.5
160,296,185590,2,0,P|200:320|240:320,1,87.5
256,80,185923,2,0,P|264:144|288:176,1,87.5
344,344,186256,2,0,P|392:360|432:352,1,87.5
360,128,186590,6,0,P|288:112|264:120,1,87.5
152,312,186923,1,0,0:0:0:0:
352,184,187090,1,0,0:0:0:0:
120,152,187256,1,0,0:0:0:0:
320,272,187423,1,0,0:0:0:0:
384,48,187590,2,0,P|424:96|424:128,1,87.5
360,312,187923,5,0,0:0:0:0:
312,136,188090,1,0,0:0:0:0:
224,360,188256,5,0,0:0:0:0:
216,104,188423,1,0,0:0:0:0:
104,304,188590,5,0,0:0:0:0:
144,56,188756,1,0,0:0:0:0:
280,232,188923,5,0,0:0:0:0:
32,152,189090,1,0,0:0:0:0:
280,232,189256,6,0,B|352:256|352:256|384:304|384:304|432:320,1,175
384,104,189756,1,0,0:0:0:0:
192,248,189923,2,0,L|104:224,1,87.5
224,56,190256,2,0,L|264:152,1,87.5
64,240,190590,2,0,L|104:160,1,87.5
288,312,190923,2,0,L|192:320,1,87.5
184,80,191256,1,0,0:0:0:0:
368,240,191423,1,0,0:0:0:0:
136,208,191590,1,0,0:0:0:0:
368,128,191756,1,0,0:0:0:0:
280,344,191923,6,0,P|224:336|128:264,1,175
304,112,192423,1,0,0:0:0:0:
280,344,192590,1,0,0:0:0:0:
48,376,192756,2,0,P|24:336|32:296,1,87.5
224,160,193090,1,0,0:0:0:0:
8,72,193256,1,0,0:0:0:0:
104,288,193423,1,0,0:0:0:0:
168,56,193590,5,0,0:0:0:0:
32,248,193756,1,0,0:0:0:0:
264,96,193923,5,0,0:0:0:0:
216,312,194090,1,0,0:0:0:0:
360,120,194256,5,0,0:0:0:0:
384,336,194423,1,0,0:0:0:0:
176,224,194590,6,0,P|160:160|192:56,1,175
400,176,195090,1,0,0:0:0:0:
200,296,195256,1,0,0:0:0:0:
296,80,195423,1,0,0:0:0:0:
376,304,195590,1,0,0:0:0:0:
192,160,195756,1,0,0:0:0:0:
400,56,195923,6,0,P|436:112|432:216,1,175
232,344,196423,1,0,0:0:0:0:
280,112,196590,1,0,0:0:0:0:
416,304,196756,1,0,0:0:0:0:
192,216,196923,1,0,0:0:0:0:
424,168,197090,1,0,0:0:0:0:
224,48,197256,6,0,P|144:64|72:136,1,175
152,352,197756,1,0,0:0:0:0:
256,136,197923,1,0,0:0:0:0:
40,224,198089,1,0,0:0:0:0:
264,296,198256,1,0,0:0:0:0:
128,104,198423,1,0,0:0:0:0:
56,328,198590,6,0,P|136:352|232:336,1,175
384,160,199090,1,0,0:0:0:0:
152,200,199257,1,0,0:0:0:0:
376,272,199423,1,0,0:0:0:0:
192,120,199590,1,0,0:0:0:0:
288,336,199757,1,0,0:0:0:0:
288,104,199923,6,0,P|368:80|456:104,1,175
312,296,200423,1,0,0:0:0:0:
160,112,200590,1,0,0:0:0:0:
144,344,200756,1,0,0:0:0:0:
296,160,200923,1,0,0:0:0:0:
64,184,201090,1,0,0:0:0:0:
240,336,201256,6,0,P|316:333|400:280,1,175
208,136,201756,1,0,0:0:0:0:
176,368,201923,1,0,0:0:0:0:
328,192,202089,1,0,0:0:0:0:
96,240,202256,1,0,0:0:0:0:
328,192,202423,1,0,0:0:0:0:
112,88,202590,5,0,0:0:0:0:
80,272,202756,1,0,0:0:0:0:
224,80,202923,5,0,0:0:0:0:
192,304,203090,1,0,0:0:0:0:
328,72,203256,5,0,0:0:0:0:
320,328,203423,1,0,0:0:0:0:
432,64,203590,5,0,0:0:0:0:
424,360,203756,1,0,0:0:0:0:
176,296,203923,5,0,0:0:0:0:
480,248,204090,1,0,0:0:0:0:
152,208,204256,5,0,0:0:0:0:
416,160,204423,1,0,0:0:0:0:
128,120,204590,5,0,0:0:0:0:
336,80,204756,1,0,0:0:0:0:
88,32,204923,5,0,0:0:0:0:
264,8,205090,1,0,0:0:0:0:
232,168,205256,1,0,0:0:0:0:
256,192,205423,12,0,208590,0:0:0:0:
