osu file format v14

[General]
AudioFilename: audio.mp3
AudioLeadIn: 0
PreviewTime: -1
Countdown: 1
SampleSet: Normal
StackLeniency: 0.6
Mode: 0
LetterboxInBreaks: 0
WidescreenStoryboard: 0

[Editor]
DistanceSpacing: 0.8
BeatDivisor: 1
GridSize: 32
TimelineZoom: 1

[Metadata]
Title:sousei no onmyouji
TitleUnicode:sousei no onmyouji
Artist:marcusur77
ArtistUnicode:marcusur77
Creator:marcusur77
Version:Isard
Source:
Tags:
BeatmapID:1384632
BeatmapSetID:653107

[Difficulty]
HPDrainRate:7
CircleSize:5
OverallDifficulty:7
ApproachRate:7
SliderMultiplier:2.99999990463257
SliderTickRate:4

[Events]
//Background and Video events
0,0,"sousei no onmyouji.png",0,0
Video,0,"c-anime-sousei-no-onmyouji-opening-3-hd.mp4"
//Break Periods
2,39200,44100
//Storyboard Layer 0 (Background)
//Storyboard Layer 1 (Fail)
//Storyboard Layer 2 (Pass)
//Storyboard Layer 3 (Foreground)
//Storyboard Sound Samples

[TimingPoints]
0,500,4,1,0,100,1,0

[Colours]
Combo1 : 255,0,0
Combo2 : 255,0,0
Combo3 : 255,0,0
Combo4 : 255,0,0

[HitObjects]
64,96,0,5,0,0:0:0:0:
192,64,500,1,0,0:0:0:0:
320,64,1000,1,0,0:0:0:0:
384,96,1500,1,0,0:0:0:0:
384,128,2000,1,0,0:0:0:0:
320,192,2500,1,0,0:0:0:0:
224,224,3000,1,0,0:0:0:0:
384,256,3500,1,0,0:0:0:0:
64,128,4000,1,0,0:0:0:0:
384,128,4500,1,0,0:0:0:0:
384,224,5000,1,0,0:0:0:0:
160,224,5500,1,0,0:0:0:0:
448,96,6000,1,0,0:0:0:0:
352,256,6500,1,0,0:0:0:0:
96,160,7000,1,0,0:0:0:0:
160,64,7500,1,0,0:0:0:0:
416,64,8000,1,0,0:0:0:0:
416,192,8500,1,0,0:0:0:0:
224,224,9000,1,0,0:0:0:0:
96,96,9500,1,0,0:0:0:0:
352,96,10000,1,0,0:0:0:0:
448,96,10500,1,0,0:0:0:0:
448,224,11000,1,0,0:0:0:0:
192,192,11500,1,0,0:0:0:0:
64,64,12000,1,0,0:0:0:0:
96,224,12500,1,0,0:0:0:0:
160,192,13000,1,0,0:0:0:0:
288,160,14000,1,0,0:0:0:0:
384,96,14500,1,0,0:0:0:0:
160,64,15000,1,0,0:0:0:0:
64,96,16000,1,0,0:0:0:0:
224,160,16500,1,0,0:0:0:0:
384,128,17000,1,0,0:0:0:0:
192,96,17500,1,0,0:0:0:0:
32,32,18000,1,0,0:0:0:0:
128,224,19000,1,0,0:0:0:0:
352,256,19500,1,0,0:0:0:0:
352,352,20000,1,0,0:0:0:0:
96,288,20500,1,0,0:0:0:0:
416,32,21000,1,0,0:0:0:0:
416,192,21500,1,0,0:0:0:0:
192,224,22000,1,0,0:0:0:0:
32,160,23000,1,0,0:0:0:0:
192,96,24500,1,0,0:0:0:0:
288,64,25500,1,0,0:0:0:0:
448,192,26500,1,0,0:0:0:0:
352,288,27000,1,0,0:0:0:0:
192,256,28000,1,0,0:0:0:0:
320,64,29000,1,0,0:0:0:0:
448,128,29500,1,0,0:0:0:0:
448,224,30000,1,0,0:0:0:0:
192,192,30500,1,0,0:0:0:0:
128,128,31000,1,0,0:0:0:0:
320,96,32000,1,0,0:0:0:0:
448,160,32500,1,0,0:0:0:0:
384,224,33000,1,0,0:0:0:0:
128,192,34000,1,0,0:0:0:0:
128,160,34500,1,0,0:0:0:0:
96,128,35500,1,0,0:0:0:0:
192,96,36500,1,0,0:0:0:0:
256,192,37500,12,0,39000,0:0:0:0:
128,128,45000,5,0,0:0:0:0:
224,128,46000,1,0,0:0:0:0:
288,160,47000,1,0,0:0:0:0:
160,224,48000,1,0,0:0:0:0:
96,96,48500,1,0,0:0:0:0:
96,96,49000,1,0,0:0:0:0:
480,64,49500,1,0,0:0:0:0:
96,288,50000,1,0,0:0:0:0:
288,96,50500,1,0,0:0:0:0:
384,160,51000,1,0,0:0:0:0:
320,224,51500,1,0,0:0:0:0:
64,256,52000,2,0,L|416:96,1,299.999990463257
96,256,53000,2,0,B|416:64|416:64|192:64|160:64,1,599.999980926514
96,160,54500,1,0,0:0:0:0:
96,128,55000,1,0,0:0:0:0:
160,96,55500,1,0,0:0:0:0:
288,96,56000,1,0,0:0:0:0:
384,96,56500,1,0,0:0:0:0:
416,160,57000,1,0,0:0:0:0:
288,288,57500,1,0,0:0:0:0:
96,256,58000,1,0,0:0:0:0:
96,128,58500,1,0,0:0:0:0:
128,96,59500,1,0,0:0:0:0:
160,128,60000,1,0,0:0:0:0:
192,160,60500,1,0,0:0:0:0:
256,160,61000,1,0,0:0:0:0:
288,192,61500,1,0,0:0:0:0:
288,192,62000,1,0,0:0:0:0:
288,192,62500,1,0,0:0:0:0:
288,192,63500,1,0,0:0:0:0:
288,192,64000,1,0,0:0:0:0:
288,192,64500,1,0,0:0:0:0:
288,192,65000,1,0,0:0:0:0:
288,192,65500,1,0,0:0:0:0:
288,192,66000,1,0,0:0:0:0:
288,192,66500,1,0,0:0:0:0:
96,96,67000,1,0,0:0:0:0:
352,96,67500,1,0,0:0:0:0:
416,224,68000,1,0,0:0:0:0:
160,288,68500,1,0,0:0:0:0:
32,96,69000,1,0,0:0:0:0:
352,64,69500,1,0,0:0:0:0:
384,224,70000,1,0,0:0:0:0:
288,320,70500,1,0,0:0:0:0:
32,192,71000,1,0,0:0:0:0:
128,32,71500,1,0,0:0:0:0:
352,192,72000,1,0,0:0:0:0:
192,192,72500,1,0,0:0:0:0:
160,96,73000,1,0,0:0:0:0:
384,64,73500,1,0,0:0:0:0:
352,192,74000,1,0,0:0:0:0:
416,64,74500,1,0,0:0:0:0:
256,96,75000,1,0,0:0:0:0:
160,96,75500,1,0,0:0:0:0:
128,192,76000,1,0,0:0:0:0:
288,256,76500,1,0,0:0:0:0:
416,192,77000,1,0,0:0:0:0:
416,96,77500,1,0,0:0:0:0:
256,128,78000,1,0,0:0:0:0:
128,96,78500,1,0,0:0:0:0:
128,288,79000,1,0,0:0:0:0:
448,128,79500,1,0,0:0:0:0:
224,96,80000,1,0,0:0:0:0:
96,128,80500,1,0,0:0:0:0:
128,192,82000,1,0,0:0:0:0:
224,224,83000,1,0,0:0:0:0:
320,224,84000,1,0,0:0:0:0:
192,160,85000,1,0,0:0:0:0:
288,128,85500,1,0,0:0:0:0:
352,128,86000,1,0,0:0:0:0:
416,160,86500,1,0,0:0:0:0:
416,224,87000,1,0,0:0:0:0:
160,160,87500,1,0,0:0:0:0:
128,128,89000,1,0,0:0:0:0:
224,128,90000,1,0,0:0:0:0:
