osu file format v14

[General]
AudioFilename: audio.mp3
AudioLeadIn: 0
PreviewTime: 51220
Countdown: 0
SampleSet: Soft
StackLeniency: 0.4
Mode: 0
LetterboxInBreaks: 0
WidescreenStoryboard: 0

[Editor]
Bookmarks: 1395,4751,18178,24891,38318,51744,65171,83632,89087
DistanceSpacing: 1
BeatDivisor: 4
GridSize: 4
TimelineZoom: 1.3

[Metadata]
Title:Suisai Candy (TV Size)
TitleUnicode:水彩キャンディー (TV Size)
Artist:marble
ArtistUnicode:marble
Creator:lit120
Version:Normal
Source:ましろ色シンフォニー -The color of lovers-
Tags:mashiro-iro symphony mashiroiro mashiro iro anime ed ending japanese ぱれっと palette eroge vn visual novel jpop j-pop pop -Hakurei-
BeatmapID:4539193
BeatmapSetID:2154085

[Difficulty]
HPDrainRate:4
CircleSize:3
OverallDifficulty:5
ApproachRate:5
SliderMultiplier:1.1
SliderTickRate:1

[Events]
//Background and Video events
0,0,"bg.jpg",0,0
Video,-105,"suisai.mp4"
//Break Periods
//Storyboard Layer 0 (Background)
//Storyboard Layer 1 (Fail)
//Storyboard Layer 2 (Pass)
//Storyboard Layer 3 (Foreground)
//Storyboard Layer 4 (Overlay)
//Storyboard Sound Samples

[TimingPoints]
1395,419.58041958042,4,2,2,60,1,0
4751,-100,4,2,1,60,0,0
17339,-100,4,2,1,65,0,0
17758,-100,4,2,1,70,0,0
18178,-100,4,2,1,75,0,0
51744,-90.9090909090909,4,2,2,85,0,1
81954,-100,4,2,2,60,0,0
83632,-100,4,2,2,75,0,0
89087,-100,4,2,2,30,0,0

[Colours]
Combo1 : 204,147,199
Combo2 : 108,123,168
Combo3 : 253,185,117
Combo4 : 75,39,201

[HitObjects]
148,20,1395,5,2,3:2:0:0:
364,20,2234,1,2,3:2:0:0:
256,212,3073,2,0,L|256:340,2,110,2|2|2,3:2|3:2|3:2,0:0:0:0:
256,100,4332,1,10,0:2:0:0:
148,100,4751,6,0,B|92:100|92:100|52:136,1,110,6|2,3:2|3:2,0:0:0:0:
16,180,5381,2,0,B|16:292,1,110,2|2,0:2|0:2,0:0:0:0:
96,368,6220,1,2,0:2:0:0:
176,292,6639,2,0,L|256:292,1,55,2|2,0:2|3:2,0:0:0:0:
328,344,7269,2,0,B|360:292|328:240,1,110,0|0,3:2|3:2,0:0:0:0:
236,180,8108,6,0,B|204:128|236:76,1,110,2|2,3:2|3:2,0:0:0:0:
280,48,8737,2,0,L|396:48,1,110,2|2,0:2|0:2,0:0:0:0:
480,112,9576,2,0,B|512:164|480:216,1,110,2|2,0:2|0:2,0:0:0:0:
432,244,10206,2,0,L|432:368,2,110,2|0|0,3:2|3:2|3:2,0:0:0:0:
384,216,11255,1,2,0:2:0:0:
384,216,11464,6,0,B|332:204|332:204|276:216,1,110,2|2,3:2|3:2,0:0:0:0:
228,244,12094,2,0,L|116:244,1,110,2|2,0:2|0:2,0:0:0:0:
60,336,12933,2,0,L|170:336,2,110,2|2|2,0:2|0:2|0:2,0:0:0:0:
0,244,14192,2,0,L|0:188,1,55,2|2,0:2|3:2,0:0:0:0:
48,160,14611,6,0,L|48:0,1,110,2|2,0:2|0:2,0:0:0:0:
92,16,15241,2,0,B|148:4|148:4|200:16,1,110,2|2,3:2|3:2,0:0:0:0:
292,72,16080,1,2,3:2:0:0:
292,72,16290,2,0,B|324:152|292:232,1,165,2|2,0:2|3:2,0:0:0:0:
200,296,17339,2,0,B|212:360|268:372,1,110,2|2,3:2|3:2,0:0:0:0:
380,372,18178,6,0,L|504:372,2,110,6|2|2,3:2|3:2|3:2,0:0:0:0:
312,284,19436,2,0,L|422:284,2,110,2|2|2,3:2|3:2|3:2,0:0:0:0:
312,172,20695,1,2,3:2:0:0:
200,172,21115,1,0,3:2:0:0:
200,284,21534,6,0,L|90:284,2,110,2|2|2,3:2|3:2|3:2,0:0:0:0:
132,372,22793,2,0,L|8:372,2,110,2|2|2,3:2|3:2|3:2,0:0:0:0:
200,284,24052,1,2,3:2:0:0:
200,172,24471,2,0,L|200:96,1,55,8|10,0:2|0:2,0:0:0:0:
164,76,24891,6,0,B|112:64|112:64|56:76,1,110,6|10,3:2|3:2,0:0:0:0:
8,104,25520,2,0,B|-4:156|-4:156|8:212,1,110,2|10,0:2|0:2,0:0:0:0:
92,284,26360,1,2,3:2:0:0:
176,212,26779,1,2,3:2:0:0:
176,212,26989,2,0,L|292:212,1,110,10|0,3:2|3:2,0:0:0:0:
368,284,27828,2,0,L|436:284,1,55,10|2,3:2|0:2,0:0:0:0:
468,252,28248,6,0,B|480:200|480:200|468:144,1,110,2|10,3:2|3:2,0:0:0:0:
412,144,28877,2,0,B|400:92|400:92|412:36,1,110,2|10,0:2|0:2,0:0:0:0:
308,0,29716,1,2,3:2:0:0:
204,36,30136,2,0,L|204:96,1,55,2|10,3:2|3:2,0:0:0:0:
264,184,30765,2,0,L|324:184,2,55,0|0|8,3:2|3:2|3:2,0:0:0:0:
204,276,31604,6,0,B|152:308|100:276,1,110,6|10,3:2|3:2,0:0:0:0:
68,232,32234,2,0,L|68:116,1,110,2|10,0:2|0:2,0:0:0:0:
68,12,33073,2,0,B|124:0|124:0|176:12,1,110,2|2,3:2|3:2,0:0:0:0:
256,84,33912,1,2,0:2:0:0:
336,12,34332,6,0,B|388:0|388:0|444:12,2,110,2|2|0,0:2|0:2|3:2,0:0:0:0:
288,40,35381,2,0,L|256:84,1,55,10|2,0:2|3:2,0:0:0:0:
256,192,36010,1,2,3:2:0:0:
256,300,36429,2,0,B|288:336|288:336|404:336,1,165,6|8,3:2|3:2,0:0:0:0:
496,272,37478,1,8,3:2:0:0:
496,160,37898,2,0,L|496:104,1,55,2|10,3:2|3:2,0:0:0:0:
456,68,38318,6,0,B|404:56|404:56|348:68,2,110,4|10|2,3:2|3:2|3:2,0:0:0:0:
404,164,39576,1,10,3:2:0:0:
404,164,39786,2,0,B|352:176|352:176|296:164,1,110,2|2,0:2|0:2,0:0:0:0:
244,68,40625,2,0,B|192:56|192:56|136:68,1,110,2|2,0:2|3:2,0:0:0:0:
100,108,41255,6,0,L|100:172,1,55,10|2,3:2|0:2,0:0:0:0:
156,256,41884,2,0,L|220:256,2,55,2|10|2,0:2|3:2|0:2,0:0:0:0:
100,256,42513,1,2,3:2:0:0:
100,368,42933,1,10,3:2:0:0:
100,368,43143,2,0,L|268:368,1,165,2|10,3:2|3:2,0:0:0:0:
376,368,44192,2,0,B|388:316|388:316|376:260,1,110,2|10,3:2|3:2,0:0:0:0:
284,200,45031,6,0,L|284:88,2,110,4|10|0,3:2|3:2|3:2,0:0:0:0:
200,260,46290,1,10,3:2:0:0:
200,260,46499,2,0,B|144:272|144:272|92:260,1,110,2|2,3:2|0:2,0:0:0:0:
0,200,47339,2,0,L|0:84,1,110,2|2,0:2|3:2,0:0:0:0:
96,36,48178,6,0,B|208:36|208:36|256:60,1,165,6|8,3:2|3:2,0:0:0:0:
344,128,49227,1,2,3:2:0:0:
256,192,49646,1,10,3:2:0:0:
168,256,50066,2,0,B|132:304|152:364,1,110,10|8,3:2|3:2,0:0:0:0:
256,324,50905,1,0,3:2:0:0:
256,324,51744,6,0,L|392:324,2,121.000003692627,6|8|0,3:2|0:2|0:0,0:0:0:0:
156,256,53003,1,10,0:2:0:0:
108,292,53213,1,2,0:0:0:0:
56,324,53422,2,0,B|24:292|24:292|24:216,1,121.000003692627,2|8,3:2|0:2,0:0:0:0:
24,96,54262,1,8,0:0:0:0:
24,96,54471,2,0,L|24:28,2,60.5000018463135,2|10|2,3:2|0:2|0:0,0:0:0:0:
72,132,55101,6,0,B|132:148|192:132,1,121.000003692627,2|10,3:2|0:2,0:0:0:0:
240,96,55730,2,0,B|300:80|360:96,1,121.000003692627,2|2,0:0|3:2,0:0:0:0:
436,192,56569,1,2,0:0:0:0:
360,288,56989,1,2,3:2:0:0:
240,288,57408,1,2,0:0:0:0:
164,384,57828,6,0,L|104:384,2,60.5000018463135,2|10|2,3:2|0:2|0:0,0:0:0:0:
240,288,58667,2,0,L|240:160,1,121.000003692627,2|2,3:2|0:0,0:0:0:0:
184,60,59506,2,0,B|240:36|240:36|296:60,2,121.000003692627,2|2|2,3:2|0:0|3:2,0:0:0:0:
152,112,60555,1,8,0:0:0:0:
120,164,60765,1,2,0:0:0:0:
60,60,61185,1,2,3:2:0:0:
0,164,61604,6,0,L|0:288,1,121.000003692627,2|2,0:0|3:2,0:0:0:0:
40,332,62234,2,0,B|124:332|124:332|176:332|208:292,1,181.500005538941,10|0,0:2|3:2,0:0:0:0:
256,252,63073,1,8,0:2:0:0:
256,132,63492,1,2,3:2:0:0:
304,92,63702,2,0,B|336:52|388:52|388:52|464:52,2,121.000003692627,2|10|6,3:2|0:0|3:2,0:0:0:0:
256,132,64751,2,0,L|256:192,1,60.5000018463135,10|8,0:2|0:3,0:0:0:0:
256,252,65171,6,0,B|200:276|200:276|144:252,2,121.000003692627,6|8|0,3:2|0:2|0:0,0:0:0:0:
356,184,66429,1,10,0:2:0:0:
408,216,66639,1,2,0:0:0:0:
456,252,66849,2,0,B|456:336|456:336|432:364,1,121.000003692627,2|8,3:2|0:2,0:0:0:0:
312,364,67688,1,8,0:0:0:0:
312,364,67898,2,0,L|236:364,2,60.5000018463135,2|10|2,3:2|0:2|0:0,0:0:0:0:
356,324,68527,6,0,L|356:192,1,121.000003692627,2|10,3:2|0:2,0:0:0:0:
356,144,69157,2,0,B|320:100|320:100|256:100,1,121.000003692627,2|2,0:0|3:2,0:0:0:0:
136,100,69996,1,2,0:0:0:0:
60,192,70415,1,2,3:2:0:0:
136,284,70835,1,2,0:0:0:0:
256,284,71255,6,0,B|320:284,2,60.5000018463135,2|10|2,3:2|0:2|0:0,0:0:0:0:
136,284,72094,1,2,3:2:0:0:
32,344,72513,2,0,B|16:284|32:224,1,121.000003692627,2|2,0:0|3:2,0:0:0:0:
120,140,73353,2,0,B|136:80|120:20,1,121.000003692627,2|2,0:0|3:2,0:0:0:0:
0,20,74192,1,2,0:0:0:0:
0,140,74611,1,2,3:2:0:0:
120,140,75031,6,0,B|240:140|240:140|284:96,1,181.500005538941,2|10,3:2|0:2,0:0:0:0:
356,0,76080,2,0,L|428:0,1,60.5000018463135,2|2,3:2|3:2,0:0:0:0:
504,84,76709,2,0,B|504:204|504:204|464:252,1,181.500005538941,2|10,3:2|0:2,0:0:0:0:
348,288,77758,2,0,L|272:288,1,60.5000018463135,2|2,3:2|3:2,0:0:0:0:
184,228,78388,6,0,B|128:204|128:204|72:228,1,121.000003692627,2|2,3:2|3:2,0:0:0:0:
72,348,79227,2,0,B|128:372|128:372|184:348,1,121.000003692627,2|2,0:0|3:2,0:0:0:0:
287,288,80066,1,2,3:2:0:0:
288,168,80485,1,2,3:2:0:0:
288,168,80695,2,0,L|288:32,1,121.000003692627,14|2,0:2|0:0,0:0:0:0:
176,0,81534,2,0,L|108:0,1,60.5000018463135,10|10,3:2|3:2,0:0:0:0:
56,16,81954,6,0,B|44:68|44:68|56:124,1,110,2|0,3:2|3:2,0:0:0:0:
164,124,82793,2,0,B|176:176|176:176|164:232,1,110,0|8,3:2|0:2,0:0:0:0:
140,280,83422,1,8,0:3:0:0:
140,280,83632,6,0,L|20:280,2,110,6|10|2,3:2|0:2|3:2,0:0:0:0:
220,352,84891,2,0,L|340:352,2,110,10|2|10,0:2|3:2|0:2,0:0:0:0:
256,248,86150,1,0,3:2:0:0:
256,136,86569,1,8,0:2:0:0:
292,32,86989,6,0,L|172:32,2,110,2|10|2,3:2|0:2|3:2,0:0:0:0:
372,104,88248,1,10,0:2:0:0:
480,104,88667,2,0,L|480:160,1,55,2|2,3:2|3:2,0:0:0:0:
480,216,89087,1,2,0:0:0:0:
