osu file format v14

[General]
AudioFilename: audio.mp3
AudioLeadIn: 0
PreviewTime: 51220
Countdown: 0
SampleSet: Soft
StackLeniency: 0.4
Mode: 0
LetterboxInBreaks: 0
WidescreenStoryboard: 0

[Editor]
Bookmarks: 1395,4751,18178,24891,38318,51744,65171,83632,89087
DistanceSpacing: 1.2
BeatDivisor: 4
GridSize: 4
TimelineZoom: 1.3

[Metadata]
Title:Suisai Candy (TV Size)
TitleUnicode:水彩キャンディー (TV Size)
Artist:marble
ArtistUnicode:marble
Creator:lit120
Version:Hard
Source:ましろ色シンフォニー -The color of lovers-
Tags:mashiro-iro symphony mashiroiro mashiro iro anime ed ending japanese ぱれっと palette eroge vn visual novel jpop j-pop pop -Hakurei-
BeatmapID:4541568
BeatmapSetID:2154085

[Difficulty]
HPDrainRate:5
CircleSize:4
OverallDifficulty:6
ApproachRate:7
SliderMultiplier:1.6
SliderTickRate:1

[Events]
//Background and Video events
0,0,"bg.jpg",0,0
Video,-105,"suisai.mp4"
//Break Periods
//Storyboard Layer 0 (Background)
//Storyboard Layer 1 (Fail)
//Storyboard Layer 2 (Pass)
//Storyboard Layer 3 (Foreground)
//Storyboard Layer 4 (Overlay)
//Storyboard Sound Samples

[TimingPoints]
1395,419.58041958042,4,2,2,60,1,0
4751,-100,4,2,1,60,0,0
17339,-100,4,2,1,65,0,0
17758,-100,4,2,1,70,0,0
18178,-100,4,2,1,75,0,0
51744,-90.9090909090909,4,2,2,85,0,1
81954,-100,4,2,2,60,0,0
83632,-100,4,2,2,70,0,0
89087,-100,4,2,2,30,0,0

[Colours]
Combo1 : 204,147,199
Combo2 : 108,123,168
Combo3 : 253,185,117
Combo4 : 75,39,201

[HitObjects]
256,64,1395,5,2,3:2:0:0:
112,192,1814,1,2,0:2:0:0:
256,320,2234,1,2,3:2:0:0:
400,192,2653,1,2,0:2:0:0:
256,64,3073,6,0,L|256:144,1,80,2|0,3:2|3:2,0:0:0:0:
256,240,3492,2,0,L|256:320,1,80,2|0,3:2|3:2,0:0:0:0:
176,376,3912,2,0,L|120:376,3,40,2|0|2|2,3:2|3:2|3:2|3:2,0:0:0:0:
88,376,4332,1,10,0:2:0:0:
88,376,4751,6,0,B|28:304|88:232,1,160,6|2,3:2|3:2,0:0:0:0:
152,160,5381,2,0,B|212:88|152:16,1,160,2|2,0:2|0:2,0:0:0:0:
88,88,6010,1,0,3:2:0:0:
152,160,6220,2,0,L|312:160,1,160,2|2,0:2|0:2,0:0:0:0:
312,64,6849,2,0,L|472:64,2,160,2|0|0,3:2|3:2|3:2,0:0:0:0:
312,160,7898,1,2,0:2:0:0:
396,208,8108,6,0,B|456:280|396:352,1,160,2|2,3:2|3:2,0:0:0:0:
300,352,8737,2,0,L|140:352,1,160,2|2,0:2|0:2,0:0:0:0:
76,280,9367,1,0,3:2:0:0:
140,208,9576,2,0,L|300:208,1,160,2|2,0:2|0:2,0:0:0:0:
396,208,10206,2,0,B|456:136|396:64,2,160,2|0|0,3:2|3:2|3:2,0:0:0:0:
300,208,11255,1,2,0:2:0:0:
260,120,11464,6,0,L|100:120,1,160,2|2,3:2|3:2,0:0:0:0:
36,48,12094,2,0,B|0:120|0:120|36:192,1,160,2|2,0:2|0:2,0:0:0:0:
144,352,12933,1,2,0:2:0:0:
256,192,13353,1,2,0:2:0:0:
368,352,13772,1,2,0:2:0:0:
476,192,14192,2,0,L|476:96,1,80,2|2,0:2|3:2,0:0:0:0:
400,56,14611,6,0,B|328:20|328:20|256:56,1,160,2|2,0:2|0:2,0:0:0:0:
188,124,15241,2,0,B|116:160|116:160|44:124,2,160,2|2|2,3:2|3:2|3:2,0:0:0:0:
256,192,16290,1,2,0:2:0:0:
256,192,16395,1,2,0:2:0:0:
256,192,16499,6,0,L|256:272,1,80,2|2,3:2|0:2,0:0:0:0:
160,272,16919,2,0,L|160:352,1,80,2|2,3:2|0:2,0:0:0:0:
64,352,17339,2,0,L|64:272,1,80,2|2,3:2|0:2,0:0:0:0:
8,192,17758,1,2,3:2:0:0:
64,112,17968,1,2,3:2:0:0:
156,136,18178,6,0,B|196:140|196:140|236:136,1,80,6|2,3:2|0:2,0:0:0:0:
312,80,18597,2,0,B|352:76|352:76|392:80,1,80,2|2,3:2|0:2,0:0:0:0:
472,136,19017,2,0,L|472:308,1,160,2|2,3:2|3:2,0:0:0:0:
404,364,19646,1,2,0:2:0:0:
336,296,19856,6,0,L|336:188,2,80,2|2|2,3:2|0:2|3:2,0:0:0:0:
268,364,20485,1,2,0:2:0:0:
268,364,20590,1,2,0:2:0:0:
268,364,20695,2,0,B|184:364|184:364|144:364|124:324,1,160,2|0,3:2|3:2,0:0:0:0:
124,132,21534,6,0,L|124:24,1,80,2|2,3:2|0:2,0:0:0:0:
28,52,21954,2,0,L|28:132,1,80,2|2,3:2|0:2,0:0:0:0:
76,216,22374,2,0,B|160:216|160:216|200:216|220:176,1,160,2|2,3:2|3:2,0:0:0:0:
220,80,23003,1,2,0:2:0:0:
304,32,23213,6,0,L|408:32,2,80,2|2|2,3:2|0:2|3:2,0:0:0:0:
220,80,23842,1,2,0:2:0:0:
304,128,24052,2,0,L|484:128,1,160,2|8,3:2|0:2,0:0:0:0:
512,212,24681,1,10,0:2:0:0:
464,296,24891,6,0,L|304:296,1,160,6|10,3:2|3:2,0:0:0:0:
216,336,25520,2,0,B|212:296|212:296|216:256,1,80,2|0,0:2|3:2,0:0:0:0:
304,216,25940,2,0,B|308:176|308:176|304:136,1,80,10|0,0:2|0:0,0:0:0:0:
216,96,26360,6,0,B|132:96|132:96|92:96|72:136,1,160,2|2,3:2|3:2,0:0:0:0:
72,232,26989,1,10,3:2:0:0:
232,336,27408,2,0,B|316:336|316:336|356:336|376:296,1,160,0|10,3:2|3:2,0:0:0:0:
376,200,28038,1,2,0:2:0:0:
304,136,28248,6,0,B|376:76|448:136,1,160,2|10,3:2|3:2,0:0:0:0:
488,224,28877,2,0,L|488:340,1,80,2|0,0:2|3:2,0:0:0:0:
412,364,29297,2,0,B|372:368|372:368|332:364,1,80,10|0,0:2|3:2,0:0:0:0:
256,304,29716,5,2,3:2:0:0:
256,112,30136,1,2,3:2:0:0:
196,36,30346,2,0,B|124:0|124:0|52:36,1,160,10|0,3:2|3:2,0:0:0:0:
12,124,30975,1,0,3:2:0:0:
80,192,31185,1,8,3:2:0:0:
12,260,31395,1,10,0:2:0:0:
12,260,31499,1,8,0:2:0:0:
12,260,31604,6,0,B|12:304|12:304|12:372|80:384,1,160,6|10,3:2|3:2,0:0:0:0:
176,384,32234,2,0,L|256:384,1,80,2|0,0:2|3:2,0:0:0:0:
312,304,32653,2,0,L|392:304,1,80,10|0,0:2|3:2,0:0:0:0:
448,224,33073,6,0,B|508:152|448:80,1,160,2|2,3:2|3:2,0:0:0:0:
256,80,33912,2,0,B|196:152|256:224,1,160,2|2,0:2|0:2,0:0:0:0:
312,304,34541,1,10,3:2:0:0:
256,384,34751,2,0,L|96:384,1,160,2|0,0:2|3:2,0:0:0:0:
16,332,35381,5,10,0:2:0:0:
96,276,35590,1,2,3:2:0:0:
256,384,36010,1,2,3:2:0:0:
416,276,36429,2,0,L|416:116,1,160,6|0,3:2|3:2,0:0:0:0:
376,28,37059,2,0,B|336:20|296:28,1,80,8|0,3:2|3:2,0:0:0:0:
256,116,37478,2,0,L|256:176,3,40,8|8|10|8,3:2|0:2|0:2|0:2,0:0:0:0:
216,184,37898,2,0,L|216:244,3,40,10|8|10|8,3:2|0:0|3:2|0:2,0:0:0:0:
176,252,38318,6,0,B|128:252|104:224,1,80,4|2,3:2|0:2,0:0:0:0:
104,128,38737,2,0,L|104:48,1,80,10|2,3:2|0:2,0:0:0:0:
8,48,39157,2,0,L|8:208,1,160,2|10,3:2|3:2,0:0:0:0:
8,304,39786,2,0,B|24:360|80:360|80:360|140:360,1,160,2|2,0:2|0:2,0:0:0:0:
236,360,40415,1,10,3:2:0:0:
256,268,40625,1,2,0:2:0:0:
256,76,41045,6,0,B|276:36|320:36,1,80,2|10,3:2|3:2,0:0:0:0:
416,36,41464,2,0,B|512:36|512:136,1,160,2|2,0:2|0:2,0:0:0:0:
512,232,42094,2,0,L|512:328,1,80,10|2,3:2|0:2,0:0:0:0:
432,368,42513,1,2,3:2:0:0:
240,368,42933,5,10,3:2:0:0:
160,312,43143,2,0,L|160:132,1,160,2|2,3:2|3:2,0:0:0:0:
160,56,43772,2,0,B|136:20|92:20,2,80,10|2|2,3:2|0:2|3:2,0:0:0:0:
161,151,44401,2,0,B|196:152|232:120,1,80,2|10,3:2|3:2,0:0:0:0:
160,56,44821,6,0,B|100:60|60:104|60:160,1,160,2|2,0:2|0:2,0:0:0:0:
60,256,45450,1,10,3:2:0:0:
152,288,45660,2,0,L|200:288,1,40,2|2,0:2|0:2,0:0:0:0:
336,288,46080,2,0,L|424:288,2,80,2|10|2,0:2|3:2|3:2,0:0:0:0:
336,96,46919,2,0,L|424:96,2,80,2|10|2,0:2|3:2|0:2,0:0:0:0:
168,192,47758,2,0,L|88:192,1,80,2|8,3:2|3:2,0:0:0:0:
32,112,48178,6,0,B|60:52|128:32|196:52|224:112,1,240,6|8,3:2|3:2,0:0:0:0:
224,304,49227,1,2,3:2:0:0:
416,304,49646,1,10,3:2:0:0:
416,112,50066,2,0,L|416:24,1,80,10|0,3:2|0:0,0:0:0:0:
324,0,50485,2,0,L|276:0,3,40,8|8|8|4,3:2|0:3|0:3|0:3,0:0:0:0:
240,20,50905,1,2,3:2:0:0:
240,20,51744,6,0,L|240:108,1,88.000002685547,6|0,3:2|3:2,0:0:0:0:
320,176,52164,2,0,B|240:212|240:212|160:176,1,176.000005371094,8|0,0:2|0:0,0:0:0:0:
84,104,52793,1,0,3:2:0:0:
8,176,53003,2,0,L|8:264,1,88.000002685547,10|2,0:2|0:0,0:0:0:0:
60,356,53422,6,0,B|104:367|148:356,2,88.000002685547,2|0|8,3:2|3:2|0:2,0:0:0:0:
112,264,54052,1,8,0:0:0:0:
112,264,54157,1,8,0:0:0:0:
112,264,54262,2,0,B|156:253|200:264,1,88.000002685547,8|2,0:0|3:2,0:0:0:0:
256,352,54681,2,0,B|300:363|344:352,1,88.000002685547,10|2,0:2|0:0,0:0:0:0:
400,264,55101,6,0,B|400:168|344:100,1,176.000005371094,2|10,3:2|0:2,0:0:0:0:
256,44,55730,1,2,0:0:0:0:
192,244,56150,1,2,3:2:0:0:
360,116,56569,1,2,0:0:0:0:
152,116,56989,1,2,3:2:0:0:
320,244,57408,2,0,L|380:244,2,44.0000013427735,10|8|8,0:0|0:0|0:0,0:0:0:0:
256,328,57828,6,0,L|168:328,1,88.000002685547,2|10,3:2|0:2,0:0:0:0:
60,328,58248,2,0,B|16:312|16:264|16:264|16:172,1,176.000005371094,2|2,0:0|3:2,0:0:0:0:
96,104,58877,1,8,0:2:0:0:
152,192,59087,1,2,0:0:0:0:
336,88,59506,5,2,3:2:0:0:
336,296,59926,1,2,0:0:0:0:
152,192,60346,1,2,3:2:0:0:
336,88,60765,2,0,L|336:32,2,44.0000013427735,10|8|8,0:0|0:0|0:0,0:0:0:0:
380,184,61185,2,0,B|336:195|292:184,1,88.000002685547,2|8,3:2|0:2,0:0:0:0:
228,100,61604,6,0,B|144:56|60:100,1,176.000005371094,2|2,0:0|3:2,0:0:0:0:
0,188,62234,2,0,L|0:364,1,176.000005371094,10|0,0:2|0:0,0:0:0:0:
104,384,62863,1,0,3:2:0:0:
176,308,63073,2,0,B|216:289|216:289|256:308,1,88.000002685547,8|2,0:2|0:0,0:0:0:0:
328,384,63492,5,2,3:2:0:0:
432,364,63702,1,2,3:2:0:0:
308,192,64122,1,2,0:0:0:0:
432,20,64541,1,6,3:2:0:0:
328,0,64751,1,10,0:2:0:0:
256,76,64961,1,8,0:3:0:0:
256,76,65066,1,4,0:3:0:0:
256,76,65171,6,0,B|216:95|216:95|176:76,1,88.000002685547,6|0,3:2|3:2,0:0:0:0:
100,4,65590,2,0,B|44:32|44:120|100:148,1,176.000005371094,8|0,0:2|0:0,0:0:0:0:
176,220,66220,1,2,3:2:0:0:
100,292,66429,2,0,B|100:380,1,88.000002685547,10|2,0:2|0:0,0:0:0:0:
4,336,66849,6,0,B|4:248,2,88.000002685547,2|0|8,3:2|3:2|0:2,0:0:0:0:
100,292,67478,1,8,0:0:0:0:
100,292,67583,1,8,0:0:0:0:
100,292,67688,2,0,B|144:292|184:316,1,88.000002685547,8|2,0:0|3:2,0:0:0:0:
288,316,68108,2,0,B|328:292|372:292,1,88.000002685547,10|2,0:2|0:0,0:0:0:0:
468,336,68527,6,0,B|468:152,1,176.000005371094,2|10,3:2|0:2,0:0:0:0:
424,64,69157,1,2,0:0:0:0:
256,192,69576,1,2,3:2:0:0:
88,64,69996,1,2,0:0:0:0:
152,264,70415,1,2,3:2:0:0:
360,264,70835,2,0,L|420:264,2,44.0000013427735,10|8|8,0:0|0:0|0:0,0:0:0:0:
300,352,71255,6,0,L|212:352,1,88.000002685547,2|10,3:2|0:2,0:0:0:0:
152,264,71674,2,0,B|96:176|152:100,1,176.000005371094,2|2,0:0|3:2,0:0:0:0:
360,100,72513,2,0,B|416:176|360:264,1,176.000005371094,2|2,0:0|3:2,0:0:0:0:
168,348,73353,5,2,0:0:0:0:
88,152,73772,1,2,3:2:0:0:
256,24,74192,1,2,0:0:0:0:
424,152,74611,1,2,3:2:0:0:
344,348,75031,6,0,B|288:320|288:232|344:204,1,176.000005371094,2|0,3:2|3:2,0:0:0:0:
436,152,75660,2,0,B|492:124|492:36|436:8,1,176.000005371094,10|2,0:2|3:2,0:0:0:0:
328,8,76290,1,2,3:2:0:0:
256,84,76499,1,10,0:2:0:0:
184,8,76709,6,0,B|76:8|76:8|40:8|20:40,1,176.000005371094,2|2,3:2|3:2,0:0:0:0:
20,148,77339,2,0,L|20:324,1,176.000005371094,10|2,0:2|3:2,0:0:0:0:
108,384,77968,1,2,3:2:0:0:
168,296,78178,1,10,0:2:0:0:
256,356,78388,6,0,L|344:356,1,88.000002685547,2|0,3:2|0:0,0:0:0:0:
344,252,78807,2,0,L|256:252,1,88.000002685547,2|8,3:2|0:2,0:0:0:0:
164,196,79227,2,0,B|108:168|108:80|164:52,1,176.000005371094,2|2,0:0|3:2,0:0:0:0:
256,0,79856,1,8,0:2:0:0:
348,52,80066,1,2,3:2:0:0:
192,192,80485,1,0,3:0:0:0:
88,192,80695,2,0,B|32:220|32:308|88:336,1,176.000005371094,14|2,0:2|0:2,0:0:0:0:
300,336,81534,2,0,L|356:336,3,44.0000013427735,10|8|10|10,3:2|0:2|3:2|0:2,0:0:0:0:
376,300,81954,6,0,B|384:260|376:220,1,80,2|0,3:2|0:0,0:0:0:0:
316,144,82374,2,0,B|276:152|236:144,1,80,0|0,3:2|0:0,0:0:0:0:
184,64,82793,2,0,B|144:56|104:64,1,80,0|0,3:2|3:2,0:0:0:0:
52,144,83213,2,0,L|52:192,3,40,8|8|8|4,0:2|0:3|0:3|0:3,0:0:0:0:
80,224,83632,6,0,L|80:316,1,80,6|2,3:2|0:0,0:0:0:0:
168,344,84052,2,0,L|168:264,1,80,10|2,0:2|0:0,0:0:0:0:
256,224,84471,2,0,B|328:188|328:188|400:224,1,160,2|10,3:2|0:2,0:0:0:0:
464,296,85101,1,2,0:0:0:0:
492,204,85311,6,0,L|492:116,2,80,2|2|10,3:2|0:0|0:2,0:0:0:0:
400,224,85940,2,0,L|400:136,1,80,2|0,0:2|3:0,0:0:0:0:
328,80,86360,2,0,B|256:44|256:44|184:80,1,160,2|2,0:0|3:2,0:0:0:0:
112,144,86989,6,0,L|24:144,1,80,2|2,3:2|0:0,0:0:0:0:
32,240,87408,2,0,L|112:240,1,80,10|2,0:2|0:0,0:0:0:0:
184,304,87828,2,0,B|256:340|256:340|328:304,1,160,2|10,3:2|0:2,0:0:0:0:
400,240,88457,1,2,3:2:0:0:
400,144,88667,1,2,3:2:0:0:
328,80,88877,2,0,L|256:44,1,80,2|2,3:2|0:0,0:0:0:0:
