osu file format v14

[General]
AudioFilename: audio.mp3
AudioLeadIn: 0
PreviewTime: 168316
Countdown: 0
SampleSet: Soft
StackLeniency: 0.7
Mode: 3
LetterboxInBreaks: 0
SpecialStyle: 0
WidescreenStoryboard: 0

[Editor]
Bookmarks: 18479,28857,124857,135235,140425,145614,179344,184533,189722
DistanceSpacing: 1
BeatDivisor: 4
GridSize: 8
TimelineZoom: 2

[Metadata]
Title:SnowMix
TitleUnicode:SnowMix♪
Artist:marasy feat. Hatsune Miku
ArtistUnicode:まらしぃ feat. 初音ミク
Creator:ATing
Version:Chu Chu <3
Source:プロジェクトセカイ カラフルステージ! feat. 初音ミク
Tags:snow miku 2023 vocaloid vocal ボーカロイド ボカロ marasy8 KARENT presents Winter Sky Fantasia KOUICHI bibi Japanese Jpop J-pop J pop
BeatmapID:4031843
BeatmapSetID:1948165

[Difficulty]
HPDrainRate:8
CircleSize:4
OverallDifficulty:8
ApproachRate:5
SliderMultiplier:1.4
SliderTickRate:1

[Events]
//Background and Video events
0,0,"bgbbgbgb.jpg",0,0
//Break Periods
//Storyboard Layer 0 (Background)
//Storyboard Layer 1 (Fail)
//Storyboard Layer 2 (Pass)
//Storyboard Layer 3 (Foreground)
//Storyboard Layer 4 (Overlay)
//Storyboard Sound Samples

[TimingPoints]
317,324.324324324324,4,2,1,60,1,0
85938,-100,4,2,2,60,0,1
106695,-100,4,2,2,60,0,0
189722,-100,4,2,2,60,0,1
210479,-100,4,2,2,60,0,0

[HitObjects]
448,192,317,128,0,641:0:0:0:80:
64,192,641,1,0,0:0:0:40:
192,192,641,1,0,0:0:0:40:
64,192,803,1,0,0:0:0:40:
192,192,803,1,0,0:0:0:40:
192,192,1127,1,0,0:0:0:80:
320,192,1289,1,0,0:0:0:40:
448,192,1289,128,0,1614:0:0:0:40:
192,192,1614,1,0,0:0:0:80:
64,192,1776,1,0,0:0:0:80:
320,192,1938,1,0,0:0:0:40:
448,192,1938,1,0,0:0:0:40:
448,192,2100,1,0,0:0:0:40:
320,192,2100,1,0,0:0:0:40:
192,192,2262,1,0,0:0:0:80:
320,192,2425,1,0,0:0:0:80:
64,192,2587,1,0,0:0:0:40:
448,192,2587,128,0,2911:0:0:0:40:
192,192,2911,1,0,0:0:0:80:
448,192,3235,128,0,3398:0:0:0:40:
320,192,3235,1,0,0:0:0:40:
64,192,3398,1,0,0:0:0:40:
192,192,3398,1,0,0:0:0:40:
448,192,3560,128,0,3722:0:0:0:80:
192,192,3722,1,0,0:0:0:80:
320,192,3884,1,0,0:0:0:40:
448,192,3884,1,0,0:0:0:40:
64,192,4046,128,0,4208:0:0:0:80:
448,192,4208,1,0,0:0:0:80:
64,192,4371,128,0,4533:0:0:0:80:
320,192,4533,1,0,0:0:0:40:
448,192,4533,1,0,0:0:0:40:
192,192,4695,1,0,0:0:0:40:
64,192,4695,1,0,0:0:0:40:
448,192,4857,128,0,5019:0:0:0:80:
64,192,5019,1,0,0:0:0:80:
320,192,5181,1,0,0:0:0:40:
448,192,5181,128,0,5506:0:0:0:40:
64,192,5506,128,0,5830:0:0:0:80:
448,192,5830,1,0,0:0:0:40:
320,192,5830,1,0,0:0:0:40:
448,192,5992,1,0,0:0:0:40:
320,192,5992,1,0,0:0:0:40:
320,192,6316,1,0,0:0:0:80:
192,192,6479,1,0,0:0:0:40:
64,192,6479,128,0,6803:0:0:0:40:
320,192,6803,1,0,0:0:0:80:
448,192,6965,1,0,0:0:0:80:
192,192,7127,1,0,0:0:0:40:
64,192,7127,1,0,0:0:0:40:
192,192,7289,1,0,0:0:0:40:
64,192,7289,1,0,0:0:0:40:
448,192,7452,1,0,0:0:0:80:
192,192,7614,1,0,0:0:0:80:
64,192,7776,128,0,8100:0:0:0:40:
320,192,7776,1,0,0:0:0:40:
448,192,8100,1,0,0:0:0:80:
64,192,8425,128,0,8587:0:0:0:40:
192,192,8425,1,0,0:0:0:40:
448,192,8587,1,0,0:0:0:40:
320,192,8587,1,0,0:0:0:40:
64,192,8749,128,0,8911:0:0:0:80:
320,192,8911,1,0,0:0:0:80:
192,192,9073,1,0,0:0:0:40:
64,192,9073,1,0,0:0:0:40:
448,192,9235,128,0,9398:0:0:0:80:
64,192,9398,1,0,0:0:0:80:
448,192,9560,128,0,9722:0:0:0:80:
192,192,9722,1,0,0:0:0:40:
64,192,9722,1,0,0:0:0:40:
320,192,9884,1,0,0:0:0:40:
448,192,9884,1,0,0:0:0:40:
64,192,10046,128,0,10208:0:0:0:40:
192,192,10046,1,0,0:0:0:40:
320,192,10208,1,0,0:0:0:80:
192,192,10289,1,0,0:0:0:80:
448,192,10371,128,0,10533:0:0:0:40:
64,192,10371,1,0,0:0:0:40:
192,192,10533,1,0,0:0:0:80:
320,192,10614,1,0,0:0:0:80:
448,192,10695,128,0,11019:0:0:0:40:
64,192,10695,1,0,0:0:0:40:
64,192,11019,1,0,0:0:0:40:
192,192,11019,1,0,0:0:0:40:
192,192,11181,128,0,11506:0:0:0:40:
64,192,11181,1,0,0:0:0:40:
448,192,11344,1,0,0:0:0:40:
320,192,11344,1,0,0:0:0:40:
448,192,11668,128,0,11992:0:0:0:80:
192,192,11992,1,0,0:0:0:40:
64,192,11992,1,0,0:0:0:40:
192,192,12154,128,0,12479:0:0:0:80:
448,192,12316,1,0,0:0:0:40:
320,192,12316,1,0,0:0:0:40:
448,192,12479,128,0,12641:0:0:0:40:
320,192,12479,128,0,12641:0:0:0:40:
64,192,12641,128,0,12803:0:0:0:40:
192,192,12641,128,0,12803:0:0:0:40:
448,192,12803,128,0,12965:0:0:0:80:
64,192,12965,128,0,13046:0:0:0:80:
192,192,13046,128,0,13127:0:0:0:80:
320,192,13127,128,0,13208:0:0:0:80:
448,192,13208,128,0,13289:0:0:0:80:
64,192,13289,1,0,0:0:0:40:
192,192,13289,1,0,0:0:0:40:
192,192,13614,128,0,13776:0:0:0:80:
320,192,13776,1,0,0:0:0:40:
448,192,13776,1,0,0:0:0:40:
192,192,13938,1,0,0:0:0:40:
64,192,13938,128,0,14100:0:0:0:40:
448,192,14019,1,0,0:0:0:80:
320,192,14100,1,0,0:0:0:80:
192,192,14181,1,0,0:0:0:80:
448,192,14262,1,0,0:0:0:40:
64,192,14262,1,0,0:0:0:40:
320,192,14425,128,0,14587:0:0:0:80:
64,192,14587,1,0,0:0:0:40:
192,192,14587,1,0,0:0:0:40:
448,192,14749,128,0,14911:0:0:0:80:
64,192,14830,1,0,0:0:0:80:
192,192,14911,1,0,0:0:0:80:
320,192,14992,1,0,0:0:0:80:
448,192,15073,1,0,0:0:0:40:
64,192,15073,1,0,0:0:0:40:
192,192,15235,128,0,15398:0:0:0:80:
448,192,15398,1,0,0:0:0:80:
64,192,15560,128,0,15722:0:0:0:80:
448,192,15641,1,0,0:0:0:80:
320,192,15722,1,0,0:0:0:80:
192,192,15803,1,0,0:0:0:80:
64,192,15884,1,0,0:0:0:40:
448,192,15884,128,0,16208:0:0:0:40:
64,192,16208,1,0,0:0:0:40:
192,192,16208,1,0,0:0:0:40:
192,192,16371,1,0,0:0:0:40:
64,192,16371,128,0,16695:0:0:0:40:
320,192,16533,1,0,0:0:0:40:
448,192,16533,1,0,0:0:0:40:
448,192,16857,128,0,17181:0:0:0:40:
320,192,16857,1,0,0:0:0:40:
64,192,17181,1,0,0:0:0:40:
192,192,17181,1,0,0:0:0:40:
320,192,17289,1,0,0:0:0:80:
192,192,17398,1,0,0:0:0:80:
64,192,17506,1,0,0:0:0:80:
320,192,17614,1,0,0:0:0:80:
192,192,17722,1,0,0:0:0:80:
448,192,17830,1,0,0:0:0:80:
320,192,17938,1,0,0:0:0:80:
192,192,18046,1,0,0:0:0:80:
64,192,18154,1,0,0:0:0:80:
320,192,18479,1,0,0:0:0:26:
448,192,18479,1,0,0:0:0:26:
64,192,18479,1,0,0:0:0:26:
192,192,18641,1,0,0:0:0:80:
448,192,18803,1,0,0:0:0:40:
64,192,18803,1,0,0:0:0:40:
320,192,18965,1,0,0:0:0:80:
64,192,19127,1,0,0:0:0:40:
192,192,19127,1,0,0:0:0:40:
320,192,19289,1,0,0:0:0:80:
64,192,19452,1,0,0:0:0:40:
448,192,19452,1,0,0:0:0:40:
192,192,19614,1,0,0:0:0:80:
320,192,19776,1,0,0:0:0:40:
448,192,19776,1,0,0:0:0:40:
192,192,19938,1,0,0:0:0:80:
64,192,20100,1,0,0:0:0:40:
448,192,20100,1,0,0:0:0:40:
320,192,20262,1,0,0:0:0:80:
192,192,20425,1,0,0:0:0:40:
64,192,20425,1,0,0:0:0:40:
320,192,20587,1,0,0:0:0:80:
448,192,20749,1,0,0:0:0:40:
192,192,20749,1,0,0:0:0:40:
64,192,20911,1,0,0:0:0:80:
320,192,21073,1,0,0:0:0:40:
448,192,21073,1,0,0:0:0:40:
192,192,21235,1,0,0:0:0:80:
448,192,21398,1,0,0:0:0:40:
64,192,21398,1,0,0:0:0:40:
320,192,21560,1,0,0:0:0:80:
192,192,21722,1,0,0:0:0:40:
64,192,21722,1,0,0:0:0:40:
448,192,21884,1,0,0:0:0:80:
192,192,22046,1,0,0:0:0:40:
320,192,22046,1,0,0:0:0:40:
448,192,22208,1,0,0:0:0:80:
64,192,22371,1,0,0:0:0:40:
192,192,22371,1,0,0:0:0:40:
320,192,22533,1,0,0:0:0:80:
64,192,22695,1,0,0:0:0:40:
448,192,22695,1,0,0:0:0:40:
192,192,22857,1,0,0:0:0:80:
320,192,22938,1,0,0:0:0:80:
64,192,23019,1,0,0:0:0:40:
192,192,23019,1,0,0:0:0:40:
448,192,23181,1,0,0:0:0:80:
192,192,23344,1,0,0:0:0:40:
64,192,23344,1,0,0:0:0:40:
448,192,23506,1,0,0:0:0:40:
320,192,23506,1,0,0:0:0:40:
192,192,23587,1,0,0:0:0:80:
320,192,23668,1,0,0:0:0:26:
448,192,23668,128,0,23992:0:0:0:26:
64,192,23668,1,0,0:0:0:26:
320,192,23992,1,0,0:0:0:40:
64,192,23992,1,0,0:0:0:40:
192,192,24073,1,0,0:0:0:80:
448,192,24154,1,0,0:0:0:80:
320,192,24235,1,0,0:0:0:80:
192,192,24316,1,0,0:0:0:40:
64,192,24316,1,0,0:0:0:40:
448,192,24398,1,0,0:0:0:80:
64,192,24479,1,0,0:0:0:80:
192,192,24560,1,0,0:0:0:80:
320,192,24641,1,0,0:0:0:40:
448,192,24641,1,0,0:0:0:40:
64,192,24722,1,0,0:0:0:80:
320,192,24803,1,0,0:0:0:80:
192,192,24884,1,0,0:0:0:80:
64,192,24965,1,0,0:0:0:40:
448,192,24965,1,0,0:0:0:40:
320,192,25046,1,0,0:0:0:80:
192,192,25127,1,0,0:0:0:80:
448,192,25208,1,0,0:0:0:80:
64,192,25289,1,0,0:0:0:40:
320,192,25289,1,0,0:0:0:40:
192,192,25371,1,0,0:0:0:80:
448,192,25452,1,0,0:0:0:80:
64,192,25533,1,0,0:0:0:80:
320,192,25614,1,0,0:0:0:40:
448,192,25614,1,0,0:0:0:40:
192,192,25695,1,0,0:0:0:40:
64,192,25695,1,0,0:0:0:40:
320,192,25776,1,0,0:0:0:40:
448,192,25776,1,0,0:0:0:40:
192,192,25857,1,0,0:0:0:40:
64,192,25857,1,0,0:0:0:40:
320,192,25938,1,0,0:0:0:40:
448,192,25938,1,0,0:0:0:40:
192,192,26019,1,0,0:0:0:40:
64,192,26019,1,0,0:0:0:40:
448,192,26100,128,0,26425:0:0:0:40:
320,192,26100,1,0,0:0:0:40:
64,192,26425,128,0,26587:0:0:0:80:
448,192,26587,128,0,26749:0:0:0:80:
320,192,26749,128,0,26911:0:0:0:80:
192,192,26911,128,0,27073:0:0:0:80:
64,192,27073,128,0,27235:0:0:0:80:
448,192,27235,128,0,27398:0:0:0:80:
320,192,27398,128,0,27560:0:0:0:80:
192,192,27560,1,0,0:0:0:80:
320,192,27641,1,0,0:0:0:80:
192,192,27722,1,0,0:0:0:80:
320,192,27884,1,0,0:0:0:80:
192,192,27965,1,0,0:0:0:80:
320,192,28046,1,0,0:0:0:80:
192,192,28127,1,0,0:0:0:80:
320,192,28208,1,0,0:0:0:40:
448,192,28208,1,0,0:0:0:40:
192,192,28289,1,0,0:0:0:80:
320,192,28371,1,0,0:0:0:80:
192,192,28452,1,0,0:0:0:80:
448,192,28533,1,0,0:0:0:40:
320,192,28533,1,0,0:0:0:40:
192,192,28614,1,0,0:0:0:80:
320,192,28695,1,0,0:0:0:40:
448,192,28695,1,0,0:0:0:40:
192,192,28776,1,0,0:0:0:40:
64,192,28776,1,0,0:0:0:40:
448,192,28857,1,0,0:0:0:40:
320,192,28857,1,0,0:0:0:40:
192,192,29019,1,0,0:0:0:40:
64,192,29019,1,0,0:0:0:40:
64,192,29181,1,0,0:0:0:26:
448,192,29181,1,0,0:0:0:26:
320,192,29181,1,0,0:0:0:26:
64,192,29506,1,0,0:0:0:40:
448,192,29506,1,0,0:0:0:40:
320,192,29668,1,0,0:0:0:40:
192,192,29668,1,0,0:0:0:40:
64,192,29830,1,0,0:0:0:26:
448,192,29830,1,0,0:0:0:26:
192,192,29830,1,0,0:0:0:26:
320,192,29992,1,0,0:0:0:80:
192,192,30073,1,0,0:0:0:40:
64,192,30073,1,0,0:0:0:40:
448,192,30154,1,0,0:0:0:40:
320,192,30154,1,0,0:0:0:40:
192,192,30316,1,0,0:0:0:40:
64,192,30316,1,0,0:0:0:40:
448,192,30479,1,0,0:0:0:26:
320,192,30479,1,0,0:0:0:26:
64,192,30479,1,0,0:0:0:26:
64,192,30803,1,0,0:0:0:40:
448,192,30803,1,0,0:0:0:40:
320,192,30965,1,0,0:0:0:40:
192,192,30965,1,0,0:0:0:40:
320,192,31127,1,0,0:0:0:26:
64,192,31127,1,0,0:0:0:26:
448,192,31127,1,0,0:0:0:26:
192,192,31289,1,0,0:0:0:80:
320,192,31371,1,0,0:0:0:40:
448,192,31371,1,0,0:0:0:40:
192,192,31452,1,0,0:0:0:40:
64,192,31452,1,0,0:0:0:40:
320,192,31614,1,0,0:0:0:40:
448,192,31614,1,0,0:0:0:40:
64,192,31776,1,0,0:0:0:26:
192,192,31776,1,0,0:0:0:26:
448,192,31776,1,0,0:0:0:26:
448,192,32100,1,0,0:0:0:40:
64,192,32100,1,0,0:0:0:40:
192,192,32262,1,0,0:0:0:40:
320,192,32262,1,0,0:0:0:40:
64,192,32425,1,0,0:0:0:26:
192,192,32425,1,0,0:0:0:26:
448,192,32425,1,0,0:0:0:26:
320,192,32587,1,0,0:0:0:80:
64,192,32668,1,0,0:0:0:40:
192,192,32668,1,0,0:0:0:40:
320,192,32749,1,0,0:0:0:40:
448,192,32749,1,0,0:0:0:40:
64,192,32911,1,0,0:0:0:40:
192,192,32911,1,0,0:0:0:40:
64,192,33073,1,0,0:0:0:26:
448,192,33073,1,0,0:0:0:26:
320,192,33073,1,0,0:0:0:26:
192,192,33235,1,0,0:0:0:80:
448,192,33316,1,0,0:0:0:40:
320,192,33316,1,0,0:0:0:40:
64,192,33398,1,0,0:0:0:80:
320,192,33560,1,0,0:0:0:80:
192,192,33641,1,0,0:0:0:80:
320,192,33722,1,0,0:0:0:26:
448,192,33722,1,0,0:0:0:26:
64,192,33722,1,0,0:0:0:26:
192,192,33884,1,0,0:0:0:40:
64,192,33884,1,0,0:0:0:40:
320,192,33965,1,0,0:0:0:40:
448,192,33965,1,0,0:0:0:40:
64,192,34046,1,0,0:0:0:40:
192,192,34046,1,0,0:0:0:40:
320,192,34208,1,0,0:0:0:40:
448,192,34208,1,0,0:0:0:40:
64,192,34371,1,0,0:0:0:26:
192,192,34371,1,0,0:0:0:26:
448,192,34371,1,0,0:0:0:26:
448,192,34695,1,0,0:0:0:40:
320,192,34695,1,0,0:0:0:40:
64,192,34857,1,0,0:0:0:40:
192,192,34857,1,0,0:0:0:40:
320,192,35019,1,0,0:0:0:26:
64,192,35019,1,0,0:0:0:26:
448,192,35019,1,0,0:0:0:26:
192,192,35181,1,0,0:0:0:80:
320,192,35262,1,0,0:0:0:40:
448,192,35262,1,0,0:0:0:40:
192,192,35344,1,0,0:0:0:40:
64,192,35344,1,0,0:0:0:40:
320,192,35506,1,0,0:0:0:40:
448,192,35506,1,0,0:0:0:40:
64,192,35668,1,0,0:0:0:26:
192,192,35668,1,0,0:0:0:26:
448,192,35668,1,0,0:0:0:26:
320,192,35830,1,0,0:0:0:80:
192,192,35911,1,0,0:0:0:40:
64,192,35911,1,0,0:0:0:40:
448,192,35992,1,0,0:0:0:80:
320,192,36073,1,0,0:0:0:80:
192,192,36154,1,0,0:0:0:80:
448,192,36235,1,0,0:0:0:80:
192,192,36316,1,0,0:0:0:40:
64,192,36316,1,0,0:0:0:40:
320,192,36398,1,0,0:0:0:40:
448,192,36398,1,0,0:0:0:40:
64,192,36479,1,0,0:0:0:40:
192,192,36479,1,0,0:0:0:40:
320,192,36560,1,0,0:0:0:40:
448,192,36560,1,0,0:0:0:40:
64,192,36641,1,0,0:0:0:40:
192,192,36641,1,0,0:0:0:40:
448,192,36749,1,0,0:0:0:80:
320,192,36857,1,0,0:0:0:80:
64,192,36965,1,0,0:0:0:40:
192,192,36965,1,0,0:0:0:40:
320,192,37073,1,0,0:0:0:80:
192,192,37181,1,0,0:0:0:80:
448,192,37289,1,0,0:0:0:40:
320,192,37289,1,0,0:0:0:40:
192,192,37398,1,0,0:0:0:80:
64,192,37506,1,0,0:0:0:80:
320,192,37614,1,0,0:0:0:40:
448,192,37614,1,0,0:0:0:40:
64,192,37722,1,0,0:0:0:80:
448,192,37830,1,0,0:0:0:80:
64,192,37938,1,0,0:0:0:80:
192,192,37992,1,0,0:0:0:80:
320,192,38046,1,0,0:0:0:80:
448,192,38100,1,0,0:0:0:80:
64,192,38154,1,0,0:0:0:80:
192,192,38208,1,0,0:0:0:80:
448,192,38262,1,0,0:0:0:80:
320,192,38316,1,0,0:0:0:80:
192,192,38371,1,0,0:0:0:80:
64,192,38425,1,0,0:0:0:80:
448,192,38479,1,0,0:0:0:80:
320,192,38533,1,0,0:0:0:80:
192,192,38587,1,0,0:0:0:40:
64,192,38587,1,0,0:0:0:40:
64,192,38749,1,0,0:0:0:26:
448,192,38749,1,0,0:0:0:26:
320,192,38749,1,0,0:0:0:26:
64,192,39235,1,0,0:0:0:26:
192,192,39235,1,0,0:0:0:26:
320,192,39235,1,0,0:0:0:26:
448,192,39560,1,0,0:0:0:80:
192,192,39884,1,0,0:0:0:80:
448,192,40208,1,0,0:0:0:80:
64,192,40371,1,0,0:0:0:80:
64,192,40695,1,0,0:0:0:80:
448,192,40857,1,0,0:0:0:80:
192,192,41019,1,0,0:0:0:80:
320,192,41181,1,0,0:0:0:80:
64,192,41344,1,0,0:0:0:0:
448,192,41506,1,0,0:0:0:80:
192,192,41668,1,0,0:0:0:80:
192,192,41992,1,0,0:0:0:0:
448,192,42154,1,0,0:0:0:80:
64,192,42316,1,0,0:0:0:80:
320,192,42479,1,0,0:0:0:80:
192,192,42803,1,0,0:0:0:80:
448,192,42965,1,0,0:0:0:80:
448,192,43289,1,0,0:0:0:80:
448,192,43452,1,0,0:0:0:80:
448,192,43614,1,0,0:0:0:80:
192,192,43695,1,0,0:0:0:80:
448,192,43776,1,0,0:0:0:80:
448,192,43938,1,0,0:0:0:80:
448,192,44100,1,0,0:0:0:80:
448,192,44262,1,0,0:0:0:80:
64,192,44425,1,0,0:0:0:40:
192,192,44425,128,0,44587:0:0:0:40:
320,192,44587,128,0,44749:0:0:0:80:
192,192,44749,128,0,44911:0:0:0:80:
320,192,44911,128,0,45073:0:0:0:80:
192,192,45073,128,0,45235:0:0:0:40:
64,192,45073,1,0,0:0:0:40:
320,192,45235,128,0,45398:0:0:0:80:
192,192,45398,128,0,45560:0:0:0:80:
320,192,45560,128,0,45722:0:0:0:80:
192,192,45722,128,0,45884:0:0:0:80:
448,192,45884,128,0,46046:0:0:0:40:
320,192,45884,128,0,46046:0:0:0:40:
64,192,46046,1,0,0:0:0:80:
320,192,46208,128,0,46371:0:0:0:40:
192,192,46208,128,0,46371:0:0:0:40:
448,192,46371,1,0,0:0:0:80:
64,192,46533,128,0,46695:0:0:0:40:
192,192,46533,128,0,46695:0:0:0:40:
320,192,46695,1,0,0:0:0:80:
448,192,46857,128,0,47181:0:0:0:40:
320,192,46857,128,0,47181:0:0:0:40:
192,192,47181,128,0,47344:0:0:0:80:
320,192,47344,128,0,47506:0:0:0:80:
192,192,47506,128,0,47668:0:0:0:80:
320,192,47668,128,0,47830:0:0:0:40:
448,192,47668,1,0,0:0:0:40:
192,192,47830,128,0,47992:0:0:0:80:
320,192,47992,128,0,48154:0:0:0:80:
192,192,48154,128,0,48316:0:0:0:80:
320,192,48316,128,0,48479:0:0:0:80:
64,192,48479,128,0,48641:0:0:0:40:
192,192,48479,128,0,48641:0:0:0:40:
448,192,48641,1,0,0:0:0:80:
192,192,48803,128,0,48965:0:0:0:40:
320,192,48803,128,0,48965:0:0:0:40:
64,192,48965,1,0,0:0:0:80:
320,192,49127,128,0,49289:0:0:0:40:
448,192,49127,128,0,49289:0:0:0:40:
192,192,49289,1,0,0:0:0:80:
64,192,49452,128,0,49776:0:0:0:40:
192,192,49452,128,0,49776:0:0:0:40:
448,192,49776,128,0,49938:0:0:0:80:
64,192,49938,128,0,50100:0:0:0:80:
448,192,50100,128,0,50262:0:0:0:80:
64,192,50262,128,0,50425:0:0:0:40:
192,192,50262,1,0,0:0:0:40:
448,192,50425,128,0,50587:0:0:0:80:
64,192,50587,128,0,50749:0:0:0:80:
448,192,50749,128,0,50911:0:0:0:80:
64,192,50911,128,0,51073:0:0:0:80:
448,192,51073,128,0,51235:0:0:0:40:
320,192,51073,128,0,51235:0:0:0:40:
64,192,51235,1,0,0:0:0:80:
192,192,51398,128,0,51560:0:0:0:40:
320,192,51398,128,0,51560:0:0:0:40:
448,192,51560,1,0,0:0:0:80:
192,192,51722,128,0,51884:0:0:0:40:
64,192,51722,128,0,51884:0:0:0:40:
320,192,51884,1,0,0:0:0:80:
320,192,52046,128,0,52371:0:0:0:40:
448,192,52046,128,0,52371:0:0:0:40:
192,192,52371,128,0,52533:0:0:0:40:
64,192,52371,128,0,52533:0:0:0:40:
448,192,52533,128,0,53181:0:0:0:80:
192,192,52695,1,0,0:0:0:80:
64,192,52857,1,0,0:0:0:40:
192,192,52857,1,0,0:0:0:40:
192,192,53019,1,0,0:0:0:80:
64,192,53181,128,0,53344:0:0:0:80:
320,192,53344,128,0,53668:0:0:0:40:
448,192,53344,128,0,53668:0:0:0:40:
64,192,53668,1,0,0:0:0:80:
192,192,53749,1,0,0:0:0:80:
320,192,53830,1,0,0:0:0:80:
192,192,53992,1,0,0:0:0:80:
448,192,54154,1,0,0:0:0:80:
320,192,54235,1,0,0:0:0:80:
192,192,54316,1,0,0:0:0:80:
64,192,54398,1,0,0:0:0:80:
320,192,54479,1,0,0:0:0:40:
448,192,54479,1,0,0:0:0:40:
64,192,54560,1,0,0:0:0:80:
192,192,54641,1,0,0:0:0:80:
320,192,54722,1,0,0:0:0:80:
64,192,54803,1,0,0:0:0:26:
448,192,54803,1,0,0:0:0:26:
192,192,54803,1,0,0:0:0:26:
64,192,54965,1,0,0:0:0:80:
320,192,55127,1,0,0:0:0:26:
448,192,55127,1,0,0:0:0:26:
192,192,55127,1,0,0:0:0:26:
448,192,55289,1,0,0:0:0:80:
64,192,55452,1,0,0:0:0:40:
192,192,55452,1,0,0:0:0:40:
192,192,55614,1,0,0:0:0:40:
448,192,55614,1,0,0:0:0:40:
448,192,55776,1,0,0:0:0:26:
320,192,55776,1,0,0:0:0:26:
64,192,55776,1,0,0:0:0:26:
320,192,55938,1,0,0:0:0:80:
64,192,56100,1,0,0:0:0:80:
448,192,56262,128,0,56425:0:0:0:40:
320,192,56262,128,0,56425:0:0:0:40:
64,192,56425,1,0,0:0:0:40:
192,192,56425,1,0,0:0:0:40:
320,192,56587,128,0,56749:0:0:0:40:
192,192,56587,128,0,56749:0:0:0:40:
64,192,56749,1,0,0:0:0:40:
448,192,56749,1,0,0:0:0:40:
192,192,56911,128,0,57073:0:0:0:40:
64,192,56911,128,0,57073:0:0:0:40:
320,192,57073,1,0,0:0:0:40:
448,192,57073,1,0,0:0:0:40:
192,192,57235,128,0,57398:0:0:0:40:
320,192,57235,128,0,57398:0:0:0:40:
64,192,57398,1,0,0:0:0:40:
448,192,57398,1,0,0:0:0:40:
320,192,57560,1,0,0:0:0:80:
64,192,57722,1,0,0:0:0:26:
448,192,57722,1,0,0:0:0:26:
192,192,57722,1,0,0:0:0:26:
64,192,57884,1,0,0:0:0:80:
448,192,58046,1,0,0:0:0:40:
320,192,58046,1,0,0:0:0:40:
320,192,58208,1,0,0:0:0:40:
64,192,58208,1,0,0:0:0:40:
64,192,58371,1,0,0:0:0:26:
192,192,58371,1,0,0:0:0:26:
448,192,58371,1,0,0:0:0:26:
192,192,58533,1,0,0:0:0:80:
448,192,58695,1,0,0:0:0:80:
192,192,58857,128,0,59019:0:0:0:40:
64,192,58857,128,0,59019:0:0:0:40:
320,192,59019,1,0,0:0:0:40:
448,192,59019,1,0,0:0:0:40:
192,192,59181,128,0,59344:0:0:0:40:
320,192,59181,128,0,59344:0:0:0:40:
64,192,59344,1,0,0:0:0:40:
448,192,59344,1,0,0:0:0:40:
320,192,59506,128,0,59668:0:0:0:40:
448,192,59506,128,0,59668:0:0:0:40:
192,192,59668,1,0,0:0:0:40:
64,192,59668,1,0,0:0:0:40:
320,192,59830,128,0,59992:0:0:0:40:
192,192,59830,128,0,59992:0:0:0:40:
64,192,59992,1,0,0:0:0:40:
448,192,59992,1,0,0:0:0:40:
192,192,60154,1,0,0:0:0:80:
64,192,60316,1,0,0:0:0:26:
448,192,60316,1,0,0:0:0:26:
320,192,60316,1,0,0:0:0:26:
448,192,60479,1,0,0:0:0:80:
64,192,60641,1,0,0:0:0:40:
192,192,60641,1,0,0:0:0:40:
64,192,60803,1,0,0:0:0:40:
448,192,60803,1,0,0:0:0:40:
320,192,60965,1,0,0:0:0:26:
448,192,60965,1,0,0:0:0:26:
192,192,60965,1,0,0:0:0:26:
320,192,61127,1,0,0:0:0:80:
64,192,61289,1,0,0:0:0:40:
192,192,61289,1,0,0:0:0:40:
448,192,61452,128,0,61776:0:0:0:80:
64,192,61614,1,0,0:0:0:40:
192,192,61614,1,0,0:0:0:40:
64,192,61776,128,0,62100:0:0:0:80:
320,192,61938,1,0,0:0:0:40:
448,192,61938,1,0,0:0:0:40:
192,192,62100,1,0,0:0:0:40:
320,192,62100,128,0,62425:0:0:0:40:
64,192,62262,1,0,0:0:0:40:
448,192,62262,1,0,0:0:0:40:
192,192,62425,128,0,62587:0:0:0:80:
64,192,62587,1,0,0:0:0:26:
448,192,62587,1,0,0:0:0:26:
320,192,62587,1,0,0:0:0:26:
192,192,62749,1,0,0:0:0:80:
64,192,62911,1,0,0:0:0:26:
320,192,62911,128,0,63235:0:0:0:26:
448,192,62911,1,0,0:0:0:26:
64,192,63235,1,0,0:0:0:40:
192,192,63235,1,0,0:0:0:40:
192,192,63398,1,0,0:0:0:40:
320,192,63398,1,0,0:0:0:40:
64,192,63560,1,0,0:0:0:26:
448,192,63560,1,0,0:0:0:26:
320,192,63560,1,0,0:0:0:26:
192,192,63722,1,0,0:0:0:40:
64,192,63722,1,0,0:0:0:40:
320,192,63884,1,0,0:0:0:40:
448,192,63884,128,0,64371:0:0:0:40:
192,192,64046,1,0,0:0:0:40:
64,192,64046,1,0,0:0:0:40:
320,192,64208,1,0,0:0:0:80:
192,192,64371,1,0,0:0:0:80:
320,192,64533,1,0,0:0:0:26:
448,192,64533,1,0,0:0:0:26:
64,192,64533,1,0,0:0:0:26:
320,192,64695,1,0,0:0:0:40:
192,192,64695,1,0,0:0:0:40:
64,192,64857,1,0,0:0:0:26:
192,192,64857,1,0,0:0:0:26:
448,192,64857,1,0,0:0:0:26:
64,192,65181,128,0,65506:0:0:0:40:
448,192,65181,1,0,0:0:0:40:
320,192,65506,1,0,0:0:0:80:
192,192,65614,1,0,0:0:0:80:
320,192,65722,1,0,0:0:0:80:
192,192,65830,1,0,0:0:0:40:
64,192,65830,1,0,0:0:0:40:
448,192,65938,1,0,0:0:0:80:
64,192,66046,1,0,0:0:0:80:
192,192,66154,1,0,0:0:0:80:
320,192,66262,1,0,0:0:0:80:
192,192,66371,1,0,0:0:0:80:
320,192,66479,1,0,0:0:0:40:
448,192,66479,1,0,0:0:0:40:
64,192,66587,1,0,0:0:0:80:
192,192,66695,1,0,0:0:0:80:
320,192,66803,1,0,0:0:0:80:
64,192,66911,1,0,0:0:0:80:
320,192,67019,1,0,0:0:0:80:
192,192,67127,1,0,0:0:0:40:
64,192,67127,1,0,0:0:0:40:
448,192,67235,1,0,0:0:0:80:
192,192,67344,1,0,0:0:0:80:
64,192,67452,1,0,0:0:0:80:
320,192,67560,1,0,0:0:0:80:
64,192,67668,1,0,0:0:0:80:
320,192,67776,1,0,0:0:0:40:
448,192,67776,1,0,0:0:0:40:
192,192,67884,1,0,0:0:0:80:
64,192,67992,1,0,0:0:0:80:
320,192,68100,1,0,0:0:0:80:
192,192,68208,1,0,0:0:0:80:
320,192,68316,1,0,0:0:0:80:
64,192,68425,1,0,0:0:0:40:
192,192,68425,1,0,0:0:0:40:
448,192,68533,1,0,0:0:0:80:
64,192,68641,1,0,0:0:0:80:
192,192,68749,1,0,0:0:0:80:
320,192,68857,1,0,0:0:0:80:
192,192,68965,1,0,0:0:0:80:
448,192,69073,1,0,0:0:0:40:
320,192,69073,1,0,0:0:0:40:
64,192,69181,1,0,0:0:0:80:
448,192,69289,1,0,0:0:0:80:
320,192,69398,1,0,0:0:0:80:
64,192,69506,1,0,0:0:0:80:
320,192,69614,1,0,0:0:0:80:
64,192,69722,1,0,0:0:0:40:
192,192,69722,1,0,0:0:0:40:
448,192,69830,1,0,0:0:0:80:
64,192,69938,1,0,0:0:0:80:
192,192,70046,1,0,0:0:0:80:
448,192,70154,1,0,0:0:0:80:
192,192,70262,1,0,0:0:0:80:
320,192,70371,1,0,0:0:0:40:
448,192,70371,1,0,0:0:0:40:
64,192,70479,1,0,0:0:0:80:
448,192,70587,1,0,0:0:0:80:
320,192,70695,1,0,0:0:0:80:
192,192,70803,1,0,0:0:0:80:
320,192,70911,1,0,0:0:0:80:
192,192,71019,1,0,0:0:0:40:
64,192,71019,1,0,0:0:0:40:
448,192,71127,1,0,0:0:0:80:
64,192,71235,1,0,0:0:0:80:
192,192,71344,1,0,0:0:0:80:
320,192,71452,1,0,0:0:0:80:
192,192,71560,1,0,0:0:0:80:
448,192,71668,1,0,0:0:0:40:
320,192,71668,1,0,0:0:0:40:
64,192,71776,1,0,0:0:0:80:
192,192,71884,1,0,0:0:0:80:
320,192,71992,1,0,0:0:0:80:
64,192,72100,1,0,0:0:0:80:
320,192,72208,1,0,0:0:0:80:
64,192,72316,1,0,0:0:0:40:
192,192,72316,1,0,0:0:0:40:
448,192,72425,1,0,0:0:0:80:
320,192,72533,1,0,0:0:0:80:
192,192,72641,1,0,0:0:0:80:
448,192,72749,1,0,0:0:0:80:
192,192,72857,1,0,0:0:0:80:
320,192,72965,1,0,0:0:0:40:
448,192,72965,1,0,0:0:0:40:
64,192,73073,1,0,0:0:0:80:
320,192,73181,1,0,0:0:0:80:
448,192,73289,1,0,0:0:0:80:
192,192,73398,1,0,0:0:0:80:
448,192,73506,1,0,0:0:0:80:
192,192,73614,1,0,0:0:0:40:
64,192,73614,1,0,0:0:0:40:
320,192,73722,1,0,0:0:0:80:
448,192,73830,1,0,0:0:0:80:
64,192,73938,1,0,0:0:0:80:
320,192,74046,1,0,0:0:0:80:
64,192,74154,1,0,0:0:0:80:
320,192,74262,1,0,0:0:0:40:
448,192,74262,1,0,0:0:0:40:
192,192,74371,1,0,0:0:0:80:
64,192,74479,1,0,0:0:0:80:
320,192,74587,1,0,0:0:0:80:
192,192,74695,1,0,0:0:0:80:
320,192,74803,1,0,0:0:0:80:
192,192,74911,1,0,0:0:0:40:
64,192,74911,1,0,0:0:0:40:
448,192,75019,1,0,0:0:0:80:
64,192,75127,1,0,0:0:0:80:
192,192,75235,1,0,0:0:0:80:
320,192,75344,1,0,0:0:0:80:
192,192,75452,1,0,0:0:0:80:
320,192,75560,1,0,0:0:0:26:
448,192,75560,1,0,0:0:0:26:
64,192,75560,1,0,0:0:0:26:
192,192,75884,1,0,0:0:0:26:
64,192,75884,128,0,76046:0:0:0:26:
448,192,75884,1,0,0:0:0:26:
64,192,76208,128,0,76371:0:0:0:26:
320,192,76208,1,0,0:0:0:26:
448,192,76208,1,0,0:0:0:26:
192,192,76533,1,0,0:0:0:26:
64,192,76533,1,0,0:0:0:26:
448,192,76533,1,0,0:0:0:26:
320,192,76695,128,0,76857:0:0:0:80:
64,192,76857,1,0,0:0:0:26:
192,192,76857,1,0,0:0:0:26:
448,192,76857,1,0,0:0:0:26:
320,192,77019,128,0,77181:0:0:0:80:
192,192,77181,1,0,0:0:0:26:
64,192,77181,1,0,0:0:0:26:
448,192,77181,1,0,0:0:0:26:
320,192,77344,1,0,0:0:0:80:
192,192,77506,1,0,0:0:0:26:
64,192,77506,1,0,0:0:0:26:
448,192,77506,128,0,77668:0:0:0:26:
448,192,77830,128,0,77992:0:0:0:26:
192,192,77830,1,0,0:0:0:26:
320,192,77830,1,0,0:0:0:26:
192,192,77992,1,0,0:0:0:40:
64,192,77992,1,0,0:0:0:40:
64,192,78154,1,0,0:0:0:26:
448,192,78154,1,0,0:0:0:26:
320,192,78154,1,0,0:0:0:26:
192,192,78316,1,0,0:0:0:80:
320,192,78479,1,0,0:0:0:40:
448,192,78479,1,0,0:0:0:40:
192,192,78641,1,0,0:0:0:80:
320,192,78803,1,0,0:0:0:26:
64,192,78803,1,0,0:0:0:26:
448,192,78803,1,0,0:0:0:26:
320,192,78965,1,0,0:0:0:80:
448,192,79127,1,0,0:0:0:40:
64,192,79127,1,0,0:0:0:40:
192,192,79289,1,0,0:0:0:80:
320,192,79452,1,0,0:0:0:40:
448,192,79452,1,0,0:0:0:40:
192,192,79614,1,0,0:0:0:26:
64,192,79614,1,0,0:0:0:26:
448,192,79614,1,0,0:0:0:26:
320,192,79776,1,0,0:0:0:40:
64,192,79776,1,0,0:0:0:40:
192,192,79938,1,0,0:0:0:80:
320,192,80100,1,0,0:0:0:40:
448,192,80100,1,0,0:0:0:40:
64,192,80181,1,0,0:0:0:80:
192,192,80262,1,0,0:0:0:80:
320,192,80344,1,0,0:0:0:80:
192,192,80425,1,0,0:0:0:40:
448,192,80425,1,0,0:0:0:40:
320,192,80587,1,0,0:0:0:40:
64,192,80587,1,0,0:0:0:40:
192,192,80749,1,0,0:0:0:26:
64,192,80749,1,0,0:0:0:26:
448,192,80749,128,0,81073:0:0:0:26:
192,192,81073,1,0,0:0:0:40:
64,192,81073,1,0,0:0:0:40:
64,192,81235,1,0,0:0:0:26:
320,192,81235,1,0,0:0:0:26:
448,192,81235,1,0,0:0:0:26:
192,192,81398,1,0,0:0:0:40:
320,192,81398,1,0,0:0:0:40:
64,192,81722,128,0,82046:0:0:0:26:
448,192,81722,1,0,0:0:0:26:
320,192,81722,1,0,0:0:0:26:
320,192,82046,1,0,0:0:0:40:
448,192,82046,1,0,0:0:0:40:
64,192,82208,1,0,0:0:0:26:
192,192,82208,1,0,0:0:0:26:
448,192,82208,1,0,0:0:0:26:
320,192,82371,1,0,0:0:0:40:
192,192,82371,1,0,0:0:0:40:
64,192,82533,1,0,0:0:0:80:
320,192,82695,1,0,0:0:0:40:
448,192,82695,1,0,0:0:0:40:
64,192,82776,1,0,0:0:0:80:
192,192,82857,1,0,0:0:0:80:
448,192,82938,1,0,0:0:0:40:
320,192,82938,1,0,0:0:0:40:
192,192,83019,1,0,0:0:0:40:
64,192,83019,1,0,0:0:0:40:
448,192,83100,1,0,0:0:0:80:
320,192,83181,1,0,0:0:0:80:
192,192,83262,1,0,0:0:0:80:
64,192,83344,1,0,0:0:0:26:
448,192,83344,1,0,0:0:0:26:
320,192,83344,1,0,0:0:0:26:
448,192,83506,1,0,0:0:0:40:
64,192,83506,1,0,0:0:0:40:
64,192,83668,1,0,0:0:0:26:
320,192,83668,1,0,0:0:0:26:
448,192,83668,1,0,0:0:0:26:
64,192,83830,1,0,0:0:0:26:
192,192,83830,1,0,0:0:0:26:
448,192,83830,1,0,0:0:0:26:
192,192,84154,1,0,0:0:0:80:
64,192,84316,1,0,0:0:0:26:
448,192,84316,1,0,0:0:0:26:
320,192,84316,1,0,0:0:0:26:
64,192,84479,1,0,0:0:0:40:
448,192,84479,1,0,0:0:0:40:
320,192,84641,1,0,0:0:0:26:
448,192,84641,1,0,0:0:0:26:
64,192,84641,1,0,0:0:0:26:
64,192,84803,1,0,0:0:0:26:
192,192,84803,1,0,0:0:0:26:
448,192,84803,1,0,0:0:0:26:
320,192,85127,1,0,0:0:0:80:
192,192,85208,1,0,0:0:0:80:
64,192,85289,1,0,0:0:0:26:
320,192,85289,1,0,0:0:0:26:
448,192,85289,1,0,0:0:0:26:
192,192,85452,128,0,85938:0:0:0:80:
448,192,85938,128,0,86344:0:0:0:26:
320,192,85938,128,0,86344:0:0:0:26:
64,192,85938,128,0,86344:0:0:0:26:
448,192,86425,128,0,86668:0:0:0:26:
320,192,86425,128,0,86668:0:0:0:26:
64,192,86425,128,0,86668:0:0:0:26:
192,192,86749,128,0,86830:0:0:0:80:
320,192,86830,128,0,86911:0:0:0:80:
448,192,86911,128,0,86992:0:0:0:40:
64,192,86911,128,0,86992:0:0:0:40:
192,192,86992,128,0,87073:0:0:0:80:
320,192,87073,128,0,87154:0:0:0:80:
64,192,87154,128,0,87235:0:0:0:80:
192,192,87235,128,0,87316:0:0:0:40:
448,192,87235,128,0,87316:0:0:0:40:
320,192,87316,128,0,87398:0:0:0:80:
64,192,87398,128,0,87479:0:0:0:80:
192,192,87479,128,0,87560:0:0:0:80:
448,192,87560,128,0,87641:0:0:0:40:
320,192,87560,128,0,87641:0:0:0:40:
64,192,87641,128,0,87722:0:0:0:40:
192,192,87641,128,0,87722:0:0:0:40:
320,192,87722,128,0,87803:0:0:0:40:
448,192,87722,128,0,87803:0:0:0:40:
192,192,87803,128,0,87884:0:0:0:80:
64,192,87884,1,0,0:0:0:26:
448,192,87884,1,0,0:0:0:26:
320,192,87884,1,0,0:0:0:26:
192,192,88046,128,0,88208:0:0:0:20:
320,192,88046,128,0,88208:0:0:0:20:
64,192,88046,128,0,88208:0:0:0:20:
448,192,88046,128,0,88208:0:0:0:20:
192,192,88371,1,0,0:0:0:26:
320,192,88371,1,0,0:0:0:26:
64,192,88371,128,0,88533:0:0:0:26:
448,192,88533,128,0,88695:0:0:0:80:
64,192,88695,1,0,0:0:0:40:
192,192,88695,1,0,0:0:0:40:
64,192,88857,1,0,0:0:0:26:
320,192,88857,1,0,0:0:0:26:
448,192,88857,1,0,0:0:0:26:
192,192,89019,128,0,89181:0:0:0:40:
320,192,89019,128,0,89181:0:0:0:40:
64,192,89181,1,0,0:0:0:40:
448,192,89181,1,0,0:0:0:40:
64,192,89344,128,0,89506:0:0:0:40:
192,192,89344,128,0,89506:0:0:0:40:
320,192,89506,1,0,0:0:0:40:
448,192,89506,1,0,0:0:0:40:
448,192,89668,128,0,89992:0:0:0:26:
64,192,89668,128,0,89992:0:0:0:26:
320,192,89668,128,0,89992:0:0:0:26:
192,192,89992,1,0,0:0:0:80:
64,192,90154,1,0,0:0:0:26:
320,192,90154,1,0,0:0:0:26:
448,192,90154,1,0,0:0:0:26:
192,192,90316,1,0,0:0:0:80:
320,192,90398,1,0,0:0:0:80:
64,192,90479,1,0,0:0:0:40:
448,192,90479,1,0,0:0:0:40:
192,192,90641,1,0,0:0:0:40:
320,192,90641,1,0,0:0:0:40:
64,192,90803,1,0,0:0:0:26:
192,192,90803,1,0,0:0:0:26:
448,192,90803,1,0,0:0:0:26:
320,192,90965,1,0,0:0:0:80:
64,192,91127,128,0,91289:0:0:0:26:
448,192,91127,1,0,0:0:0:26:
192,192,91127,1,0,0:0:0:26:
64,192,91452,1,0,0:0:0:26:
192,192,91452,1,0,0:0:0:26:
448,192,91452,1,0,0:0:0:26:
320,192,91614,1,0,0:0:0:40:
192,192,91614,128,0,91776:0:0:0:40:
64,192,91776,1,0,0:0:0:80:
320,192,91938,1,0,0:0:0:40:
448,192,91938,1,0,0:0:0:40:
448,192,92100,128,0,92262:0:0:0:26:
192,192,92100,1,0,0:0:0:26:
64,192,92100,1,0,0:0:0:26:
192,192,92425,1,0,0:0:0:40:
320,192,92425,1,0,0:0:0:40:
320,192,92587,128,0,92749:0:0:0:80:
448,192,92749,1,0,0:0:0:26:
64,192,92749,1,0,0:0:0:26:
192,192,92749,1,0,0:0:0:26:
320,192,92911,1,0,0:0:0:80:
192,192,93073,128,0,93235:0:0:0:40:
64,192,93073,1,0,0:0:0:40:
320,192,93235,1,0,0:0:0:80:
64,192,93398,1,0,0:0:0:26:
448,192,93398,1,0,0:0:0:26:
192,192,93398,128,0,93560:0:0:0:26:
320,192,93560,1,0,0:0:0:80:
448,192,93722,128,0,93884:0:0:0:40:
192,192,93722,1,0,0:0:0:40:
64,192,93884,128,0,94046:0:0:0:40:
320,192,93884,1,0,0:0:0:40:
192,192,94046,128,0,94208:0:0:0:40:
448,192,94046,1,0,0:0:0:40:
320,192,94208,128,0,94371:0:0:0:40:
64,192,94208,1,0,0:0:0:40:
192,192,94371,1,0,0:0:0:80:
64,192,94452,1,0,0:0:0:80:
320,192,94533,1,0,0:0:0:80:
192,192,94614,1,0,0:0:0:80:
64,192,94695,1,0,0:0:0:40:
448,192,94695,1,0,0:0:0:40:
192,192,94857,1,0,0:0:0:20:
320,192,94857,1,0,0:0:0:20:
64,192,94857,1,0,0:0:0:20:
448,192,94857,128,0,95019:0:0:0:20:
192,192,95181,1,0,0:0:0:20:
64,192,95181,1,0,0:0:0:20:
448,192,95181,1,0,0:0:0:20:
320,192,95181,128,0,95344:0:0:0:20:
64,192,95506,1,0,0:0:0:20:
448,192,95506,1,0,0:0:0:20:
320,192,95506,1,0,0:0:0:20:
192,192,95506,128,0,95668:0:0:0:20:
192,192,95830,1,0,0:0:0:20:
320,192,95830,1,0,0:0:0:20:
448,192,95830,1,0,0:0:0:20:
64,192,95830,128,0,96154:0:0:0:20:
448,192,96316,128,0,96722:0:0:0:26:
64,192,96316,128,0,96722:0:0:0:26:
192,192,96316,128,0,96722:0:0:0:26:
448,192,96803,128,0,97046:0:0:0:26:
64,192,96803,128,0,97046:0:0:0:26:
192,192,96803,128,0,97046:0:0:0:26:
320,192,97127,128,0,97208:0:0:0:80:
192,192,97208,128,0,97289:0:0:0:80:
64,192,97289,128,0,97371:0:0:0:40:
448,192,97289,128,0,97371:0:0:0:40:
320,192,97371,128,0,97452:0:0:0:80:
192,192,97452,128,0,97533:0:0:0:80:
448,192,97533,128,0,97614:0:0:0:80:
320,192,97614,128,0,97695:0:0:0:40:
64,192,97614,128,0,97695:0:0:0:40:
192,192,97695,128,0,97776:0:0:0:80:
448,192,97776,128,0,97857:0:0:0:80:
320,192,97857,128,0,97938:0:0:0:80:
64,192,97938,128,0,98019:0:0:0:40:
192,192,97938,128,0,98019:0:0:0:40:
448,192,98019,128,0,98100:0:0:0:40:
320,192,98019,128,0,98100:0:0:0:40:
192,192,98100,128,0,98181:0:0:0:40:
64,192,98100,128,0,98181:0:0:0:40:
320,192,98181,128,0,98262:0:0:0:80:
192,192,98262,1,0,0:0:0:26:
448,192,98262,1,0,0:0:0:26:
64,192,98262,1,0,0:0:0:26:
320,192,98425,128,0,98587:0:0:0:20:
192,192,98425,128,0,98587:0:0:0:20:
448,192,98425,128,0,98587:0:0:0:20:
64,192,98425,128,0,98587:0:0:0:20:
320,192,98749,1,0,0:0:0:26:
192,192,98749,1,0,0:0:0:26:
448,192,98749,128,0,98911:0:0:0:26:
64,192,98911,128,0,99073:0:0:0:80:
448,192,99073,1,0,0:0:0:40:
320,192,99073,1,0,0:0:0:40:
448,192,99235,1,0,0:0:0:26:
192,192,99235,1,0,0:0:0:26:
64,192,99235,1,0,0:0:0:26:
320,192,99398,128,0,99560:0:0:0:40:
192,192,99398,128,0,99560:0:0:0:40:
448,192,99560,1,0,0:0:0:40:
64,192,99560,1,0,0:0:0:40:
448,192,99722,128,0,99884:0:0:0:40:
320,192,99722,128,0,99884:0:0:0:40:
192,192,99884,1,0,0:0:0:40:
64,192,99884,1,0,0:0:0:40:
64,192,100046,128,0,100371:0:0:0:26:
192,192,100046,128,0,100371:0:0:0:26:
448,192,100046,128,0,100371:0:0:0:26:
320,192,100371,1,0,0:0:0:80:
64,192,100533,1,0,0:0:0:26:
192,192,100533,1,0,0:0:0:26:
448,192,100533,1,0,0:0:0:26:
320,192,100695,1,0,0:0:0:80:
192,192,100776,1,0,0:0:0:80:
64,192,100857,1,0,0:0:0:40:
448,192,100857,1,0,0:0:0:40:
192,192,101019,1,0,0:0:0:40:
320,192,101019,1,0,0:0:0:40:
64,192,101181,1,0,0:0:0:26:
448,192,101181,1,0,0:0:0:26:
320,192,101181,1,0,0:0:0:26:
192,192,101344,1,0,0:0:0:40:
64,192,101344,1,0,0:0:0:40:
448,192,101506,128,0,101830:0:0:0:26:
192,192,101506,1,0,0:0:0:26:
320,192,101506,1,0,0:0:0:26:
64,192,101830,1,0,0:0:0:40:
192,192,101830,1,0,0:0:0:40:
320,192,101992,1,0,0:0:0:26:
448,192,101992,1,0,0:0:0:26:
64,192,101992,128,0,102316:0:0:0:26:
320,192,102316,1,0,0:0:0:40:
448,192,102316,1,0,0:0:0:40:
192,192,102479,1,0,0:0:0:26:
64,192,102479,1,0,0:0:0:26:
320,192,102479,128,0,102803:0:0:0:26:
64,192,102803,1,0,0:0:0:40:
192,192,102803,1,0,0:0:0:40:
192,192,102965,128,0,103289:0:0:0:26:
448,192,102965,1,0,0:0:0:26:
320,192,102965,1,0,0:0:0:26:
448,192,103127,1,0,0:0:0:80:
448,192,103289,1,0,0:0:0:80:
192,192,103452,1,0,0:0:0:26:
64,192,103452,1,0,0:0:0:26:
320,192,103452,128,0,103614:0:0:0:26:
64,192,103614,1,0,0:0:0:80:
320,192,103776,1,0,0:0:0:26:
192,192,103776,128,0,103938:0:0:0:26:
448,192,103776,1,0,0:0:0:26:
64,192,104100,128,0,105073:0:0:0:26:
192,192,104100,1,0,0:0:0:26:
320,192,104100,1,0,0:0:0:26:
320,192,104587,1,0,0:0:0:40:
448,192,104587,1,0,0:0:0:40:
320,192,105073,1,0,0:0:0:26:
448,192,105073,1,0,0:0:0:26:
192,192,105073,1,0,0:0:0:26:
320,192,105235,1,0,0:0:0:40:
64,192,105235,1,0,0:0:0:40:
64,192,105398,1,0,0:0:0:26:
192,192,105398,1,0,0:0:0:26:
448,192,105398,1,0,0:0:0:26:
320,192,105560,1,0,0:0:0:40:
192,192,105560,1,0,0:0:0:40:
64,192,105722,1,0,0:0:0:26:
320,192,105722,1,0,0:0:0:26:
448,192,105722,1,0,0:0:0:26:
192,192,105884,1,0,0:0:0:40:
448,192,105884,1,0,0:0:0:40:
64,192,106046,1,0,0:0:0:20:
320,192,106046,1,0,0:0:0:20:
192,192,106046,1,0,0:0:0:20:
448,192,106046,1,0,0:0:0:20:
64,192,106208,1,0,0:0:0:20:
448,192,106208,1,0,0:0:0:20:
320,192,106208,1,0,0:0:0:20:
192,192,106208,1,0,0:0:0:20:
448,192,106695,128,0,107019:0:0:0:26:
64,192,106695,1,0,0:0:0:26:
320,192,106695,1,0,0:0:0:26:
64,192,107019,1,0,0:0:0:40:
192,192,107019,1,0,0:0:0:40:
448,192,107181,1,0,0:0:0:26:
64,192,107181,128,0,107506:0:0:0:26:
192,192,107181,1,0,0:0:0:26:
320,192,107506,1,0,0:0:0:40:
448,192,107506,1,0,0:0:0:40:
448,192,107668,128,0,107992:0:0:0:26:
64,192,107668,1,0,0:0:0:26:
320,192,107668,1,0,0:0:0:26:
192,192,107992,1,0,0:0:0:40:
64,192,107992,1,0,0:0:0:40:
64,192,108154,128,0,108479:0:0:0:80:
448,192,108316,1,0,0:0:0:40:
320,192,108316,1,0,0:0:0:40:
448,192,108479,128,0,108641:0:0:0:40:
320,192,108479,128,0,108641:0:0:0:40:
64,192,108641,128,0,108803:0:0:0:80:
448,192,108803,128,0,109127:0:0:0:80:
320,192,108965,128,0,109127:0:0:0:26:
192,192,108965,128,0,109127:0:0:0:26:
64,192,108965,128,0,109127:0:0:0:26:
64,192,109289,1,0,0:0:0:40:
192,192,109289,1,0,0:0:0:40:
448,192,109614,128,0,109776:0:0:0:26:
64,192,109614,1,0,0:0:0:26:
192,192,109614,1,0,0:0:0:26:
64,192,109776,1,0,0:0:0:40:
192,192,109776,1,0,0:0:0:40:
448,192,109938,128,0,110262:0:0:0:80:
64,192,110100,1,0,0:0:0:80:
192,192,110262,1,0,0:0:0:40:
64,192,110262,1,0,0:0:0:40:
448,192,110425,128,0,110587:0:0:0:80:
64,192,110587,1,0,0:0:0:80:
448,192,110749,128,0,111073:0:0:0:80:
64,192,110911,1,0,0:0:0:40:
192,192,110911,1,0,0:0:0:40:
64,192,111073,1,0,0:0:0:40:
192,192,111073,1,0,0:0:0:40:
448,192,111235,128,0,111398:0:0:0:80:
64,192,111398,1,0,0:0:0:80:
64,192,111560,1,0,0:0:0:26:
192,192,111560,1,0,0:0:0:26:
448,192,111560,128,0,111722:0:0:0:26:
64,192,111722,1,0,0:0:0:40:
192,192,111722,1,0,0:0:0:40:
320,192,111803,1,0,0:0:0:80:
64,192,111884,128,0,112208:0:0:0:40:
448,192,111884,1,0,0:0:0:40:
320,192,112208,1,0,0:0:0:40:
448,192,112208,1,0,0:0:0:40:
448,192,112371,128,0,112695:0:0:0:26:
320,192,112371,1,0,0:0:0:26:
192,192,112371,1,0,0:0:0:26:
64,192,112695,1,0,0:0:0:40:
192,192,112695,1,0,0:0:0:40:
192,192,112857,1,0,0:0:0:26:
320,192,112857,1,0,0:0:0:26:
64,192,112857,128,0,113181:0:0:0:26:
320,192,113181,1,0,0:0:0:40:
448,192,113181,1,0,0:0:0:40:
448,192,113344,128,0,113668:0:0:0:80:
192,192,113506,1,0,0:0:0:40:
64,192,113506,1,0,0:0:0:40:
64,192,113668,128,0,113830:0:0:0:40:
192,192,113668,128,0,113830:0:0:0:40:
448,192,113830,128,0,113992:0:0:0:80:
64,192,113992,128,0,114316:0:0:0:80:
320,192,114154,128,0,114316:0:0:0:26:
448,192,114154,128,0,114316:0:0:0:26:
192,192,114154,128,0,114316:0:0:0:26:
320,192,114479,1,0,0:0:0:40:
448,192,114479,1,0,0:0:0:40:
64,192,114803,128,0,114965:0:0:0:26:
320,192,114803,1,0,0:0:0:26:
448,192,114803,1,0,0:0:0:26:
320,192,114965,1,0,0:0:0:40:
448,192,114965,1,0,0:0:0:40:
64,192,115127,128,0,115452:0:0:0:80:
320,192,115289,1,0,0:0:0:80:
320,192,115452,1,0,0:0:0:40:
192,192,115452,1,0,0:0:0:40:
448,192,115614,128,0,115776:0:0:0:80:
64,192,115776,1,0,0:0:0:80:
448,192,115938,128,0,116262:0:0:0:80:
64,192,116100,1,0,0:0:0:40:
192,192,116100,1,0,0:0:0:40:
192,192,116262,1,0,0:0:0:80:
320,192,116344,1,0,0:0:0:80:
64,192,116425,1,0,0:0:0:40:
448,192,116425,1,0,0:0:0:40:
192,192,116506,1,0,0:0:0:80:
320,192,116587,1,0,0:0:0:80:
64,192,116668,1,0,0:0:0:80:
448,192,116749,1,0,0:0:0:40:
320,192,116749,1,0,0:0:0:40:
192,192,116911,1,0,0:0:0:40:
64,192,116911,1,0,0:0:0:40:
320,192,116992,1,0,0:0:0:80:
64,192,117073,128,0,117398:0:0:0:40:
448,192,117073,1,0,0:0:0:40:
448,192,117398,1,0,0:0:0:40:
320,192,117398,1,0,0:0:0:40:
64,192,117560,1,0,0:0:0:26:
448,192,117560,128,0,117884:0:0:0:26:
320,192,117560,1,0,0:0:0:26:
192,192,117884,1,0,0:0:0:40:
64,192,117884,1,0,0:0:0:40:
64,192,118046,128,0,118371:0:0:0:26:
448,192,118046,1,0,0:0:0:26:
192,192,118046,1,0,0:0:0:26:
320,192,118371,1,0,0:0:0:40:
448,192,118371,1,0,0:0:0:40:
448,192,118533,128,0,118857:0:0:0:80:
64,192,118695,1,0,0:0:0:40:
192,192,118695,1,0,0:0:0:40:
64,192,118857,128,0,119019:0:0:0:40:
192,192,118857,128,0,119019:0:0:0:40:
448,192,119019,128,0,119181:0:0:0:80:
64,192,119181,128,0,119506:0:0:0:80:
192,192,119344,128,0,119506:0:0:0:26:
320,192,119344,128,0,119506:0:0:0:26:
448,192,119344,128,0,119506:0:0:0:26:
448,192,119668,1,0,0:0:0:40:
320,192,119668,1,0,0:0:0:40:
64,192,119992,128,0,120154:0:0:0:26:
448,192,119992,1,0,0:0:0:26:
320,192,119992,1,0,0:0:0:26:
448,192,120154,1,0,0:0:0:40:
320,192,120154,1,0,0:0:0:40:
64,192,120316,128,0,120641:0:0:0:80:
448,192,120479,1,0,0:0:0:80:
320,192,120641,1,0,0:0:0:40:
448,192,120641,1,0,0:0:0:40:
64,192,120803,128,0,120965:0:0:0:80:
448,192,120965,1,0,0:0:0:80:
64,192,121127,128,0,121452:0:0:0:80:
448,192,121289,1,0,0:0:0:40:
320,192,121289,1,0,0:0:0:40:
448,192,121452,1,0,0:0:0:40:
320,192,121452,1,0,0:0:0:40:
64,192,121614,128,0,121776:0:0:0:80:
448,192,121776,1,0,0:0:0:80:
448,192,121938,1,0,0:0:0:26:
320,192,121938,1,0,0:0:0:26:
64,192,121938,128,0,122100:0:0:0:26:
320,192,122100,1,0,0:0:0:40:
448,192,122100,1,0,0:0:0:40:
192,192,122181,1,0,0:0:0:80:
64,192,122262,1,0,0:0:0:40:
448,192,122262,128,0,122587:0:0:0:40:
192,192,122587,1,0,0:0:0:40:
64,192,122587,1,0,0:0:0:40:
64,192,122749,128,0,123073:0:0:0:26:
192,192,122749,1,0,0:0:0:26:
448,192,122749,1,0,0:0:0:26:
320,192,122911,1,0,0:0:0:40:
448,192,122911,1,0,0:0:0:40:
320,192,123235,1,0,0:0:0:26:
192,192,123235,1,0,0:0:0:26:
448,192,123235,128,0,123560:0:0:0:26:
192,192,123560,1,0,0:0:0:40:
64,192,123560,1,0,0:0:0:40:
448,192,123722,1,0,0:0:0:26:
64,192,123722,1,0,0:0:0:26:
320,192,123722,1,0,0:0:0:26:
192,192,123884,1,0,0:0:0:80:
320,192,123965,1,0,0:0:0:80:
64,192,124046,1,0,0:0:0:80:
192,192,124127,1,0,0:0:0:80:
448,192,124208,1,0,0:0:0:26:
320,192,124208,1,0,0:0:0:26:
64,192,124208,1,0,0:0:0:26:
192,192,124371,128,0,124695:0:0:0:26:
320,192,124371,128,0,124695:0:0:0:26:
448,192,124371,128,0,124695:0:0:0:26:
64,192,124857,1,0,0:0:0:26:
192,192,124857,1,0,0:0:0:26:
448,192,124857,1,0,0:0:0:26:
320,192,124938,1,0,0:0:0:80:
64,192,125019,1,0,0:0:0:80:
192,192,125100,1,0,0:0:0:80:
448,192,125181,1,0,0:0:0:40:
320,192,125181,1,0,0:0:0:40:
192,192,125262,1,0,0:0:0:80:
320,192,125344,1,0,0:0:0:80:
448,192,125425,1,0,0:0:0:80:
192,192,125506,1,0,0:0:0:80:
320,192,125587,1,0,0:0:0:80:
64,192,125668,1,0,0:0:0:80:
192,192,125749,1,0,0:0:0:80:
320,192,125830,1,0,0:0:0:40:
448,192,125830,1,0,0:0:0:40:
192,192,125911,1,0,0:0:0:80:
320,192,125992,1,0,0:0:0:80:
448,192,126073,1,0,0:0:0:80:
64,192,126154,1,0,0:0:0:80:
320,192,126235,1,0,0:0:0:80:
64,192,126316,1,0,0:0:0:80:
448,192,126398,1,0,0:0:0:80:
64,192,126479,1,0,0:0:0:40:
192,192,126479,1,0,0:0:0:40:
448,192,126560,1,0,0:0:0:80:
320,192,126641,1,0,0:0:0:80:
192,192,126722,1,0,0:0:0:80:
320,192,126803,1,0,0:0:0:80:
64,192,126884,1,0,0:0:0:80:
320,192,126965,1,0,0:0:0:80:
64,192,127046,1,0,0:0:0:80:
192,192,127127,1,0,0:0:0:40:
448,192,127127,1,0,0:0:0:40:
320,192,127208,1,0,0:0:0:80:
192,192,127289,1,0,0:0:0:80:
448,192,127371,1,0,0:0:0:80:
192,192,127452,1,0,0:0:0:80:
320,192,127533,1,0,0:0:0:80:
192,192,127614,1,0,0:0:0:80:
448,192,127695,1,0,0:0:0:80:
64,192,127776,1,0,0:0:0:40:
192,192,127776,1,0,0:0:0:40:
448,192,127857,1,0,0:0:0:80:
320,192,127938,1,0,0:0:0:80:
64,192,128019,1,0,0:0:0:80:
320,192,128100,1,0,0:0:0:80:
192,192,128181,1,0,0:0:0:80:
64,192,128262,1,0,0:0:0:80:
448,192,128344,1,0,0:0:0:80:
64,192,128425,1,0,0:0:0:40:
192,192,128425,1,0,0:0:0:40:
320,192,128506,1,0,0:0:0:80:
64,192,128587,1,0,0:0:0:80:
192,192,128668,1,0,0:0:0:80:
448,192,128749,1,0,0:0:0:80:
320,192,128830,1,0,0:0:0:80:
64,192,128911,1,0,0:0:0:80:
320,192,128992,1,0,0:0:0:80:
192,192,129073,1,0,0:0:0:40:
64,192,129073,1,0,0:0:0:40:
448,192,129154,1,0,0:0:0:80:
320,192,129235,1,0,0:0:0:80:
64,192,129316,1,0,0:0:0:80:
192,192,129398,1,0,0:0:0:80:
320,192,129479,1,0,0:0:0:80:
192,192,129560,1,0,0:0:0:80:
448,192,129641,1,0,0:0:0:80:
64,192,129722,1,0,0:0:0:40:
192,192,129722,1,0,0:0:0:40:
448,192,129803,1,0,0:0:0:80:
320,192,129884,1,0,0:0:0:80:
192,192,129965,1,0,0:0:0:80:
64,192,130046,1,0,0:0:0:26:
448,192,130046,1,0,0:0:0:26:
320,192,130046,1,0,0:0:0:26:
192,192,130208,1,0,0:0:0:80:
448,192,130371,1,0,0:0:0:26:
64,192,130371,1,0,0:0:0:26:
192,192,130371,1,0,0:0:0:26:
320,192,130533,1,0,0:0:0:80:
192,192,130614,1,0,0:0:0:80:
320,192,130695,1,0,0:0:0:40:
448,192,130695,1,0,0:0:0:40:
64,192,130857,1,0,0:0:0:40:
192,192,130857,1,0,0:0:0:40:
64,192,131019,1,0,0:0:0:26:
448,192,131019,1,0,0:0:0:26:
320,192,131019,1,0,0:0:0:26:
192,192,131181,1,0,0:0:0:40:
448,192,131181,1,0,0:0:0:40:
320,192,131262,1,0,0:0:0:40:
64,192,131262,1,0,0:0:0:40:
192,192,131344,1,0,0:0:0:40:
448,192,131344,1,0,0:0:0:40:
320,192,131506,1,0,0:0:0:40:
64,192,131506,1,0,0:0:0:40:
64,192,131668,1,0,0:0:0:26:
192,192,131668,1,0,0:0:0:26:
448,192,131668,1,0,0:0:0:26:
320,192,131830,1,0,0:0:0:40:
448,192,131830,1,0,0:0:0:40:
448,192,131992,1,0,0:0:0:40:
320,192,131992,1,0,0:0:0:40:
192,192,132154,1,0,0:0:0:40:
64,192,132154,1,0,0:0:0:40:
64,192,132316,1,0,0:0:0:26:
448,192,132316,1,0,0:0:0:26:
320,192,132316,1,0,0:0:0:26:
192,192,132479,1,0,0:0:0:40:
448,192,132479,1,0,0:0:0:40:
64,192,132641,1,0,0:0:0:40:
320,192,132641,1,0,0:0:0:40:
192,192,132803,1,0,0:0:0:80:
320,192,132857,1,0,0:0:0:80:
192,192,132911,1,0,0:0:0:80:
448,192,132965,1,0,0:0:0:80:
320,192,133127,1,0,0:0:0:80:
192,192,133181,1,0,0:0:0:80:
320,192,133235,1,0,0:0:0:80:
64,192,133289,1,0,0:0:0:80:
192,192,133452,1,0,0:0:0:80:
320,192,133506,1,0,0:0:0:80:
192,192,133560,1,0,0:0:0:80:
448,192,133614,1,0,0:0:0:80:
320,192,133776,1,0,0:0:0:80:
64,192,133938,1,0,0:0:0:26:
192,192,133938,1,0,0:0:0:26:
448,192,133938,1,0,0:0:0:26:
320,192,134100,1,0,0:0:0:80:
192,192,134181,1,0,0:0:0:80:
448,192,134262,1,0,0:0:0:26:
320,192,134262,1,0,0:0:0:26:
64,192,134262,1,0,0:0:0:26:
64,192,134425,1,0,0:0:0:26:
192,192,134425,1,0,0:0:0:26:
320,192,134425,1,0,0:0:0:26:
448,192,134587,1,0,0:0:0:80:
320,192,134668,1,0,0:0:0:80:
64,192,134749,1,0,0:0:0:40:
192,192,134749,1,0,0:0:0:40:
448,192,134830,1,0,0:0:0:80:
64,192,134911,1,0,0:0:0:40:
192,192,134911,1,0,0:0:0:40:
320,192,134992,1,0,0:0:0:40:
448,192,134992,1,0,0:0:0:40:
192,192,135073,1,0,0:0:0:40:
64,192,135073,1,0,0:0:0:40:
448,192,135154,1,0,0:0:0:40:
320,192,135154,1,0,0:0:0:40:
64,192,135235,128,0,135316:0:0:0:80:
192,192,135316,128,0,135398:0:0:0:80:
448,192,135398,128,0,135479:0:0:0:80:
320,192,135479,128,0,135560:0:0:0:80:
64,192,135560,128,0,135641:0:0:0:80:
320,192,135641,128,0,135722:0:0:0:80:
64,192,135722,128,0,135803:0:0:0:80:
192,192,135803,128,0,135884:0:0:0:80:
448,192,135884,128,0,135965:0:0:0:80:
320,192,135965,128,0,136046:0:0:0:80:
64,192,136046,128,0,136127:0:0:0:80:
320,192,136127,128,0,136208:0:0:0:80:
192,192,136208,128,0,136289:0:0:0:80:
448,192,136289,128,0,136371:0:0:0:80:
192,192,136371,128,0,136452:0:0:0:80:
320,192,136452,128,0,136533:0:0:0:80:
64,192,136533,128,0,136614:0:0:0:80:
320,192,136614,128,0,136695:0:0:0:80:
64,192,136695,128,0,136776:0:0:0:80:
192,192,136776,128,0,136857:0:0:0:80:
448,192,136857,128,0,136938:0:0:0:80:
320,192,136938,128,0,137019:0:0:0:80:
64,192,137019,128,0,137100:0:0:0:80:
320,192,137100,128,0,137181:0:0:0:80:
192,192,137181,128,0,137262:0:0:0:80:
448,192,137262,128,0,137344:0:0:0:80:
192,192,137344,128,0,137425:0:0:0:80:
320,192,137425,128,0,137506:0:0:0:80:
64,192,137506,128,0,137587:0:0:0:80:
320,192,137587,128,0,137668:0:0:0:80:
64,192,137668,128,0,137749:0:0:0:80:
192,192,137749,128,0,137830:0:0:0:80:
448,192,137830,128,0,137911:0:0:0:80:
320,192,137911,128,0,137992:0:0:0:80:
64,192,137992,128,0,138073:0:0:0:80:
320,192,138073,128,0,138154:0:0:0:80:
192,192,138154,128,0,138235:0:0:0:80:
448,192,138235,128,0,138316:0:0:0:80:
192,192,138316,128,0,138398:0:0:0:80:
320,192,138398,128,0,138479:0:0:0:80:
64,192,138479,128,0,138560:0:0:0:80:
320,192,138560,128,0,138641:0:0:0:80:
64,192,138641,128,0,138722:0:0:0:80:
192,192,138722,128,0,138803:0:0:0:80:
448,192,138803,128,0,138884:0:0:0:80:
320,192,138884,128,0,138965:0:0:0:80:
64,192,138965,128,0,139046:0:0:0:80:
320,192,139046,128,0,139127:0:0:0:80:
192,192,139127,128,0,139208:0:0:0:80:
448,192,139208,128,0,139289:0:0:0:80:
192,192,139289,128,0,139371:0:0:0:80:
320,192,139371,128,0,139452:0:0:0:80:
64,192,139452,128,0,139533:0:0:0:80:
320,192,139533,128,0,139614:0:0:0:80:
64,192,139614,128,0,139695:0:0:0:80:
192,192,139695,128,0,139776:0:0:0:80:
448,192,139776,128,0,139857:0:0:0:80:
320,192,139857,128,0,139938:0:0:0:80:
64,192,139938,128,0,140019:0:0:0:80:
320,192,140019,128,0,140100:0:0:0:80:
448,192,140100,128,0,140181:0:0:0:80:
192,192,140181,128,0,140262:0:0:0:80:
64,192,140262,128,0,140344:0:0:0:80:
320,192,140344,128,0,140425:0:0:0:80:
192,192,140425,5,0,0:0:0:26:
64,192,140425,1,0,0:0:0:26:
448,192,140425,1,0,0:0:0:26:
192,192,140587,1,0,0:0:0:40:
320,192,140587,1,0,0:0:0:40:
64,192,140749,1,0,0:0:0:26:
448,192,140749,1,0,0:0:0:26:
320,192,140749,1,0,0:0:0:26:
192,192,140911,1,0,0:0:0:80:
192,192,140992,1,0,0:0:0:80:
320,192,141073,1,0,0:0:0:40:
448,192,141073,1,0,0:0:0:40:
192,192,141235,1,0,0:0:0:40:
64,192,141235,1,0,0:0:0:40:
64,192,141398,1,0,0:0:0:26:
320,192,141398,1,0,0:0:0:26:
448,192,141398,1,0,0:0:0:26:
192,192,141560,1,0,0:0:0:80:
320,192,141641,1,0,0:0:0:80:
192,192,141722,1,0,0:0:0:40:
64,192,141722,1,0,0:0:0:40:
448,192,141884,1,0,0:0:0:80:
448,192,141965,128,0,142046:0:0:0:80:
64,192,142127,1,0,0:0:0:80:
64,192,142208,128,0,142289:0:0:0:80:
320,192,142371,1,0,0:0:0:80:
320,192,142452,128,0,142533:0:0:0:80:
192,192,142614,1,0,0:0:0:80:
192,192,142695,128,0,142776:0:0:0:80:
448,192,142857,1,0,0:0:0:40:
320,192,142857,1,0,0:0:0:40:
192,192,142938,1,0,0:0:0:40:
64,192,142938,1,0,0:0:0:40:
320,192,143019,1,0,0:0:0:40:
448,192,143019,1,0,0:0:0:40:
64,192,143100,1,0,0:0:0:80:
192,192,143181,1,0,0:0:0:80:
320,192,143262,1,0,0:0:0:80:
448,192,143344,1,0,0:0:0:40:
64,192,143344,1,0,0:0:0:40:
192,192,143425,1,0,0:0:0:80:
320,192,143506,1,0,0:0:0:80:
192,192,143587,1,0,0:0:0:80:
320,192,143668,1,0,0:0:0:80:
448,192,143749,1,0,0:0:0:80:
64,192,143830,1,0,0:0:0:40:
192,192,143830,1,0,0:0:0:40:
448,192,143992,1,0,0:0:0:26:
64,192,143992,1,0,0:0:0:26:
320,192,143992,1,0,0:0:0:26:
192,192,144154,1,0,0:0:0:40:
320,192,144154,1,0,0:0:0:40:
64,192,144316,1,0,0:0:0:80:
192,192,144398,1,0,0:0:0:80:
320,192,144479,1,0,0:0:0:40:
448,192,144479,1,0,0:0:0:40:
64,192,144560,1,0,0:0:0:80:
448,192,144641,1,0,0:0:0:40:
192,192,144641,1,0,0:0:0:40:
320,192,144722,1,0,0:0:0:80:
64,192,144803,1,0,0:0:0:80:
192,192,144884,1,0,0:0:0:80:
448,192,144965,1,0,0:0:0:40:
320,192,144965,1,0,0:0:0:40:
64,192,145019,1,0,0:0:0:80:
192,192,145073,1,0,0:0:0:80:
448,192,145127,1,0,0:0:0:80:
320,192,145181,1,0,0:0:0:80:
192,192,145235,1,0,0:0:0:80:
64,192,145289,1,0,0:0:0:40:
448,192,145289,1,0,0:0:0:40:
64,192,145614,1,0,0:0:0:40:
192,192,145614,1,0,0:0:0:40:
448,192,145938,128,0,146262:0:0:0:40:
320,192,145938,1,0,0:0:0:40:
320,192,146262,128,0,146587:0:0:0:40:
192,192,146262,1,0,0:0:0:40:
64,192,146587,128,0,146749:0:0:0:40:
192,192,146587,1,0,0:0:0:40:
448,192,146749,128,0,147073:0:0:0:80:
64,192,146911,1,0,0:0:0:40:
192,192,146911,1,0,0:0:0:40:
320,192,147073,128,0,147398:0:0:0:80:
64,192,147398,128,0,147560:0:0:0:80:
448,192,147560,128,0,147884:0:0:0:40:
320,192,147560,1,0,0:0:0:40:
320,192,147884,128,0,148208:0:0:0:40:
192,192,147884,1,0,0:0:0:40:
64,192,148208,1,0,0:0:0:40:
192,192,148208,1,0,0:0:0:40:
448,192,148371,1,0,0:0:0:80:
448,192,148533,1,0,0:0:0:80:
448,192,148695,1,0,0:0:0:80:
448,192,148857,1,0,0:0:0:40:
192,192,148857,1,0,0:0:0:40:
320,192,149019,1,0,0:0:0:80:
64,192,149181,1,0,0:0:0:80:
192,192,149344,1,0,0:0:0:80:
448,192,149506,1,0,0:0:0:40:
64,192,149506,1,0,0:0:0:40:
320,192,149668,1,0,0:0:0:80:
64,192,149830,1,0,0:0:0:80:
192,192,149992,128,0,150803:0:0:0:80:
448,192,150154,1,0,0:0:0:80:
320,192,150479,1,0,0:0:0:40:
448,192,150479,1,0,0:0:0:40:
448,192,150803,1,0,0:0:0:40:
64,192,150803,1,0,0:0:0:40:
448,192,151127,128,0,151452:0:0:0:40:
320,192,151127,1,0,0:0:0:40:
320,192,151452,128,0,151776:0:0:0:40:
192,192,151452,1,0,0:0:0:40:
64,192,151776,128,0,151938:0:0:0:40:
192,192,151776,1,0,0:0:0:40:
448,192,151938,128,0,152262:0:0:0:80:
64,192,152100,1,0,0:0:0:40:
192,192,152100,1,0,0:0:0:40:
320,192,152262,128,0,152587:0:0:0:80:
64,192,152587,128,0,152749:0:0:0:80:
192,192,152695,128,0,152803:0:0:0:80:
448,192,152749,128,0,153073:0:0:0:80:
64,192,153073,128,0,153398:0:0:0:40:
192,192,153073,1,0,0:0:0:40:
448,192,153398,1,0,0:0:0:40:
192,192,153398,1,0,0:0:0:40:
320,192,153560,1,0,0:0:0:80:
320,192,153722,1,0,0:0:0:80:
320,192,153884,1,0,0:0:0:80:
192,192,154046,1,0,0:0:0:40:
64,192,154046,1,0,0:0:0:40:
320,192,154208,1,0,0:0:0:80:
192,192,154371,1,0,0:0:0:80:
448,192,154533,1,0,0:0:0:80:
64,192,154695,1,0,0:0:0:40:
192,192,154695,1,0,0:0:0:40:
320,192,154857,1,0,0:0:0:80:
192,192,155019,1,0,0:0:0:80:
192,192,155181,128,0,155992:0:0:0:80:
448,192,155344,1,0,0:0:0:80:
448,192,155668,1,0,0:0:0:40:
320,192,155668,1,0,0:0:0:40:
64,192,155992,1,0,0:0:0:26:
448,192,155992,1,0,0:0:0:26:
320,192,155992,1,0,0:0:0:26:
192,192,156316,1,0,0:0:0:26:
320,192,156316,1,0,0:0:0:26:
448,192,156316,128,0,156641:0:0:0:26:
320,192,156641,1,0,0:0:0:26:
64,192,156641,1,0,0:0:0:26:
192,192,156641,128,0,156965:0:0:0:26:
320,192,156965,1,0,0:0:0:26:
64,192,156965,1,0,0:0:0:26:
448,192,156965,1,0,0:0:0:26:
448,192,157127,128,0,157452:0:0:0:80:
64,192,157289,1,0,0:0:0:26:
192,192,157289,1,0,0:0:0:26:
320,192,157289,1,0,0:0:0:26:
192,192,157452,128,0,157776:0:0:0:80:
320,192,157614,1,0,0:0:0:26:
64,192,157614,1,0,0:0:0:26:
448,192,157614,1,0,0:0:0:26:
320,192,157776,1,0,0:0:0:80:
64,192,157938,1,0,0:0:0:26:
192,192,157938,1,0,0:0:0:26:
448,192,157938,128,0,158262:0:0:0:26:
192,192,158262,128,0,158587:0:0:0:26:
64,192,158262,1,0,0:0:0:26:
320,192,158262,1,0,0:0:0:26:
64,192,158587,1,0,0:0:0:26:
448,192,158587,1,0,0:0:0:26:
320,192,158587,1,0,0:0:0:26:
192,192,158749,1,0,0:0:0:80:
320,192,158911,1,0,0:0:0:80:
192,192,159073,1,0,0:0:0:80:
448,192,159235,128,0,159560:0:0:0:26:
64,192,159235,1,0,0:0:0:26:
192,192,159235,1,0,0:0:0:26:
192,192,159398,1,0,0:0:0:80:
320,192,159560,1,0,0:0:0:80:
320,192,159722,1,0,0:0:0:80:
192,192,159884,1,0,0:0:0:26:
448,192,159884,1,0,0:0:0:26:
64,192,159884,128,0,160208:0:0:0:26:
320,192,160046,1,0,0:0:0:80:
192,192,160208,1,0,0:0:0:80:
448,192,160371,128,0,160857:0:0:0:80:
320,192,160533,128,0,160857:0:0:0:26:
192,192,160533,1,0,0:0:0:26:
64,192,160533,1,0,0:0:0:26:
64,192,160857,1,0,0:0:0:80:
192,192,160938,1,0,0:0:0:80:
320,192,161019,1,0,0:0:0:40:
448,192,161019,1,0,0:0:0:40:
192,192,161100,1,0,0:0:0:40:
64,192,161100,1,0,0:0:0:40:
320,192,161181,1,0,0:0:0:40:
448,192,161181,128,0,161506:0:0:0:40:
64,192,161506,1,0,0:0:0:40:
320,192,161506,1,0,0:0:0:40:
192,192,161668,128,0,161830:0:0:0:80:
320,192,161830,1,0,0:0:0:26:
64,192,161830,1,0,0:0:0:26:
448,192,161830,1,0,0:0:0:26:
64,192,162154,128,0,162479:0:0:0:26:
448,192,162154,1,0,0:0:0:26:
320,192,162154,1,0,0:0:0:26:
320,192,162479,1,0,0:0:0:40:
448,192,162479,1,0,0:0:0:40:
64,192,162641,1,0,0:0:0:26:
192,192,162641,1,0,0:0:0:26:
320,192,162641,128,0,162803:0:0:0:26:
448,192,162803,1,0,0:0:0:40:
64,192,162803,1,0,0:0:0:40:
192,192,162965,128,0,163127:0:0:0:80:
320,192,163127,128,0,163452:0:0:0:40:
448,192,163127,128,0,163452:0:0:0:40:
192,192,163452,1,0,0:0:0:40:
64,192,163452,1,0,0:0:0:40:
320,192,163533,1,0,0:0:0:80:
64,192,163614,1,0,0:0:0:40:
192,192,163614,1,0,0:0:0:40:
320,192,163695,1,0,0:0:0:40:
448,192,163695,1,0,0:0:0:40:
64,192,163776,1,0,0:0:0:40:
192,192,163776,1,0,0:0:0:40:
448,192,163857,1,0,0:0:0:80:
320,192,163938,1,0,0:0:0:80:
64,192,164019,1,0,0:0:0:80:
192,192,164100,1,0,0:0:0:40:
448,192,164100,1,0,0:0:0:40:
320,192,164181,1,0,0:0:0:80:
64,192,164262,1,0,0:0:0:40:
192,192,164262,1,0,0:0:0:40:
448,192,164344,1,0,0:0:0:80:
320,192,164425,1,0,0:0:0:40:
64,192,164425,1,0,0:0:0:40:
192,192,164506,1,0,0:0:0:80:
448,192,164587,1,0,0:0:0:80:
320,192,164668,1,0,0:0:0:80:
448,192,164749,1,0,0:0:0:40:
64,192,164749,1,0,0:0:0:40:
192,192,164830,1,0,0:0:0:80:
320,192,164911,1,0,0:0:0:80:
64,192,164992,1,0,0:0:0:80:
192,192,165073,1,0,0:0:0:40:
448,192,165073,1,0,0:0:0:40:
320,192,165154,1,0,0:0:0:80:
64,192,165235,1,0,0:0:0:40:
192,192,165235,1,0,0:0:0:40:
448,192,165316,1,0,0:0:0:80:
320,192,165398,1,0,0:0:0:40:
64,192,165398,1,0,0:0:0:40:
192,192,165479,1,0,0:0:0:80:
448,192,165560,1,0,0:0:0:80:
320,192,165641,1,0,0:0:0:80:
192,192,165722,1,0,0:0:0:26:
448,192,165722,1,0,0:0:0:26:
64,192,165722,1,0,0:0:0:26:
320,192,165803,1,0,0:0:0:80:
192,192,165884,128,0,166046:0:0:0:26:
448,192,165884,128,0,166046:0:0:0:26:
64,192,165884,128,0,166046:0:0:0:26:
64,192,166208,128,0,166371:0:0:0:26:
192,192,166208,128,0,166371:0:0:0:26:
448,192,166208,128,0,166371:0:0:0:26:
320,192,166479,1,0,0:0:0:80:
192,192,166587,1,0,0:0:0:40:
64,192,166587,1,0,0:0:0:40:
320,192,166695,1,0,0:0:0:40:
448,192,166695,1,0,0:0:0:40:
64,192,166803,1,0,0:0:0:80:
64,192,166911,1,0,0:0:0:80:
320,192,167019,1,0,0:0:0:40:
448,192,167019,1,0,0:0:0:40:
192,192,167127,1,0,0:0:0:80:
192,192,167235,1,0,0:0:0:80:
448,192,167344,1,0,0:0:0:80:
64,192,167452,1,0,0:0:0:80:
320,192,167560,1,0,0:0:0:80:
192,192,167668,1,0,0:0:0:26:
64,192,167668,1,0,0:0:0:26:
448,192,167668,1,0,0:0:0:26:
320,192,167749,1,0,0:0:0:80:
64,192,167830,1,0,0:0:0:80:
192,192,167911,1,0,0:0:0:80:
448,192,167992,1,0,0:0:0:40:
320,192,167992,1,0,0:0:0:40:
64,192,168073,1,0,0:0:0:80:
192,192,168154,1,0,0:0:0:80:
320,192,168235,1,0,0:0:0:80:
448,192,168316,1,0,0:0:0:26:
192,192,168316,1,0,0:0:0:26:
64,192,168316,1,0,0:0:0:26:
448,192,168479,1,0,0:0:0:26:
64,192,168479,1,0,0:0:0:26:
320,192,168479,1,0,0:0:0:26:
448,192,168965,128,0,169289:0:0:0:40:
64,192,168965,1,0,0:0:0:40:
64,192,169452,1,0,0:0:0:40:
448,192,169452,128,0,170911:0:0:0:40:
320,192,170911,1,0,0:0:0:40:
64,192,170911,128,0,171398:0:0:0:40:
448,192,171073,1,0,0:0:0:40:
192,192,171073,128,0,171398:0:0:0:40:
320,192,171398,128,0,171560:0:0:0:80:
448,192,171560,128,0,171884:0:0:0:80:
64,192,171884,128,0,172046:0:0:0:80:
320,192,172046,128,0,173181:0:0:0:80:
192,192,172371,128,0,173181:0:0:0:80:
64,192,172695,128,0,173181:0:0:0:80:
448,192,173506,128,0,173830:0:0:0:80:
320,192,173830,128,0,174154:0:0:0:80:
64,192,174154,128,0,174479:0:0:0:80:
320,192,174479,1,0,0:0:0:80:
320,192,174641,128,0,174965:0:0:0:80:
192,192,174965,1,0,0:0:0:80:
192,192,175127,128,0,175452:0:0:0:80:
320,192,175452,1,0,0:0:0:80:
320,192,175614,128,0,175938:0:0:0:80:
192,192,175938,1,0,0:0:0:80:
192,192,176100,128,0,176425:0:0:0:80:
320,192,176425,128,0,176749:0:0:0:80:
448,192,176749,1,0,0:0:0:40:
64,192,176749,128,0,177560:0:0:0:40:
192,192,176911,128,0,177560:0:0:0:80:
320,192,177073,128,0,177560:0:0:0:80:
448,192,177235,128,0,177560:0:0:0:80:
320,192,177722,1,0,0:0:0:40:
448,192,177722,1,0,0:0:0:40:
448,192,177884,128,0,178857:0:0:0:40:
64,192,177884,1,0,0:0:0:40:
320,192,178208,128,0,178857:0:0:0:40:
64,192,178208,1,0,0:0:0:40:
192,192,178533,128,0,178857:0:0:0:40:
64,192,178533,1,0,0:0:0:40:
64,192,178857,128,0,179344:0:0:0:80:
448,192,179344,128,0,179776:0:0:0:40:
320,192,179344,1,0,0:0:0:40:
64,192,179668,1,0,0:0:0:40:
192,192,179668,1,0,0:0:0:40:
448,192,179884,128,0,179992:0:0:0:80:
64,192,179992,1,0,0:0:0:40:
192,192,179992,1,0,0:0:0:40:
448,192,180208,1,0,0:0:0:80:
192,192,180316,1,0,0:0:0:80:
192,192,180533,1,0,0:0:0:40:
64,192,180533,1,0,0:0:0:40:
320,192,180641,1,0,0:0:0:80:
320,192,180857,1,0,0:0:0:40:
448,192,180857,1,0,0:0:0:40:
192,192,180965,1,0,0:0:0:40:
64,192,180965,1,0,0:0:0:40:
320,192,181181,1,0,0:0:0:80:
64,192,181289,128,0,181398:0:0:0:26:
192,192,181289,128,0,181398:0:0:0:26:
448,192,181289,128,0,181398:0:0:0:26:
64,192,181506,128,0,181614:0:0:0:26:
320,192,181506,128,0,181614:0:0:0:26:
448,192,181506,128,0,181614:0:0:0:26:
64,192,181776,1,0,0:0:0:26:
192,192,181776,1,0,0:0:0:26:
448,192,181776,1,0,0:0:0:26:
64,192,181938,128,0,182154:0:0:0:80:
448,192,182154,1,0,0:0:0:40:
320,192,182154,1,0,0:0:0:40:
192,192,182262,1,0,0:0:0:40:
64,192,182262,1,0,0:0:0:40:
192,192,182425,128,0,182803:0:0:0:80:
320,192,182587,1,0,0:0:0:40:
448,192,182587,1,0,0:0:0:40:
448,192,182803,128,0,183127:0:0:0:80:
192,192,182911,1,0,0:0:0:40:
64,192,182911,1,0,0:0:0:40:
192,192,183127,128,0,183452:0:0:0:26:
320,192,183127,1,0,0:0:0:26:
64,192,183127,1,0,0:0:0:26:
320,192,183452,1,0,0:0:0:40:
448,192,183452,1,0,0:0:0:40:
192,192,183560,1,0,0:0:0:40:
64,192,183560,1,0,0:0:0:40:
64,192,183776,1,0,0:0:0:40:
192,192,183776,1,0,0:0:0:40:
320,192,183884,1,0,0:0:0:40:
448,192,183884,1,0,0:0:0:40:
64,192,183992,1,0,0:0:0:40:
192,192,183992,1,0,0:0:0:40:
448,192,184100,1,0,0:0:0:80:
64,192,184208,1,0,0:0:0:80:
320,192,184316,1,0,0:0:0:80:
192,192,184425,1,0,0:0:0:80:
64,192,184533,1,0,0:0:0:26:
320,192,184533,1,0,0:0:0:26:
448,192,184533,1,0,0:0:0:26:
192,192,184614,1,0,0:0:0:80:
448,192,184695,1,0,0:0:0:80:
320,192,184776,1,0,0:0:0:80:
64,192,184857,1,0,0:0:0:40:
192,192,184857,1,0,0:0:0:40:
448,192,184938,1,0,0:0:0:80:
320,192,185019,1,0,0:0:0:40:
64,192,185019,1,0,0:0:0:40:
192,192,185100,1,0,0:0:0:80:
320,192,185181,1,0,0:0:0:40:
448,192,185181,1,0,0:0:0:40:
64,192,185262,1,0,0:0:0:80:
192,192,185344,1,0,0:0:0:80:
448,192,185425,1,0,0:0:0:80:
64,192,185506,1,0,0:0:0:40:
320,192,185506,1,0,0:0:0:40:
192,192,185587,1,0,0:0:0:80:
448,192,185668,1,0,0:0:0:80:
320,192,185749,1,0,0:0:0:80:
64,192,185830,1,0,0:0:0:40:
192,192,185830,1,0,0:0:0:40:
448,192,185911,1,0,0:0:0:80:
320,192,185992,1,0,0:0:0:40:
64,192,185992,1,0,0:0:0:40:
192,192,186073,1,0,0:0:0:80:
448,192,186154,1,0,0:0:0:40:
320,192,186154,1,0,0:0:0:40:
64,192,186235,1,0,0:0:0:80:
192,192,186316,1,0,0:0:0:80:
448,192,186398,1,0,0:0:0:80:
64,192,186479,1,0,0:0:0:40:
320,192,186479,1,0,0:0:0:40:
192,192,186560,1,0,0:0:0:80:
448,192,186641,1,0,0:0:0:80:
64,192,186722,1,0,0:0:0:80:
192,192,186803,1,0,0:0:0:40:
320,192,186803,1,0,0:0:0:40:
448,192,186884,1,0,0:0:0:80:
192,192,186965,1,0,0:0:0:40:
64,192,186965,1,0,0:0:0:40:
320,192,187046,1,0,0:0:0:40:
448,192,187046,1,0,0:0:0:40:
64,192,187127,1,0,0:0:0:40:
192,192,187127,1,0,0:0:0:40:
448,192,187208,1,0,0:0:0:80:
64,192,187289,1,0,0:0:0:40:
192,192,187289,1,0,0:0:0:40:
320,192,187371,1,0,0:0:0:80:
448,192,187452,1,0,0:0:0:40:
64,192,187452,1,0,0:0:0:40:
192,192,187533,1,0,0:0:0:80:
448,192,187614,1,0,0:0:0:40:
320,192,187614,1,0,0:0:0:40:
192,192,187695,1,0,0:0:0:80:
448,192,187776,1,0,0:0:0:40:
320,192,187776,1,0,0:0:0:40:
192,192,187857,1,0,0:0:0:80:
448,192,187938,1,0,0:0:0:40:
64,192,187938,1,0,0:0:0:40:
320,192,188019,1,0,0:0:0:80:
64,192,188100,1,0,0:0:0:40:
192,192,188100,1,0,0:0:0:40:
320,192,188181,1,0,0:0:0:80:
192,192,188262,1,0,0:0:0:40:
64,192,188262,1,0,0:0:0:40:
320,192,188344,1,0,0:0:0:80:
448,192,188425,128,0,188506:0:0:0:40:
64,192,188425,128,0,188506:0:0:0:40:
192,192,188506,128,0,188587:0:0:0:80:
320,192,188587,128,0,188668:0:0:0:40:
64,192,188587,128,0,188668:0:0:0:40:
192,192,188668,128,0,188749:0:0:0:80:
448,192,188749,128,0,188830:0:0:0:40:
64,192,188749,128,0,188830:0:0:0:40:
320,192,188830,128,0,188911:0:0:0:80:
192,192,188911,128,0,188992:0:0:0:40:
448,192,188911,128,0,188992:0:0:0:40:
320,192,188992,128,0,189073:0:0:0:80:
192,192,189073,128,0,189154:0:0:0:40:
64,192,189073,128,0,189154:0:0:0:40:
320,192,189154,128,0,189235:0:0:0:40:
448,192,189154,128,0,189235:0:0:0:40:
192,192,189235,128,0,189316:0:0:0:40:
64,192,189235,128,0,189316:0:0:0:40:
320,192,189316,128,0,189398:0:0:0:40:
448,192,189316,128,0,189398:0:0:0:40:
192,192,189398,128,0,189479:0:0:0:40:
64,192,189398,128,0,189479:0:0:0:40:
448,192,189479,128,0,189560:0:0:0:80:
320,192,189560,128,0,189641:0:0:0:80:
192,192,189641,1,0,0:0:0:80:
448,192,189722,128,0,190127:0:0:0:26:
320,192,189722,128,0,190127:0:0:0:26:
64,192,189722,128,0,190127:0:0:0:26:
448,192,190208,128,0,190452:0:0:0:26:
64,192,190208,128,0,190452:0:0:0:26:
320,192,190208,128,0,190452:0:0:0:26:
192,192,190533,128,0,190614:0:0:0:80:
320,192,190614,128,0,190695:0:0:0:80:
64,192,190695,128,0,190776:0:0:0:40:
448,192,190695,128,0,190776:0:0:0:40:
192,192,190776,128,0,190857:0:0:0:80:
320,192,190857,128,0,190938:0:0:0:80:
64,192,190938,128,0,191019:0:0:0:80:
448,192,191019,128,0,191100:0:0:0:40:
192,192,191019,128,0,191100:0:0:0:40:
320,192,191100,128,0,191181:0:0:0:80:
64,192,191181,128,0,191262:0:0:0:80:
192,192,191262,128,0,191344:0:0:0:80:
320,192,191344,128,0,191425:0:0:0:40:
448,192,191344,128,0,191425:0:0:0:40:
64,192,191425,128,0,191506:0:0:0:40:
192,192,191425,128,0,191506:0:0:0:40:
320,192,191506,128,0,191587:0:0:0:40:
448,192,191506,128,0,191587:0:0:0:40:
192,192,191587,128,0,191668:0:0:0:80:
64,192,191668,1,0,0:0:0:26:
448,192,191668,1,0,0:0:0:26:
320,192,191668,1,0,0:0:0:26:
192,192,191830,128,0,191992:0:0:0:20:
320,192,191830,128,0,191992:0:0:0:20:
64,192,191830,128,0,191992:0:0:0:20:
448,192,191830,128,0,191992:0:0:0:20:
192,192,192154,1,0,0:0:0:26:
320,192,192154,1,0,0:0:0:26:
64,192,192154,128,0,192316:0:0:0:26:
448,192,192316,128,0,192479:0:0:0:80:
64,192,192479,1,0,0:0:0:40:
192,192,192479,1,0,0:0:0:40:
64,192,192641,1,0,0:0:0:26:
320,192,192641,1,0,0:0:0:26:
448,192,192641,1,0,0:0:0:26:
192,192,192803,128,0,192965:0:0:0:40:
320,192,192803,128,0,192965:0:0:0:40:
64,192,192965,1,0,0:0:0:40:
448,192,192965,1,0,0:0:0:40:
64,192,193127,128,0,193289:0:0:0:40:
192,192,193127,128,0,193289:0:0:0:40:
320,192,193289,1,0,0:0:0:40:
448,192,193289,1,0,0:0:0:40:
448,192,193452,128,0,193776:0:0:0:26:
64,192,193452,128,0,193776:0:0:0:26:
320,192,193452,128,0,193776:0:0:0:26:
192,192,193776,1,0,0:0:0:80:
64,192,193938,1,0,0:0:0:26:
320,192,193938,1,0,0:0:0:26:
448,192,193938,1,0,0:0:0:26:
192,192,194100,1,0,0:0:0:80:
320,192,194181,1,0,0:0:0:80:
64,192,194262,1,0,0:0:0:40:
448,192,194262,1,0,0:0:0:40:
192,192,194425,1,0,0:0:0:40:
320,192,194425,1,0,0:0:0:40:
64,192,194587,1,0,0:0:0:26:
192,192,194587,1,0,0:0:0:26:
448,192,194587,1,0,0:0:0:26:
320,192,194749,1,0,0:0:0:80:
64,192,194911,128,0,195073:0:0:0:26:
448,192,194911,1,0,0:0:0:26:
192,192,194911,1,0,0:0:0:26:
192,192,195235,1,0,0:0:0:26:
448,192,195235,1,0,0:0:0:26:
320,192,195235,1,0,0:0:0:26:
192,192,195398,128,0,195560:0:0:0:80:
320,192,195560,1,0,0:0:0:40:
448,192,195560,1,0,0:0:0:40:
192,192,195722,1,0,0:0:0:40:
320,192,195722,1,0,0:0:0:40:
448,192,195884,128,0,196046:0:0:0:26:
192,192,195884,1,0,0:0:0:26:
64,192,195884,1,0,0:0:0:26:
192,192,196208,1,0,0:0:0:40:
320,192,196208,1,0,0:0:0:40:
320,192,196371,128,0,196533:0:0:0:80:
448,192,196533,1,0,0:0:0:26:
64,192,196533,1,0,0:0:0:26:
192,192,196533,1,0,0:0:0:26:
320,192,196695,1,0,0:0:0:80:
192,192,196857,128,0,197019:0:0:0:40:
64,192,196857,1,0,0:0:0:40:
320,192,197019,1,0,0:0:0:80:
64,192,197181,1,0,0:0:0:26:
448,192,197181,1,0,0:0:0:26:
192,192,197181,128,0,197344:0:0:0:26:
320,192,197344,1,0,0:0:0:80:
448,192,197506,128,0,197668:0:0:0:40:
192,192,197506,1,0,0:0:0:40:
64,192,197668,128,0,197830:0:0:0:40:
320,192,197668,1,0,0:0:0:40:
192,192,197830,128,0,197992:0:0:0:40:
448,192,197830,1,0,0:0:0:40:
320,192,197992,128,0,198154:0:0:0:40:
64,192,197992,1,0,0:0:0:40:
192,192,198154,1,0,0:0:0:80:
64,192,198235,1,0,0:0:0:80:
320,192,198316,1,0,0:0:0:80:
192,192,198398,1,0,0:0:0:80:
64,192,198479,1,0,0:0:0:40:
448,192,198479,1,0,0:0:0:40:
192,192,198641,1,0,0:0:0:20:
64,192,198641,1,0,0:0:0:20:
448,192,198641,128,0,198803:0:0:0:20:
320,192,198641,128,0,198803:0:0:0:20:
64,192,198965,1,0,0:0:0:20:
320,192,198965,128,0,199127:0:0:0:20:
448,192,198965,1,0,0:0:0:20:
192,192,198965,128,0,199127:0:0:0:20:
448,192,199289,1,0,0:0:0:20:
320,192,199289,1,0,0:0:0:20:
192,192,199289,128,0,199452:0:0:0:20:
64,192,199289,128,0,199452:0:0:0:20:
192,192,199614,1,0,0:0:0:20:
320,192,199614,1,0,0:0:0:20:
64,192,199614,128,0,199938:0:0:0:20:
448,192,199614,128,0,199938:0:0:0:20:
448,192,200100,128,0,200506:0:0:0:26:
64,192,200100,128,0,200506:0:0:0:26:
192,192,200100,128,0,200506:0:0:0:26:
448,192,200587,128,0,200830:0:0:0:26:
64,192,200587,128,0,200830:0:0:0:26:
192,192,200587,128,0,200830:0:0:0:26:
320,192,200911,128,0,200992:0:0:0:80:
192,192,200992,128,0,201073:0:0:0:80:
64,192,201073,128,0,201154:0:0:0:40:
448,192,201073,128,0,201154:0:0:0:40:
320,192,201154,128,0,201235:0:0:0:80:
192,192,201235,128,0,201316:0:0:0:80:
448,192,201316,128,0,201398:0:0:0:80:
320,192,201398,128,0,201479:0:0:0:40:
64,192,201398,128,0,201479:0:0:0:40:
192,192,201479,128,0,201560:0:0:0:80:
448,192,201560,128,0,201641:0:0:0:80:
320,192,201641,128,0,201722:0:0:0:80:
64,192,201722,128,0,201803:0:0:0:40:
192,192,201722,128,0,201803:0:0:0:40:
448,192,201803,128,0,201884:0:0:0:40:
320,192,201803,128,0,201884:0:0:0:40:
192,192,201884,128,0,201965:0:0:0:40:
64,192,201884,128,0,201965:0:0:0:40:
320,192,201965,128,0,202046:0:0:0:80:
448,192,202046,1,0,0:0:0:26:
64,192,202046,1,0,0:0:0:26:
192,192,202046,1,0,0:0:0:26:
320,192,202208,128,0,202371:0:0:0:20:
192,192,202208,128,0,202371:0:0:0:20:
448,192,202208,128,0,202371:0:0:0:20:
64,192,202208,128,0,202371:0:0:0:20:
320,192,202533,1,0,0:0:0:26:
192,192,202533,1,0,0:0:0:26:
448,192,202533,128,0,202695:0:0:0:26:
64,192,202695,128,0,202857:0:0:0:80:
448,192,202857,1,0,0:0:0:40:
320,192,202857,1,0,0:0:0:40:
448,192,203019,1,0,0:0:0:26:
192,192,203019,1,0,0:0:0:26:
64,192,203019,1,0,0:0:0:26:
320,192,203181,128,0,203344:0:0:0:40:
192,192,203181,128,0,203344:0:0:0:40:
448,192,203344,1,0,0:0:0:40:
64,192,203344,1,0,0:0:0:40:
448,192,203506,128,0,203668:0:0:0:40:
320,192,203506,128,0,203668:0:0:0:40:
192,192,203668,1,0,0:0:0:40:
64,192,203668,1,0,0:0:0:40:
64,192,203830,128,0,204154:0:0:0:26:
192,192,203830,128,0,204154:0:0:0:26:
448,192,203830,128,0,204154:0:0:0:26:
320,192,204154,1,0,0:0:0:80:
64,192,204316,1,0,0:0:0:26:
192,192,204316,1,0,0:0:0:26:
448,192,204316,1,0,0:0:0:26:
320,192,204479,1,0,0:0:0:80:
192,192,204560,1,0,0:0:0:80:
64,192,204641,1,0,0:0:0:26:
448,192,204641,1,0,0:0:0:26:
320,192,204641,1,0,0:0:0:26:
192,192,204803,1,0,0:0:0:40:
320,192,204803,1,0,0:0:0:40:
192,192,204965,1,0,0:0:0:40:
448,192,204965,1,0,0:0:0:40:
320,192,205127,1,0,0:0:0:40:
64,192,205127,1,0,0:0:0:40:
448,192,205289,128,0,205614:0:0:0:26:
192,192,205289,1,0,0:0:0:26:
320,192,205289,1,0,0:0:0:26:
64,192,205614,1,0,0:0:0:40:
192,192,205614,1,0,0:0:0:40:
64,192,205776,128,0,206100:0:0:0:80:
192,192,205938,1,0,0:0:0:26:
320,192,205938,1,0,0:0:0:26:
448,192,205938,1,0,0:0:0:26:
64,192,206262,1,0,0:0:0:26:
320,192,206262,128,0,206587:0:0:0:26:
64,192,206587,1,0,0:0:0:40:
192,192,206587,1,0,0:0:0:40:
192,192,206749,128,0,207073:0:0:0:26:
448,192,206749,1,0,0:0:0:26:
320,192,206749,1,0,0:0:0:26:
448,192,206911,1,0,0:0:0:80:
448,192,207073,1,0,0:0:0:80:
192,192,207235,1,0,0:0:0:26:
64,192,207235,1,0,0:0:0:26:
320,192,207235,128,0,207398:0:0:0:26:
64,192,207398,1,0,0:0:0:80:
320,192,207560,1,0,0:0:0:26:
192,192,207560,128,0,207722:0:0:0:26:
448,192,207560,1,0,0:0:0:26:
448,192,207722,1,0,0:0:0:80:
64,192,207884,128,0,208857:0:0:0:26:
192,192,207884,1,0,0:0:0:26:
320,192,207884,1,0,0:0:0:26:
448,192,208046,1,0,0:0:0:80:
320,192,208127,1,0,0:0:0:80:
448,192,208208,1,0,0:0:0:80:
192,192,208289,1,0,0:0:0:80:
320,192,208371,1,0,0:0:0:80:
192,192,208452,1,0,0:0:0:80:
448,192,208533,1,0,0:0:0:80:
320,192,208614,1,0,0:0:0:80:
448,192,208695,1,0,0:0:0:80:
192,192,208776,1,0,0:0:0:80:
320,192,208857,1,0,0:0:0:40:
448,192,208857,1,0,0:0:0:40:
192,192,209019,1,0,0:0:0:40:
64,192,209019,1,0,0:0:0:40:
64,192,209181,1,0,0:0:0:26:
448,192,209181,1,0,0:0:0:26:
320,192,209181,1,0,0:0:0:26:
320,192,209344,1,0,0:0:0:40:
192,192,209344,1,0,0:0:0:40:
64,192,209506,1,0,0:0:0:26:
192,192,209506,1,0,0:0:0:26:
448,192,209506,1,0,0:0:0:26:
64,192,209668,1,0,0:0:0:40:
320,192,209668,1,0,0:0:0:40:
64,192,209830,1,0,0:0:0:20:
320,192,209830,1,0,0:0:0:20:
192,192,209830,1,0,0:0:0:20:
448,192,209830,1,0,0:0:0:20:
64,192,209992,128,0,210154:0:0:0:20:
192,192,209992,128,0,210154:0:0:0:20:
320,192,209992,128,0,210154:0:0:0:20:
448,192,209992,128,0,210154:0:0:0:20:
448,192,210479,128,0,210641:0:0:0:26:
64,192,210479,1,0,0:0:0:26:
320,192,210479,128,0,210641:0:0:0:26:
192,192,210641,1,0,0:0:0:80:
192,192,210803,1,0,0:0:0:26:
320,192,210803,1,0,0:0:0:26:
448,192,210803,1,0,0:0:0:26:
64,192,210965,128,0,211127:0:0:0:40:
192,192,210965,128,0,211127:0:0:0:40:
448,192,211127,1,0,0:0:0:40:
320,192,211127,1,0,0:0:0:40:
192,192,211289,1,0,0:0:0:40:
320,192,211289,1,0,0:0:0:40:
448,192,211452,128,0,211614:0:0:0:26:
64,192,211452,1,0,0:0:0:26:
320,192,211452,128,0,211614:0:0:0:26:
192,192,211614,1,0,0:0:0:80:
320,192,211776,1,0,0:0:0:40:
192,192,211776,1,0,0:0:0:40:
64,192,211938,128,0,212100:0:0:0:26:
192,192,211938,128,0,212100:0:0:0:26:
448,192,211938,1,0,0:0:0:26:
320,192,212100,1,0,0:0:0:40:
448,192,212100,1,0,0:0:0:40:
64,192,212262,128,0,212425:0:0:0:40:
192,192,212262,128,0,212425:0:0:0:40:
448,192,212425,128,0,212587:0:0:0:40:
320,192,212425,128,0,212587:0:0:0:40:
64,192,212587,128,0,212749:0:0:0:80:
320,192,212749,128,0,212911:0:0:0:26:
448,192,212749,128,0,212911:0:0:0:26:
192,192,212749,128,0,212911:0:0:0:26:
64,192,212911,1,0,0:0:0:80:
320,192,213073,1,0,0:0:0:40:
448,192,213073,1,0,0:0:0:40:
448,192,213235,1,0,0:0:0:80:
320,192,213398,128,0,213479:0:0:0:80:
192,192,213479,128,0,213560:0:0:0:80:
448,192,213560,128,0,213641:0:0:0:80:
64,192,213641,128,0,213722:0:0:0:80:
320,192,213722,128,0,213803:0:0:0:80:
192,192,213803,128,0,213884:0:0:0:80:
320,192,213884,128,0,213965:0:0:0:80:
192,192,213965,128,0,214046:0:0:0:80:
448,192,214046,128,0,214127:0:0:0:80:
64,192,214127,128,0,214208:0:0:0:80:
320,192,214208,128,0,214289:0:0:0:80:
192,192,214289,128,0,214371:0:0:0:80:
448,192,214371,128,0,214452:0:0:0:80:
64,192,214452,128,0,214533:0:0:0:80:
320,192,214533,128,0,214614:0:0:0:80:
192,192,214614,128,0,214695:0:0:0:80:
320,192,214695,128,0,214776:0:0:0:80:
192,192,214776,128,0,214857:0:0:0:80:
448,192,214857,128,0,214938:0:0:0:80:
64,192,214938,128,0,215019:0:0:0:80:
320,192,215019,128,0,215100:0:0:0:80:
192,192,215100,128,0,215181:0:0:0:80:
448,192,215181,128,0,215262:0:0:0:80:
64,192,215262,128,0,215344:0:0:0:80:
320,192,215344,128,0,215425:0:0:0:80:
192,192,215425,128,0,215506:0:0:0:80:
448,192,215506,1,0,0:0:0:40:
320,192,215506,1,0,0:0:0:40:
192,192,215587,1,0,0:0:0:80:
320,192,215668,128,0,215830:0:0:0:26:
448,192,215668,128,0,215830:0:0:0:26:
64,192,215668,1,0,0:0:0:26:
192,192,215830,1,0,0:0:0:80:
448,192,215992,1,0,0:0:0:26:
192,192,215992,1,0,0:0:0:26:
320,192,215992,1,0,0:0:0:26:
64,192,216154,128,0,216316:0:0:0:26:
192,192,216154,128,0,216316:0:0:0:26:
448,192,216154,1,0,0:0:0:26:
320,192,216316,1,0,0:0:0:80:
320,192,216479,1,0,0:0:0:40:
192,192,216479,1,0,0:0:0:40:
448,192,216641,128,0,216803:0:0:0:26:
320,192,216641,128,0,216803:0:0:0:26:
64,192,216641,1,0,0:0:0:26:
192,192,216803,1,0,0:0:0:80:
320,192,216965,1,0,0:0:0:40:
192,192,216965,1,0,0:0:0:40:
192,192,217127,128,0,217289:0:0:0:26:
64,192,217127,128,0,217289:0:0:0:26:
448,192,217127,1,0,0:0:0:26:
320,192,217289,1,0,0:0:0:40:
448,192,217289,1,0,0:0:0:40:
64,192,217452,128,0,217614:0:0:0:40:
192,192,217452,128,0,217614:0:0:0:40:
448,192,217614,128,0,217776:0:0:0:40:
320,192,217614,128,0,217776:0:0:0:40:
64,192,217776,128,0,217938:0:0:0:80:
320,192,217938,128,0,218100:0:0:0:26:
448,192,217938,128,0,218100:0:0:0:26:
192,192,217938,128,0,218100:0:0:0:26:
64,192,218100,1,0,0:0:0:80:
448,192,218262,1,0,0:0:0:40:
320,192,218262,1,0,0:0:0:40:
320,192,218425,1,0,0:0:0:80:
192,192,218587,128,0,218668:0:0:0:80:
320,192,218668,128,0,218749:0:0:0:80:
64,192,218749,128,0,218830:0:0:0:80:
448,192,218830,128,0,218911:0:0:0:80:
192,192,218911,128,0,218992:0:0:0:80:
320,192,218992,128,0,219073:0:0:0:80:
192,192,219073,128,0,219154:0:0:0:80:
320,192,219154,128,0,219235:0:0:0:80:
64,192,219235,128,0,219316:0:0:0:80:
448,192,219316,128,0,219398:0:0:0:80:
192,192,219398,128,0,219479:0:0:0:80:
448,192,219479,128,0,219560:0:0:0:80:
64,192,219560,128,0,219641:0:0:0:80:
320,192,219641,128,0,219722:0:0:0:80:
192,192,219722,128,0,219803:0:0:0:80:
448,192,219803,128,0,219884:0:0:0:80:
192,192,219884,128,0,219965:0:0:0:80:
448,192,219965,128,0,220046:0:0:0:80:
64,192,220046,128,0,220127:0:0:0:80:
320,192,220127,128,0,220208:0:0:0:80:
192,192,220208,128,0,220289:0:0:0:80:
448,192,220289,128,0,220371:0:0:0:80:
192,192,220371,128,0,220452:0:0:0:80:
320,192,220452,128,0,220533:0:0:0:80:
64,192,220533,128,0,220614:0:0:0:80:
448,192,220614,128,0,220695:0:0:0:80:
64,192,220695,1,0,0:0:0:40:
192,192,220695,1,0,0:0:0:40:
320,192,220776,1,0,0:0:0:80:
448,192,220857,1,0,0:0:0:26:
64,192,220857,128,0,221019:0:0:0:26:
192,192,220857,128,0,221019:0:0:0:26:
320,192,221019,1,0,0:0:0:80:
192,192,221181,1,0,0:0:0:26:
320,192,221181,1,0,0:0:0:26:
64,192,221181,1,0,0:0:0:26:
448,192,221344,128,0,221506:0:0:0:26:
320,192,221344,128,0,221506:0:0:0:26:
64,192,221344,1,0,0:0:0:26:
192,192,221506,1,0,0:0:0:80:
192,192,221668,1,0,0:0:0:40:
320,192,221668,1,0,0:0:0:40:
448,192,221830,1,0,0:0:0:26:
192,192,221830,128,0,221992:0:0:0:26:
64,192,221830,128,0,221992:0:0:0:26:
320,192,221992,1,0,0:0:0:80:
192,192,222154,1,0,0:0:0:40:
320,192,222154,1,0,0:0:0:40:
448,192,222316,128,0,222479:0:0:0:26:
320,192,222316,128,0,222479:0:0:0:26:
64,192,222316,1,0,0:0:0:26:
192,192,222479,1,0,0:0:0:40:
64,192,222479,1,0,0:0:0:40:
448,192,222641,128,0,222803:0:0:0:40:
320,192,222641,128,0,222803:0:0:0:40:
64,192,222803,128,0,222965:0:0:0:40:
192,192,222803,128,0,222965:0:0:0:40:
448,192,222965,128,0,223127:0:0:0:80:
192,192,223127,128,0,223289:0:0:0:26:
64,192,223127,128,0,223289:0:0:0:26:
320,192,223127,128,0,223289:0:0:0:26:
448,192,223289,1,0,0:0:0:80:
64,192,223452,1,0,0:0:0:40:
192,192,223452,1,0,0:0:0:40:
64,192,223614,1,0,0:0:0:80:
448,192,223776,128,0,223857:0:0:0:80:
64,192,223857,128,0,223938:0:0:0:80:
320,192,223938,128,0,224019:0:0:0:80:
192,192,224019,128,0,224100:0:0:0:80:
448,192,224100,128,0,224181:0:0:0:80:
64,192,224181,128,0,224262:0:0:0:80:
448,192,224262,128,0,224344:0:0:0:80:
64,192,224344,128,0,224425:0:0:0:80:
320,192,224425,128,0,224506:0:0:0:80:
192,192,224506,128,0,224587:0:0:0:80:
448,192,224587,128,0,224668:0:0:0:80:
64,192,224668,128,0,224749:0:0:0:80:
320,192,224749,128,0,224830:0:0:0:80:
192,192,224830,128,0,224911:0:0:0:80:
448,192,224911,128,0,224992:0:0:0:80:
64,192,224992,128,0,225073:0:0:0:80:
448,192,225073,128,0,225154:0:0:0:80:
64,192,225154,128,0,225235:0:0:0:80:
320,192,225235,128,0,225316:0:0:0:80:
192,192,225316,128,0,225398:0:0:0:80:
448,192,225398,128,0,225479:0:0:0:80:
64,192,225479,128,0,225560:0:0:0:80:
320,192,225560,128,0,225641:0:0:0:80:
192,192,225641,128,0,225722:0:0:0:80:
448,192,225722,128,0,225803:0:0:0:80:
64,192,225803,128,0,225884:0:0:0:80:
448,192,225884,1,0,0:0:0:40:
320,192,225884,1,0,0:0:0:40:
192,192,225965,1,0,0:0:0:40:
64,192,225965,1,0,0:0:0:40:
448,192,226046,128,0,226371:0:0:0:40:
320,192,226046,1,0,0:0:0:40:
64,192,226371,1,0,0:0:0:40:
192,192,226371,1,0,0:0:0:40:
320,192,226533,1,0,0:0:0:26:
448,192,226533,1,0,0:0:0:26:
64,192,226533,128,0,226857:0:0:0:26:
320,192,226695,1,0,0:0:0:80:
320,192,226857,1,0,0:0:0:80:
64,192,227019,1,0,0:0:0:26:
192,192,227019,1,0,0:0:0:26:
448,192,227019,128,0,227344:0:0:0:26:
64,192,227344,1,0,0:0:0:40:
192,192,227344,1,0,0:0:0:40:
64,192,227506,128,0,227830:0:0:0:26:
320,192,227506,1,0,0:0:0:26:
448,192,227506,1,0,0:0:0:26:
448,192,227668,1,0,0:0:0:80:
448,192,227830,1,0,0:0:0:80:
320,192,227911,1,0,0:0:0:80:
192,192,227992,1,0,0:0:0:40:
64,192,227992,1,0,0:0:0:40:
64,192,228154,128,0,228316:0:0:0:26:
448,192,228154,128,0,228316:0:0:0:26:
320,192,228154,128,0,228316:0:0:0:26:
320,192,228479,128,0,229046:0:0:0:26:
448,192,228479,128,0,233344:0:0:0:26:
64,192,228479,128,0,229046:0:0:0:26:
64,192,229289,1,0,0:0:0:80:
320,192,229614,1,0,0:0:0:80:
192,192,229776,1,0,0:0:0:80:
192,192,230100,1,0,0:0:0:80:
320,192,230262,1,0,0:0:0:80:
192,192,230587,1,0,0:0:0:80:
320,192,230911,1,0,0:0:0:80:
64,192,231073,1,0,0:0:0:80:
192,192,231398,1,0,0:0:0:80:
320,192,231560,1,0,0:0:0:80:
64,192,231884,1,0,0:0:0:80:
192,192,232208,1,0,0:0:0:80:
320,192,232371,1,0,0:0:0:80:
192,192,232695,1,0,0:0:0:80:
64,192,232857,1,0,0:0:0:80:
320,192,233019,1,0,0:0:0:80:
192,192,233100,1,0,0:0:0:80:
64,192,233181,1,0,0:0:0:80:
192,192,233344,1,0,0:0:0:80:
320,192,233506,1,0,0:0:0:40:
448,192,233506,1,0,0:0:0:40:
192,192,233587,1,0,0:0:0:40:
64,192,233587,1,0,0:0:0:40:
448,192,233668,1,0,0:0:0:40:
320,192,233668,1,0,0:0:0:40:
448,192,234154,1,0,0:0:0:80:
64,192,234479,1,0,0:0:0:80:
448,192,234803,1,0,0:0:0:80:
192,192,234965,1,0,0:0:0:80:
192,192,235289,1,0,0:0:0:80:
448,192,235452,1,0,0:0:0:80:
64,192,235614,1,0,0:0:0:80:
320,192,235776,1,0,0:0:0:80:
448,192,236100,1,0,0:0:0:80:
64,192,236262,1,0,0:0:0:80:
64,192,236587,1,0,0:0:0:80:
448,192,236749,1,0,0:0:0:80:
192,192,236911,1,0,0:0:0:80:
320,192,237073,1,0,0:0:0:80:
192,192,237398,1,0,0:0:0:80:
448,192,237560,1,0,0:0:0:80:
64,192,237884,1,0,0:0:0:80:
192,192,238208,1,0,0:0:0:80:
320,192,238533,1,0,0:0:0:80:
448,192,238857,1,0,0:0:0:0:
