osu file format v14

[General]
AudioFilename: audio.mp3
AudioLeadIn: 0
PreviewTime: 189560
Countdown: 0
SampleSet: Soft
StackLeniency: 0.7
Mode: 3
LetterboxInBreaks: 0
SpecialStyle: 0
WidescreenStoryboard: 0

[Editor]
Bookmarks: 317,18479,28857,39235,44425,54803,65181,80749,85938,106695,124857,135235,145614,155992,168965,179344,189722,210479,228479
DistanceSpacing: 1
BeatDivisor: 4
GridSize: 8
TimelineZoom: 2.299999

[Metadata]
Title:SnowMix
TitleUnicode:SnowMix♪
Artist:marasy feat. Hatsune Miku
ArtistUnicode:まらしぃ feat. 初音ミク
Creator:[-Yuuki-]
Version:Magical
Source:SNOW MIKU 2023
Tags:プロジェクトセカイ カラフルステージ! feat. 初音ミク vocaloid ボーカロイド ボカロ marasy8 びび bibian0115 KOUICHI_FFTH KARENT presents 幽天のファンタジア winter sky fantasia KRCD-0018 japanese pop j-pop jpop piano project sekai prsk prjsk proseka colorful colourful stage featuring ln long note hybrid christmas Vincus
BeatmapID:4420360
BeatmapSetID:2106542

[Difficulty]
HPDrainRate:8
CircleSize:6
OverallDifficulty:7.5
ApproachRate:5
SliderMultiplier:1.4
SliderTickRate:1

[Events]
//Background and Video events
0,0,"bg.jpg",0,0
//Break Periods
//Storyboard Layer 0 (Background)
//Storyboard Layer 1 (Fail)
//Storyboard Layer 2 (Pass)
//Storyboard Layer 3 (Foreground)
//Storyboard Layer 4 (Overlay)
//Storyboard Sound Samples

[TimingPoints]
317,324.324324324324,4,2,1,50,1,0
85938,-100,4,2,1,50,0,1
124857,-100,4,2,1,50,0,0
189722,-100,4,2,1,50,0,1
228479,-100,4,2,1,50,0,0

[HitObjects]
42,192,317,5,0,0:0:0:0:
384,192,317,128,0,641:0:0:0:0:
469,192,317,128,0,641:0:0:0:0:
128,192,641,1,0,0:0:0:0:
213,192,641,1,0,0:0:0:0:
298,192,803,128,0,1127:0:0:0:0:
384,192,803,128,0,1127:0:0:0:0:
42,192,965,1,0,0:0:0:0:
213,192,1127,1,0,0:0:0:0:
128,192,1289,128,0,1614:0:0:0:0:
298,192,1289,128,0,1614:0:0:0:0:
384,192,1614,1,0,0:0:0:0:
213,192,1776,128,0,2100:0:0:0:0:
128,192,1776,128,0,2100:0:0:0:0:
42,192,1938,1,0,0:0:0:0:
469,192,1938,1,0,0:0:0:0:
298,192,2100,128,0,2262:0:0:0:0:
384,192,2100,128,0,2262:0:0:0:0:
469,192,2262,128,0,2425:0:0:0:0:
42,192,2262,128,0,2425:0:0:0:0:
384,192,2425,128,0,2587:0:0:0:0:
128,192,2425,128,0,2587:0:0:0:0:
298,192,2587,128,0,2911:0:0:0:0:
213,192,2587,128,0,2911:0:0:0:0:
42,192,2911,1,0,0:0:0:0:
128,192,3073,1,0,0:0:0:0:
384,192,3235,128,0,3398:0:0:0:0:
469,192,3235,128,0,3398:0:0:0:0:
213,192,3398,1,0,0:0:0:0:
42,192,3398,1,0,0:0:0:0:
213,192,3560,128,0,3722:0:0:0:0:
128,192,3560,128,0,3722:0:0:0:0:
298,192,3722,1,0,0:0:0:0:
42,192,3884,128,0,4208:0:0:0:0:
469,192,3884,1,0,0:0:0:0:
128,192,4046,128,0,4208:0:0:0:0:
213,192,4046,128,0,4208:0:0:0:0:
384,192,4208,1,0,0:0:0:0:
384,192,4371,128,0,4533:0:0:0:0:
298,192,4371,128,0,4533:0:0:0:0:
213,192,4533,1,0,0:0:0:0:
42,192,4533,1,0,0:0:0:0:
213,192,4695,128,0,5019:0:0:0:0:
298,192,4695,1,0,0:0:0:0:
128,192,4857,128,0,5019:0:0:0:0:
42,192,4857,128,0,5019:0:0:0:0:
469,192,5019,1,0,0:0:0:0:
469,192,5181,128,0,5344:0:0:0:0:
384,192,5181,128,0,5344:0:0:0:0:
298,192,5344,1,0,0:0:0:0:
298,192,5506,128,0,5830:0:0:0:0:
128,192,5506,128,0,5830:0:0:0:0:
42,192,5830,1,0,0:0:0:0:
384,192,5830,1,0,0:0:0:0:
298,192,5992,128,0,6316:0:0:0:0:
213,192,5992,128,0,6316:0:0:0:0:
469,192,6154,1,0,0:0:0:0:
42,192,6316,128,0,6803:0:0:0:0:
128,192,6479,128,0,6803:0:0:0:0:
298,192,6479,128,0,6803:0:0:0:0:
469,192,6803,1,0,0:0:0:0:
384,192,6965,128,0,7289:0:0:0:0:
298,192,6965,128,0,7289:0:0:0:0:
42,192,7127,1,0,0:0:0:0:
469,192,7127,1,0,0:0:0:0:
128,192,7289,128,0,7452:0:0:0:0:
213,192,7289,1,0,0:0:0:0:
384,192,7452,128,0,7776:0:0:0:0:
469,192,7452,128,0,7776:0:0:0:0:
298,192,7614,1,0,0:0:0:0:
128,192,7776,128,0,8100:0:0:0:0:
42,192,7776,128,0,8100:0:0:0:0:
298,192,8100,1,0,0:0:0:0:
213,192,8262,1,0,0:0:0:0:
384,192,8425,128,0,8587:0:0:0:0:
469,192,8425,128,0,8587:0:0:0:0:
128,192,8587,1,0,0:0:0:0:
298,192,8587,1,0,0:0:0:0:
213,192,8749,128,0,8911:0:0:0:0:
128,192,8749,128,0,8911:0:0:0:0:
384,192,8911,1,0,0:0:0:0:
384,192,9073,128,0,9398:0:0:0:0:
469,192,9073,1,0,0:0:0:0:
298,192,9235,128,0,9398:0:0:0:0:
213,192,9235,128,0,9398:0:0:0:0:
42,192,9398,1,0,0:0:0:0:
128,192,9560,128,0,9722:0:0:0:0:
42,192,9560,128,0,9722:0:0:0:0:
298,192,9722,1,0,0:0:0:0:
469,192,9722,1,0,0:0:0:0:
384,192,9884,128,0,10046:0:0:0:0:
298,192,9884,1,0,0:0:0:0:
42,192,10046,1,0,0:0:0:0:
128,192,10087,1,0,0:0:0:0:
213,192,10127,1,0,0:0:0:0:
298,192,10168,1,0,0:0:0:0:
384,192,10208,1,0,0:0:0:0:
128,192,10289,1,0,0:0:0:0:
42,192,10371,1,0,0:0:0:0:
469,192,10371,1,0,0:0:0:0:
384,192,10411,1,0,0:0:0:0:
298,192,10452,1,0,0:0:0:0:
213,192,10492,1,0,0:0:0:0:
128,192,10533,1,0,0:0:0:0:
42,192,10533,1,0,0:0:0:0:
469,192,10614,1,0,0:0:0:0:
384,192,10614,1,0,0:0:0:0:
213,192,10695,1,0,0:0:0:0:
42,192,10695,128,0,11019:0:0:0:0:
128,192,10695,128,0,11019:0:0:0:0:
384,192,10857,1,0,0:0:0:0:
298,192,11019,1,0,0:0:0:0:
469,192,11019,1,0,0:0:0:0:
298,192,11181,128,0,11506:0:0:0:0:
213,192,11181,128,0,11506:0:0:0:0:
42,192,11344,1,0,0:0:0:0:
469,192,11344,1,0,0:0:0:0:
384,192,11506,1,0,0:0:0:0:
298,192,11668,128,0,11992:0:0:0:0:
469,192,11668,128,0,11992:0:0:0:0:
213,192,11749,1,0,0:0:0:0:
128,192,11830,1,0,0:0:0:0:
42,192,11911,1,0,0:0:0:0:
384,192,11992,1,0,0:0:0:0:
213,192,11992,1,0,0:0:0:0:
384,192,12154,128,0,12479:0:0:0:0:
42,192,12154,128,0,12479:0:0:0:0:
469,192,12316,1,0,0:0:0:0:
213,192,12316,1,0,0:0:0:0:
213,192,12479,128,0,12641:0:0:0:0:
128,192,12479,128,0,12641:0:0:0:0:
469,192,12641,128,0,12803:0:0:0:0:
298,192,12641,128,0,12803:0:0:0:0:
128,192,12803,128,0,12965:0:0:0:0:
42,192,12803,128,0,12965:0:0:0:0:
384,192,12965,128,0,13289:0:0:0:0:
469,192,12965,128,0,13289:0:0:0:0:
298,192,13046,1,0,0:0:0:0:
213,192,13127,1,0,0:0:0:0:
128,192,13208,1,0,0:0:0:0:
298,192,13289,1,0,0:0:0:0:
42,192,13289,1,0,0:0:0:0:
213,192,13452,1,0,0:0:0:0:
42,192,13614,128,0,13776:0:0:0:0:
128,192,13614,128,0,13695:0:0:0:0:
213,192,13695,128,0,13776:0:0:0:0:
298,192,13776,1,0,0:0:0:0:
384,192,13776,1,0,0:0:0:0:
469,192,13938,128,0,14262:0:0:0:0:
128,192,13938,128,0,14019:0:0:0:0:
213,192,14019,128,0,14100:0:0:0:0:
298,192,14100,128,0,14181:0:0:0:0:
384,192,14181,128,0,14262:0:0:0:0:
42,192,14262,128,0,14425:0:0:0:0:
213,192,14262,128,0,14344:0:0:0:0:
128,192,14344,128,0,14425:0:0:0:0:
298,192,14425,128,0,14587:0:0:0:0:
469,192,14425,128,0,14506:0:0:0:0:
384,192,14506,128,0,14587:0:0:0:0:
213,192,14587,1,0,0:0:0:0:
42,192,14587,1,0,0:0:0:0:
128,192,14749,128,0,15073:0:0:0:0:
469,192,14749,128,0,14830:0:0:0:0:
384,192,14830,128,0,14911:0:0:0:0:
298,192,14911,128,0,14992:0:0:0:0:
213,192,14992,128,0,15073:0:0:0:0:
384,192,15073,128,0,15235:0:0:0:0:
42,192,15073,128,0,15154:0:0:0:0:
128,192,15154,128,0,15235:0:0:0:0:
469,192,15235,128,0,15398:0:0:0:0:
298,192,15235,128,0,15316:0:0:0:0:
213,192,15316,128,0,15398:0:0:0:0:
384,192,15398,1,0,0:0:0:0:
213,192,15560,128,0,15884:0:0:0:0:
42,192,15560,128,0,15641:0:0:0:0:
128,192,15641,128,0,15722:0:0:0:0:
384,192,15722,128,0,15803:0:0:0:0:
298,192,15803,128,0,15884:0:0:0:0:
469,192,15884,1,0,0:0:0:0:
42,192,15884,128,0,16208:0:0:0:0:
469,192,16046,1,0,0:0:0:0:
128,192,16208,1,0,0:0:0:0:
213,192,16208,1,0,0:0:0:0:
384,192,16371,1,0,0:0:0:0:
213,192,16371,128,0,16695:0:0:0:0:
42,192,16533,1,0,0:0:0:0:
128,192,16533,1,0,0:0:0:0:
298,192,16695,1,0,0:0:0:0:
298,192,16857,1,0,0:0:0:0:
384,192,16857,128,0,17181:0:0:0:0:
469,192,16938,1,0,0:0:0:0:
42,192,17019,1,0,0:0:0:0:
128,192,17100,1,0,0:0:0:0:
213,192,17141,1,0,0:0:0:0:
469,192,17181,1,0,0:0:0:0:
298,192,17181,128,0,17344:0:0:0:0:
128,192,17289,128,0,17452:0:0:0:0:
213,192,17398,128,0,17560:0:0:0:0:
42,192,17398,128,0,17560:0:0:0:0:
469,192,17506,128,0,17668:0:0:0:0:
298,192,17614,128,0,17776:0:0:0:0:
384,192,17668,128,0,17830:0:0:0:0:
213,192,17722,128,0,17884:0:0:0:0:
128,192,17830,128,0,17992:0:0:0:0:
42,192,17884,128,0,18046:0:0:0:0:
469,192,17938,128,0,18100:0:0:0:0:
384,192,17992,128,0,18154:0:0:0:0:
298,192,18046,128,0,18208:0:0:0:0:
213,192,18100,128,0,18262:0:0:0:0:
128,192,18154,1,0,0:0:0:0:
42,192,18154,128,0,18479:0:0:0:0:
384,192,18316,1,0,0:0:0:0:
298,192,18398,1,0,0:0:0:0:
384,192,18479,1,0,0:0:0:0:
469,192,18479,1,0,0:0:0:0:
213,192,18479,1,0,0:0:0:0:
128,192,18641,1,0,0:0:0:0:
213,192,18803,1,0,0:0:0:0:
128,192,18803,128,0,18965:0:0:0:0:
42,192,18803,128,0,18965:0:0:0:0:
384,192,18965,1,0,0:0:0:0:
469,192,19127,1,0,0:0:0:0:
298,192,19127,128,0,19289:0:0:0:0:
384,192,19127,128,0,19289:0:0:0:0:
128,192,19289,1,0,0:0:0:0:
213,192,19452,128,0,19614:0:0:0:0:
128,192,19452,128,0,19614:0:0:0:0:
469,192,19452,1,0,0:0:0:0:
384,192,19614,128,0,19776:0:0:0:0:
42,192,19614,128,0,19776:0:0:0:0:
213,192,19776,1,0,0:0:0:0:
298,192,19776,1,0,0:0:0:0:
469,192,19776,1,0,0:0:0:0:
128,192,19938,128,0,20100:0:0:0:0:
384,192,19938,128,0,20100:0:0:0:0:
298,192,20100,128,0,20262:0:0:0:0:
42,192,20100,1,0,0:0:0:0:
469,192,20100,128,0,20262:0:0:0:0:
213,192,20262,1,0,0:0:0:0:
128,192,20425,128,0,20587:0:0:0:0:
42,192,20425,128,0,20587:0:0:0:0:
298,192,20425,1,0,0:0:0:0:
384,192,20587,1,0,0:0:0:0:
384,192,20749,128,0,20911:0:0:0:0:
469,192,20749,128,0,20911:0:0:0:0:
213,192,20749,1,0,0:0:0:0:
298,192,20911,128,0,21073:0:0:0:0:
128,192,20911,128,0,21073:0:0:0:0:
213,192,21073,1,0,0:0:0:0:
469,192,21073,1,0,0:0:0:0:
42,192,21073,1,0,0:0:0:0:
298,192,21235,128,0,21398:0:0:0:0:
128,192,21235,128,0,21398:0:0:0:0:
384,192,21398,128,0,21560:0:0:0:0:
469,192,21398,128,0,21560:0:0:0:0:
42,192,21398,1,0,0:0:0:0:
213,192,21560,1,0,0:0:0:0:
213,192,21722,128,0,21884:0:0:0:0:
128,192,21722,128,0,21884:0:0:0:0:
384,192,21722,1,0,0:0:0:0:
298,192,21884,1,0,0:0:0:0:
298,192,22046,128,0,22208:0:0:0:0:
42,192,22046,128,0,22208:0:0:0:0:
128,192,22046,1,0,0:0:0:0:
384,192,22208,128,0,22371:0:0:0:0:
469,192,22208,128,0,22371:0:0:0:0:
298,192,22371,1,0,0:0:0:0:
213,192,22371,1,0,0:0:0:0:
42,192,22371,1,0,0:0:0:0:
384,192,22533,128,0,22695:0:0:0:0:
128,192,22533,128,0,22695:0:0:0:0:
213,192,22695,128,0,22857:0:0:0:0:
42,192,22695,128,0,22857:0:0:0:0:
469,192,22695,1,0,0:0:0:0:
298,192,22857,128,0,22938:0:0:0:0:
384,192,22857,128,0,22938:0:0:0:0:
469,192,22938,128,0,23019:0:0:0:0:
128,192,22938,128,0,23019:0:0:0:0:
298,192,23019,128,0,23181:0:0:0:0:
213,192,23019,128,0,23181:0:0:0:0:
42,192,23019,1,0,0:0:0:0:
384,192,23181,128,0,23344:0:0:0:0:
128,192,23181,128,0,23344:0:0:0:0:
42,192,23344,128,0,23506:0:0:0:0:
469,192,23344,128,0,23506:0:0:0:0:
298,192,23344,1,0,0:0:0:0:
213,192,23506,128,0,23587:0:0:0:0:
128,192,23506,128,0,23587:0:0:0:0:
298,192,23587,1,0,0:0:0:0:
384,192,23587,1,0,0:0:0:0:
469,192,23668,1,0,0:0:0:0:
128,192,23668,1,0,0:0:0:0:
42,192,23668,1,0,0:0:0:0:
213,192,23668,1,0,0:0:0:0:
298,192,23830,1,0,0:0:0:0:
213,192,23911,1,0,0:0:0:0:
42,192,23992,1,0,0:0:0:0:
298,192,23992,128,0,24154:0:0:0:0:
384,192,23992,128,0,24154:0:0:0:0:
128,192,24154,1,0,0:0:0:0:
42,192,24154,1,0,0:0:0:0:
298,192,24316,1,0,0:0:0:0:
469,192,24316,1,0,0:0:0:0:
213,192,24316,128,0,24479:0:0:0:0:
128,192,24316,128,0,24479:0:0:0:0:
384,192,24479,1,0,0:0:0:0:
298,192,24560,1,0,0:0:0:0:
213,192,24641,1,0,0:0:0:0:
42,192,24641,128,0,24803:0:0:0:0:
469,192,24641,128,0,24803:0:0:0:0:
384,192,24803,128,0,24884:0:0:0:0:
298,192,24803,128,0,24884:0:0:0:0:
213,192,24884,1,0,0:0:0:0:
128,192,24884,1,0,0:0:0:0:
42,192,24965,1,0,0:0:0:0:
469,192,24965,1,0,0:0:0:0:
384,192,24965,1,0,0:0:0:0:
298,192,24965,1,0,0:0:0:0:
384,192,25127,128,0,25289:0:0:0:0:
298,192,25127,128,0,25289:0:0:0:0:
213,192,25208,1,0,0:0:0:0:
469,192,25289,128,0,25452:0:0:0:0:
42,192,25289,1,0,0:0:0:0:
128,192,25289,128,0,25452:0:0:0:0:
213,192,25452,1,0,0:0:0:0:
298,192,25533,1,0,0:0:0:0:
469,192,25614,1,0,0:0:0:0:
42,192,25614,1,0,0:0:0:0:
128,192,25614,128,0,25695:0:0:0:0:
384,192,25614,128,0,25695:0:0:0:0:
213,192,25695,1,0,0:0:0:0:
298,192,25695,1,0,0:0:0:0:
42,192,25776,1,0,0:0:0:0:
469,192,25776,1,0,0:0:0:0:
384,192,25857,1,0,0:0:0:0:
128,192,25857,1,0,0:0:0:0:
213,192,25938,1,0,0:0:0:0:
298,192,25938,1,0,0:0:0:0:
384,192,26019,1,0,0:0:0:0:
469,192,26019,1,0,0:0:0:0:
213,192,26100,1,0,0:0:0:0:
128,192,26100,128,0,26425:0:0:0:0:
42,192,26100,128,0,26262:0:0:0:0:
469,192,26425,128,0,26506:0:0:0:0:
384,192,26587,128,0,26668:0:0:0:0:
298,192,26749,128,0,26830:0:0:0:0:
213,192,26911,128,0,26992:0:0:0:0:
42,192,27073,128,0,27154:0:0:0:0:
384,192,27235,128,0,27316:0:0:0:0:
213,192,27398,128,0,27479:0:0:0:0:
42,192,27560,1,0,0:0:0:0:
128,192,27641,1,0,0:0:0:0:
213,192,27722,1,0,0:0:0:0:
469,192,27722,1,0,0:0:0:0:
384,192,27803,1,0,0:0:0:0:
298,192,27803,1,0,0:0:0:0:
469,192,27884,1,0,0:0:0:0:
42,192,27884,1,0,0:0:0:0:
128,192,27884,1,0,0:0:0:0:
128,192,28046,1,0,0:0:0:0:
384,192,28046,1,0,0:0:0:0:
298,192,28127,1,0,0:0:0:0:
213,192,28127,1,0,0:0:0:0:
469,192,28208,1,0,0:0:0:0:
384,192,28208,1,0,0:0:0:0:
42,192,28208,1,0,0:0:0:0:
469,192,28371,1,0,0:0:0:0:
128,192,28371,1,0,0:0:0:0:
384,192,28452,1,0,0:0:0:0:
298,192,28452,1,0,0:0:0:0:
42,192,28533,1,0,0:0:0:0:
213,192,28533,1,0,0:0:0:0:
128,192,28533,1,0,0:0:0:0:
42,192,28695,1,0,0:0:0:0:
469,192,28695,1,0,0:0:0:0:
298,192,28776,1,0,0:0:0:0:
213,192,28776,1,0,0:0:0:0:
42,192,28857,1,0,0:0:0:0:
128,192,28857,1,0,0:0:0:0:
384,192,28857,1,0,0:0:0:0:
469,192,28857,1,0,0:0:0:0:
384,192,29019,128,0,29181:0:0:0:0:
213,192,29019,128,0,29181:0:0:0:0:
128,192,29181,1,0,0:0:0:0:
298,192,29181,128,0,29506:0:0:0:0:
42,192,29181,1,0,0:0:0:0:
469,192,29181,128,0,29506:0:0:0:0:
213,192,29344,1,0,0:0:0:0:
128,192,29506,128,0,29830:0:0:0:0:
42,192,29506,128,0,29830:0:0:0:0:
384,192,29506,1,0,0:0:0:0:
213,192,29668,1,0,0:0:0:0:
384,192,29668,1,0,0:0:0:0:
298,192,29830,1,0,0:0:0:0:
469,192,29830,128,0,29992:0:0:0:0:
384,192,29830,128,0,29992:0:0:0:0:
213,192,29830,1,0,0:0:0:0:
298,192,29992,128,0,30154:0:0:0:0:
42,192,29992,1,0,0:0:0:0:
469,192,30073,1,0,0:0:0:0:
128,192,30073,1,0,0:0:0:0:
213,192,30154,1,0,0:0:0:0:
42,192,30154,1,0,0:0:0:0:
384,192,30154,1,0,0:0:0:0:
384,192,30316,128,0,30479:0:0:0:0:
128,192,30316,128,0,30479:0:0:0:0:
469,192,30479,128,0,30803:0:0:0:0:
298,192,30479,128,0,30803:0:0:0:0:
213,192,30479,1,0,0:0:0:0:
42,192,30479,1,0,0:0:0:0:
128,192,30641,1,0,0:0:0:0:
213,192,30803,128,0,31127:0:0:0:0:
384,192,30803,1,0,0:0:0:0:
42,192,30803,128,0,31127:0:0:0:0:
469,192,30965,1,0,0:0:0:0:
298,192,30965,1,0,0:0:0:0:
469,192,31127,1,0,0:0:0:0:
384,192,31127,128,0,31289:0:0:0:0:
128,192,31127,1,0,0:0:0:0:
298,192,31127,128,0,31289:0:0:0:0:
42,192,31289,1,0,0:0:0:0:
128,192,31289,128,0,31452:0:0:0:0:
469,192,31371,1,0,0:0:0:0:
384,192,31371,1,0,0:0:0:0:
298,192,31452,1,0,0:0:0:0:
213,192,31452,1,0,0:0:0:0:
42,192,31452,1,0,0:0:0:0:
213,192,31614,128,0,31776:0:0:0:0:
128,192,31614,128,0,31776:0:0:0:0:
384,192,31776,128,0,32100:0:0:0:0:
298,192,31776,1,0,0:0:0:0:
469,192,31776,1,0,0:0:0:0:
42,192,31776,1,0,0:0:0:0:
128,192,31938,1,0,0:0:0:0:
213,192,32100,128,0,32425:0:0:0:0:
298,192,32100,1,0,0:0:0:0:
42,192,32100,128,0,32425:0:0:0:0:
298,192,32262,1,0,0:0:0:0:
469,192,32262,1,0,0:0:0:0:
469,192,32425,1,0,0:0:0:0:
384,192,32425,1,0,0:0:0:0:
128,192,32425,128,0,32587:0:0:0:0:
298,192,32425,128,0,32587:0:0:0:0:
384,192,32587,128,0,32749:0:0:0:0:
213,192,32587,1,0,0:0:0:0:
42,192,32668,1,0,0:0:0:0:
128,192,32668,1,0,0:0:0:0:
213,192,32749,1,0,0:0:0:0:
298,192,32749,1,0,0:0:0:0:
469,192,32749,1,0,0:0:0:0:
298,192,32911,128,0,33073:0:0:0:0:
42,192,32911,128,0,33073:0:0:0:0:
469,192,33073,1,0,0:0:0:0:
384,192,33073,1,0,0:0:0:0:
213,192,33073,128,0,33235:0:0:0:0:
128,192,33073,128,0,33235:0:0:0:0:
298,192,33235,128,0,33316:0:0:0:0:
384,192,33235,128,0,33316:0:0:0:0:
469,192,33316,128,0,33398:0:0:0:0:
213,192,33316,128,0,33398:0:0:0:0:
128,192,33398,1,0,0:0:0:0:
298,192,33398,128,0,33479:0:0:0:0:
42,192,33398,128,0,33479:0:0:0:0:
384,192,33479,1,0,0:0:0:0:
213,192,33560,128,0,33641:0:0:0:0:
128,192,33560,128,0,33641:0:0:0:0:
298,192,33641,1,0,0:0:0:0:
469,192,33641,1,0,0:0:0:0:
384,192,33722,1,0,0:0:0:0:
128,192,33722,128,0,33884:0:0:0:0:
42,192,33722,128,0,33884:0:0:0:0:
213,192,33722,1,0,0:0:0:0:
298,192,33884,128,0,33965:0:0:0:0:
384,192,33884,128,0,33965:0:0:0:0:
213,192,33965,1,0,0:0:0:0:
469,192,33965,1,0,0:0:0:0:
298,192,34046,1,0,0:0:0:0:
128,192,34046,1,0,0:0:0:0:
42,192,34046,1,0,0:0:0:0:
384,192,34046,1,0,0:0:0:0:
213,192,34208,128,0,34371:0:0:0:0:
298,192,34208,128,0,34371:0:0:0:0:
128,192,34371,1,0,0:0:0:0:
42,192,34371,1,0,0:0:0:0:
384,192,34371,128,0,34695:0:0:0:0:
469,192,34371,128,0,34695:0:0:0:0:
213,192,34533,1,0,0:0:0:0:
298,192,34695,1,0,0:0:0:0:
213,192,34695,128,0,35019:0:0:0:0:
42,192,34695,128,0,35019:0:0:0:0:
298,192,34857,1,0,0:0:0:0:
384,192,34857,1,0,0:0:0:0:
384,192,35019,1,0,0:0:0:0:
298,192,35019,1,0,0:0:0:0:
469,192,35019,128,0,35181:0:0:0:0:
128,192,35019,128,0,35181:0:0:0:0:
384,192,35181,128,0,35344:0:0:0:0:
213,192,35181,1,0,0:0:0:0:
128,192,35262,1,0,0:0:0:0:
42,192,35262,1,0,0:0:0:0:
298,192,35344,1,0,0:0:0:0:
213,192,35344,1,0,0:0:0:0:
469,192,35344,1,0,0:0:0:0:
384,192,35506,128,0,35668:0:0:0:0:
213,192,35506,128,0,35668:0:0:0:0:
298,192,35668,1,0,0:0:0:0:
128,192,35668,1,0,0:0:0:0:
469,192,35668,128,0,35911:0:0:0:0:
42,192,35668,128,0,35992:0:0:0:0:
384,192,35830,1,0,0:0:0:0:
213,192,35911,1,0,0:0:0:0:
128,192,35911,1,0,0:0:0:0:
469,192,35992,1,0,0:0:0:0:
384,192,35992,128,0,36316:0:0:0:0:
298,192,35992,128,0,36316:0:0:0:0:
213,192,36073,1,0,0:0:0:0:
128,192,36154,1,0,0:0:0:0:
42,192,36235,1,0,0:0:0:0:
213,192,36316,128,0,36398:0:0:0:0:
469,192,36316,128,0,36398:0:0:0:0:
128,192,36398,1,0,0:0:0:0:
42,192,36398,1,0,0:0:0:0:
384,192,36479,128,0,36560:0:0:0:0:
298,192,36479,128,0,36560:0:0:0:0:
128,192,36560,1,0,0:0:0:0:
213,192,36560,1,0,0:0:0:0:
42,192,36641,128,0,36749:0:0:0:0:
298,192,36641,128,0,36749:0:0:0:0:
384,192,36641,128,0,36749:0:0:0:0:
469,192,36641,128,0,36749:0:0:0:0:
213,192,36749,128,0,36857:0:0:0:0:
128,192,36749,128,0,36857:0:0:0:0:
469,192,36857,128,0,36965:0:0:0:0:
384,192,36857,128,0,36965:0:0:0:0:
213,192,36965,128,0,37073:0:0:0:0:
128,192,36965,128,0,37073:0:0:0:0:
298,192,37073,128,0,37181:0:0:0:0:
42,192,37073,128,0,37181:0:0:0:0:
128,192,37181,128,0,37289:0:0:0:0:
469,192,37181,128,0,37289:0:0:0:0:
384,192,37289,128,0,37398:0:0:0:0:
298,192,37289,128,0,37398:0:0:0:0:
213,192,37289,128,0,37398:0:0:0:0:
469,192,37398,128,0,37506:0:0:0:0:
42,192,37398,128,0,37506:0:0:0:0:
213,192,37506,128,0,37614:0:0:0:0:
128,192,37506,128,0,37614:0:0:0:0:
42,192,37614,128,0,37722:0:0:0:0:
384,192,37614,128,0,37722:0:0:0:0:
298,192,37722,128,0,37830:0:0:0:0:
469,192,37722,128,0,37830:0:0:0:0:
213,192,37830,128,0,37938:0:0:0:0:
128,192,37830,128,0,37938:0:0:0:0:
42,192,37938,128,0,38100:0:0:0:0:
298,192,37938,128,0,38100:0:0:0:0:
384,192,37938,128,0,38019:0:0:0:0:
469,192,37938,128,0,38100:0:0:0:0:
128,192,38019,128,0,38181:0:0:0:0:
213,192,38100,128,0,38262:0:0:0:0:
384,192,38100,128,0,38262:0:0:0:0:
298,192,38181,128,0,38344:0:0:0:0:
469,192,38262,128,0,38425:0:0:0:0:
128,192,38262,128,0,38425:0:0:0:0:
42,192,38262,128,0,38425:0:0:0:0:
384,192,38344,128,0,38506:0:0:0:0:
298,192,38425,128,0,38506:0:0:0:0:
213,192,38425,128,0,38587:0:0:0:0:
128,192,38506,128,0,38587:0:0:0:0:
298,192,38587,128,0,38668:0:0:0:0:
384,192,38587,128,0,38668:0:0:0:0:
469,192,38587,128,0,38668:0:0:0:0:
42,192,38587,128,0,38668:0:0:0:0:
42,192,38749,128,0,38911:0:0:0:0:
384,192,38749,128,0,38911:0:0:0:0:
469,192,38749,128,0,38911:0:0:0:0:
298,192,38749,128,0,38911:0:0:0:0:
42,192,39154,1,0,0:0:0:0:
128,192,39195,1,0,0:0:0:0:
213,192,39235,1,0,0:0:0:0:
469,192,39235,1,0,0:0:0:0:
298,192,39235,1,0,0:0:0:0:
384,192,39235,1,0,0:0:0:0:
128,192,39560,1,0,0:0:0:0:
469,192,39560,128,0,39641:0:0:0:0:
213,192,39884,128,0,39965:0:0:0:0:
384,192,40208,128,0,40289:0:0:0:0:
298,192,40208,1,0,0:0:0:0:
42,192,40371,128,0,40452:0:0:0:0:
42,192,40695,128,0,40776:0:0:0:0:
469,192,40857,128,0,40938:0:0:0:0:
298,192,40857,1,0,0:0:0:0:
128,192,41019,128,0,41100:0:0:0:0:
298,192,41181,128,0,41262:0:0:0:0:
213,192,41344,128,0,41425:0:0:0:0:
469,192,41506,128,0,41587:0:0:0:0:
384,192,41506,1,0,0:0:0:0:
42,192,41668,128,0,41749:0:0:0:0:
42,192,41992,128,0,42073:0:0:0:0:
469,192,42154,128,0,42235:0:0:0:0:
213,192,42154,1,0,0:0:0:0:
128,192,42316,128,0,42398:0:0:0:0:
384,192,42479,128,0,42641:0:0:0:0:
298,192,42803,128,0,42884:0:0:0:0:
213,192,42803,1,0,0:0:0:0:
469,192,42965,128,0,43208:0:0:0:0:
469,192,43289,128,0,43371:0:0:0:0:
469,192,43452,128,0,43533:0:0:0:0:
42,192,43452,1,0,0:0:0:0:
469,192,43614,128,0,43695:0:0:0:0:
298,192,43695,128,0,43776:0:0:0:0:
469,192,43776,128,0,43857:0:0:0:0:
469,192,43938,128,0,44019:0:0:0:0:
469,192,44100,128,0,44181:0:0:0:0:
42,192,44100,128,0,44425:0:0:0:0:
469,192,44262,128,0,44344:0:0:0:0:
213,192,44262,128,0,44425:0:0:0:0:
298,192,44344,128,0,44425:0:0:0:0:
469,192,44425,128,0,44587:0:0:0:0:
384,192,44425,128,0,44587:0:0:0:0:
128,192,44425,1,0,0:0:0:0:
298,192,44587,128,0,44749:0:0:0:0:
128,192,44587,1,0,0:0:0:0:
128,192,44749,1,0,0:0:0:0:
469,192,44749,128,0,44911:0:0:0:0:
128,192,44911,1,0,0:0:0:0:
298,192,44911,128,0,45073:0:0:0:0:
384,192,45073,1,0,0:0:0:0:
469,192,45073,1,0,0:0:0:0:
42,192,45073,128,0,45235:0:0:0:0:
384,192,45235,1,0,0:0:0:0:
213,192,45235,128,0,45398:0:0:0:0:
384,192,45398,1,0,0:0:0:0:
42,192,45398,128,0,45560:0:0:0:0:
384,192,45560,1,0,0:0:0:0:
213,192,45560,128,0,45722:0:0:0:0:
298,192,45722,128,0,45884:0:0:0:0:
128,192,45722,1,0,0:0:0:0:
469,192,45884,128,0,46046:0:0:0:0:
384,192,45884,128,0,46046:0:0:0:0:
128,192,45884,1,0,0:0:0:0:
298,192,46046,128,0,46208:0:0:0:0:
128,192,46046,1,0,0:0:0:0:
213,192,46208,128,0,46371:0:0:0:0:
469,192,46208,128,0,46371:0:0:0:0:
128,192,46208,1,0,0:0:0:0:
384,192,46371,1,0,0:0:0:0:
298,192,46371,1,0,0:0:0:0:
42,192,46371,1,0,0:0:0:0:
384,192,46533,1,0,0:0:0:0:
128,192,46533,128,0,46695:0:0:0:0:
213,192,46533,128,0,46695:0:0:0:0:
384,192,46695,1,0,0:0:0:0:
42,192,46695,1,0,0:0:0:0:
469,192,46857,128,0,47181:0:0:0:0:
213,192,46857,1,0,0:0:0:0:
384,192,46857,128,0,47181:0:0:0:0:
42,192,47181,1,0,0:0:0:0:
298,192,47181,128,0,47344:0:0:0:0:
42,192,47344,1,0,0:0:0:0:
384,192,47344,128,0,47506:0:0:0:0:
42,192,47506,1,0,0:0:0:0:
298,192,47506,128,0,47668:0:0:0:0:
469,192,47668,1,0,0:0:0:0:
128,192,47668,128,0,47830:0:0:0:0:
384,192,47668,1,0,0:0:0:0:
469,192,47830,1,0,0:0:0:0:
213,192,47830,128,0,47992:0:0:0:0:
469,192,47992,1,0,0:0:0:0:
128,192,47992,128,0,48154:0:0:0:0:
469,192,48154,1,0,0:0:0:0:
213,192,48154,128,0,48316:0:0:0:0:
384,192,48316,128,0,48479:0:0:0:0:
42,192,48316,1,0,0:0:0:0:
469,192,48479,128,0,48641:0:0:0:0:
298,192,48479,128,0,48641:0:0:0:0:
42,192,48479,1,0,0:0:0:0:
384,192,48641,128,0,48803:0:0:0:0:
42,192,48641,1,0,0:0:0:0:
298,192,48803,128,0,48965:0:0:0:0:
213,192,48803,128,0,48965:0:0:0:0:
42,192,48803,1,0,0:0:0:0:
384,192,48965,1,0,0:0:0:0:
469,192,48965,1,0,0:0:0:0:
128,192,49127,128,0,49289:0:0:0:0:
42,192,49127,128,0,49289:0:0:0:0:
469,192,49127,1,0,0:0:0:0:
213,192,49289,1,0,0:0:0:0:
469,192,49289,1,0,0:0:0:0:
469,192,49452,128,0,49776:0:0:0:0:
384,192,49452,128,0,49776:0:0:0:0:
42,192,49452,1,0,0:0:0:0:
128,192,49776,1,0,0:0:0:0:
298,192,49776,128,0,49938:0:0:0:0:
128,192,49938,1,0,0:0:0:0:
469,192,49938,128,0,50100:0:0:0:0:
128,192,50100,1,0,0:0:0:0:
298,192,50100,128,0,50262:0:0:0:0:
384,192,50262,1,0,0:0:0:0:
42,192,50262,128,0,50425:0:0:0:0:
384,192,50425,1,0,0:0:0:0:
213,192,50425,128,0,50587:0:0:0:0:
384,192,50587,1,0,0:0:0:0:
42,192,50587,128,0,50749:0:0:0:0:
384,192,50749,1,0,0:0:0:0:
213,192,50749,128,0,50911:0:0:0:0:
128,192,50911,1,0,0:0:0:0:
469,192,50911,128,0,51073:0:0:0:0:
128,192,51073,1,0,0:0:0:0:
384,192,51073,128,0,51235:0:0:0:0:
298,192,51073,128,0,51235:0:0:0:0:
128,192,51235,1,0,0:0:0:0:
469,192,51235,128,0,51398:0:0:0:0:
128,192,51398,1,0,0:0:0:0:
213,192,51398,128,0,51560:0:0:0:0:
298,192,51398,128,0,51560:0:0:0:0:
42,192,51560,1,0,0:0:0:0:
384,192,51560,1,0,0:0:0:0:
469,192,51560,1,0,0:0:0:0:
384,192,51722,1,0,0:0:0:0:
128,192,51722,128,0,51884:0:0:0:0:
42,192,51722,128,0,51884:0:0:0:0:
384,192,51884,1,0,0:0:0:0:
213,192,51884,1,0,0:0:0:0:
128,192,52046,128,0,52371:0:0:0:0:
384,192,52046,1,0,0:0:0:0:
298,192,52046,128,0,52371:0:0:0:0:
213,192,52371,1,0,0:0:0:0:
469,192,52371,128,0,52533:0:0:0:0:
384,192,52371,128,0,52533:0:0:0:0:
213,192,52533,1,0,0:0:0:0:
42,192,52533,128,0,53181:0:0:0:0:
213,192,52695,1,0,0:0:0:0:
469,192,52857,1,0,0:0:0:0:
384,192,52857,1,0,0:0:0:0:
298,192,52857,1,0,0:0:0:0:
384,192,53019,1,0,0:0:0:0:
384,192,53181,1,0,0:0:0:0:
213,192,53181,128,0,53344:0:0:0:0:
42,192,53344,128,0,53668:0:0:0:0:
384,192,53344,1,0,0:0:0:0:
128,192,53344,128,0,53506:0:0:0:0:
213,192,53668,1,0,0:0:0:0:
384,192,53749,1,0,0:0:0:0:
298,192,53830,1,0,0:0:0:0:
469,192,53992,1,0,0:0:0:0:
42,192,54154,1,0,0:0:0:0:
128,192,54208,1,0,0:0:0:0:
213,192,54262,1,0,0:0:0:0:
298,192,54316,1,0,0:0:0:0:
384,192,54316,1,0,0:0:0:0:
42,192,54371,1,0,0:0:0:0:
128,192,54425,1,0,0:0:0:0:
469,192,54479,1,0,0:0:0:0:
213,192,54479,1,0,0:0:0:0:
298,192,54479,1,0,0:0:0:0:
384,192,54479,1,0,0:0:0:0:
42,192,54560,1,0,0:0:0:0:
213,192,54641,1,0,0:0:0:0:
469,192,54722,1,0,0:0:0:0:
298,192,54803,1,0,0:0:0:0:
384,192,54803,1,0,0:0:0:0:
128,192,54803,128,0,54965:0:0:0:0:
42,192,54803,128,0,54965:0:0:0:0:
213,192,54965,1,0,0:0:0:0:
213,192,55127,128,0,55289:0:0:0:0:
469,192,55127,128,0,55289:0:0:0:0:
298,192,55127,1,0,0:0:0:0:
42,192,55127,1,0,0:0:0:0:
128,192,55289,1,0,0:0:0:0:
128,192,55452,128,0,55614:0:0:0:0:
384,192,55452,128,0,55614:0:0:0:0:
298,192,55452,1,0,0:0:0:0:
298,192,55614,1,0,0:0:0:0:
42,192,55614,1,0,0:0:0:0:
469,192,55776,1,0,0:0:0:0:
42,192,55776,128,0,55938:0:0:0:0:
213,192,55776,1,0,0:0:0:0:
298,192,55776,128,0,55938:0:0:0:0:
384,192,55938,1,0,0:0:0:0:
128,192,56100,128,0,56262:0:0:0:0:
42,192,56100,128,0,56262:0:0:0:0:
298,192,56262,128,0,56425:0:0:0:0:
384,192,56262,128,0,56425:0:0:0:0:
213,192,56262,1,0,0:0:0:0:
469,192,56425,1,0,0:0:0:0:
213,192,56425,1,0,0:0:0:0:
128,192,56425,1,0,0:0:0:0:
42,192,56425,1,0,0:0:0:0:
42,192,56587,1,0,0:0:0:0:
384,192,56587,128,0,56749:0:0:0:0:
469,192,56587,128,0,56749:0:0:0:0:
213,192,56749,1,0,0:0:0:0:
128,192,56911,128,0,57073:0:0:0:0:
42,192,56911,128,0,57073:0:0:0:0:
298,192,56911,1,0,0:0:0:0:
384,192,57073,1,0,0:0:0:0:
469,192,57073,1,0,0:0:0:0:
298,192,57073,1,0,0:0:0:0:
213,192,57073,1,0,0:0:0:0:
42,192,57235,128,0,57398:0:0:0:0:
128,192,57235,1,0,0:0:0:0:
469,192,57235,128,0,57560:0:0:0:0:
384,192,57398,1,0,0:0:0:0:
298,192,57398,1,0,0:0:0:0:
213,192,57398,1,0,0:0:0:0:
128,192,57398,1,0,0:0:0:0:
42,192,57560,1,0,0:0:0:0:
469,192,57722,1,0,0:0:0:0:
42,192,57722,1,0,0:0:0:0:
128,192,57722,128,0,57884:0:0:0:0:
384,192,57722,128,0,57884:0:0:0:0:
298,192,57884,1,0,0:0:0:0:
298,192,58046,128,0,58208:0:0:0:0:
213,192,58046,128,0,58208:0:0:0:0:
469,192,58046,1,0,0:0:0:0:
469,192,58208,1,0,0:0:0:0:
128,192,58208,1,0,0:0:0:0:
213,192,58371,1,0,0:0:0:0:
469,192,58371,1,0,0:0:0:0:
384,192,58371,128,0,58533:0:0:0:0:
42,192,58371,128,0,58533:0:0:0:0:
298,192,58533,1,0,0:0:0:0:
128,192,58695,128,0,58857:0:0:0:0:
384,192,58695,128,0,58857:0:0:0:0:
469,192,58857,128,0,59019:0:0:0:0:
42,192,58857,1,0,0:0:0:0:
213,192,58857,128,0,59019:0:0:0:0:
128,192,59019,1,0,0:0:0:0:
42,192,59019,1,0,0:0:0:0:
298,192,59019,1,0,0:0:0:0:
384,192,59019,1,0,0:0:0:0:
469,192,59181,128,0,59344:0:0:0:0:
128,192,59181,128,0,59344:0:0:0:0:
213,192,59181,1,0,0:0:0:0:
42,192,59344,1,0,0:0:0:0:
384,192,59506,128,0,59668:0:0:0:0:
42,192,59506,128,0,59668:0:0:0:0:
298,192,59506,1,0,0:0:0:0:
298,192,59668,1,0,0:0:0:0:
469,192,59668,1,0,0:0:0:0:
128,192,59668,1,0,0:0:0:0:
213,192,59668,1,0,0:0:0:0:
42,192,59830,1,0,0:0:0:0:
384,192,59830,128,0,59992:0:0:0:0:
469,192,59830,128,0,60154:0:0:0:0:
298,192,59992,1,0,0:0:0:0:
213,192,59992,1,0,0:0:0:0:
128,192,59992,1,0,0:0:0:0:
42,192,59992,1,0,0:0:0:0:
128,192,60154,1,0,0:0:0:0:
469,192,60316,1,0,0:0:0:0:
42,192,60316,1,0,0:0:0:0:
298,192,60316,128,0,60479:0:0:0:0:
128,192,60316,128,0,60479:0:0:0:0:
384,192,60479,1,0,0:0:0:0:
298,192,60641,1,0,0:0:0:0:
384,192,60641,128,0,60803:0:0:0:0:
42,192,60641,128,0,60803:0:0:0:0:
298,192,60803,1,0,0:0:0:0:
128,192,60803,1,0,0:0:0:0:
213,192,60965,1,0,0:0:0:0:
298,192,60965,128,0,61127:0:0:0:0:
469,192,60965,128,0,61127:0:0:0:0:
42,192,60965,1,0,0:0:0:0:
128,192,61127,1,0,0:0:0:0:
384,192,61289,1,0,0:0:0:0:
42,192,61289,128,0,61452:0:0:0:0:
128,192,61289,128,0,61452:0:0:0:0:
298,192,61289,1,0,0:0:0:0:
384,192,61452,128,0,61614:0:0:0:0:
469,192,61452,128,0,61614:0:0:0:0:
213,192,61614,1,0,0:0:0:0:
128,192,61614,1,0,0:0:0:0:
298,192,61614,1,0,0:0:0:0:
42,192,61614,1,0,0:0:0:0:
213,192,61776,128,0,61938:0:0:0:0:
298,192,61776,128,0,61938:0:0:0:0:
384,192,61938,1,0,0:0:0:0:
42,192,61938,1,0,0:0:0:0:
469,192,61938,1,0,0:0:0:0:
213,192,62100,128,0,62262:0:0:0:0:
128,192,62100,128,0,62262:0:0:0:0:
469,192,62100,1,0,0:0:0:0:
42,192,62262,1,0,0:0:0:0:
469,192,62262,1,0,0:0:0:0:
384,192,62262,1,0,0:0:0:0:
298,192,62262,1,0,0:0:0:0:
384,192,62425,128,0,62587:0:0:0:0:
298,192,62425,128,0,62587:0:0:0:0:
213,192,62587,1,0,0:0:0:0:
128,192,62587,1,0,0:0:0:0:
42,192,62587,1,0,0:0:0:0:
469,192,62587,1,0,0:0:0:0:
213,192,62749,128,0,62830:0:0:0:0:
298,192,62749,128,0,62830:0:0:0:0:
384,192,62830,128,0,62911:0:0:0:0:
42,192,62830,128,0,62911:0:0:0:0:
298,192,62911,1,0,0:0:0:0:
469,192,62911,1,0,0:0:0:0:
128,192,62911,128,0,63560:0:0:0:0:
213,192,62911,128,0,63560:0:0:0:0:
384,192,63073,1,0,0:0:0:0:
384,192,63235,1,0,0:0:0:0:
469,192,63235,1,0,0:0:0:0:
298,192,63235,1,0,0:0:0:0:
469,192,63398,1,0,0:0:0:0:
42,192,63398,1,0,0:0:0:0:
469,192,63560,1,0,0:0:0:0:
384,192,63560,1,0,0:0:0:0:
298,192,63560,1,0,0:0:0:0:
42,192,63560,1,0,0:0:0:0:
213,192,63722,1,0,0:0:0:0:
298,192,63722,1,0,0:0:0:0:
213,192,63884,1,0,0:0:0:0:
128,192,63884,1,0,0:0:0:0:
384,192,63884,128,0,64533:0:0:0:0:
469,192,63884,128,0,64533:0:0:0:0:
42,192,64046,1,0,0:0:0:0:
128,192,64046,1,0,0:0:0:0:
298,192,64046,1,0,0:0:0:0:
213,192,64046,1,0,0:0:0:0:
298,192,64208,1,0,0:0:0:0:
128,192,64371,1,0,0:0:0:0:
42,192,64371,1,0,0:0:0:0:
213,192,64533,1,0,0:0:0:0:
298,192,64533,1,0,0:0:0:0:
128,192,64533,128,0,64857:0:0:0:0:
42,192,64533,128,0,64857:0:0:0:0:
213,192,64695,1,0,0:0:0:0:
384,192,64695,1,0,0:0:0:0:
469,192,64695,1,0,0:0:0:0:
298,192,64857,1,0,0:0:0:0:
384,192,64857,1,0,0:0:0:0:
469,192,64857,1,0,0:0:0:0:
213,192,64857,1,0,0:0:0:0:
384,192,65100,1,0,0:0:0:0:
298,192,65141,1,0,0:0:0:0:
42,192,65181,128,0,65289:0:0:0:0:
213,192,65181,128,0,65289:0:0:0:0:
128,192,65181,128,0,65289:0:0:0:0:
384,192,65289,128,0,65398:0:0:0:0:
469,192,65289,128,0,65398:0:0:0:0:
298,192,65398,128,0,65506:0:0:0:0:
42,192,65398,128,0,65506:0:0:0:0:
128,192,65506,128,0,65614:0:0:0:0:
469,192,65506,128,0,65614:0:0:0:0:
298,192,65614,128,0,65722:0:0:0:0:
213,192,65614,128,0,65722:0:0:0:0:
384,192,65722,128,0,65830:0:0:0:0:
42,192,65722,128,0,65830:0:0:0:0:
213,192,65830,128,0,65938:0:0:0:0:
128,192,65830,128,0,65938:0:0:0:0:
298,192,65938,128,0,66046:0:0:0:0:
469,192,65938,128,0,66046:0:0:0:0:
384,192,66046,128,0,66154:0:0:0:0:
42,192,66046,128,0,66154:0:0:0:0:
213,192,66154,128,0,66262:0:0:0:0:
469,192,66154,128,0,66262:0:0:0:0:
128,192,66262,128,0,66371:0:0:0:0:
42,192,66262,128,0,66371:0:0:0:0:
298,192,66371,128,0,66479:0:0:0:0:
384,192,66371,128,0,66479:0:0:0:0:
213,192,66425,128,0,66533:0:0:0:0:
128,192,66479,128,0,66587:0:0:0:0:
469,192,66479,128,0,66587:0:0:0:0:
298,192,66587,128,0,66695:0:0:0:0:
42,192,66587,128,0,66695:0:0:0:0:
128,192,66695,128,0,66803:0:0:0:0:
384,192,66695,128,0,66803:0:0:0:0:
213,192,66803,128,0,66911:0:0:0:0:
469,192,66803,128,0,66911:0:0:0:0:
298,192,66911,128,0,67019:0:0:0:0:
42,192,66911,128,0,67019:0:0:0:0:
128,192,67019,128,0,67127:0:0:0:0:
213,192,67019,128,0,67127:0:0:0:0:
469,192,67127,128,0,67235:0:0:0:0:
384,192,67127,128,0,67235:0:0:0:0:
42,192,67235,128,0,67344:0:0:0:0:
298,192,67235,128,0,67344:0:0:0:0:
213,192,67344,128,0,67452:0:0:0:0:
469,192,67344,128,0,67452:0:0:0:0:
128,192,67452,128,0,67560:0:0:0:0:
42,192,67452,128,0,67560:0:0:0:0:
298,192,67560,128,0,67668:0:0:0:0:
384,192,67560,128,0,67668:0:0:0:0:
469,192,67668,128,0,67776:0:0:0:0:
128,192,67668,128,0,67776:0:0:0:0:
213,192,67722,128,0,67830:0:0:0:0:
298,192,67776,128,0,67884:0:0:0:0:
42,192,67776,128,0,67884:0:0:0:0:
384,192,67884,128,0,67992:0:0:0:0:
469,192,67884,128,0,67992:0:0:0:0:
128,192,67992,128,0,68100:0:0:0:0:
298,192,67992,128,0,68100:0:0:0:0:
42,192,68100,128,0,68208:0:0:0:0:
469,192,68100,128,0,68208:0:0:0:0:
213,192,68208,128,0,68316:0:0:0:0:
298,192,68208,128,0,68316:0:0:0:0:
384,192,68316,128,0,68425:0:0:0:0:
42,192,68316,128,0,68425:0:0:0:0:
128,192,68425,128,0,68533:0:0:0:0:
213,192,68425,128,0,68533:0:0:0:0:
42,192,68533,128,0,68641:0:0:0:0:
469,192,68533,128,0,68641:0:0:0:0:
384,192,68641,128,0,68749:0:0:0:0:
298,192,68641,128,0,68749:0:0:0:0:
128,192,68749,128,0,68857:0:0:0:0:
469,192,68749,128,0,68857:0:0:0:0:
213,192,68857,128,0,68965:0:0:0:0:
298,192,68857,128,0,68965:0:0:0:0:
42,192,68965,128,0,69073:0:0:0:0:
384,192,68965,128,0,69073:0:0:0:0:
128,192,69019,128,0,69127:0:0:0:0:
469,192,69073,128,0,69181:0:0:0:0:
213,192,69073,128,0,69181:0:0:0:0:
384,192,69181,128,0,69289:0:0:0:0:
298,192,69181,128,0,69289:0:0:0:0:
42,192,69289,128,0,69398:0:0:0:0:
128,192,69289,128,0,69398:0:0:0:0:
213,192,69398,128,0,69506:0:0:0:0:
469,192,69398,128,0,69506:0:0:0:0:
128,192,69506,128,0,69614:0:0:0:0:
384,192,69506,128,0,69614:0:0:0:0:
298,192,69614,128,0,69722:0:0:0:0:
213,192,69614,128,0,69722:0:0:0:0:
469,192,69722,128,0,69830:0:0:0:0:
42,192,69722,128,0,69830:0:0:0:0:
128,192,69830,128,0,69938:0:0:0:0:
298,192,69830,128,0,69938:0:0:0:0:
384,192,69938,128,0,70046:0:0:0:0:
469,192,69938,128,0,70046:0:0:0:0:
128,192,70046,128,0,70154:0:0:0:0:
213,192,70046,128,0,70154:0:0:0:0:
384,192,70154,128,0,70262:0:0:0:0:
42,192,70154,128,0,70262:0:0:0:0:
298,192,70262,128,0,70371:0:0:0:0:
213,192,70262,128,0,70371:0:0:0:0:
128,192,70316,128,0,70425:0:0:0:0:
42,192,70371,128,0,70479:0:0:0:0:
384,192,70371,128,0,70479:0:0:0:0:
469,192,70371,128,0,70479:0:0:0:0:
298,192,70479,128,0,70587:0:0:0:0:
213,192,70479,128,0,70587:0:0:0:0:
128,192,70587,128,0,70695:0:0:0:0:
469,192,70587,128,0,70695:0:0:0:0:
384,192,70695,128,0,70803:0:0:0:0:
42,192,70695,128,0,70803:0:0:0:0:
213,192,70803,128,0,70911:0:0:0:0:
469,192,70803,128,0,70911:0:0:0:0:
128,192,70911,128,0,71019:0:0:0:0:
42,192,70911,128,0,71019:0:0:0:0:
298,192,71019,128,0,71127:0:0:0:0:
384,192,71019,128,0,71127:0:0:0:0:
213,192,71127,128,0,71235:0:0:0:0:
469,192,71127,128,0,71235:0:0:0:0:
384,192,71235,128,0,71344:0:0:0:0:
128,192,71235,128,0,71344:0:0:0:0:
42,192,71344,128,0,71452:0:0:0:0:
298,192,71344,128,0,71452:0:0:0:0:
384,192,71452,128,0,71560:0:0:0:0:
469,192,71452,128,0,71560:0:0:0:0:
128,192,71560,128,0,71668:0:0:0:0:
42,192,71560,128,0,71668:0:0:0:0:
213,192,71614,128,0,71722:0:0:0:0:
298,192,71668,128,0,71776:0:0:0:0:
469,192,71668,128,0,71776:0:0:0:0:
384,192,71776,128,0,71884:0:0:0:0:
128,192,71776,128,0,71884:0:0:0:0:
42,192,71884,128,0,71992:0:0:0:0:
213,192,71884,128,0,71992:0:0:0:0:
384,192,71992,128,0,72100:0:0:0:0:
469,192,71992,128,0,72100:0:0:0:0:
298,192,72100,128,0,72208:0:0:0:0:
128,192,72100,128,0,72208:0:0:0:0:
213,192,72208,128,0,72316:0:0:0:0:
384,192,72208,128,0,72316:0:0:0:0:
469,192,72316,128,0,72425:0:0:0:0:
42,192,72316,128,0,72425:0:0:0:0:
298,192,72425,128,0,72533:0:0:0:0:
128,192,72425,128,0,72533:0:0:0:0:
384,192,72533,128,0,72641:0:0:0:0:
469,192,72533,128,0,72641:0:0:0:0:
128,192,72641,128,0,72749:0:0:0:0:
42,192,72641,128,0,72749:0:0:0:0:
298,192,72749,128,0,72857:0:0:0:0:
469,192,72749,128,0,72857:0:0:0:0:
384,192,72857,128,0,72965:0:0:0:0:
213,192,72857,128,0,72965:0:0:0:0:
128,192,72911,128,0,73019:0:0:0:0:
42,192,72965,128,0,73073:0:0:0:0:
298,192,72965,128,0,73073:0:0:0:0:
384,192,73073,128,0,73181:0:0:0:0:
469,192,73073,128,0,73181:0:0:0:0:
213,192,73181,128,0,73289:0:0:0:0:
128,192,73181,128,0,73289:0:0:0:0:
42,192,73289,128,0,73398:0:0:0:0:
384,192,73289,128,0,73398:0:0:0:0:
298,192,73398,128,0,73506:0:0:0:0:
469,192,73398,128,0,73506:0:0:0:0:
128,192,73506,128,0,73614:0:0:0:0:
42,192,73506,128,0,73614:0:0:0:0:
384,192,73614,128,0,73722:0:0:0:0:
213,192,73614,128,0,73722:0:0:0:0:
469,192,73722,128,0,73830:0:0:0:0:
298,192,73722,128,0,73830:0:0:0:0:
384,192,73830,128,0,73938:0:0:0:0:
42,192,73830,128,0,73938:0:0:0:0:
213,192,73938,128,0,74046:0:0:0:0:
128,192,73938,128,0,74046:0:0:0:0:
469,192,74046,128,0,74154:0:0:0:0:
298,192,74046,128,0,74154:0:0:0:0:
384,192,74154,128,0,74262:0:0:0:0:
42,192,74154,128,0,74262:0:0:0:0:
128,192,74208,128,0,74316:0:0:0:0:
298,192,74262,128,0,74371:0:0:0:0:
213,192,74262,128,0,74371:0:0:0:0:
469,192,74371,128,0,74479:0:0:0:0:
384,192,74371,128,0,74479:0:0:0:0:
213,192,74479,128,0,74587:0:0:0:0:
42,192,74479,128,0,74587:0:0:0:0:
128,192,74587,128,0,74695:0:0:0:0:
469,192,74587,128,0,74695:0:0:0:0:
213,192,74695,128,0,74803:0:0:0:0:
298,192,74695,128,0,74803:0:0:0:0:
128,192,74803,128,0,74911:0:0:0:0:
384,192,74803,128,0,74911:0:0:0:0:
42,192,74911,128,0,75019:0:0:0:0:
469,192,74911,128,0,75019:0:0:0:0:
298,192,75019,128,0,75127:0:0:0:0:
384,192,75019,128,0,75127:0:0:0:0:
42,192,75127,128,0,75235:0:0:0:0:
128,192,75127,128,0,75235:0:0:0:0:
213,192,75235,128,0,75344:0:0:0:0:
469,192,75235,128,0,75344:0:0:0:0:
384,192,75344,128,0,75452:0:0:0:0:
42,192,75344,128,0,75452:0:0:0:0:
298,192,75452,128,0,75560:0:0:0:0:
213,192,75452,128,0,75560:0:0:0:0:
128,192,75506,128,0,75614:0:0:0:0:
42,192,75560,128,0,75668:0:0:0:0:
384,192,75560,128,0,75668:0:0:0:0:
469,192,75560,128,0,75668:0:0:0:0:
42,192,75884,128,0,76046:0:0:0:0:
128,192,75884,128,0,76046:0:0:0:0:
469,192,75884,128,0,76046:0:0:0:0:
384,192,76046,1,0,0:0:0:0:
469,192,76208,128,0,76371:0:0:0:0:
128,192,76208,128,0,76371:0:0:0:0:
298,192,76208,128,0,76371:0:0:0:0:
384,192,76208,1,0,0:0:0:0:
42,192,76371,1,0,0:0:0:0:
42,192,76533,128,0,76695:0:0:0:0:
213,192,76533,128,0,76695:0:0:0:0:
298,192,76533,128,0,76695:0:0:0:0:
384,192,76695,128,0,76857:0:0:0:0:
469,192,76695,128,0,76857:0:0:0:0:
213,192,76857,1,0,0:0:0:0:
128,192,76857,1,0,0:0:0:0:
42,192,76857,1,0,0:0:0:0:
128,192,77019,128,0,77181:0:0:0:0:
384,192,77019,128,0,77181:0:0:0:0:
298,192,77019,128,0,77181:0:0:0:0:
213,192,77181,1,0,0:0:0:0:
42,192,77181,1,0,0:0:0:0:
469,192,77181,1,0,0:0:0:0:
213,192,77344,128,0,77506:0:0:0:0:
128,192,77344,128,0,77506:0:0:0:0:
298,192,77506,128,0,77668:0:0:0:0:
384,192,77506,128,0,77668:0:0:0:0:
469,192,77506,128,0,77668:0:0:0:0:
42,192,77506,1,0,0:0:0:0:
128,192,77668,1,0,0:0:0:0:
128,192,77830,128,0,77992:0:0:0:0:
42,192,77830,128,0,77992:0:0:0:0:
469,192,77830,128,0,77911:0:0:0:0:
384,192,77992,1,0,0:0:0:0:
469,192,77992,1,0,0:0:0:0:
298,192,77992,1,0,0:0:0:0:
42,192,78154,1,0,0:0:0:0:
384,192,78154,1,0,0:0:0:0:
213,192,78154,1,0,0:0:0:0:
128,192,78316,128,0,78479:0:0:0:0:
42,192,78316,128,0,78479:0:0:0:0:
298,192,78479,1,0,0:0:0:0:
384,192,78479,1,0,0:0:0:0:
469,192,78479,1,0,0:0:0:0:
469,192,78641,128,0,78803:0:0:0:0:
213,192,78641,128,0,78803:0:0:0:0:
298,192,78803,1,0,0:0:0:0:
384,192,78803,1,0,0:0:0:0:
128,192,78803,128,0,78965:0:0:0:0:
42,192,78803,128,0,78965:0:0:0:0:
384,192,78965,128,0,79127:0:0:0:0:
469,192,78965,128,0,79127:0:0:0:0:
298,192,79127,1,0,0:0:0:0:
42,192,79127,128,0,79289:0:0:0:0:
213,192,79127,128,0,79289:0:0:0:0:
128,192,79289,128,0,79452:0:0:0:0:
469,192,79289,128,0,79452:0:0:0:0:
213,192,79452,1,0,0:0:0:0:
298,192,79452,1,0,0:0:0:0:
384,192,79452,1,0,0:0:0:0:
42,192,79452,1,0,0:0:0:0:
128,192,79614,1,0,0:0:0:0:
298,192,79614,128,0,79776:0:0:0:0:
213,192,79614,128,0,79776:0:0:0:0:
469,192,79776,128,0,79938:0:0:0:0:
384,192,79776,128,0,79938:0:0:0:0:
42,192,79776,1,0,0:0:0:0:
128,192,79938,128,0,80100:0:0:0:0:
42,192,79938,128,0,80100:0:0:0:0:
298,192,80100,128,0,80262:0:0:0:0:
469,192,80100,128,0,80181:0:0:0:0:
384,192,80100,128,0,80262:0:0:0:0:
213,192,80100,128,0,80181:0:0:0:0:
128,192,80181,128,0,80262:0:0:0:0:
42,192,80208,128,0,80262:0:0:0:0:
469,192,80262,128,0,80425:0:0:0:0:
213,192,80316,128,0,80371:0:0:0:0:
298,192,80344,128,0,80425:0:0:0:0:
42,192,80425,128,0,80506:0:0:0:0:
384,192,80425,128,0,80506:0:0:0:0:
128,192,80425,128,0,80506:0:0:0:0:
213,192,80749,128,0,80992:0:0:0:0:
128,192,80749,128,0,80992:0:0:0:0:
42,192,80749,128,0,80992:0:0:0:0:
469,192,80749,128,0,80992:0:0:0:0:
469,192,81073,1,0,0:0:0:0:
42,192,81073,1,0,0:0:0:0:
128,192,81073,1,0,0:0:0:0:
213,192,81235,128,0,81398:0:0:0:0:
298,192,81235,128,0,81398:0:0:0:0:
384,192,81235,128,0,81398:0:0:0:0:
469,192,81235,128,0,81398:0:0:0:0:
128,192,81398,1,0,0:0:0:0:
42,192,81398,1,0,0:0:0:0:
42,192,81722,128,0,81965:0:0:0:0:
298,192,81722,128,0,81965:0:0:0:0:
384,192,81722,128,0,81965:0:0:0:0:
469,192,81722,128,0,81965:0:0:0:0:
42,192,82046,1,0,0:0:0:0:
384,192,82046,1,0,0:0:0:0:
469,192,82046,1,0,0:0:0:0:
42,192,82208,128,0,82371:0:0:0:0:
128,192,82208,128,0,82371:0:0:0:0:
213,192,82208,128,0,82371:0:0:0:0:
298,192,82208,128,0,82371:0:0:0:0:
384,192,82371,1,0,0:0:0:0:
469,192,82371,1,0,0:0:0:0:
213,192,82533,128,0,82695:0:0:0:0:
298,192,82533,128,0,82695:0:0:0:0:
384,192,82695,128,0,82938:0:0:0:0:
469,192,82695,128,0,82938:0:0:0:0:
42,192,82695,128,0,82938:0:0:0:0:
128,192,82695,128,0,82938:0:0:0:0:
213,192,82938,1,0,0:0:0:0:
298,192,82938,1,0,0:0:0:0:
384,192,83019,128,0,83100:0:0:0:0:
469,192,83019,128,0,83181:0:0:0:0:
42,192,83019,128,0,83100:0:0:0:0:
128,192,83100,128,0,83181:0:0:0:0:
213,192,83181,128,0,83262:0:0:0:0:
298,192,83181,128,0,83344:0:0:0:0:
384,192,83181,128,0,83344:0:0:0:0:
213,192,83344,1,0,0:0:0:0:
128,192,83344,1,0,0:0:0:0:
42,192,83344,1,0,0:0:0:0:
469,192,83344,1,0,0:0:0:0:
469,192,83506,1,0,0:0:0:0:
384,192,83506,1,0,0:0:0:0:
128,192,83506,1,0,0:0:0:0:
42,192,83668,1,0,0:0:0:0:
384,192,83668,1,0,0:0:0:0:
298,192,83668,1,0,0:0:0:0:
213,192,83668,1,0,0:0:0:0:
42,192,83830,1,0,0:0:0:0:
128,192,83830,1,0,0:0:0:0:
469,192,83830,1,0,0:0:0:0:
298,192,83830,1,0,0:0:0:0:
213,192,84154,1,0,0:0:0:0:
128,192,84154,1,0,0:0:0:0:
469,192,84154,1,0,0:0:0:0:
469,192,84316,1,0,0:0:0:0:
384,192,84316,1,0,0:0:0:0:
42,192,84316,1,0,0:0:0:0:
128,192,84316,1,0,0:0:0:0:
384,192,84479,1,0,0:0:0:0:
298,192,84479,1,0,0:0:0:0:
213,192,84479,1,0,0:0:0:0:
469,192,84641,1,0,0:0:0:0:
128,192,84641,1,0,0:0:0:0:
213,192,84641,1,0,0:0:0:0:
42,192,84641,1,0,0:0:0:0:
42,192,84803,1,0,0:0:0:0:
469,192,84803,1,0,0:0:0:0:
384,192,84803,1,0,0:0:0:0:
298,192,84803,1,0,0:0:0:0:
128,192,84884,1,0,0:0:0:0:
213,192,84965,1,0,0:0:0:0:
298,192,85046,1,0,0:0:0:0:
384,192,85127,1,0,0:0:0:0:
469,192,85127,1,0,0:0:0:0:
213,192,85208,1,0,0:0:0:0:
128,192,85208,1,0,0:0:0:0:
42,192,85289,1,0,0:0:0:0:
469,192,85289,128,0,85776:0:0:0:0:
384,192,85289,128,0,85776:0:0:0:0:
298,192,85289,1,0,0:0:0:0:
128,192,85452,128,0,85776:0:0:0:0:
42,192,85452,128,0,85776:0:0:0:0:
298,192,85938,128,0,86019:0:0:0:0:
213,192,85938,128,0,86100:0:0:0:0:
128,192,85938,128,0,86181:0:0:0:0:
42,192,85938,128,0,86262:0:0:0:0:
384,192,86019,128,0,86181:0:0:0:0:
298,192,86100,128,0,86262:0:0:0:0:
213,192,86181,128,0,86344:0:0:0:0:
128,192,86262,128,0,86425:0:0:0:0:
42,192,86344,128,0,86506:0:0:0:0:
213,192,86425,128,0,86506:0:0:0:0:
298,192,86425,128,0,86587:0:0:0:0:
384,192,86425,128,0,86668:0:0:0:0:
469,192,86425,128,0,86749:0:0:0:0:
128,192,86506,128,0,86668:0:0:0:0:
213,192,86587,128,0,86749:0:0:0:0:
298,192,86668,128,0,86830:0:0:0:0:
384,192,86749,128,0,86911:0:0:0:0:
469,192,86830,128,0,86992:0:0:0:0:
128,192,86911,128,0,87073:0:0:0:0:
42,192,86911,128,0,86992:0:0:0:0:
213,192,86992,128,0,87154:0:0:0:0:
298,192,87073,128,0,87235:0:0:0:0:
42,192,87154,128,0,87316:0:0:0:0:
128,192,87235,128,0,87398:0:0:0:0:
469,192,87235,128,0,87398:0:0:0:0:
213,192,87316,128,0,87479:0:0:0:0:
384,192,87398,128,0,87560:0:0:0:0:
469,192,87479,128,0,87641:0:0:0:0:
128,192,87560,128,0,87641:0:0:0:0:
42,192,87560,128,0,87722:0:0:0:0:
213,192,87641,128,0,87803:0:0:0:0:
298,192,87641,128,0,87722:0:0:0:0:
128,192,87722,128,0,87803:0:0:0:0:
469,192,87722,128,0,87803:0:0:0:0:
384,192,87803,128,0,87884:0:0:0:0:
298,192,87803,128,0,87884:0:0:0:0:
42,192,87884,128,0,87965:0:0:0:0:
128,192,87884,128,0,87965:0:0:0:0:
213,192,87884,128,0,87965:0:0:0:0:
469,192,87884,128,0,87965:0:0:0:0:
384,192,88046,128,0,88208:0:0:0:0:
469,192,88046,128,0,88208:0:0:0:0:
42,192,88046,128,0,88208:0:0:0:0:
213,192,88046,128,0,88208:0:0:0:0:
42,192,88371,1,0,0:0:0:0:
298,192,88371,1,0,0:0:0:0:
128,192,88371,128,0,88533:0:0:0:0:
213,192,88371,128,0,88533:0:0:0:0:
384,192,88371,1,0,0:0:0:0:
469,192,88533,128,0,88857:0:0:0:0:
42,192,88533,128,0,88695:0:0:0:0:
298,192,88695,1,0,0:0:0:0:
213,192,88695,1,0,0:0:0:0:
213,192,88857,1,0,0:0:0:0:
128,192,88857,128,0,89019:0:0:0:0:
42,192,88857,128,0,89019:0:0:0:0:
384,192,88857,1,0,0:0:0:0:
469,192,89019,128,0,89181:0:0:0:0:
384,192,89019,128,0,89181:0:0:0:0:
213,192,89181,1,0,0:0:0:0:
213,192,89344,128,0,89506:0:0:0:0:
128,192,89344,128,0,89506:0:0:0:0:
42,192,89506,1,0,0:0:0:0:
298,192,89506,1,0,0:0:0:0:
469,192,89506,1,0,0:0:0:0:
128,192,89668,128,0,89992:0:0:0:0:
469,192,89668,1,0,0:0:0:0:
384,192,89668,1,0,0:0:0:0:
42,192,89668,128,0,89992:0:0:0:0:
469,192,89992,1,0,0:0:0:0:
213,192,89992,1,0,0:0:0:0:
384,192,90154,1,0,0:0:0:0:
469,192,90154,1,0,0:0:0:0:
128,192,90154,1,0,0:0:0:0:
42,192,90154,1,0,0:0:0:0:
298,192,90316,1,0,0:0:0:0:
384,192,90316,1,0,0:0:0:0:
213,192,90398,1,0,0:0:0:0:
128,192,90398,1,0,0:0:0:0:
384,192,90479,128,0,90641:0:0:0:0:
469,192,90479,1,0,0:0:0:0:
298,192,90479,128,0,90641:0:0:0:0:
42,192,90479,1,0,0:0:0:0:
128,192,90641,1,0,0:0:0:0:
469,192,90641,1,0,0:0:0:0:
213,192,90803,1,0,0:0:0:0:
42,192,90803,128,0,90965:0:0:0:0:
128,192,90803,128,0,90965:0:0:0:0:
384,192,90803,1,0,0:0:0:0:
384,192,90965,1,0,0:0:0:0:
469,192,90965,1,0,0:0:0:0:
128,192,91127,1,0,0:0:0:0:
213,192,91127,128,0,91452:0:0:0:0:
298,192,91127,128,0,91452:0:0:0:0:
469,192,91127,1,0,0:0:0:0:
42,192,91452,1,0,0:0:0:0:
469,192,91452,1,0,0:0:0:0:
384,192,91452,128,0,91614:0:0:0:0:
128,192,91452,128,0,91614:0:0:0:0:
469,192,91614,128,0,91938:0:0:0:0:
298,192,91614,128,0,91776:0:0:0:0:
42,192,91776,1,0,0:0:0:0:
128,192,91938,128,0,92100:0:0:0:0:
42,192,91938,128,0,92100:0:0:0:0:
298,192,92100,1,0,0:0:0:0:
469,192,92100,1,0,0:0:0:0:
213,192,92100,128,0,92425:0:0:0:0:
384,192,92100,128,0,92425:0:0:0:0:
469,192,92425,1,0,0:0:0:0:
42,192,92425,128,0,92587:0:0:0:0:
298,192,92425,128,0,92587:0:0:0:0:
469,192,92587,128,0,92749:0:0:0:0:
384,192,92587,128,0,92911:0:0:0:0:
42,192,92749,1,0,0:0:0:0:
298,192,92749,128,0,92911:0:0:0:0:
213,192,92749,1,0,0:0:0:0:
128,192,92749,128,0,92911:0:0:0:0:
213,192,92911,128,0,93073:0:0:0:0:
469,192,92911,128,0,93073:0:0:0:0:
384,192,93073,1,0,0:0:0:0:
298,192,93073,128,0,93235:0:0:0:0:
42,192,93073,128,0,93398:0:0:0:0:
384,192,93235,1,0,0:0:0:0:
128,192,93235,1,0,0:0:0:0:
128,192,93398,1,0,0:0:0:0:
469,192,93398,1,0,0:0:0:0:
298,192,93398,128,0,93560:0:0:0:0:
213,192,93398,128,0,93722:0:0:0:0:
384,192,93560,1,0,0:0:0:0:
469,192,93560,1,0,0:0:0:0:
42,192,93722,1,0,0:0:0:0:
298,192,93722,128,0,93803:0:0:0:0:
384,192,93722,128,0,93803:0:0:0:0:
298,192,93884,128,0,93965:0:0:0:0:
384,192,93884,128,0,93965:0:0:0:0:
298,192,94046,128,0,94127:0:0:0:0:
384,192,94046,128,0,94127:0:0:0:0:
128,192,94046,1,0,0:0:0:0:
42,192,94046,1,0,0:0:0:0:
213,192,94208,1,0,0:0:0:0:
298,192,94208,128,0,94533:0:0:0:0:
384,192,94208,128,0,94533:0:0:0:0:
42,192,94371,1,0,0:0:0:0:
128,192,94452,1,0,0:0:0:0:
213,192,94533,1,0,0:0:0:0:
469,192,94533,1,0,0:0:0:0:
384,192,94614,1,0,0:0:0:0:
298,192,94614,1,0,0:0:0:0:
128,192,94695,128,0,94776:0:0:0:0:
42,192,94695,128,0,94776:0:0:0:0:
469,192,94695,128,0,94776:0:0:0:0:
213,192,94857,128,0,95019:0:0:0:0:
128,192,94857,128,0,95019:0:0:0:0:
42,192,94857,128,0,95019:0:0:0:0:
384,192,94857,128,0,95019:0:0:0:0:
469,192,95181,128,0,95344:0:0:0:0:
298,192,95181,128,0,95344:0:0:0:0:
42,192,95181,128,0,95344:0:0:0:0:
213,192,95181,128,0,95344:0:0:0:0:
213,192,95506,128,0,95668:0:0:0:0:
384,192,95506,128,0,95668:0:0:0:0:
469,192,95506,128,0,95668:0:0:0:0:
128,192,95506,128,0,95668:0:0:0:0:
213,192,95830,128,0,95911:0:0:0:0:
128,192,95830,128,0,95911:0:0:0:0:
42,192,95830,128,0,95911:0:0:0:0:
384,192,95911,1,0,0:0:0:0:
469,192,95911,1,0,0:0:0:0:
128,192,95992,1,0,0:0:0:0:
42,192,95992,1,0,0:0:0:0:
213,192,95992,1,0,0:0:0:0:
298,192,95992,1,0,0:0:0:0:
128,192,96316,128,0,96479:0:0:0:0:
42,192,96316,128,0,96560:0:0:0:0:
469,192,96316,128,0,96398:0:0:0:0:
384,192,96316,128,0,96479:0:0:0:0:
298,192,96398,128,0,96560:0:0:0:0:
213,192,96479,128,0,96641:0:0:0:0:
128,192,96560,128,0,96722:0:0:0:0:
42,192,96641,128,0,96722:0:0:0:0:
384,192,96641,128,0,96722:0:0:0:0:
298,192,96722,128,0,96884:0:0:0:0:
42,192,96803,128,0,96884:0:0:0:0:
128,192,96803,128,0,96965:0:0:0:0:
384,192,96803,128,0,96965:0:0:0:0:
469,192,96803,128,0,97046:0:0:0:0:
213,192,96884,128,0,97046:0:0:0:0:
298,192,96965,128,0,97127:0:0:0:0:
42,192,96965,128,0,97127:0:0:0:0:
384,192,97046,128,0,97208:0:0:0:0:
469,192,97127,128,0,97289:0:0:0:0:
128,192,97208,128,0,97371:0:0:0:0:
213,192,97289,128,0,97452:0:0:0:0:
298,192,97289,128,0,97452:0:0:0:0:
42,192,97289,128,0,97452:0:0:0:0:
384,192,97371,128,0,97533:0:0:0:0:
469,192,97452,128,0,97614:0:0:0:0:
128,192,97533,128,0,97695:0:0:0:0:
42,192,97614,128,0,97776:0:0:0:0:
298,192,97614,128,0,97776:0:0:0:0:
384,192,97695,128,0,97857:0:0:0:0:
213,192,97776,128,0,97938:0:0:0:0:
128,192,97776,128,0,97857:0:0:0:0:
469,192,97776,128,0,97938:0:0:0:0:
298,192,97857,128,0,98019:0:0:0:0:
384,192,97938,128,0,98100:0:0:0:0:
42,192,97938,128,0,98019:0:0:0:0:
128,192,98019,128,0,98181:0:0:0:0:
213,192,98019,128,0,98100:0:0:0:0:
298,192,98100,128,0,98181:0:0:0:0:
42,192,98100,128,0,98181:0:0:0:0:
469,192,98181,128,0,98262:0:0:0:0:
213,192,98181,128,0,98262:0:0:0:0:
128,192,98262,128,0,98344:0:0:0:0:
42,192,98262,128,0,98344:0:0:0:0:
384,192,98262,128,0,98344:0:0:0:0:
298,192,98262,128,0,98344:0:0:0:0:
213,192,98425,128,0,98587:0:0:0:0:
128,192,98425,128,0,98587:0:0:0:0:
469,192,98425,128,0,98587:0:0:0:0:
298,192,98425,128,0,98587:0:0:0:0:
384,192,98749,1,0,0:0:0:0:
469,192,98749,1,0,0:0:0:0:
298,192,98749,128,0,98911:0:0:0:0:
42,192,98749,128,0,98911:0:0:0:0:
213,192,98749,1,0,0:0:0:0:
213,192,98911,128,0,99235:0:0:0:0:
469,192,98911,128,0,99073:0:0:0:0:
298,192,99073,1,0,0:0:0:0:
128,192,99073,1,0,0:0:0:0:
469,192,99235,1,0,0:0:0:0:
42,192,99235,1,0,0:0:0:0:
298,192,99235,128,0,99398:0:0:0:0:
384,192,99235,128,0,99398:0:0:0:0:
128,192,99398,128,0,99560:0:0:0:0:
42,192,99398,128,0,99560:0:0:0:0:
469,192,99560,1,0,0:0:0:0:
384,192,99722,128,0,99884:0:0:0:0:
469,192,99722,128,0,99884:0:0:0:0:
298,192,99884,1,0,0:0:0:0:
213,192,99884,1,0,0:0:0:0:
128,192,99884,1,0,0:0:0:0:
42,192,99884,1,0,0:0:0:0:
42,192,100046,128,0,100371:0:0:0:0:
469,192,100046,128,0,100371:0:0:0:0:
384,192,100046,1,0,0:0:0:0:
128,192,100046,1,0,0:0:0:0:
298,192,100371,1,0,0:0:0:0:
128,192,100371,1,0,0:0:0:0:
384,192,100533,1,0,0:0:0:0:
469,192,100533,1,0,0:0:0:0:
42,192,100533,1,0,0:0:0:0:
128,192,100533,1,0,0:0:0:0:
384,192,100695,1,0,0:0:0:0:
213,192,100695,1,0,0:0:0:0:
298,192,100776,1,0,0:0:0:0:
42,192,100776,1,0,0:0:0:0:
384,192,100857,1,0,0:0:0:0:
469,192,100857,1,0,0:0:0:0:
213,192,100857,1,0,0:0:0:0:
128,192,100857,1,0,0:0:0:0:
469,192,101019,1,0,0:0:0:0:
128,192,101019,1,0,0:0:0:0:
42,192,101181,1,0,0:0:0:0:
128,192,101181,1,0,0:0:0:0:
213,192,101181,1,0,0:0:0:0:
384,192,101181,1,0,0:0:0:0:
384,192,101344,1,0,0:0:0:0:
298,192,101344,1,0,0:0:0:0:
213,192,101425,128,0,101506:0:0:0:0:
42,192,101506,1,0,0:0:0:0:
298,192,101506,1,0,0:0:0:0:
469,192,101506,128,0,101830:0:0:0:0:
128,192,101506,128,0,101830:0:0:0:0:
384,192,101830,1,0,0:0:0:0:
298,192,101830,1,0,0:0:0:0:
213,192,101830,1,0,0:0:0:0:
42,192,101830,1,0,0:0:0:0:
384,192,101992,128,0,102316:0:0:0:0:
469,192,101992,128,0,102316:0:0:0:0:
213,192,102316,1,0,0:0:0:0:
42,192,102316,1,0,0:0:0:0:
298,192,102479,1,0,0:0:0:0:
213,192,102479,128,0,102803:0:0:0:0:
469,192,102479,128,0,102803:0:0:0:0:
128,192,102479,1,0,0:0:0:0:
42,192,102803,1,0,0:0:0:0:
298,192,102803,1,0,0:0:0:0:
42,192,102965,128,0,103289:0:0:0:0:
128,192,102965,128,0,103127:0:0:0:0:
469,192,102965,1,0,0:0:0:0:
469,192,103127,1,0,0:0:0:0:
213,192,103127,1,0,0:0:0:0:
384,192,103289,1,0,0:0:0:0:
213,192,103289,1,0,0:0:0:0:
298,192,103452,1,0,0:0:0:0:
128,192,103452,128,0,103614:0:0:0:0:
469,192,103452,128,0,103614:0:0:0:0:
384,192,103452,1,0,0:0:0:0:
42,192,103614,1,0,0:0:0:0:
298,192,103614,1,0,0:0:0:0:
384,192,103776,1,0,0:0:0:0:
469,192,103776,1,0,0:0:0:0:
128,192,103776,128,0,103938:0:0:0:0:
42,192,103776,128,0,103938:0:0:0:0:
213,192,104100,1,0,0:0:0:0:
298,192,104100,1,0,0:0:0:0:
469,192,104100,128,0,104749:0:0:0:0:
384,192,104100,128,0,104749:0:0:0:0:
298,192,104587,1,0,0:0:0:0:
42,192,104587,1,0,0:0:0:0:
384,192,105073,1,0,0:0:0:0:
42,192,105073,128,0,105154:0:0:0:0:
213,192,105073,128,0,105154:0:0:0:0:
42,192,105235,128,0,105398:0:0:0:0:
213,192,105235,128,0,105398:0:0:0:0:
128,192,105398,1,0,0:0:0:0:
384,192,105398,128,0,105479:0:0:0:0:
469,192,105398,128,0,105479:0:0:0:0:
469,192,105560,1,0,0:0:0:0:
384,192,105560,1,0,0:0:0:0:
298,192,105722,1,0,0:0:0:0:
128,192,105722,128,0,105803:0:0:0:0:
42,192,105722,128,0,105803:0:0:0:0:
128,192,105884,1,0,0:0:0:0:
42,192,105884,1,0,0:0:0:0:
42,192,106046,128,0,106127:0:0:0:0:
213,192,106046,128,0,106127:0:0:0:0:
298,192,106046,128,0,106127:0:0:0:0:
469,192,106046,128,0,106127:0:0:0:0:
384,192,106046,128,0,106127:0:0:0:0:
128,192,106208,128,0,106371:0:0:0:0:
213,192,106208,128,0,106371:0:0:0:0:
298,192,106208,128,0,106371:0:0:0:0:
384,192,106208,128,0,106371:0:0:0:0:
469,192,106208,128,0,106371:0:0:0:0:
384,192,106695,1,0,0:0:0:0:
42,192,106695,128,0,107019:0:0:0:0:
128,192,106695,1,0,0:0:0:0:
469,192,106695,128,0,107019:0:0:0:0:
298,192,106695,1,0,0:0:0:0:
298,192,107019,1,0,0:0:0:0:
213,192,107019,1,0,0:0:0:0:
128,192,107019,1,0,0:0:0:0:
384,192,107181,1,0,0:0:0:0:
128,192,107181,128,0,107506:0:0:0:0:
42,192,107181,128,0,107506:0:0:0:0:
298,192,107506,1,0,0:0:0:0:
384,192,107506,1,0,0:0:0:0:
128,192,107668,1,0,0:0:0:0:
298,192,107668,128,0,107992:0:0:0:0:
469,192,107668,128,0,107992:0:0:0:0:
42,192,107992,1,0,0:0:0:0:
128,192,107992,1,0,0:0:0:0:
213,192,107992,1,0,0:0:0:0:
384,192,108154,128,0,108316:0:0:0:0:
128,192,108154,128,0,108316:0:0:0:0:
213,192,108316,1,0,0:0:0:0:
42,192,108316,1,0,0:0:0:0:
469,192,108316,1,0,0:0:0:0:
298,192,108479,1,0,0:0:0:0:
128,192,108479,128,0,108641:0:0:0:0:
42,192,108479,128,0,108641:0:0:0:0:
213,192,108641,128,0,108803:0:0:0:0:
469,192,108641,128,0,108803:0:0:0:0:
384,192,108803,128,0,108965:0:0:0:0:
42,192,108803,128,0,108965:0:0:0:0:
128,192,108965,1,0,0:0:0:0:
213,192,108965,128,0,109289:0:0:0:0:
298,192,108965,128,0,109289:0:0:0:0:
384,192,109289,1,0,0:0:0:0:
469,192,109289,1,0,0:0:0:0:
42,192,109289,1,0,0:0:0:0:
128,192,109452,1,0,0:0:0:0:
469,192,109614,1,0,0:0:0:0:
128,192,109614,128,0,109776:0:0:0:0:
213,192,109614,128,0,109695:0:0:0:0:
42,192,109695,128,0,109776:0:0:0:0:
469,192,109776,1,0,0:0:0:0:
384,192,109776,1,0,0:0:0:0:
298,192,109776,1,0,0:0:0:0:
213,192,109938,128,0,110262:0:0:0:0:
128,192,109938,128,0,110019:0:0:0:0:
42,192,110019,128,0,110100:0:0:0:0:
384,192,110100,128,0,110181:0:0:0:0:
469,192,110100,1,0,0:0:0:0:
298,192,110181,128,0,110262:0:0:0:0:
469,192,110262,1,0,0:0:0:0:
42,192,110262,128,0,110425:0:0:0:0:
128,192,110262,128,0,110344:0:0:0:0:
213,192,110344,128,0,110425:0:0:0:0:
384,192,110425,128,0,110587:0:0:0:0:
298,192,110425,128,0,110506:0:0:0:0:
128,192,110506,128,0,110587:0:0:0:0:
42,192,110587,1,0,0:0:0:0:
469,192,110587,1,0,0:0:0:0:
213,192,110587,1,0,0:0:0:0:
42,192,110749,128,0,111073:0:0:0:0:
298,192,110749,128,0,110830:0:0:0:0:
213,192,110830,128,0,110911:0:0:0:0:
384,192,110911,128,0,110992:0:0:0:0:
128,192,110911,1,0,0:0:0:0:
469,192,110911,1,0,0:0:0:0:
298,192,110992,128,0,111073:0:0:0:0:
469,192,111073,128,0,111235:0:0:0:0:
128,192,111073,1,0,0:0:0:0:
213,192,111073,128,0,111154:0:0:0:0:
384,192,111154,128,0,111235:0:0:0:0:
298,192,111235,128,0,111316:0:0:0:0:
213,192,111235,128,0,111398:0:0:0:0:
42,192,111316,128,0,111398:0:0:0:0:
128,192,111398,1,0,0:0:0:0:
469,192,111398,1,0,0:0:0:0:
42,192,111560,1,0,0:0:0:0:
469,192,111560,128,0,111641:0:0:0:0:
213,192,111560,128,0,111722:0:0:0:0:
384,192,111641,128,0,111722:0:0:0:0:
128,192,111722,128,0,111803:0:0:0:0:
42,192,111722,128,0,111803:0:0:0:0:
298,192,111803,128,0,111884:0:0:0:0:
469,192,111803,128,0,111884:0:0:0:0:
42,192,111884,128,0,112208:0:0:0:0:
384,192,111884,128,0,112208:0:0:0:0:
213,192,111884,1,0,0:0:0:0:
298,192,112208,1,0,0:0:0:0:
213,192,112208,1,0,0:0:0:0:
469,192,112208,1,0,0:0:0:0:
213,192,112371,128,0,112695:0:0:0:0:
128,192,112371,128,0,112695:0:0:0:0:
42,192,112371,1,0,0:0:0:0:
298,192,112695,128,0,112857:0:0:0:0:
42,192,112695,128,0,112857:0:0:0:0:
213,192,112857,1,0,0:0:0:0:
384,192,112857,128,0,113181:0:0:0:0:
469,192,112857,128,0,113181:0:0:0:0:
213,192,113181,1,0,0:0:0:0:
128,192,113181,1,0,0:0:0:0:
128,192,113344,128,0,113506:0:0:0:0:
42,192,113344,128,0,113506:0:0:0:0:
298,192,113506,1,0,0:0:0:0:
384,192,113506,1,0,0:0:0:0:
469,192,113506,1,0,0:0:0:0:
298,192,113668,128,0,113830:0:0:0:0:
128,192,113668,1,0,0:0:0:0:
213,192,113668,128,0,113830:0:0:0:0:
469,192,113830,128,0,113992:0:0:0:0:
42,192,113830,128,0,113992:0:0:0:0:
128,192,113992,1,0,0:0:0:0:
213,192,113992,1,0,0:0:0:0:
213,192,114154,1,0,0:0:0:0:
298,192,114154,128,0,114479:0:0:0:0:
384,192,114154,128,0,114479:0:0:0:0:
128,192,114479,1,0,0:0:0:0:
42,192,114479,1,0,0:0:0:0:
469,192,114479,1,0,0:0:0:0:
298,192,114641,1,0,0:0:0:0:
469,192,114803,128,0,114884:0:0:0:0:
42,192,114803,1,0,0:0:0:0:
298,192,114803,128,0,114965:0:0:0:0:
384,192,114884,128,0,114965:0:0:0:0:
213,192,114965,1,0,0:0:0:0:
128,192,114965,1,0,0:0:0:0:
42,192,114965,1,0,0:0:0:0:
128,192,115127,128,0,115452:0:0:0:0:
469,192,115127,128,0,115208:0:0:0:0:
384,192,115208,128,0,115289:0:0:0:0:
298,192,115289,128,0,115371:0:0:0:0:
42,192,115289,1,0,0:0:0:0:
213,192,115371,128,0,115452:0:0:0:0:
384,192,115452,1,0,0:0:0:0:
42,192,115452,128,0,115614:0:0:0:0:
469,192,115452,128,0,115533:0:0:0:0:
298,192,115533,128,0,115614:0:0:0:0:
384,192,115614,128,0,115776:0:0:0:0:
128,192,115614,128,0,115695:0:0:0:0:
213,192,115695,128,0,115776:0:0:0:0:
469,192,115776,1,0,0:0:0:0:
298,192,115776,1,0,0:0:0:0:
42,192,115776,1,0,0:0:0:0:
42,192,115938,128,0,116262:0:0:0:0:
128,192,115938,128,0,116019:0:0:0:0:
213,192,116019,128,0,116100:0:0:0:0:
384,192,116100,1,0,0:0:0:0:
469,192,116100,1,0,0:0:0:0:
298,192,116100,128,0,116181:0:0:0:0:
128,192,116181,128,0,116262:0:0:0:0:
298,192,116262,1,0,0:0:0:0:
469,192,116262,1,0,0:0:0:0:
213,192,116262,128,0,116344:0:0:0:0:
42,192,116344,1,0,0:0:0:0:
384,192,116344,128,0,116425:0:0:0:0:
213,192,116425,1,0,0:0:0:0:
128,192,116425,128,0,116506:0:0:0:0:
469,192,116506,1,0,0:0:0:0:
298,192,116506,128,0,116587:0:0:0:0:
384,192,116587,1,0,0:0:0:0:
42,192,116587,1,0,0:0:0:0:
128,192,116668,1,0,0:0:0:0:
469,192,116668,1,0,0:0:0:0:
213,192,116749,1,0,0:0:0:0:
42,192,116749,1,0,0:0:0:0:
298,192,116749,128,0,116830:0:0:0:0:
384,192,116830,128,0,116911:0:0:0:0:
128,192,116911,1,0,0:0:0:0:
213,192,116911,128,0,116992:0:0:0:0:
42,192,116992,1,0,0:0:0:0:
298,192,116992,128,0,117073:0:0:0:0:
384,192,117073,1,0,0:0:0:0:
128,192,117073,128,0,117398:0:0:0:0:
469,192,117073,128,0,117398:0:0:0:0:
213,192,117073,1,0,0:0:0:0:
213,192,117398,1,0,0:0:0:0:
42,192,117398,1,0,0:0:0:0:
384,192,117398,1,0,0:0:0:0:
128,192,117560,1,0,0:0:0:0:
42,192,117560,128,0,117884:0:0:0:0:
298,192,117560,128,0,117884:0:0:0:0:
384,192,117884,1,0,0:0:0:0:
213,192,117884,1,0,0:0:0:0:
42,192,118046,1,0,0:0:0:0:
469,192,118046,128,0,118371:0:0:0:0:
213,192,118046,128,0,118371:0:0:0:0:
384,192,118371,1,0,0:0:0:0:
42,192,118371,1,0,0:0:0:0:
128,192,118533,128,0,118695:0:0:0:0:
42,192,118533,128,0,118695:0:0:0:0:
298,192,118695,1,0,0:0:0:0:
384,192,118695,1,0,0:0:0:0:
469,192,118695,1,0,0:0:0:0:
298,192,118857,128,0,119019:0:0:0:0:
128,192,118857,128,0,119019:0:0:0:0:
42,192,118857,1,0,0:0:0:0:
213,192,119019,128,0,119181:0:0:0:0:
384,192,119019,128,0,119181:0:0:0:0:
42,192,119181,128,0,119344:0:0:0:0:
128,192,119181,128,0,119344:0:0:0:0:
298,192,119344,1,0,0:0:0:0:
384,192,119344,128,0,119668:0:0:0:0:
469,192,119344,128,0,119668:0:0:0:0:
213,192,119668,1,0,0:0:0:0:
128,192,119668,1,0,0:0:0:0:
42,192,119668,1,0,0:0:0:0:
298,192,119830,1,0,0:0:0:0:
469,192,119992,1,0,0:0:0:0:
384,192,119992,128,0,120154:0:0:0:0:
298,192,119992,128,0,120073:0:0:0:0:
213,192,120073,128,0,120154:0:0:0:0:
128,192,120154,1,0,0:0:0:0:
42,192,120154,1,0,0:0:0:0:
469,192,120154,1,0,0:0:0:0:
42,192,120316,128,0,120641:0:0:0:0:
298,192,120316,128,0,120398:0:0:0:0:
213,192,120398,128,0,120479:0:0:0:0:
384,192,120479,128,0,120560:0:0:0:0:
128,192,120479,1,0,0:0:0:0:
469,192,120560,128,0,120641:0:0:0:0:
128,192,120641,1,0,0:0:0:0:
298,192,120641,128,0,120803:0:0:0:0:
213,192,120641,128,0,120722:0:0:0:0:
384,192,120722,128,0,120803:0:0:0:0:
469,192,120803,128,0,120965:0:0:0:0:
128,192,120803,128,0,120884:0:0:0:0:
213,192,120884,128,0,120965:0:0:0:0:
298,192,120965,1,0,0:0:0:0:
42,192,120965,1,0,0:0:0:0:
384,192,120965,1,0,0:0:0:0:
128,192,121127,1,0,0:0:0:0:
213,192,121127,128,0,121452:0:0:0:0:
384,192,121127,128,0,121208:0:0:0:0:
298,192,121208,128,0,121289:0:0:0:0:
384,192,121289,1,0,0:0:0:0:
469,192,121289,128,0,121371:0:0:0:0:
42,192,121289,128,0,121371:0:0:0:0:
128,192,121371,128,0,121452:0:0:0:0:
384,192,121452,1,0,0:0:0:0:
42,192,121452,128,0,121614:0:0:0:0:
298,192,121452,128,0,121533:0:0:0:0:
213,192,121533,128,0,121614:0:0:0:0:
469,192,121614,128,0,121776:0:0:0:0:
298,192,121614,128,0,121695:0:0:0:0:
384,192,121695,128,0,121776:0:0:0:0:
128,192,121776,1,0,0:0:0:0:
42,192,121776,1,0,0:0:0:0:
42,192,121938,1,0,0:0:0:0:
213,192,121938,128,0,122019:0:0:0:0:
128,192,121938,128,0,122100:0:0:0:0:
298,192,122019,128,0,122100:0:0:0:0:
384,192,122100,1,0,0:0:0:0:
469,192,122100,128,0,122181:0:0:0:0:
42,192,122181,128,0,122262:0:0:0:0:
128,192,122181,1,0,0:0:0:0:
213,192,122262,1,0,0:0:0:0:
298,192,122262,1,0,0:0:0:0:
384,192,122262,128,0,122587:0:0:0:0:
469,192,122262,128,0,122587:0:0:0:0:
298,192,122587,1,0,0:0:0:0:
42,192,122587,1,0,0:0:0:0:
213,192,122587,1,0,0:0:0:0:
128,192,122749,128,0,123073:0:0:0:0:
42,192,122749,128,0,123073:0:0:0:0:
469,192,122749,1,0,0:0:0:0:
469,192,122911,1,0,0:0:0:0:
298,192,122911,1,0,0:0:0:0:
213,192,123073,1,0,0:0:0:0:
469,192,123235,128,0,123560:0:0:0:0:
42,192,123235,128,0,123560:0:0:0:0:
213,192,123235,1,0,0:0:0:0:
128,192,123560,1,0,0:0:0:0:
213,192,123560,1,0,0:0:0:0:
298,192,123560,1,0,0:0:0:0:
128,192,123722,128,0,123884:0:0:0:0:
384,192,123722,128,0,123884:0:0:0:0:
42,192,123722,1,0,0:0:0:0:
298,192,123884,1,0,0:0:0:0:
213,192,123884,1,0,0:0:0:0:
469,192,123965,1,0,0:0:0:0:
42,192,123965,1,0,0:0:0:0:
298,192,124046,128,0,124127:0:0:0:0:
384,192,124046,128,0,124127:0:0:0:0:
213,192,124127,1,0,0:0:0:0:
128,192,124127,1,0,0:0:0:0:
469,192,124208,128,0,124289:0:0:0:0:
42,192,124208,128,0,124289:0:0:0:0:
384,192,124208,128,0,124289:0:0:0:0:
128,192,124371,128,0,124533:0:0:0:0:
42,192,124371,128,0,124533:0:0:0:0:
469,192,124371,128,0,124533:0:0:0:0:
213,192,124371,128,0,124533:0:0:0:0:
298,192,124857,128,0,125019:0:0:0:0:
384,192,124857,128,0,125100:0:0:0:0:
469,192,124857,128,0,125181:0:0:0:0:
42,192,124857,128,0,125019:0:0:0:0:
128,192,124938,128,0,125100:0:0:0:0:
213,192,125019,128,0,125181:0:0:0:0:
298,192,125100,128,0,125262:0:0:0:0:
42,192,125181,128,0,125262:0:0:0:0:
384,192,125181,128,0,125344:0:0:0:0:
128,192,125181,128,0,125344:0:0:0:0:
213,192,125262,128,0,125425:0:0:0:0:
298,192,125344,128,0,125506:0:0:0:0:
469,192,125425,128,0,125587:0:0:0:0:
42,192,125425,128,0,125587:0:0:0:0:
128,192,125506,128,0,125668:0:0:0:0:
384,192,125506,128,0,125668:0:0:0:0:
298,192,125587,128,0,125749:0:0:0:0:
42,192,125668,128,0,125830:0:0:0:0:
213,192,125749,128,0,125911:0:0:0:0:
128,192,125830,128,0,125992:0:0:0:0:
384,192,125830,128,0,125992:0:0:0:0:
469,192,125830,128,0,125911:0:0:0:0:
298,192,125911,128,0,126073:0:0:0:0:
213,192,125992,128,0,126073:0:0:0:0:
42,192,125992,128,0,126154:0:0:0:0:
128,192,126073,128,0,126235:0:0:0:0:
384,192,126073,128,0,126154:0:0:0:0:
298,192,126154,128,0,126316:0:0:0:0:
213,192,126154,128,0,126235:0:0:0:0:
384,192,126235,128,0,126398:0:0:0:0:
42,192,126235,128,0,126398:0:0:0:0:
469,192,126316,128,0,126479:0:0:0:0:
128,192,126316,128,0,126479:0:0:0:0:
213,192,126398,128,0,126560:0:0:0:0:
298,192,126479,128,0,126560:0:0:0:0:
384,192,126479,128,0,126560:0:0:0:0:
42,192,126479,128,0,126560:0:0:0:0:
469,192,126560,128,0,126641:0:0:0:0:
213,192,126641,128,0,126722:0:0:0:0:
128,192,126641,128,0,126803:0:0:0:0:
384,192,126722,128,0,126884:0:0:0:0:
42,192,126722,128,0,126884:0:0:0:0:
213,192,126803,128,0,126965:0:0:0:0:
298,192,126803,128,0,126965:0:0:0:0:
469,192,126884,128,0,127046:0:0:0:0:
128,192,126965,128,0,127046:0:0:0:0:
42,192,126965,128,0,127046:0:0:0:0:
213,192,127046,128,0,127127:0:0:0:0:
298,192,127127,128,0,127208:0:0:0:0:
384,192,127127,128,0,127289:0:0:0:0:
42,192,127127,128,0,127289:0:0:0:0:
469,192,127208,128,0,127289:0:0:0:0:
128,192,127208,128,0,127371:0:0:0:0:
213,192,127289,128,0,127452:0:0:0:0:
298,192,127289,128,0,127452:0:0:0:0:
384,192,127371,128,0,127452:0:0:0:0:
469,192,127371,128,0,127452:0:0:0:0:
128,192,127452,128,0,127614:0:0:0:0:
42,192,127452,128,0,127533:0:0:0:0:
213,192,127533,128,0,127695:0:0:0:0:
384,192,127533,128,0,127695:0:0:0:0:
298,192,127614,128,0,127776:0:0:0:0:
42,192,127614,128,0,127776:0:0:0:0:
128,192,127695,128,0,127857:0:0:0:0:
213,192,127776,128,0,127857:0:0:0:0:
384,192,127776,128,0,127857:0:0:0:0:
469,192,127776,128,0,127857:0:0:0:0:
298,192,127857,128,0,127938:0:0:0:0:
42,192,127938,128,0,128100:0:0:0:0:
469,192,127938,128,0,128100:0:0:0:0:
128,192,128019,128,0,128181:0:0:0:0:
213,192,128019,128,0,128181:0:0:0:0:
298,192,128100,128,0,128262:0:0:0:0:
384,192,128100,128,0,128262:0:0:0:0:
469,192,128181,128,0,128344:0:0:0:0:
213,192,128262,128,0,128344:0:0:0:0:
128,192,128344,128,0,128425:0:0:0:0:
469,192,128425,128,0,128506:0:0:0:0:
298,192,128425,128,0,128587:0:0:0:0:
384,192,128425,128,0,128587:0:0:0:0:
213,192,128506,128,0,128587:0:0:0:0:
42,192,128506,128,0,128668:0:0:0:0:
469,192,128587,128,0,128749:0:0:0:0:
128,192,128587,128,0,128668:0:0:0:0:
298,192,128668,128,0,128830:0:0:0:0:
384,192,128668,128,0,128749:0:0:0:0:
128,192,128749,128,0,128830:0:0:0:0:
213,192,128749,128,0,128830:0:0:0:0:
384,192,128830,128,0,128911:0:0:0:0:
213,192,128911,128,0,129073:0:0:0:0:
42,192,128911,128,0,128992:0:0:0:0:
298,192,128992,128,0,129154:0:0:0:0:
469,192,128992,128,0,129154:0:0:0:0:
128,192,129073,128,0,129235:0:0:0:0:
384,192,129073,128,0,129235:0:0:0:0:
42,192,129073,128,0,129154:0:0:0:0:
213,192,129154,128,0,129316:0:0:0:0:
298,192,129235,128,0,129316:0:0:0:0:
384,192,129316,128,0,129398:0:0:0:0:
128,192,129316,128,0,129398:0:0:0:0:
213,192,129398,128,0,129560:0:0:0:0:
42,192,129398,128,0,129560:0:0:0:0:
384,192,129479,128,0,129641:0:0:0:0:
469,192,129479,128,0,129560:0:0:0:0:
298,192,129560,128,0,129722:0:0:0:0:
128,192,129560,128,0,129641:0:0:0:0:
213,192,129641,128,0,129803:0:0:0:0:
128,192,129722,128,0,129803:0:0:0:0:
42,192,129722,128,0,129803:0:0:0:0:
469,192,129722,128,0,129803:0:0:0:0:
384,192,129803,128,0,129884:0:0:0:0:
298,192,129884,128,0,129965:0:0:0:0:
213,192,129884,128,0,130046:0:0:0:0:
42,192,129965,128,0,130127:0:0:0:0:
128,192,129965,128,0,130127:0:0:0:0:
384,192,130046,128,0,130371:0:0:0:0:
469,192,130046,128,0,130371:0:0:0:0:
298,192,130046,128,0,130208:0:0:0:0:
128,192,130208,1,0,0:0:0:0:
42,192,130208,1,0,0:0:0:0:
213,192,130371,1,0,0:0:0:0:
298,192,130371,1,0,0:0:0:0:
42,192,130371,1,0,0:0:0:0:
128,192,130533,1,0,0:0:0:0:
213,192,130533,1,0,0:0:0:0:
213,192,130614,128,0,130695:0:0:0:0:
128,192,130614,128,0,130695:0:0:0:0:
384,192,130695,128,0,131019:0:0:0:0:
298,192,130695,128,0,131019:0:0:0:0:
42,192,130857,1,0,0:0:0:0:
469,192,130857,1,0,0:0:0:0:
213,192,131019,1,0,0:0:0:0:
128,192,131019,1,0,0:0:0:0:
42,192,131019,1,0,0:0:0:0:
213,192,131181,1,0,0:0:0:0:
298,192,131181,1,0,0:0:0:0:
213,192,131262,128,0,131344:0:0:0:0:
298,192,131262,128,0,131344:0:0:0:0:
384,192,131344,128,0,131668:0:0:0:0:
469,192,131344,128,0,131668:0:0:0:0:
42,192,131344,1,0,0:0:0:0:
128,192,131506,1,0,0:0:0:0:
213,192,131506,1,0,0:0:0:0:
128,192,131668,1,0,0:0:0:0:
42,192,131668,1,0,0:0:0:0:
298,192,131668,1,0,0:0:0:0:
213,192,131830,128,0,131911:0:0:0:0:
42,192,131830,128,0,131911:0:0:0:0:
298,192,131911,1,0,0:0:0:0:
42,192,131992,128,0,132154:0:0:0:0:
213,192,131992,128,0,132154:0:0:0:0:
384,192,132154,1,0,0:0:0:0:
128,192,132154,1,0,0:0:0:0:
384,192,132316,1,0,0:0:0:0:
469,192,132316,128,0,132479:0:0:0:0:
298,192,132316,128,0,132479:0:0:0:0:
128,192,132479,128,0,132641:0:0:0:0:
42,192,132479,128,0,132641:0:0:0:0:
298,192,132560,1,0,0:0:0:0:
213,192,132641,1,0,0:0:0:0:
384,192,132641,1,0,0:0:0:0:
469,192,132641,1,0,0:0:0:0:
384,192,132803,1,0,0:0:0:0:
469,192,132803,1,0,0:0:0:0:
469,192,132911,1,0,0:0:0:0:
384,192,132911,1,0,0:0:0:0:
42,192,132965,1,0,0:0:0:0:
298,192,132965,128,0,133046:0:0:0:0:
213,192,132965,128,0,133046:0:0:0:0:
298,192,133127,1,0,0:0:0:0:
213,192,133127,1,0,0:0:0:0:
213,192,133235,1,0,0:0:0:0:
298,192,133235,1,0,0:0:0:0:
128,192,133289,128,0,133371:0:0:0:0:
42,192,133289,128,0,133371:0:0:0:0:
128,192,133452,1,0,0:0:0:0:
42,192,133452,1,0,0:0:0:0:
128,192,133560,1,0,0:0:0:0:
42,192,133560,1,0,0:0:0:0:
469,192,133614,1,0,0:0:0:0:
298,192,133614,128,0,133776:0:0:0:0:
384,192,133614,128,0,133776:0:0:0:0:
469,192,133776,1,0,0:0:0:0:
213,192,133776,1,0,0:0:0:0:
213,192,133938,1,0,0:0:0:0:
42,192,133938,128,0,134100:0:0:0:0:
298,192,133938,128,0,134100:0:0:0:0:
128,192,134100,1,0,0:0:0:0:
469,192,134100,1,0,0:0:0:0:
384,192,134181,1,0,0:0:0:0:
298,192,134181,1,0,0:0:0:0:
42,192,134262,1,0,0:0:0:0:
213,192,134262,128,0,134425:0:0:0:0:
469,192,134262,128,0,134425:0:0:0:0:
298,192,134425,1,0,0:0:0:0:
128,192,134425,128,0,134668:0:0:0:0:
42,192,134425,128,0,134668:0:0:0:0:
213,192,134668,128,0,134749:0:0:0:0:
384,192,134749,128,0,134857:0:0:0:0:
469,192,134749,128,0,134857:0:0:0:0:
298,192,134803,128,0,134911:0:0:0:0:
42,192,134911,128,0,134992:0:0:0:0:
128,192,134911,128,0,134992:0:0:0:0:
469,192,134911,128,0,134992:0:0:0:0:
213,192,134965,128,0,135046:0:0:0:0:
298,192,134992,128,0,135073:0:0:0:0:
384,192,135019,128,0,135100:0:0:0:0:
469,192,135073,128,0,135154:0:0:0:0:
42,192,135073,128,0,135154:0:0:0:0:
128,192,135154,128,0,135235:0:0:0:0:
213,192,135154,128,0,135235:0:0:0:0:
42,192,135235,128,0,135398:0:0:0:0:
298,192,135235,128,0,135398:0:0:0:0:
384,192,135235,128,0,135316:0:0:0:0:
213,192,135316,128,0,135479:0:0:0:0:
469,192,135398,128,0,135560:0:0:0:0:
384,192,135479,128,0,135641:0:0:0:0:
128,192,135479,128,0,135641:0:0:0:0:
213,192,135560,128,0,135641:0:0:0:0:
298,192,135560,128,0,135722:0:0:0:0:
42,192,135560,128,0,135722:0:0:0:0:
469,192,135641,128,0,135803:0:0:0:0:
213,192,135722,128,0,135884:0:0:0:0:
128,192,135722,128,0,135803:0:0:0:0:
298,192,135803,128,0,135965:0:0:0:0:
384,192,135884,128,0,136046:0:0:0:0:
42,192,135884,128,0,136046:0:0:0:0:
469,192,135965,128,0,136127:0:0:0:0:
128,192,135965,128,0,136127:0:0:0:0:
298,192,136046,128,0,136208:0:0:0:0:
213,192,136127,128,0,136289:0:0:0:0:
128,192,136208,128,0,136371:0:0:0:0:
42,192,136208,128,0,136371:0:0:0:0:
384,192,136208,128,0,136371:0:0:0:0:
298,192,136289,128,0,136452:0:0:0:0:
213,192,136371,128,0,136533:0:0:0:0:
128,192,136452,128,0,136614:0:0:0:0:
469,192,136452,128,0,136614:0:0:0:0:
42,192,136533,128,0,136695:0:0:0:0:
384,192,136533,128,0,136614:0:0:0:0:
213,192,136614,128,0,136776:0:0:0:0:
298,192,136695,128,0,136776:0:0:0:0:
384,192,136695,128,0,136857:0:0:0:0:
128,192,136776,128,0,136857:0:0:0:0:
42,192,136857,128,0,137019:0:0:0:0:
298,192,136857,128,0,137019:0:0:0:0:
469,192,136857,128,0,137019:0:0:0:0:
128,192,136938,128,0,137100:0:0:0:0:
213,192,136938,128,0,137100:0:0:0:0:
384,192,137019,128,0,137181:0:0:0:0:
298,192,137100,128,0,137262:0:0:0:0:
213,192,137181,128,0,137344:0:0:0:0:
469,192,137181,128,0,137344:0:0:0:0:
128,192,137262,128,0,137425:0:0:0:0:
384,192,137344,128,0,137506:0:0:0:0:
213,192,137425,128,0,137587:0:0:0:0:
42,192,137425,128,0,137587:0:0:0:0:
128,192,137506,128,0,137587:0:0:0:0:
298,192,137506,128,0,137668:0:0:0:0:
469,192,137506,128,0,137668:0:0:0:0:
384,192,137587,128,0,137749:0:0:0:0:
128,192,137668,128,0,137830:0:0:0:0:
42,192,137668,128,0,137830:0:0:0:0:
213,192,137749,128,0,137911:0:0:0:0:
298,192,137830,128,0,137992:0:0:0:0:
384,192,137830,128,0,137992:0:0:0:0:
469,192,137911,128,0,138073:0:0:0:0:
128,192,137911,128,0,138073:0:0:0:0:
42,192,137992,128,0,138154:0:0:0:0:
298,192,138073,128,0,138154:0:0:0:0:
213,192,138154,128,0,138316:0:0:0:0:
128,192,138154,128,0,138316:0:0:0:0:
384,192,138154,128,0,138316:0:0:0:0:
469,192,138235,128,0,138398:0:0:0:0:
298,192,138316,128,0,138479:0:0:0:0:
213,192,138398,128,0,138560:0:0:0:0:
42,192,138398,128,0,138560:0:0:0:0:
128,192,138479,128,0,138641:0:0:0:0:
384,192,138479,128,0,138641:0:0:0:0:
298,192,138560,128,0,138722:0:0:0:0:
213,192,138641,128,0,138803:0:0:0:0:
469,192,138641,128,0,138803:0:0:0:0:
384,192,138722,128,0,138803:0:0:0:0:
298,192,138803,128,0,138965:0:0:0:0:
128,192,138803,128,0,138965:0:0:0:0:
42,192,138803,128,0,138965:0:0:0:0:
384,192,138884,128,0,139046:0:0:0:0:
469,192,138884,128,0,139046:0:0:0:0:
213,192,138965,128,0,139127:0:0:0:0:
298,192,139046,128,0,139208:0:0:0:0:
384,192,139127,128,0,139289:0:0:0:0:
128,192,139127,128,0,139289:0:0:0:0:
42,192,139208,128,0,139371:0:0:0:0:
213,192,139289,128,0,139452:0:0:0:0:
298,192,139371,128,0,139533:0:0:0:0:
384,192,139371,128,0,139533:0:0:0:0:
469,192,139452,128,0,139614:0:0:0:0:
128,192,139452,128,0,139533:0:0:0:0:
42,192,139452,128,0,139614:0:0:0:0:
213,192,139533,128,0,139695:0:0:0:0:
128,192,139614,128,0,139776:0:0:0:0:
384,192,139614,128,0,139776:0:0:0:0:
298,192,139695,128,0,139776:0:0:0:0:
213,192,139776,128,0,139938:0:0:0:0:
469,192,139776,128,0,139938:0:0:0:0:
384,192,139857,128,0,140019:0:0:0:0:
298,192,139857,128,0,140019:0:0:0:0:
42,192,139938,128,0,140019:0:0:0:0:
128,192,140019,128,0,140181:0:0:0:0:
298,192,140100,128,0,140262:0:0:0:0:
384,192,140100,128,0,140181:0:0:0:0:
42,192,140100,128,0,140262:0:0:0:0:
469,192,140262,128,0,140344:0:0:0:0:
213,192,140262,128,0,140344:0:0:0:0:
128,192,140344,128,0,140425:0:0:0:0:
42,192,140344,128,0,140425:0:0:0:0:
469,192,140425,1,0,0:0:0:0:
384,192,140425,128,0,140749:0:0:0:0:
298,192,140425,128,0,140749:0:0:0:0:
213,192,140587,1,0,0:0:0:0:
42,192,140587,1,0,0:0:0:0:
469,192,140749,1,0,0:0:0:0:
128,192,140749,1,0,0:0:0:0:
42,192,140749,1,0,0:0:0:0:
213,192,140911,1,0,0:0:0:0:
128,192,140911,1,0,0:0:0:0:
128,192,140992,128,0,141073:0:0:0:0:
213,192,140992,128,0,141073:0:0:0:0:
298,192,141073,128,0,141398:0:0:0:0:
42,192,141073,128,0,141398:0:0:0:0:
384,192,141235,1,0,0:0:0:0:
213,192,141235,1,0,0:0:0:0:
384,192,141398,1,0,0:0:0:0:
469,192,141398,1,0,0:0:0:0:
128,192,141398,1,0,0:0:0:0:
128,192,141560,128,0,141641:0:0:0:0:
42,192,141560,128,0,141641:0:0:0:0:
298,192,141641,1,0,0:0:0:0:
128,192,141722,128,0,141884:0:0:0:0:
42,192,141722,128,0,141884:0:0:0:0:
469,192,141722,1,0,0:0:0:0:
384,192,141884,1,0,0:0:0:0:
298,192,141884,1,0,0:0:0:0:
384,192,141965,128,0,142046:0:0:0:0:
128,192,142046,1,0,0:0:0:0:
213,192,142046,1,0,0:0:0:0:
42,192,142046,1,0,0:0:0:0:
298,192,142127,1,0,0:0:0:0:
298,192,142208,128,0,142289:0:0:0:0:
469,192,142289,1,0,0:0:0:0:
42,192,142289,1,0,0:0:0:0:
213,192,142371,1,0,0:0:0:0:
384,192,142371,1,0,0:0:0:0:
213,192,142452,128,0,142533:0:0:0:0:
298,192,142533,1,0,0:0:0:0:
469,192,142533,1,0,0:0:0:0:
128,192,142614,1,0,0:0:0:0:
128,192,142695,128,0,142776:0:0:0:0:
384,192,142695,1,0,0:0:0:0:
469,192,142695,1,0,0:0:0:0:
213,192,142776,1,0,0:0:0:0:
298,192,142776,1,0,0:0:0:0:
42,192,142857,1,0,0:0:0:0:
384,192,142857,1,0,0:0:0:0:
128,192,142938,1,0,0:0:0:0:
469,192,142938,1,0,0:0:0:0:
298,192,143019,128,0,143181:0:0:0:0:
213,192,143019,128,0,143100:0:0:0:0:
42,192,143019,128,0,143181:0:0:0:0:
384,192,143100,128,0,143262:0:0:0:0:
469,192,143181,128,0,143344:0:0:0:0:
128,192,143262,128,0,143425:0:0:0:0:
213,192,143344,128,0,143506:0:0:0:0:
298,192,143344,128,0,143425:0:0:0:0:
42,192,143425,128,0,143587:0:0:0:0:
469,192,143506,128,0,143668:0:0:0:0:
384,192,143506,128,0,143587:0:0:0:0:
298,192,143506,128,0,143668:0:0:0:0:
128,192,143587,128,0,143749:0:0:0:0:
384,192,143668,128,0,143830:0:0:0:0:
213,192,143668,128,0,143830:0:0:0:0:
469,192,143830,128,0,143992:0:0:0:0:
42,192,143830,128,0,143992:0:0:0:0:
128,192,143830,1,0,0:0:0:0:
384,192,143992,1,0,0:0:0:0:
298,192,143992,1,0,0:0:0:0:
128,192,143992,1,0,0:0:0:0:
298,192,144154,128,0,144479:0:0:0:0:
42,192,144154,128,0,144316:0:0:0:0:
128,192,144316,128,0,144398:0:0:0:0:
213,192,144398,128,0,144479:0:0:0:0:
384,192,144479,128,0,144560:0:0:0:0:
469,192,144479,128,0,144641:0:0:0:0:
42,192,144479,128,0,144641:0:0:0:0:
128,192,144560,128,0,144722:0:0:0:0:
213,192,144641,128,0,144722:0:0:0:0:
298,192,144641,128,0,144803:0:0:0:0:
384,192,144722,128,0,144884:0:0:0:0:
42,192,144722,128,0,144884:0:0:0:0:
128,192,144803,128,0,144884:0:0:0:0:
213,192,144803,128,0,144965:0:0:0:0:
298,192,144884,128,0,144965:0:0:0:0:
469,192,144884,128,0,145046:0:0:0:0:
384,192,144965,128,0,145046:0:0:0:0:
42,192,144965,128,0,145046:0:0:0:0:
128,192,145006,128,0,145087:0:0:0:0:
213,192,145087,128,0,145168:0:0:0:0:
298,192,145107,128,0,145188:0:0:0:0:
384,192,145127,128,0,145208:0:0:0:0:
469,192,145127,128,0,145208:0:0:0:0:
128,192,145208,128,0,145289:0:0:0:0:
298,192,145289,1,0,0:0:0:0:
469,192,145289,128,0,145614:0:0:0:0:
42,192,145614,1,0,0:0:0:0:
128,192,145614,1,0,0:0:0:0:
384,192,145614,1,0,0:0:0:0:
298,192,145654,1,0,0:0:0:0:
213,192,145695,1,0,0:0:0:0:
469,192,145938,128,0,146019:0:0:0:0:
384,192,146262,1,0,0:0:0:0:
298,192,146262,128,0,146344:0:0:0:0:
128,192,146587,128,0,146668:0:0:0:0:
213,192,146668,1,0,0:0:0:0:
384,192,146749,128,0,146830:0:0:0:0:
469,192,146830,1,0,0:0:0:0:
128,192,146911,1,0,0:0:0:0:
42,192,146911,1,0,0:0:0:0:
298,192,147073,128,0,147154:0:0:0:0:
384,192,147235,1,0,0:0:0:0:
128,192,147398,128,0,147479:0:0:0:0:
384,192,147560,1,0,0:0:0:0:
469,192,147560,128,0,147641:0:0:0:0:
384,192,147884,1,0,0:0:0:0:
298,192,147884,1,0,0:0:0:0:
213,192,147925,1,0,0:0:0:0:
128,192,147965,1,0,0:0:0:0:
42,192,148006,1,0,0:0:0:0:
469,192,148006,1,0,0:0:0:0:
384,192,148046,1,0,0:0:0:0:
298,192,148087,1,0,0:0:0:0:
213,192,148127,1,0,0:0:0:0:
128,192,148208,1,0,0:0:0:0:
42,192,148208,1,0,0:0:0:0:
469,192,148208,1,0,0:0:0:0:
298,192,148371,128,0,148533:0:0:0:0:
469,192,148533,128,0,148695:0:0:0:0:
384,192,148695,128,0,148857:0:0:0:0:
42,192,148776,1,0,0:0:0:0:
213,192,148857,128,0,149019:0:0:0:0:
128,192,148857,1,0,0:0:0:0:
298,192,149019,128,0,149181:0:0:0:0:
42,192,149181,128,0,149344:0:0:0:0:
213,192,149262,1,0,0:0:0:0:
128,192,149344,128,0,149506:0:0:0:0:
298,192,149425,1,0,0:0:0:0:
469,192,149506,1,0,0:0:0:0:
384,192,149506,128,0,149668:0:0:0:0:
213,192,149668,128,0,149992:0:0:0:0:
298,192,149830,128,0,149992:0:0:0:0:
469,192,149911,1,0,0:0:0:0:
128,192,149992,128,0,150479:0:0:0:0:
384,192,150154,1,0,0:0:0:0:
469,192,150154,1,0,0:0:0:0:
298,192,150479,1,0,0:0:0:0:
469,192,150479,1,0,0:0:0:0:
213,192,150519,1,0,0:0:0:0:
128,192,150560,1,0,0:0:0:0:
42,192,150600,1,0,0:0:0:0:
384,192,150641,1,0,0:0:0:0:
298,192,150681,1,0,0:0:0:0:
213,192,150722,1,0,0:0:0:0:
384,192,150803,1,0,0:0:0:0:
469,192,150803,1,0,0:0:0:0:
298,192,151127,128,0,151208:0:0:0:0:
213,192,151452,1,0,0:0:0:0:
128,192,151452,128,0,151533:0:0:0:0:
42,192,151776,128,0,151857:0:0:0:0:
128,192,151857,1,0,0:0:0:0:
384,192,151938,128,0,152019:0:0:0:0:
298,192,152019,1,0,0:0:0:0:
42,192,152100,1,0,0:0:0:0:
128,192,152100,1,0,0:0:0:0:
213,192,152262,128,0,152344:0:0:0:0:
384,192,152425,1,0,0:0:0:0:
128,192,152587,128,0,152668:0:0:0:0:
298,192,152668,128,0,152749:0:0:0:0:
384,192,152708,128,0,152789:0:0:0:0:
469,192,152749,128,0,152830:0:0:0:0:
298,192,153073,1,0,0:0:0:0:
213,192,153073,1,0,0:0:0:0:
128,192,153114,1,0,0:0:0:0:
42,192,153154,1,0,0:0:0:0:
469,192,153195,1,0,0:0:0:0:
384,192,153235,1,0,0:0:0:0:
298,192,153276,1,0,0:0:0:0:
213,192,153316,1,0,0:0:0:0:
469,192,153398,1,0,0:0:0:0:
128,192,153398,1,0,0:0:0:0:
298,192,153560,128,0,153722:0:0:0:0:
469,192,153722,128,0,153884:0:0:0:0:
384,192,153884,128,0,154046:0:0:0:0:
128,192,154046,128,0,154208:0:0:0:0:
42,192,154046,1,0,0:0:0:0:
298,192,154208,128,0,154371:0:0:0:0:
213,192,154371,128,0,154452:0:0:0:0:
42,192,154452,1,0,0:0:0:0:
384,192,154533,128,0,154857:0:0:0:0:
128,192,154614,1,0,0:0:0:0:
213,192,154654,1,0,0:0:0:0:
469,192,154695,128,0,154857:0:0:0:0:
298,192,154695,1,0,0:0:0:0:
213,192,154857,128,0,155019:0:0:0:0:
128,192,155019,128,0,155668:0:0:0:0:
42,192,155181,128,0,155668:0:0:0:0:
298,192,155262,1,0,0:0:0:0:
384,192,155303,1,0,0:0:0:0:
213,192,155344,1,0,0:0:0:0:
469,192,155344,1,0,0:0:0:0:
469,192,155668,1,0,0:0:0:0:
384,192,155708,1,0,0:0:0:0:
298,192,155749,1,0,0:0:0:0:
128,192,155789,1,0,0:0:0:0:
42,192,155830,1,0,0:0:0:0:
469,192,155871,1,0,0:0:0:0:
384,192,155911,1,0,0:0:0:0:
298,192,155952,1,0,0:0:0:0:
213,192,155992,1,0,0:0:0:0:
128,192,155992,1,0,0:0:0:0:
42,192,155992,1,0,0:0:0:0:
298,192,156208,1,0,0:0:0:0:
384,192,156316,128,0,156641:0:0:0:0:
469,192,156316,1,0,0:0:0:0:
128,192,156425,1,0,0:0:0:0:
42,192,156533,1,0,0:0:0:0:
213,192,156641,128,0,156965:0:0:0:0:
298,192,156641,1,0,0:0:0:0:
384,192,156857,1,0,0:0:0:0:
128,192,156965,128,0,157127:0:0:0:0:
42,192,156965,1,0,0:0:0:0:
298,192,157073,1,0,0:0:0:0:
469,192,157127,128,0,157452:0:0:0:0:
384,192,157127,1,0,0:0:0:0:
213,192,157181,1,0,0:0:0:0:
128,192,157235,1,0,0:0:0:0:
42,192,157289,1,0,0:0:0:0:
298,192,157289,1,0,0:0:0:0:
213,192,157452,128,0,157776:0:0:0:0:
128,192,157452,1,0,0:0:0:0:
42,192,157506,1,0,0:0:0:0:
384,192,157614,1,0,0:0:0:0:
469,192,157722,1,0,0:0:0:0:
128,192,157776,128,0,157857:0:0:0:0:
298,192,157857,128,0,157938:0:0:0:0:
384,192,157898,128,0,157979:0:0:0:0:
469,192,157938,128,0,158262:0:0:0:0:
42,192,157938,1,0,0:0:0:0:
213,192,158154,1,0,0:0:0:0:
42,192,158262,128,0,158587:0:0:0:0:
128,192,158262,1,0,0:0:0:0:
298,192,158371,1,0,0:0:0:0:
213,192,158479,1,0,0:0:0:0:
298,192,158533,1,0,0:0:0:0:
384,192,158587,1,0,0:0:0:0:
469,192,158587,1,0,0:0:0:0:
213,192,158749,128,0,159073:0:0:0:0:
298,192,158803,1,0,0:0:0:0:
128,192,158911,128,0,159073:0:0:0:0:
469,192,158911,1,0,0:0:0:0:
42,192,159019,1,0,0:0:0:0:
384,192,159073,128,0,159235:0:0:0:0:
298,192,159127,1,0,0:0:0:0:
42,192,159235,128,0,159398:0:0:0:0:
128,192,159235,1,0,0:0:0:0:
213,192,159398,128,0,159560:0:0:0:0:
469,192,159452,1,0,0:0:0:0:
298,192,159560,128,0,159722:0:0:0:0:
128,192,159560,1,0,0:0:0:0:
42,192,159668,1,0,0:0:0:0:
384,192,159722,128,0,159965:0:0:0:0:
213,192,159776,1,0,0:0:0:0:
298,192,159830,1,0,0:0:0:0:
128,192,159884,1,0,0:0:0:0:
42,192,159884,1,0,0:0:0:0:
213,192,160046,128,0,160208:0:0:0:0:
128,192,160100,1,0,0:0:0:0:
469,192,160208,128,0,160371:0:0:0:0:
298,192,160208,1,0,0:0:0:0:
213,192,160316,1,0,0:0:0:0:
384,192,160371,128,0,160533:0:0:0:0:
128,192,160425,1,0,0:0:0:0:
42,192,160533,1,0,0:0:0:0:
298,192,160533,128,0,160614:0:0:0:0:
213,192,160614,128,0,160695:0:0:0:0:
128,192,160695,128,0,160776:0:0:0:0:
42,192,160776,128,0,160857:0:0:0:0:
384,192,160857,1,0,0:0:0:0:
298,192,160938,1,0,0:0:0:0:
213,192,161019,1,0,0:0:0:0:
128,192,161019,1,0,0:0:0:0:
298,192,161100,1,0,0:0:0:0:
384,192,161100,1,0,0:0:0:0:
42,192,161181,128,0,161506:0:0:0:0:
128,192,161181,1,0,0:0:0:0:
469,192,161181,128,0,161506:0:0:0:0:
213,192,161506,1,0,0:0:0:0:
128,192,161506,1,0,0:0:0:0:
298,192,161668,128,0,161830:0:0:0:0:
213,192,161668,128,0,161830:0:0:0:0:
384,192,161830,1,0,0:0:0:0:
469,192,161830,1,0,0:0:0:0:
42,192,161830,1,0,0:0:0:0:
298,192,162154,128,0,162479:0:0:0:0:
469,192,162154,128,0,162479:0:0:0:0:
213,192,162316,1,0,0:0:0:0:
128,192,162398,1,0,0:0:0:0:
42,192,162479,1,0,0:0:0:0:
384,192,162479,1,0,0:0:0:0:
384,192,162641,128,0,162803:0:0:0:0:
128,192,162641,128,0,162803:0:0:0:0:
213,192,162641,1,0,0:0:0:0:
42,192,162803,1,0,0:0:0:0:
213,192,162803,1,0,0:0:0:0:
42,192,162965,128,0,163127:0:0:0:0:
298,192,162965,128,0,163127:0:0:0:0:
213,192,163127,128,0,163452:0:0:0:0:
128,192,163127,128,0,163452:0:0:0:0:
384,192,163127,1,0,0:0:0:0:
298,192,163452,1,0,0:0:0:0:
384,192,163452,128,0,163614:0:0:0:0:
469,192,163452,128,0,163614:0:0:0:0:
213,192,163533,1,0,0:0:0:0:
128,192,163614,1,0,0:0:0:0:
42,192,163614,1,0,0:0:0:0:
213,192,163695,1,0,0:0:0:0:
298,192,163695,1,0,0:0:0:0:
128,192,163776,128,0,163938:0:0:0:0:
42,192,163776,128,0,164019:0:0:0:0:
384,192,163776,128,0,163938:0:0:0:0:
469,192,163776,128,0,163857:0:0:0:0:
298,192,163857,128,0,164019:0:0:0:0:
213,192,163938,128,0,164100:0:0:0:0:
128,192,164019,128,0,164181:0:0:0:0:
42,192,164100,128,0,164262:0:0:0:0:
298,192,164100,128,0,164262:0:0:0:0:
384,192,164181,128,0,164344:0:0:0:0:
469,192,164262,128,0,164425:0:0:0:0:
128,192,164262,128,0,164344:0:0:0:0:
213,192,164262,128,0,164425:0:0:0:0:
298,192,164344,128,0,164506:0:0:0:0:
42,192,164425,128,0,164506:0:0:0:0:
128,192,164425,128,0,164587:0:0:0:0:
213,192,164506,128,0,164668:0:0:0:0:
298,192,164587,128,0,164749:0:0:0:0:
384,192,164668,128,0,164830:0:0:0:0:
469,192,164749,128,0,164911:0:0:0:0:
128,192,164749,128,0,164911:0:0:0:0:
42,192,164749,128,0,164830:0:0:0:0:
298,192,164830,128,0,164992:0:0:0:0:
213,192,164911,128,0,165073:0:0:0:0:
128,192,164992,128,0,165154:0:0:0:0:
42,192,165073,128,0,165235:0:0:0:0:
384,192,165073,128,0,165235:0:0:0:0:
298,192,165154,128,0,165316:0:0:0:0:
213,192,165235,128,0,165398:0:0:0:0:
128,192,165235,128,0,165316:0:0:0:0:
469,192,165235,128,0,165398:0:0:0:0:
384,192,165316,128,0,165398:0:0:0:0:
128,192,165398,1,0,0:0:0:0:
42,192,165398,1,0,0:0:0:0:
213,192,165479,1,0,0:0:0:0:
469,192,165479,1,0,0:0:0:0:
298,192,165560,1,0,0:0:0:0:
384,192,165560,1,0,0:0:0:0:
469,192,165641,1,0,0:0:0:0:
128,192,165641,1,0,0:0:0:0:
213,192,165722,1,0,0:0:0:0:
298,192,165722,1,0,0:0:0:0:
42,192,165722,1,0,0:0:0:0:
128,192,165884,128,0,166046:0:0:0:0:
42,192,165884,128,0,166046:0:0:0:0:
384,192,165884,128,0,166046:0:0:0:0:
469,192,165884,128,0,166046:0:0:0:0:
213,192,166208,128,0,166371:0:0:0:0:
298,192,166208,128,0,166371:0:0:0:0:
384,192,166208,128,0,166479:0:0:0:0:
469,192,166208,128,0,166479:0:0:0:0:
42,192,166371,128,0,166587:0:0:0:0:
128,192,166479,128,0,166695:0:0:0:0:
298,192,166587,128,0,166803:0:0:0:0:
384,192,166587,128,0,166803:0:0:0:0:
42,192,166695,128,0,166803:0:0:0:0:
469,192,166695,128,0,166911:0:0:0:0:
213,192,166803,128,0,166911:0:0:0:0:
128,192,166803,128,0,167019:0:0:0:0:
384,192,166911,128,0,167019:0:0:0:0:
42,192,166911,128,0,167127:0:0:0:0:
213,192,167019,128,0,167127:0:0:0:0:
298,192,167019,128,0,167235:0:0:0:0:
469,192,167019,128,0,167235:0:0:0:0:
384,192,167127,128,0,167235:0:0:0:0:
128,192,167127,128,0,167235:0:0:0:0:
42,192,167235,128,0,167344:0:0:0:0:
213,192,167235,128,0,167452:0:0:0:0:
298,192,167344,128,0,167560:0:0:0:0:
384,192,167344,128,0,167560:0:0:0:0:
42,192,167452,128,0,167560:0:0:0:0:
128,192,167452,128,0,167668:0:0:0:0:
213,192,167560,128,0,167776:0:0:0:0:
469,192,167560,128,0,167776:0:0:0:0:
298,192,167668,128,0,167776:0:0:0:0:
384,192,167668,128,0,167884:0:0:0:0:
42,192,167668,128,0,167884:0:0:0:0:
128,192,167776,128,0,167992:0:0:0:0:
213,192,167884,128,0,167992:0:0:0:0:
298,192,167884,128,0,167992:0:0:0:0:
384,192,167992,1,0,0:0:0:0:
469,192,167992,1,0,0:0:0:0:
42,192,167992,1,0,0:0:0:0:
128,192,168073,1,0,0:0:0:0:
213,192,168073,1,0,0:0:0:0:
298,192,168154,1,0,0:0:0:0:
42,192,168154,1,0,0:0:0:0:
213,192,168235,1,0,0:0:0:0:
469,192,168235,1,0,0:0:0:0:
298,192,168316,128,0,168398:0:0:0:0:
384,192,168316,128,0,168398:0:0:0:0:
128,192,168316,128,0,168398:0:0:0:0:
42,192,168316,128,0,168398:0:0:0:0:
128,192,168479,128,0,168641:0:0:0:0:
213,192,168479,128,0,168641:0:0:0:0:
384,192,168479,128,0,168641:0:0:0:0:
469,192,168479,128,0,168641:0:0:0:0:
42,192,168965,1,0,0:0:0:0:
298,192,168965,1,0,0:0:0:0:
128,192,169006,1,0,0:0:0:0:
213,192,169046,1,0,0:0:0:0:
42,192,169452,1,0,0:0:0:0:
213,192,169452,1,0,0:0:0:0:
213,192,170781,1,0,0:0:0:0:
298,192,170846,1,0,0:0:0:0:
384,192,170911,1,0,0:0:0:0:
469,192,170911,1,0,0:0:0:0:
298,192,171073,1,0,0:0:0:0:
42,192,171235,1,0,0:0:0:0:
213,192,171398,1,0,0:0:0:0:
128,192,171398,1,0,0:0:0:0:
384,192,171560,1,0,0:0:0:0:
298,192,171722,1,0,0:0:0:0:
128,192,171884,1,0,0:0:0:0:
42,192,171884,1,0,0:0:0:0:
384,192,172046,1,0,0:0:0:0:
469,192,172046,1,0,0:0:0:0:
213,192,172371,1,0,0:0:0:0:
469,192,172371,1,0,0:0:0:0:
298,192,172695,1,0,0:0:0:0:
213,192,172695,1,0,0:0:0:0:
128,192,173019,1,0,0:0:0:0:
384,192,173181,1,0,0:0:0:0:
128,192,173441,1,0,0:0:0:0:
42,192,173506,1,0,0:0:0:0:
298,192,173506,1,0,0:0:0:0:
213,192,173830,1,0,0:0:0:0:
42,192,173830,1,0,0:0:0:0:
128,192,174154,1,0,0:0:0:0:
213,192,174154,1,0,0:0:0:0:
298,192,174479,1,0,0:0:0:0:
469,192,174641,1,0,0:0:0:0:
128,192,174641,1,0,0:0:0:0:
213,192,174695,1,0,0:0:0:0:
298,192,174749,1,0,0:0:0:0:
384,192,174803,1,0,0:0:0:0:
42,192,174965,1,0,0:0:0:0:
469,192,175127,1,0,0:0:0:0:
298,192,175289,1,0,0:0:0:0:
384,192,175344,1,0,0:0:0:0:
128,192,175398,1,0,0:0:0:0:
213,192,175452,1,0,0:0:0:0:
469,192,175452,1,0,0:0:0:0:
298,192,175614,1,0,0:0:0:0:
213,192,175971,1,0,0:0:0:0:
298,192,176035,1,0,0:0:0:0:
384,192,176100,1,0,0:0:0:0:
42,192,176100,1,0,0:0:0:0:
213,192,176425,1,0,0:0:0:0:
128,192,176656,1,0,0:0:0:0:
213,192,176703,1,0,0:0:0:0:
298,192,176749,1,0,0:0:0:0:
469,192,176749,1,0,0:0:0:0:
298,192,177073,1,0,0:0:0:0:
128,192,177073,1,0,0:0:0:0:
213,192,177235,1,0,0:0:0:0:
298,192,177235,1,0,0:0:0:0:
298,192,177657,1,0,0:0:0:0:
469,192,177722,1,0,0:0:0:0:
384,192,177722,1,0,0:0:0:0:
469,192,177884,1,0,0:0:0:0:
213,192,177884,1,0,0:0:0:0:
213,192,178208,1,0,0:0:0:0:
42,192,178208,1,0,0:0:0:0:
42,192,178533,1,0,0:0:0:0:
298,192,178533,1,0,0:0:0:0:
298,192,178857,1,0,0:0:0:0:
213,192,178857,1,0,0:0:0:0:
384,192,178938,1,0,0:0:0:0:
469,192,179019,1,0,0:0:0:0:
42,192,179100,1,0,0:0:0:0:
128,192,179181,1,0,0:0:0:0:
213,192,179262,1,0,0:0:0:0:
298,192,179344,1,0,0:0:0:0:
469,192,179344,1,0,0:0:0:0:
384,192,179344,128,0,179884:0:0:0:0:
128,192,179668,1,0,0:0:0:0:
42,192,179668,1,0,0:0:0:0:
298,192,179884,128,0,179992:0:0:0:0:
213,192,179992,1,0,0:0:0:0:
384,192,179992,1,0,0:0:0:0:
469,192,179992,1,0,0:0:0:0:
128,192,180208,1,0,0:0:0:0:
42,192,180316,1,0,0:0:0:0:
298,192,180316,1,0,0:0:0:0:
384,192,180533,1,0,0:0:0:0:
298,192,180533,1,0,0:0:0:0:
469,192,180641,1,0,0:0:0:0:
213,192,180641,1,0,0:0:0:0:
298,192,180857,1,0,0:0:0:0:
213,192,180857,1,0,0:0:0:0:
384,192,180965,1,0,0:0:0:0:
42,192,180965,1,0,0:0:0:0:
213,192,181181,1,0,0:0:0:0:
384,192,181289,1,0,0:0:0:0:
298,192,181289,1,0,0:0:0:0:
469,192,181289,128,0,181506:0:0:0:0:
384,192,181506,1,0,0:0:0:0:
213,192,181506,128,0,181614:0:0:0:0:
42,192,181506,1,0,0:0:0:0:
128,192,181614,1,0,0:0:0:0:
298,192,181776,1,0,0:0:0:0:
213,192,181776,1,0,0:0:0:0:
42,192,181776,128,0,181938:0:0:0:0:
384,192,181938,128,0,182154:0:0:0:0:
42,192,182154,1,0,0:0:0:0:
213,192,182154,1,0,0:0:0:0:
384,192,182262,1,0,0:0:0:0:
469,192,182262,128,0,182479:0:0:0:0:
213,192,182479,128,0,182587:0:0:0:0:
384,192,182587,1,0,0:0:0:0:
42,192,182587,1,0,0:0:0:0:
298,192,182587,128,0,182803:0:0:0:0:
469,192,182803,128,0,183127:0:0:0:0:
42,192,182911,1,0,0:0:0:0:
128,192,182911,1,0,0:0:0:0:
384,192,183127,128,0,183560:0:0:0:0:
298,192,183127,1,0,0:0:0:0:
128,192,183127,1,0,0:0:0:0:
213,192,183452,1,0,0:0:0:0:
128,192,183452,1,0,0:0:0:0:
42,192,183560,1,0,0:0:0:0:
469,192,183560,1,0,0:0:0:0:
213,192,183668,1,0,0:0:0:0:
384,192,183776,1,0,0:0:0:0:
469,192,183776,1,0,0:0:0:0:
298,192,183884,1,0,0:0:0:0:
213,192,183884,1,0,0:0:0:0:
128,192,183884,1,0,0:0:0:0:
42,192,183992,1,0,0:0:0:0:
384,192,183992,1,0,0:0:0:0:
469,192,183992,1,0,0:0:0:0:
298,192,184100,1,0,0:0:0:0:
128,192,184100,1,0,0:0:0:0:
469,192,184208,1,0,0:0:0:0:
213,192,184208,1,0,0:0:0:0:
128,192,184316,1,0,0:0:0:0:
384,192,184316,1,0,0:0:0:0:
42,192,184425,1,0,0:0:0:0:
469,192,184425,1,0,0:0:0:0:
128,192,184533,128,0,184857:0:0:0:0:
213,192,184533,128,0,184857:0:0:0:0:
298,192,184533,128,0,184857:0:0:0:0:
384,192,184533,128,0,184857:0:0:0:0:
42,192,184857,1,0,0:0:0:0:
469,192,184857,1,0,0:0:0:0:
42,192,185019,128,0,185344:0:0:0:0:
128,192,185019,128,0,185344:0:0:0:0:
298,192,185019,128,0,185181:0:0:0:0:
384,192,185181,128,0,185344:0:0:0:0:
469,192,185181,128,0,185344:0:0:0:0:
213,192,185506,128,0,185830:0:0:0:0:
384,192,185506,128,0,185830:0:0:0:0:
469,192,185506,128,0,185830:0:0:0:0:
42,192,185506,128,0,185830:0:0:0:0:
298,192,185830,1,0,0:0:0:0:
128,192,185830,1,0,0:0:0:0:
213,192,185992,128,0,186316:0:0:0:0:
298,192,185992,128,0,186316:0:0:0:0:
469,192,185992,128,0,186154:0:0:0:0:
384,192,186154,128,0,186316:0:0:0:0:
42,192,186154,128,0,186316:0:0:0:0:
128,192,186316,1,0,0:0:0:0:
213,192,186398,1,0,0:0:0:0:
42,192,186479,128,0,186641:0:0:0:0:
298,192,186479,128,0,186641:0:0:0:0:
384,192,186479,128,0,186641:0:0:0:0:
469,192,186479,128,0,186641:0:0:0:0:
128,192,186560,1,0,0:0:0:0:
213,192,186641,1,0,0:0:0:0:
384,192,186722,1,0,0:0:0:0:
128,192,186803,128,0,186965:0:0:0:0:
42,192,186803,128,0,186965:0:0:0:0:
298,192,186803,128,0,186965:0:0:0:0:
469,192,186803,128,0,186965:0:0:0:0:
213,192,186884,1,0,0:0:0:0:
384,192,186965,1,0,0:0:0:0:
298,192,187046,1,0,0:0:0:0:
42,192,187127,128,0,187452:0:0:0:0:
128,192,187127,128,0,187452:0:0:0:0:
384,192,187127,128,0,187452:0:0:0:0:
469,192,187127,128,0,187452:0:0:0:0:
213,192,187452,128,0,187533:0:0:0:0:
298,192,187452,128,0,187533:0:0:0:0:
384,192,187533,1,0,0:0:0:0:
128,192,187614,1,0,0:0:0:0:
213,192,187695,1,0,0:0:0:0:
298,192,187776,128,0,187857:0:0:0:0:
384,192,187776,128,0,187938:0:0:0:0:
469,192,187776,128,0,187938:0:0:0:0:
128,192,187857,1,0,0:0:0:0:
298,192,187938,128,0,188019:0:0:0:0:
42,192,187938,128,0,188019:0:0:0:0:
213,192,188019,1,0,0:0:0:0:
384,192,188100,128,0,188181:0:0:0:0:
42,192,188100,128,0,188262:0:0:0:0:
128,192,188100,128,0,188262:0:0:0:0:
469,192,188181,1,0,0:0:0:0:
213,192,188262,128,0,188344:0:0:0:0:
298,192,188262,128,0,188344:0:0:0:0:
128,192,188344,1,0,0:0:0:0:
42,192,188425,128,0,188587:0:0:0:0:
384,192,188425,128,0,188506:0:0:0:0:
469,192,188425,128,0,188587:0:0:0:0:
298,192,188506,128,0,188587:0:0:0:0:
213,192,188506,128,0,188587:0:0:0:0:
128,192,188587,128,0,188668:0:0:0:0:
384,192,188587,128,0,188749:0:0:0:0:
469,192,188668,128,0,188749:0:0:0:0:
298,192,188668,128,0,188749:0:0:0:0:
128,192,188749,128,0,188911:0:0:0:0:
42,192,188749,128,0,188830:0:0:0:0:
213,192,188830,128,0,188911:0:0:0:0:
384,192,188830,128,0,188911:0:0:0:0:
298,192,188911,128,0,188992:0:0:0:0:
42,192,188911,128,0,189073:0:0:0:0:
128,192,188992,128,0,189073:0:0:0:0:
469,192,188992,128,0,189073:0:0:0:0:
213,192,189073,128,0,189154:0:0:0:0:
298,192,189073,128,0,189235:0:0:0:0:
384,192,189154,128,0,189235:0:0:0:0:
42,192,189154,128,0,189235:0:0:0:0:
469,192,189235,128,0,189316:0:0:0:0:
213,192,189235,128,0,189398:0:0:0:0:
298,192,189316,128,0,189398:0:0:0:0:
128,192,189316,128,0,189398:0:0:0:0:
42,192,189398,128,0,189560:0:0:0:0:
384,192,189398,128,0,189479:0:0:0:0:
469,192,189398,128,0,189479:0:0:0:0:
298,192,189479,128,0,189560:0:0:0:0:
128,192,189560,128,0,189641:0:0:0:0:
42,192,189641,128,0,189722:0:0:0:0:
213,192,189722,128,0,189803:0:0:0:0:
298,192,189722,128,0,189884:0:0:0:0:
384,192,189722,128,0,189965:0:0:0:0:
469,192,189722,128,0,190046:0:0:0:0:
128,192,189803,128,0,189965:0:0:0:0:
213,192,189884,128,0,190046:0:0:0:0:
298,192,189965,128,0,190127:0:0:0:0:
384,192,190046,128,0,190208:0:0:0:0:
469,192,190127,128,0,190289:0:0:0:0:
298,192,190208,128,0,190289:0:0:0:0:
213,192,190208,128,0,190371:0:0:0:0:
128,192,190208,128,0,190452:0:0:0:0:
42,192,190208,128,0,190533:0:0:0:0:
384,192,190289,128,0,190452:0:0:0:0:
298,192,190371,128,0,190533:0:0:0:0:
213,192,190452,128,0,190614:0:0:0:0:
128,192,190533,128,0,190695:0:0:0:0:
42,192,190614,128,0,190776:0:0:0:0:
298,192,190695,128,0,190857:0:0:0:0:
384,192,190695,128,0,190776:0:0:0:0:
213,192,190776,128,0,190938:0:0:0:0:
128,192,190857,128,0,191019:0:0:0:0:
298,192,190938,128,0,191100:0:0:0:0:
384,192,191019,128,0,191181:0:0:0:0:
42,192,191019,128,0,191181:0:0:0:0:
469,192,191100,128,0,191262:0:0:0:0:
128,192,191181,128,0,191344:0:0:0:0:
213,192,191262,128,0,191344:0:0:0:0:
298,192,191344,128,0,191506:0:0:0:0:
469,192,191344,128,0,191506:0:0:0:0:
213,192,191425,128,0,191506:0:0:0:0:
42,192,191425,128,0,191587:0:0:0:0:
384,192,191506,128,0,191587:0:0:0:0:
128,192,191506,128,0,191587:0:0:0:0:
213,192,191587,128,0,191668:0:0:0:0:
298,192,191587,128,0,191668:0:0:0:0:
42,192,191668,128,0,191749:0:0:0:0:
128,192,191668,128,0,191749:0:0:0:0:
384,192,191668,128,0,191749:0:0:0:0:
469,192,191668,128,0,191749:0:0:0:0:
213,192,191830,128,0,191992:0:0:0:0:
128,192,191830,128,0,191992:0:0:0:0:
42,192,191830,128,0,191992:0:0:0:0:
469,192,191830,128,0,191992:0:0:0:0:
298,192,192154,1,0,0:0:0:0:
384,192,192154,1,0,0:0:0:0:
469,192,192154,1,0,0:0:0:0:
128,192,192154,128,0,192316:0:0:0:0:
42,192,192154,128,0,192316:0:0:0:0:
298,192,192316,128,0,192641:0:0:0:0:
469,192,192316,128,0,192479:0:0:0:0:
213,192,192479,1,0,0:0:0:0:
42,192,192479,1,0,0:0:0:0:
384,192,192641,1,0,0:0:0:0:
469,192,192641,1,0,0:0:0:0:
128,192,192641,128,0,192803:0:0:0:0:
42,192,192641,128,0,192803:0:0:0:0:
213,192,192803,128,0,192965:0:0:0:0:
469,192,192803,128,0,192965:0:0:0:0:
298,192,192965,1,0,0:0:0:0:
298,192,193127,128,0,193289:0:0:0:0:
384,192,193127,128,0,193289:0:0:0:0:
213,192,193289,1,0,0:0:0:0:
128,192,193289,1,0,0:0:0:0:
42,192,193289,1,0,0:0:0:0:
469,192,193289,1,0,0:0:0:0:
298,192,193452,1,0,0:0:0:0:
128,192,193452,128,0,193776:0:0:0:0:
42,192,193452,128,0,193776:0:0:0:0:
384,192,193452,1,0,0:0:0:0:
469,192,193776,1,0,0:0:0:0:
298,192,193776,1,0,0:0:0:0:
42,192,193938,1,0,0:0:0:0:
469,192,193938,1,0,0:0:0:0:
384,192,193938,1,0,0:0:0:0:
128,192,193938,1,0,0:0:0:0:
298,192,194100,1,0,0:0:0:0:
384,192,194100,1,0,0:0:0:0:
42,192,194181,1,0,0:0:0:0:
128,192,194181,1,0,0:0:0:0:
384,192,194262,128,0,194425:0:0:0:0:
298,192,194262,1,0,0:0:0:0:
469,192,194262,128,0,194425:0:0:0:0:
213,192,194262,1,0,0:0:0:0:
213,192,194425,1,0,0:0:0:0:
128,192,194425,1,0,0:0:0:0:
42,192,194587,128,0,194749:0:0:0:0:
128,192,194587,128,0,194749:0:0:0:0:
469,192,194587,1,0,0:0:0:0:
384,192,194587,1,0,0:0:0:0:
384,192,194749,1,0,0:0:0:0:
213,192,194749,1,0,0:0:0:0:
42,192,194911,1,0,0:0:0:0:
298,192,194911,128,0,195235:0:0:0:0:
213,192,194911,1,0,0:0:0:0:
469,192,194911,128,0,195235:0:0:0:0:
128,192,195235,1,0,0:0:0:0:
42,192,195235,128,0,195398:0:0:0:0:
213,192,195235,128,0,195398:0:0:0:0:
384,192,195235,1,0,0:0:0:0:
384,192,195398,128,0,195560:0:0:0:0:
469,192,195398,128,0,195722:0:0:0:0:
213,192,195560,1,0,0:0:0:0:
42,192,195560,1,0,0:0:0:0:
298,192,195560,1,0,0:0:0:0:
128,192,195722,128,0,195884:0:0:0:0:
213,192,195722,128,0,195884:0:0:0:0:
384,192,195884,1,0,0:0:0:0:
298,192,195884,1,0,0:0:0:0:
42,192,195884,128,0,196208:0:0:0:0:
469,192,195884,128,0,196208:0:0:0:0:
213,192,196208,1,0,0:0:0:0:
128,192,196208,128,0,196371:0:0:0:0:
298,192,196208,128,0,196371:0:0:0:0:
213,192,196371,128,0,196533:0:0:0:0:
384,192,196371,128,0,196695:0:0:0:0:
469,192,196533,1,0,0:0:0:0:
128,192,196533,1,0,0:0:0:0:
42,192,196533,1,0,0:0:0:0:
298,192,196533,128,0,196695:0:0:0:0:
213,192,196695,128,0,196857:0:0:0:0:
128,192,196695,128,0,196857:0:0:0:0:
384,192,196857,128,0,197019:0:0:0:0:
42,192,196857,1,0,0:0:0:0:
469,192,196857,128,0,197181:0:0:0:0:
298,192,197019,1,0,0:0:0:0:
128,192,197019,1,0,0:0:0:0:
42,192,197181,1,0,0:0:0:0:
213,192,197181,1,0,0:0:0:0:
384,192,197181,128,0,197344:0:0:0:0:
128,192,197181,128,0,197506:0:0:0:0:
298,192,197344,1,0,0:0:0:0:
42,192,197344,1,0,0:0:0:0:
213,192,197506,1,0,0:0:0:0:
298,192,197506,1,0,0:0:0:0:
384,192,197506,128,0,197587:0:0:0:0:
469,192,197506,128,0,197587:0:0:0:0:
384,192,197668,128,0,197749:0:0:0:0:
469,192,197668,128,0,197749:0:0:0:0:
384,192,197830,128,0,197911:0:0:0:0:
469,192,197830,128,0,197911:0:0:0:0:
213,192,197830,1,0,0:0:0:0:
42,192,197830,1,0,0:0:0:0:
384,192,197992,128,0,198316:0:0:0:0:
469,192,197992,128,0,198316:0:0:0:0:
42,192,197992,1,0,0:0:0:0:
128,192,198154,1,0,0:0:0:0:
213,192,198235,1,0,0:0:0:0:
298,192,198316,1,0,0:0:0:0:
42,192,198316,1,0,0:0:0:0:
128,192,198398,1,0,0:0:0:0:
213,192,198398,1,0,0:0:0:0:
384,192,198479,128,0,198560:0:0:0:0:
469,192,198479,128,0,198560:0:0:0:0:
42,192,198479,128,0,198560:0:0:0:0:
213,192,198641,128,0,198803:0:0:0:0:
469,192,198641,128,0,198803:0:0:0:0:
384,192,198641,128,0,198803:0:0:0:0:
128,192,198641,128,0,198803:0:0:0:0:
384,192,198965,128,0,199127:0:0:0:0:
298,192,198965,128,0,199127:0:0:0:0:
128,192,198965,128,0,199127:0:0:0:0:
42,192,198965,128,0,199127:0:0:0:0:
42,192,199289,128,0,199452:0:0:0:0:
213,192,199289,128,0,199452:0:0:0:0:
298,192,199289,128,0,199452:0:0:0:0:
469,192,199289,128,0,199452:0:0:0:0:
469,192,199614,128,0,199695:0:0:0:0:
128,192,199614,128,0,199695:0:0:0:0:
42,192,199614,128,0,199695:0:0:0:0:
298,192,199695,1,0,0:0:0:0:
213,192,199695,1,0,0:0:0:0:
384,192,199776,1,0,0:0:0:0:
469,192,199776,1,0,0:0:0:0:
42,192,199776,1,0,0:0:0:0:
128,192,199776,1,0,0:0:0:0:
213,192,200100,128,0,200262:0:0:0:0:
128,192,200100,128,0,200344:0:0:0:0:
42,192,200100,128,0,200425:0:0:0:0:
469,192,200100,128,0,200262:0:0:0:0:
384,192,200181,128,0,200344:0:0:0:0:
298,192,200262,128,0,200425:0:0:0:0:
213,192,200344,128,0,200506:0:0:0:0:
128,192,200425,128,0,200587:0:0:0:0:
469,192,200425,128,0,200506:0:0:0:0:
384,192,200506,128,0,200668:0:0:0:0:
42,192,200587,128,0,200749:0:0:0:0:
213,192,200587,128,0,200749:0:0:0:0:
469,192,200587,128,0,200749:0:0:0:0:
298,192,200587,128,0,200668:0:0:0:0:
128,192,200668,128,0,200830:0:0:0:0:
384,192,200749,128,0,200911:0:0:0:0:
298,192,200749,128,0,200830:0:0:0:0:
469,192,200830,128,0,200992:0:0:0:0:
42,192,200911,128,0,201073:0:0:0:0:
213,192,200992,128,0,201154:0:0:0:0:
384,192,201073,128,0,201235:0:0:0:0:
298,192,201073,128,0,201235:0:0:0:0:
469,192,201154,128,0,201316:0:0:0:0:
42,192,201235,128,0,201398:0:0:0:0:
128,192,201316,128,0,201479:0:0:0:0:
213,192,201398,128,0,201560:0:0:0:0:
298,192,201398,128,0,201560:0:0:0:0:
384,192,201479,128,0,201641:0:0:0:0:
42,192,201560,128,0,201641:0:0:0:0:
469,192,201560,128,0,201722:0:0:0:0:
128,192,201560,128,0,201722:0:0:0:0:
213,192,201641,128,0,201803:0:0:0:0:
42,192,201722,128,0,201884:0:0:0:0:
298,192,201722,128,0,201803:0:0:0:0:
384,192,201803,128,0,201965:0:0:0:0:
469,192,201803,128,0,201884:0:0:0:0:
213,192,201884,128,0,201965:0:0:0:0:
128,192,201884,128,0,201965:0:0:0:0:
42,192,201965,128,0,202046:0:0:0:0:
469,192,201965,128,0,202046:0:0:0:0:
213,192,202046,128,0,202127:0:0:0:0:
384,192,202046,128,0,202127:0:0:0:0:
298,192,202046,128,0,202127:0:0:0:0:
128,192,202046,128,0,202127:0:0:0:0:
469,192,202208,128,0,202371:0:0:0:0:
128,192,202208,128,0,202371:0:0:0:0:
42,192,202208,128,0,202371:0:0:0:0:
384,192,202208,128,0,202371:0:0:0:0:
384,192,202533,1,0,0:0:0:0:
298,192,202533,1,0,0:0:0:0:
213,192,202533,1,0,0:0:0:0:
128,192,202533,128,0,202695:0:0:0:0:
42,192,202533,128,0,202695:0:0:0:0:
384,192,202695,128,0,203019:0:0:0:0:
213,192,202695,128,0,202857:0:0:0:0:
128,192,202857,1,0,0:0:0:0:
469,192,202857,1,0,0:0:0:0:
298,192,203019,1,0,0:0:0:0:
213,192,203019,128,0,203181:0:0:0:0:
128,192,203019,1,0,0:0:0:0:
42,192,203019,128,0,203181:0:0:0:0:
298,192,203181,128,0,203344:0:0:0:0:
469,192,203181,128,0,203344:0:0:0:0:
384,192,203344,1,0,0:0:0:0:
384,192,203506,128,0,203668:0:0:0:0:
469,192,203506,128,0,203668:0:0:0:0:
128,192,203506,1,0,0:0:0:0:
298,192,203668,1,0,0:0:0:0:
213,192,203668,1,0,0:0:0:0:
128,192,203668,1,0,0:0:0:0:
42,192,203668,1,0,0:0:0:0:
42,192,203830,128,0,204154:0:0:0:0:
213,192,203830,128,0,204154:0:0:0:0:
469,192,203830,128,0,204154:0:0:0:0:
384,192,203830,1,0,0:0:0:0:
384,192,204154,1,0,0:0:0:0:
128,192,204154,1,0,0:0:0:0:
128,192,204316,1,0,0:0:0:0:
213,192,204316,1,0,0:0:0:0:
298,192,204316,1,0,0:0:0:0:
469,192,204316,1,0,0:0:0:0:
298,192,204479,1,0,0:0:0:0:
42,192,204479,1,0,0:0:0:0:
213,192,204560,1,0,0:0:0:0:
128,192,204560,1,0,0:0:0:0:
469,192,204641,1,0,0:0:0:0:
384,192,204641,1,0,0:0:0:0:
42,192,204641,1,0,0:0:0:0:
469,192,204803,1,0,0:0:0:0:
128,192,204803,1,0,0:0:0:0:
213,192,204965,1,0,0:0:0:0:
128,192,204965,1,0,0:0:0:0:
213,192,205127,1,0,0:0:0:0:
384,192,205127,1,0,0:0:0:0:
128,192,205208,128,0,205289:0:0:0:0:
384,192,205289,128,0,205614:0:0:0:0:
469,192,205289,128,0,205614:0:0:0:0:
298,192,205289,1,0,0:0:0:0:
42,192,205289,1,0,0:0:0:0:
213,192,205614,1,0,0:0:0:0:
128,192,205614,1,0,0:0:0:0:
42,192,205614,1,0,0:0:0:0:
384,192,205776,128,0,205938:0:0:0:0:
42,192,205776,128,0,206262:0:0:0:0:
298,192,205938,1,0,0:0:0:0:
213,192,205938,1,0,0:0:0:0:
128,192,205938,1,0,0:0:0:0:
469,192,205938,1,0,0:0:0:0:
384,192,206262,128,0,206587:0:0:0:0:
298,192,206262,128,0,206587:0:0:0:0:
469,192,206262,1,0,0:0:0:0:
128,192,206587,1,0,0:0:0:0:
42,192,206587,1,0,0:0:0:0:
469,192,206587,1,0,0:0:0:0:
298,192,206749,1,0,0:0:0:0:
128,192,206749,128,0,207073:0:0:0:0:
213,192,206749,128,0,206911:0:0:0:0:
42,192,206911,1,0,0:0:0:0:
298,192,206911,1,0,0:0:0:0:
42,192,207073,1,0,0:0:0:0:
384,192,207073,1,0,0:0:0:0:
213,192,207235,1,0,0:0:0:0:
384,192,207235,128,0,207398:0:0:0:0:
469,192,207235,128,0,207398:0:0:0:0:
213,192,207398,1,0,0:0:0:0:
42,192,207398,1,0,0:0:0:0:
42,192,207560,128,0,207722:0:0:0:0:
128,192,207560,128,0,207722:0:0:0:0:
298,192,207560,1,0,0:0:0:0:
298,192,207722,1,0,0:0:0:0:
384,192,207722,1,0,0:0:0:0:
469,192,207884,128,0,208046:0:0:0:0:
384,192,207884,128,0,208046:0:0:0:0:
42,192,207884,128,0,208046:0:0:0:0:
213,192,207884,128,0,207965:0:0:0:0:
128,192,207965,128,0,208127:0:0:0:0:
213,192,208046,128,0,208208:0:0:0:0:
298,192,208046,128,0,208127:0:0:0:0:
42,192,208127,128,0,208289:0:0:0:0:
469,192,208127,128,0,208289:0:0:0:0:
128,192,208208,128,0,208289:0:0:0:0:
384,192,208208,128,0,208371:0:0:0:0:
298,192,208289,128,0,208452:0:0:0:0:
213,192,208371,128,0,208533:0:0:0:0:
128,192,208452,128,0,208614:0:0:0:0:
298,192,208533,1,0,0:0:0:0:
384,192,208533,1,0,0:0:0:0:
469,192,208533,1,0,0:0:0:0:
42,192,208614,1,0,0:0:0:0:
213,192,208695,1,0,0:0:0:0:
298,192,208776,1,0,0:0:0:0:
42,192,208857,1,0,0:0:0:0:
384,192,208857,128,0,208938:0:0:0:0:
469,192,208857,128,0,208938:0:0:0:0:
128,192,208938,1,0,0:0:0:0:
213,192,209019,128,0,209100:0:0:0:0:
469,192,209019,1,0,0:0:0:0:
298,192,209019,128,0,209100:0:0:0:0:
384,192,209100,1,0,0:0:0:0:
213,192,209181,1,0,0:0:0:0:
128,192,209181,1,0,0:0:0:0:
298,192,209181,128,0,209344:0:0:0:0:
42,192,209181,128,0,209344:0:0:0:0:
384,192,209344,1,0,0:0:0:0:
469,192,209344,1,0,0:0:0:0:
469,192,209506,1,0,0:0:0:0:
213,192,209506,128,0,209668:0:0:0:0:
128,192,209506,128,0,209668:0:0:0:0:
298,192,209506,1,0,0:0:0:0:
42,192,209668,1,0,0:0:0:0:
298,192,209668,1,0,0:0:0:0:
42,192,209830,128,0,209911:0:0:0:0:
128,192,209830,128,0,209911:0:0:0:0:
213,192,209830,128,0,209911:0:0:0:0:
384,192,209830,128,0,209911:0:0:0:0:
469,192,209830,128,0,209911:0:0:0:0:
469,192,209992,128,0,210154:0:0:0:0:
384,192,209992,128,0,210154:0:0:0:0:
298,192,209992,128,0,210154:0:0:0:0:
213,192,209992,128,0,210154:0:0:0:0:
128,192,209992,128,0,210154:0:0:0:0:
42,192,210479,1,0,0:0:0:0:
384,192,210479,128,0,210641:0:0:0:0:
469,192,210479,128,0,210641:0:0:0:0:
128,192,210479,1,0,0:0:0:0:
298,192,210479,1,0,0:0:0:0:
213,192,210560,1,0,0:0:0:0:
298,192,210641,1,0,0:0:0:0:
384,192,210722,1,0,0:0:0:0:
128,192,210803,1,0,0:0:0:0:
42,192,210803,1,0,0:0:0:0:
213,192,210803,1,0,0:0:0:0:
469,192,210884,1,0,0:0:0:0:
128,192,210965,128,0,211127:0:0:0:0:
384,192,210965,128,0,211127:0:0:0:0:
213,192,211046,1,0,0:0:0:0:
298,192,211127,1,0,0:0:0:0:
469,192,211127,1,0,0:0:0:0:
42,192,211208,1,0,0:0:0:0:
128,192,211289,1,0,0:0:0:0:
213,192,211371,1,0,0:0:0:0:
298,192,211452,1,0,0:0:0:0:
384,192,211452,128,0,211776:0:0:0:0:
469,192,211452,128,0,211776:0:0:0:0:
128,192,211533,1,0,0:0:0:0:
42,192,211614,1,0,0:0:0:0:
298,192,211695,1,0,0:0:0:0:
213,192,211776,1,0,0:0:0:0:
128,192,211776,1,0,0:0:0:0:
298,192,211857,1,0,0:0:0:0:
42,192,211938,128,0,212100:0:0:0:0:
384,192,211938,128,0,212100:0:0:0:0:
469,192,212019,1,0,0:0:0:0:
298,192,212100,1,0,0:0:0:0:
213,192,212100,1,0,0:0:0:0:
128,192,212100,1,0,0:0:0:0:
384,192,212181,1,0,0:0:0:0:
469,192,212262,128,0,212425:0:0:0:0:
128,192,212262,128,0,212344:0:0:0:0:
213,192,212344,1,0,0:0:0:0:
384,192,212425,128,0,212587:0:0:0:0:
298,192,212425,128,0,212506:0:0:0:0:
42,192,212506,1,0,0:0:0:0:
213,192,212587,128,0,212668:0:0:0:0:
128,192,212587,128,0,212749:0:0:0:0:
298,192,212668,1,0,0:0:0:0:
469,192,212749,128,0,213073:0:0:0:0:
213,192,212749,1,0,0:0:0:0:
384,192,212749,128,0,213073:0:0:0:0:
42,192,212830,1,0,0:0:0:0:
298,192,212911,1,0,0:0:0:0:
213,192,212992,1,0,0:0:0:0:
128,192,213073,1,0,0:0:0:0:
42,192,213073,1,0,0:0:0:0:
384,192,213154,1,0,0:0:0:0:
213,192,213235,1,0,0:0:0:0:
298,192,213316,1,0,0:0:0:0:
384,192,213398,128,0,213560:0:0:0:0:
469,192,213398,128,0,213560:0:0:0:0:
42,192,213398,128,0,213479:0:0:0:0:
128,192,213479,128,0,213560:0:0:0:0:
213,192,213560,1,0,0:0:0:0:
42,192,213641,1,0,0:0:0:0:
298,192,213722,128,0,214046:0:0:0:0:
384,192,213722,128,0,214046:0:0:0:0:
213,192,213803,128,0,213884:0:0:0:0:
128,192,213884,128,0,213965:0:0:0:0:
469,192,213965,128,0,214046:0:0:0:0:
42,192,214046,128,0,214208:0:0:0:0:
128,192,214046,128,0,214208:0:0:0:0:
213,192,214127,128,0,214208:0:0:0:0:
298,192,214208,128,0,214371:0:0:0:0:
469,192,214208,128,0,214371:0:0:0:0:
128,192,214289,128,0,214371:0:0:0:0:
384,192,214371,1,0,0:0:0:0:
42,192,214371,1,0,0:0:0:0:
298,192,214452,1,0,0:0:0:0:
213,192,214533,128,0,214857:0:0:0:0:
128,192,214533,128,0,214857:0:0:0:0:
469,192,214614,128,0,214695:0:0:0:0:
384,192,214695,1,0,0:0:0:0:
298,192,214695,128,0,214776:0:0:0:0:
42,192,214695,1,0,0:0:0:0:
469,192,214776,128,0,214857:0:0:0:0:
298,192,214857,128,0,215019:0:0:0:0:
42,192,214857,128,0,215019:0:0:0:0:
213,192,214938,128,0,215019:0:0:0:0:
384,192,215019,128,0,215181:0:0:0:0:
469,192,215019,128,0,215181:0:0:0:0:
128,192,215100,128,0,215181:0:0:0:0:
213,192,215181,128,0,215262:0:0:0:0:
298,192,215262,128,0,215344:0:0:0:0:
128,192,215344,128,0,215506:0:0:0:0:
42,192,215344,128,0,215506:0:0:0:0:
384,192,215344,128,0,215425:0:0:0:0:
469,192,215425,128,0,215506:0:0:0:0:
298,192,215506,1,0,0:0:0:0:
213,192,215506,128,0,215587:0:0:0:0:
128,192,215587,1,0,0:0:0:0:
384,192,215587,128,0,215668:0:0:0:0:
213,192,215668,1,0,0:0:0:0:
42,192,215668,128,0,215830:0:0:0:0:
469,192,215668,128,0,215830:0:0:0:0:
298,192,215668,1,0,0:0:0:0:
384,192,215749,1,0,0:0:0:0:
128,192,215830,1,0,0:0:0:0:
213,192,215911,1,0,0:0:0:0:
298,192,215992,1,0,0:0:0:0:
384,192,215992,1,0,0:0:0:0:
469,192,215992,1,0,0:0:0:0:
128,192,216073,1,0,0:0:0:0:
298,192,216154,128,0,216316:0:0:0:0:
42,192,216154,128,0,216316:0:0:0:0:
213,192,216235,1,0,0:0:0:0:
128,192,216316,1,0,0:0:0:0:
469,192,216316,1,0,0:0:0:0:
384,192,216398,1,0,0:0:0:0:
128,192,216479,128,0,216641:0:0:0:0:
42,192,216479,128,0,216641:0:0:0:0:
298,192,216560,1,0,0:0:0:0:
469,192,216641,128,0,216965:0:0:0:0:
384,192,216641,128,0,216965:0:0:0:0:
128,192,216722,1,0,0:0:0:0:
213,192,216803,1,0,0:0:0:0:
213,192,216884,1,0,0:0:0:0:
128,192,216965,1,0,0:0:0:0:
42,192,216965,1,0,0:0:0:0:
384,192,217046,1,0,0:0:0:0:
213,192,217127,128,0,217289:0:0:0:0:
298,192,217127,128,0,217289:0:0:0:0:
469,192,217208,1,0,0:0:0:0:
128,192,217289,1,0,0:0:0:0:
42,192,217289,1,0,0:0:0:0:
384,192,217289,1,0,0:0:0:0:
298,192,217371,1,0,0:0:0:0:
128,192,217452,128,0,217614:0:0:0:0:
213,192,217452,128,0,217533:0:0:0:0:
384,192,217533,1,0,0:0:0:0:
42,192,217614,128,0,217695:0:0:0:0:
298,192,217614,128,0,217695:0:0:0:0:
469,192,217614,128,0,217695:0:0:0:0:
213,192,217614,128,0,217776:0:0:0:0:
128,192,217695,128,0,217857:0:0:0:0:
42,192,217776,128,0,217857:0:0:0:0:
384,192,217857,128,0,218019:0:0:0:0:
469,192,217938,128,0,218100:0:0:0:0:
128,192,217938,128,0,218019:0:0:0:0:
42,192,217938,128,0,218019:0:0:0:0:
213,192,217938,128,0,218100:0:0:0:0:
298,192,218019,128,0,218181:0:0:0:0:
384,192,218100,128,0,218262:0:0:0:0:
469,192,218181,128,0,218344:0:0:0:0:
128,192,218262,1,0,0:0:0:0:
213,192,218262,1,0,0:0:0:0:
42,192,218344,1,0,0:0:0:0:
298,192,218425,1,0,0:0:0:0:
213,192,218506,1,0,0:0:0:0:
128,192,218587,128,0,218749:0:0:0:0:
42,192,218587,128,0,218749:0:0:0:0:
384,192,218587,128,0,218668:0:0:0:0:
298,192,218668,128,0,218749:0:0:0:0:
213,192,218749,1,0,0:0:0:0:
384,192,218830,1,0,0:0:0:0:
469,192,218911,128,0,219235:0:0:0:0:
128,192,218911,128,0,219235:0:0:0:0:
213,192,218992,128,0,219073:0:0:0:0:
298,192,219073,128,0,219154:0:0:0:0:
384,192,219154,128,0,219235:0:0:0:0:
213,192,219235,128,0,219398:0:0:0:0:
298,192,219235,128,0,219398:0:0:0:0:
42,192,219235,128,0,219316:0:0:0:0:
128,192,219316,128,0,219398:0:0:0:0:
469,192,219398,128,0,219560:0:0:0:0:
384,192,219398,128,0,219560:0:0:0:0:
213,192,219479,128,0,219560:0:0:0:0:
298,192,219560,1,0,0:0:0:0:
128,192,219560,1,0,0:0:0:0:
42,192,219560,1,0,0:0:0:0:
384,192,219641,1,0,0:0:0:0:
128,192,219722,128,0,219884:0:0:0:0:
213,192,219722,128,0,219884:0:0:0:0:
298,192,219803,128,0,219884:0:0:0:0:
469,192,219884,1,0,0:0:0:0:
384,192,219884,1,0,0:0:0:0:
42,192,219884,1,0,0:0:0:0:
298,192,219965,128,0,220046:0:0:0:0:
384,192,220046,1,0,0:0:0:0:
42,192,220046,128,0,220127:0:0:0:0:
213,192,220127,1,0,0:0:0:0:
128,192,220127,128,0,220208:0:0:0:0:
42,192,220208,1,0,0:0:0:0:
469,192,220208,128,0,220289:0:0:0:0:
298,192,220289,1,0,0:0:0:0:
384,192,220289,128,0,220371:0:0:0:0:
128,192,220371,1,0,0:0:0:0:
213,192,220452,1,0,0:0:0:0:
42,192,220533,1,0,0:0:0:0:
128,192,220533,1,0,0:0:0:0:
298,192,220533,128,0,220614:0:0:0:0:
469,192,220614,128,0,220695:0:0:0:0:
298,192,220695,1,0,0:0:0:0:
213,192,220695,128,0,220776:0:0:0:0:
42,192,220776,1,0,0:0:0:0:
384,192,220776,128,0,220857:0:0:0:0:
128,192,220857,1,0,0:0:0:0:
213,192,220857,128,0,221019:0:0:0:0:
469,192,220857,128,0,221019:0:0:0:0:
298,192,220938,1,0,0:0:0:0:
42,192,221019,1,0,0:0:0:0:
128,192,221100,1,0,0:0:0:0:
213,192,221181,1,0,0:0:0:0:
298,192,221181,1,0,0:0:0:0:
384,192,221181,1,0,0:0:0:0:
469,192,221262,1,0,0:0:0:0:
298,192,221344,128,0,221506:0:0:0:0:
42,192,221344,128,0,221506:0:0:0:0:
213,192,221425,1,0,0:0:0:0:
128,192,221506,1,0,0:0:0:0:
384,192,221506,1,0,0:0:0:0:
298,192,221587,1,0,0:0:0:0:
469,192,221668,1,0,0:0:0:0:
213,192,221749,1,0,0:0:0:0:
42,192,221830,1,0,0:0:0:0:
298,192,221830,128,0,222154:0:0:0:0:
384,192,221830,128,0,222154:0:0:0:0:
128,192,221911,1,0,0:0:0:0:
213,192,221992,1,0,0:0:0:0:
469,192,222073,1,0,0:0:0:0:
128,192,222154,1,0,0:0:0:0:
42,192,222154,1,0,0:0:0:0:
298,192,222235,1,0,0:0:0:0:
384,192,222316,128,0,222479:0:0:0:0:
469,192,222316,128,0,222479:0:0:0:0:
213,192,222398,1,0,0:0:0:0:
128,192,222479,1,0,0:0:0:0:
298,192,222479,1,0,0:0:0:0:
42,192,222479,1,0,0:0:0:0:
384,192,222560,1,0,0:0:0:0:
213,192,222641,128,0,222803:0:0:0:0:
469,192,222641,128,0,222722:0:0:0:0:
128,192,222722,1,0,0:0:0:0:
384,192,222803,128,0,222965:0:0:0:0:
298,192,222803,128,0,222884:0:0:0:0:
42,192,222884,1,0,0:0:0:0:
128,192,222965,128,0,223046:0:0:0:0:
298,192,222965,128,0,223127:0:0:0:0:
213,192,223046,1,0,0:0:0:0:
128,192,223127,1,0,0:0:0:0:
42,192,223127,128,0,223452:0:0:0:0:
469,192,223127,128,0,223452:0:0:0:0:
384,192,223208,1,0,0:0:0:0:
298,192,223289,1,0,0:0:0:0:
213,192,223371,1,0,0:0:0:0:
128,192,223452,1,0,0:0:0:0:
384,192,223452,1,0,0:0:0:0:
298,192,223533,1,0,0:0:0:0:
384,192,223614,1,0,0:0:0:0:
469,192,223695,1,0,0:0:0:0:
213,192,223776,128,0,223938:0:0:0:0:
128,192,223776,128,0,223938:0:0:0:0:
42,192,223776,128,0,223857:0:0:0:0:
298,192,223857,128,0,223938:0:0:0:0:
384,192,223938,1,0,0:0:0:0:
213,192,224019,1,0,0:0:0:0:
128,192,224100,128,0,224425:0:0:0:0:
42,192,224100,128,0,224425:0:0:0:0:
298,192,224181,128,0,224262:0:0:0:0:
469,192,224262,128,0,224344:0:0:0:0:
213,192,224344,128,0,224425:0:0:0:0:
298,192,224425,128,0,224587:0:0:0:0:
469,192,224425,128,0,224587:0:0:0:0:
384,192,224425,128,0,224506:0:0:0:0:
42,192,224506,128,0,224587:0:0:0:0:
213,192,224587,128,0,224749:0:0:0:0:
128,192,224587,128,0,224749:0:0:0:0:
384,192,224668,128,0,224749:0:0:0:0:
298,192,224749,1,0,0:0:0:0:
469,192,224749,1,0,0:0:0:0:
128,192,224830,1,0,0:0:0:0:
384,192,224911,128,0,225235:0:0:0:0:
469,192,224911,128,0,225235:0:0:0:0:
298,192,224992,128,0,225073:0:0:0:0:
128,192,225073,1,0,0:0:0:0:
42,192,225073,1,0,0:0:0:0:
213,192,225073,128,0,225154:0:0:0:0:
298,192,225154,128,0,225235:0:0:0:0:
128,192,225235,128,0,225398:0:0:0:0:
42,192,225235,128,0,225398:0:0:0:0:
213,192,225316,128,0,225398:0:0:0:0:
298,192,225398,128,0,225560:0:0:0:0:
469,192,225398,128,0,225560:0:0:0:0:
128,192,225479,128,0,225560:0:0:0:0:
213,192,225560,128,0,225641:0:0:0:0:
298,192,225641,128,0,225722:0:0:0:0:
469,192,225722,1,0,0:0:0:0:
384,192,225722,128,0,225803:0:0:0:0:
42,192,225803,1,0,0:0:0:0:
213,192,225803,128,0,225884:0:0:0:0:
384,192,225884,1,0,0:0:0:0:
298,192,225884,128,0,225965:0:0:0:0:
469,192,225965,1,0,0:0:0:0:
128,192,225965,128,0,226046:0:0:0:0:
213,192,226046,128,0,226371:0:0:0:0:
298,192,226046,128,0,226371:0:0:0:0:
384,192,226046,128,0,226371:0:0:0:0:
42,192,226046,128,0,226371:0:0:0:0:
128,192,226371,1,0,0:0:0:0:
469,192,226371,1,0,0:0:0:0:
384,192,226533,128,0,226614:0:0:0:0:
213,192,226533,128,0,226857:0:0:0:0:
128,192,226533,128,0,226857:0:0:0:0:
42,192,226533,128,0,226857:0:0:0:0:
384,192,226695,1,0,0:0:0:0:
469,192,226695,1,0,0:0:0:0:
298,192,226695,1,0,0:0:0:0:
128,192,227019,128,0,227344:0:0:0:0:
42,192,227019,128,0,227344:0:0:0:0:
384,192,227019,128,0,227344:0:0:0:0:
469,192,227019,128,0,227344:0:0:0:0:
213,192,227344,1,0,0:0:0:0:
298,192,227344,1,0,0:0:0:0:
42,192,227506,128,0,227587:0:0:0:0:
298,192,227506,128,0,227830:0:0:0:0:
384,192,227506,128,0,227830:0:0:0:0:
469,192,227506,128,0,227830:0:0:0:0:
42,192,227668,1,0,0:0:0:0:
128,192,227668,1,0,0:0:0:0:
128,192,227830,128,0,227911:0:0:0:0:
213,192,227830,128,0,227911:0:0:0:0:
384,192,227911,1,0,0:0:0:0:
42,192,227911,1,0,0:0:0:0:
213,192,227992,128,0,228073:0:0:0:0:
298,192,227992,128,0,228073:0:0:0:0:
469,192,227992,128,0,228073:0:0:0:0:
384,192,228154,128,0,228398:0:0:0:0:
469,192,228154,128,0,228398:0:0:0:0:
128,192,228154,128,0,228398:0:0:0:0:
42,192,228154,128,0,228398:0:0:0:0:
213,192,228479,1,0,0:0:0:0:
298,192,228479,1,0,0:0:0:0:
42,192,228479,128,0,233668:0:0:0:0:
469,192,228965,128,0,229046:0:0:0:0:
298,192,229289,128,0,229371:0:0:0:0:
384,192,229614,128,0,229695:0:0:0:0:
213,192,229776,128,0,229857:0:0:0:0:
213,192,229938,128,0,230019:0:0:0:0:
213,192,230100,128,0,230181:0:0:0:0:
469,192,230262,128,0,230344:0:0:0:0:
298,192,230587,128,0,230668:0:0:0:0:
213,192,230911,128,0,230992:0:0:0:0:
128,192,231073,128,0,231154:0:0:0:0:
128,192,231398,128,0,231479:0:0:0:0:
384,192,231560,128,0,231641:0:0:0:0:
213,192,231722,128,0,231803:0:0:0:0:
298,192,231884,128,0,231965:0:0:0:0:
384,192,232208,128,0,232289:0:0:0:0:
469,192,232371,128,0,232452:0:0:0:0:
213,192,232695,128,0,232776:0:0:0:0:
128,192,232857,128,0,232938:0:0:0:0:
298,192,233019,128,0,233100:0:0:0:0:
384,192,233100,128,0,233181:0:0:0:0:
213,192,233181,128,0,233262:0:0:0:0:
298,192,233344,128,0,233425:0:0:0:0:
213,192,233506,1,0,0:0:0:0:
128,192,233506,128,0,233587:0:0:0:0:
298,192,233587,1,0,0:0:0:0:
384,192,233587,1,0,0:0:0:0:
128,192,233668,1,0,0:0:0:0:
469,192,233668,1,0,0:0:0:0:
213,192,233668,128,0,233749:0:0:0:0:
469,192,234154,128,0,234235:0:0:0:0:
213,192,234479,128,0,234560:0:0:0:0:
384,192,234803,128,0,234884:0:0:0:0:
298,192,234965,128,0,235046:0:0:0:0:
298,192,235289,128,0,235371:0:0:0:0:
469,192,235452,128,0,235533:0:0:0:0:
42,192,235614,128,0,235695:0:0:0:0:
128,192,235776,128,0,235857:0:0:0:0:
298,192,236100,128,0,236181:0:0:0:0:
42,192,236262,128,0,236344:0:0:0:0:
42,192,236587,128,0,236668:0:0:0:0:
384,192,236749,128,0,236830:0:0:0:0:
128,192,236911,128,0,236992:0:0:0:0:
298,192,237073,128,0,237154:0:0:0:0:
384,192,237398,128,0,237479:0:0:0:0:
469,192,237560,128,0,237641:0:0:0:0:
213,192,237884,128,0,237965:0:0:0:0:
298,192,238208,128,0,238289:0:0:0:0:
384,192,238533,128,0,238614:0:0:0:0:
469,192,238857,128,0,238938:0:0:0:0:
