osu file format v14

[General]
AudioFilename: audio.mp3
AudioLeadIn: 0
PreviewTime: 67537
Countdown: 0
SampleSet: Soft
StackLeniency: 0.7
Mode: 3
LetterboxInBreaks: 0
SpecialStyle: 0
WidescreenStoryboard: 0

[Editor]
DistanceSpacing: 0.8
BeatDivisor: 4
GridSize: 16
TimelineZoom: 1.2

[Metadata]
Title:stella=steLLa
TitleUnicode:stella=steLLa
Artist:marasy
ArtistUnicode:まらしぃ
Creator:Dreamwalker
Version:stella=steLLa
Source:CHUNITHM
Tags:marasy8 Fontes Murumoo FAMoss チュウニズム SEGA ゲーム収録曲©SEGA
BeatmapID:1802158
BeatmapSetID:562180

[Difficulty]
HPDrainRate:8.5
CircleSize:7
OverallDifficulty:8.5
ApproachRate:5
SliderMultiplier:1.4
SliderTickRate:1

[Events]
//Background and Video events
0,0,"background1.jpg",0,0
//Break Periods
//Storyboard Layer 0 (Background)
//Storyboard Layer 1 (Fail)
//Storyboard Layer 2 (Pass)
//Storyboard Layer 3 (Foreground)
//Storyboard Sound Samples
Sample,4380,0,"B5S.wav",80
Sample,4380,0,"E5S.wav",80
Sample,9432,0,"C#6S_Db6S.wav",80
Sample,19432,0,"D#5S_Eb5S.wav",80
Sample,19485,0,"G#5S_Ab5S.wav",80
Sample,22853,0,"A#6S_Bb6S_s.wav",80
Sample,24432,0,"A#6S_Bb6S_s.wav",80
Sample,24590,0,"E3S.wav",80
Sample,24590,0,"B3S.wav",80
Sample,35958,0,"F#4S_Gb4S.wav",80
Sample,38485,0,"G#4S_Ab4S.wav",80
Sample,41011,0,"A#4S_Bb4S.wav",80
Sample,41643,0,"G4S.wav",80
Sample,45116,0,"E4S.wav",80
Sample,45432,0,"E4S.wav",80
Sample,45748,0,"E4S.wav",80
Sample,45748,0,"G#4S_Ab4S.wav",80
Sample,46380,0,"F#4S_Gb4S.wav",80
Sample,46695,0,"F#4S_Gb4S.wav",80
Sample,47011,0,"F#4S_Gb4S.wav",80
Sample,47248,0,"F#5S_Gb5S_s.wav",80
Sample,47643,0,"A#4S_Bb4S.wav",80
Sample,47958,0,"G4S.wav",80
Sample,48274,0,"C#5S_Db5S.wav",80
Sample,48274,0,"G4S.wav",80
Sample,48906,0,"B4S.wav",80
Sample,49222,0,"B5S.wav",80
Sample,49537,0,"G#4S_Ab4S.wav",80
Sample,50169,0,"G#4S_Ab4S.wav",80
Sample,50485,0,"E4S.wav",80
Sample,50801,0,"E4S.wav",80
Sample,50801,0,"G#4S_Ab4S.wav",80
Sample,51432,0,"C#5S_Db5S.wav",80
Sample,51748,0,"F#4S_Gb4S.wav",80
Sample,52064,0,"A#4S_Bb4S.wav",80
Sample,52064,0,"F#4S_Gb4S.wav",80
Sample,57458,0,"A#4S_Bb4S.wav",80
Sample,57458,0,"G4S.wav",80
Sample,58695,0,"B4S.wav",80
Sample,58695,0,"G#4S_Ab4S.wav",80
Sample,60274,0,"E4S.wav",80
Sample,60906,0,"E5S.wav",80
Sample,61537,0,"E5S.wav",80
Sample,62169,0,"B4S.wav",80
Sample,62169,0,"E4S.wav",80
Sample,62169,0,"E5S.wav",80
Sample,62801,0,"A#5S_Bb5S_s.wav",80
Sample,63274,0,"F#4S_Gb4S_s.wav",80
Sample,63748,0,"F#4S_Gb4S_s.wav",80
Sample,64222,0,"F#4S_Gb4S_s.wav",80
Sample,65485,0,"A#6S_Bb6S_s.wav",80
Sample,66274,0,"A#6S_Bb6S_s.wav",80
Sample,66274,0,"C#5S_Db5S_s.wav",80
Sample,66274,0,"F#5S_Gb5S_s.wav",80
Sample,67853,0,"B4S.wav",80
Sample,68485,0,"E4S.wav",80
Sample,69116,0,"F#4S_Gb4S.wav",80
Sample,69748,0,"F#4S_Gb4S.wav",80
Sample,69748,0,"A#4S_Bb4S.wav",80
Sample,70380,0,"D#4S_Eb4S.wav",80
Sample,71011,0,"F#4S_Gb4S.wav",80
Sample,71643,0,"B4S.wav",80
Sample,72274,0,"G#4S_Ab4S.wav",80
Sample,72906,0,"E4S.wav",80
Sample,73537,0,"E4S.wav",80
Sample,74169,0,"C#5S_Db5S.wav",80
Sample,74169,0,"F#4S_Gb4S.wav",80
Sample,74801,0,"C#5S_Db5S.wav",80
Sample,75432,0,"G#4S_Ab4S.wav",80
Sample,76064,0,"B4S.wav",80
Sample,76695,0,"G#4S_Ab4S.wav",80
Sample,76695,0,"G#7S_Ab7S_s.wav",80
Sample,76695,0,"B4S.wav",80
Sample,77011,0,"E7S_s.wav",80
Sample,77327,0,"G#4S_Ab4S.wav",80
Sample,77327,0,"C#7S_Db7S_s.wav",80
Sample,77327,0,"B4S.wav",80
Sample,77485,0,"B6S_s.wav",80
Sample,77958,0,"E4S.wav",80
Sample,78590,0,"G#4S_Ab4S.wav",80
Sample,79222,0,"A#4S_Bb4S.wav",80
Sample,79853,0,"A#4S_Bb4S.wav",80
Sample,79853,0,"F#4S_Gb4S.wav",80
Sample,80485,0,"G4S.wav",80
Sample,81116,0,"G4S.wav",80
Sample,81748,0,"D#5S_Eb5S.wav",80
Sample,81748,0,"G#4S_Ab4S.wav",80
Sample,82380,0,"G#4S_Ab4S.wav",80
Sample,83011,0,"E4S.wav",80
Sample,83011,0,"G#4S_Ab4S.wav",80
Sample,83643,0,"G#4S_Ab4S.wav",80
Sample,83643,0,"E4S.wav",80
Sample,84274,0,"G#4S_Ab4S.wav",80
Sample,84274,0,"E4S.wav",80
Sample,84906,0,"B4S.wav",80
Sample,84906,0,"E4S.wav",80
Sample,85222,0,"F#4S_Gb4S.wav",80
Sample,85537,0,"F#6S_Gb6S_s.wav",80
Sample,85695,0,"F#4S_Gb4S.wav",80
Sample,86011,0,"F#6S_Gb6S_s.wav",80
Sample,86169,0,"B6S_s.wav",80
Sample,86485,0,"F#6S_Gb6S_s.wav",80
Sample,86643,0,"F#4S_Gb4S.wav",80
Sample,87116,0,"F#4S_Gb4S.wav",80
Sample,87116,0,"A#4S_Bb4S.wav",80
Sample,87432,0,"F#4S_Gb4S_s.wav",80
Sample,87590,0,"F#4S_Gb4S_s.wav",80
Sample,88695,0,"G#4S_Ab4S.wav",80
Sample,88695,0,"E4S.wav",80
Sample,89327,0,"F#4S_Gb4S.wav",80
Sample,89327,0,"A#4S_Bb4S.wav",80
Sample,89958,0,"C#5S_Db5S.wav",80
Sample,89958,0,"A#4S_Bb4S.wav",80
Sample,89958,0,"F#4S_Gb4S.wav",80
Sample,90590,0,"F#4S_Gb4S.wav",80
Sample,90590,0,"D#4S_Eb4S.wav",80
Sample,91222,0,"A#4S_Bb4S.wav",80
Sample,91222,0,"D#4S_Eb4S.wav",80
Sample,91853,0,"G#4S_Ab4S.wav",80
Sample,91853,0,"B4S.wav",80
Sample,92485,0,"B4S.wav",80
Sample,92485,0,"G#4S_Ab4S.wav",80
Sample,93116,0,"G#4S_Ab4S.wav",80
Sample,93116,0,"B4S.wav",80
Sample,93432,0,"E4S.wav",80
Sample,93748,0,"F#7S_Gb7S.wav",80
Sample,93748,0,"B4S.wav",80
Sample,93748,0,"E4S.wav",80
Sample,94380,0,"A#4S_Bb4S.wav",80
Sample,94380,0,"G4S.wav",80
Sample,94380,0,"C#5S_Db5S.wav",80
Sample,94695,0,"D#7S_Eb7S.wav",80
Sample,95011,0,"A#4S_Bb4S.wav",80
Sample,95011,0,"C#5S_Db5S.wav",80
Sample,95011,0,"G4S.wav",80
Sample,95485,0,"B4S.wav",80
Sample,95801,0,"B4S.wav",80
Sample,95801,0,"G#4S_Ab4S.wav",80
Sample,96116,0,"G#4S_Ab4S.wav",80
Sample,96748,0,"A#7S_Bb7S_s.wav",80
Sample,96748,0,"G#4S_Ab4S.wav",80
Sample,96748,0,"B4S.wav",80
Sample,97064,0,"F#7S_Gb7S_s.wav",80
Sample,97222,0,"B4S.wav",80
Sample,97222,0,"G#4S_Ab4S.wav",80
Sample,97695,0,"B4S_s.wav",80
Sample,97695,0,"G#4S_Ab4S_s.wav",80
Sample,97853,0,"A#6S_Bb6S.wav",80
Sample,98169,0,"E4S.wav",80
Sample,98801,0,"G#4S_Ab4S.wav",80
Sample,98801,0,"E4S.wav",80
Sample,99432,0,"A#4S_Bb4S.wav",80
Sample,99432,0,"F#4S_Gb4S.wav",80
Sample,100064,0,"C#5S_Db5S.wav",80
Sample,100064,0,"A#4S_Bb4S.wav",80
Sample,100064,0,"F#4S_Gb4S.wav",80
Sample,100695,0,"G4S.wav",80
Sample,100695,0,"A#4S_Bb4S.wav",80
Sample,101327,0,"A#4S_Bb4S.wav",80
Sample,101327,0,"D#4S_Eb4S.wav",80
Sample,101958,0,"G#4S_Ab4S.wav",80
Sample,101958,0,"B4S.wav",80
Sample,102590,0,"D#5S_Eb5S.wav",80
Sample,102590,0,"G#4S_Ab4S.wav",80
Sample,102906,0,"E4S.wav",80
Sample,103222,0,"E4S_s.wav",80
Sample,103380,0,"E4S.wav",80
Sample,103695,0,"F#7S_Gb7S_s.wav",80
Sample,103853,0,"G#4S_Ab4S.wav",80
Sample,104169,0,"E4S_s.wav",80
Sample,104327,0,"E4S.wav",80
Sample,104643,0,"F#7S_Gb7S_s.wav",80
Sample,104801,0,"G#4S_Ab4S.wav",80
Sample,104958,0,"soft-hitwhistle.wav",0
Sample,105748,0,"F#4S_Gb4S.wav",80
Sample,105748,0,"G#7S_Ab7S_s.wav",80
Sample,105748,0,"C#5S_Db5S.wav",80
Sample,106064,0,"F#4S_Gb4S.wav",80
Sample,106380,0,"A#4S_Bb4S.wav",80
Sample,106380,0,"C#5S_Db5S.wav",80
Sample,106380,0,"F#4S_Gb4S.wav",80
Sample,106695,0,"A#7S_Bb7S_s.wav",80
Sample,106695,0,"F#4S_Gb4S.wav",80
Sample,107011,0,"A#4S_Bb4S.wav",80
Sample,107643,0,"A#4S_Bb4S.wav",80
Sample,107643,0,"F#4S_Gb4S.wav",80
Sample,107880,0,"soft-hitclap.wav",0
Sample,108274,0,"G#7S_Ab7S_s.wav",80
Sample,108274,0,"G#4S_Ab4S.wav",80
Sample,108274,0,"E4S.wav",80
Sample,108590,0,"E4S.wav",80
Sample,108906,0,"B4S.wav",80
Sample,108906,0,"C#7S_Db7S_s.wav",80
Sample,108906,0,"G#4S_Ab4S.wav",80
Sample,109537,0,"A#4S_Bb4S.wav",80
Sample,109537,0,"C#5S_Db5S.wav",80
Sample,109537,0,"F#4S_Gb4S.wav",80
Sample,109853,0,"F#4S_Gb4S.wav",80
Sample,110169,0,"A#4S_Bb4S.wav",80
Sample,110169,0,"C#5S_Db5S.wav",80
Sample,110169,0,"F#4S_Gb4S.wav",80
Sample,110801,0,"D#4S_Eb4S.wav",80
Sample,111432,0,"D#4S_Eb4S.wav",80
Sample,112064,0,"G#4S_Ab4S.wav",80
Sample,112695,0,"G#4S_Ab4S.wav",80
Sample,113327,0,"B4S.wav",80
Sample,113327,0,"D#6S_Eb6S_s.wav",80
Sample,113327,0,"E4S.wav",80
Sample,113643,0,"F#6S_Gb6S_s.wav",80
Sample,113958,0,"A#6S_Bb6S_s.wav",80
Sample,113958,0,"G#4S_Ab4S.wav",80
Sample,113958,0,"E4S.wav",80
Sample,114590,0,"A#4S_Bb4S.wav",80
Sample,114906,0,"A#4S_Bb4S_s.wav",80
Sample,115143,0,"A#4S_Bb4S_s.wav",80
Sample,115380,0,"G4S_s.wav",80
Sample,115853,0,"G#4S_Ab4S.wav",80
Sample,116485,0,"G#4S_Ab4S.wav",80
Sample,117116,0,"G#7S_Ab7S_s.wav",80
Sample,117116,0,"G#4S_Ab4S.wav",80
Sample,117353,0,"soft-hitclap.wav",0
Sample,117748,0,"B4S.wav",80
Sample,117748,0,"G#4S_Ab4S.wav",80
Sample,117985,0,"soft-hitwhistle.wav",0
Sample,118380,0,"G#4S_Ab4S.wav",80
Sample,119011,0,"G#4S_Ab4S.wav",80
Sample,119643,0,"A#4S_Bb4S.wav",80
Sample,120274,0,"F#4S_Gb4S.wav",80
Sample,120274,0,"A#4S_Bb4S.wav",80
Sample,120906,0,"G4S.wav",80
Sample,121222,0,"soft-hitwhistle.wav",0
Sample,121222,0,"D#4S_Eb4S.wav",80
Sample,121537,0,"D#4S_Eb4S.wav",80
Sample,122169,0,"G#4S_Ab4S.wav",80
Sample,122169,0,"B4S.wav",80
Sample,122485,0,"B6S.wav",80
Sample,122801,0,"B4S.wav",80
Sample,122801,0,"G#4S_Ab4S.wav",80
Sample,123432,0,"F#7S_Gb7S_s.wav",80
Sample,123906,0,"F#7S_Gb7S_s.wav",80
Sample,124380,0,"E4S_s.wav",80
Sample,124853,0,"E4S_s.wav",80
Sample,125011,0,"E4S.wav",80
Sample,126590,0,"A#4S_Bb4S.wav",80
Sample,127222,0,"A#4S_Bb4S.wav",80
Sample,127222,0,"C#5S_Db5S.wav",80
Sample,127222,0,"F#4S_Gb4S.wav",80
Sample,127537,0,"F#4S_Gb4S.wav",80
Sample,127853,0,"F#4S_Gb4S.wav",80
Sample,127853,0,"D#7S_Eb7S_s.wav",80
Sample,127853,0,"A#4S_Bb4S.wav",80
Sample,128169,0,"E5S.wav",80
Sample,129432,0,"F#5S_Gb5S.wav",80
Sample,130695,0,"A#6S_Bb6S.wav",80
Sample,130695,0,"D#5S_Eb5S.wav",80
Sample,131958,0,"B5S.wav",80
Sample,133222,0,"G#5S_Ab5S.wav",80
Sample,133222,0,"E5S.wav",80
Sample,134485,0,"A#5S_Bb5S.wav",80
Sample,135116,0,"C#6S_Db6S.wav",80
Sample,135116,0,"G5S.wav",80
Sample,135748,0,"A#6S_Bb6S.wav",80
Sample,135748,0,"G#5S_Ab5S.wav",80

[TimingPoints]
4380,315.789473684211,4,2,1,60,1,0
4380,-125,4,2,1,60,0,0
22380,-120.481927710843,4,2,1,60,0,0
22853,-114.942528735632,4,2,1,60,0,0
23327,-108.695652173913,4,2,1,60,0,0
23643,-105.263157894737,4,2,1,60,0,0
23801,-102.040816326531,4,2,1,60,0,0
23958,-98.0392156862745,4,2,1,60,0,0
24116,-94.3396226415094,4,2,1,60,0,0
24274,-90.9090909090909,4,2,1,60,0,0
24353,-86.9565217391304,4,2,1,60,0,0
24432,-83.3333333333333,4,2,1,60,0,0
24511,-80,4,2,1,60,0,0
24551,-76.9230769230769,4,2,1,60,0,0
24590,-100,4,2,1,60,0,0
32011,-105.263157894737,4,2,1,60,0,0
32064,-111.111111111111,4,2,1,60,0,0
32116,-117.647058823529,4,2,1,60,0,0
32169,-125,4,2,1,60,0,0
32222,-142.857142857143,4,2,1,60,0,0
32274,-166.666666666667,4,2,1,60,0,0
32327,-200,4,2,1,60,0,0
33432,-111.111111111111,4,2,1,60,0,0
44801,-100,4,2,1,60,0,0
52380,-62.5,4,2,1,60,0,0
52432,-142.857142857143,4,2,1,60,0,0
52537,-100,4,2,1,60,0,0
52853,-62.5,4,2,1,60,0,0
52905,-142.857142857143,4,2,1,60,0,0
53010,-100,4,2,1,60,0,0
53327,-62.5,4,2,1,60,0,0
53379,-142.857142857143,4,2,1,60,0,0
53484,-100,4,2,1,60,0,0
54906,-25,4,2,1,60,0,0
54926,-111.111111111111,4,2,1,60,0,0
59643,-50,4,2,1,60,0,0
59682,-1000,4,2,1,60,0,0
59722,-71.4285714285714,4,2,1,60,0,0
59761,-1000,4,2,1,60,0,0
59801,-50,4,2,1,60,0,0
59840,-1000,4,2,1,60,0,0
59880,-71.4285714285714,4,2,1,60,0,0
59919,-1000,4,2,1,60,0,0
59958,-100,4,2,1,60,0,0
61853,-71.4285714285714,4,2,1,60,0,0
61932,-100,4,2,1,60,0,0
62011,-166.666666666667,4,2,1,60,0,0
62090,-71.4285714285714,4,2,1,60,0,0
62169,-100,4,2,1,60,0,0
62248,-166.666666666667,4,2,1,60,0,0
62327,-83.3333333333333,4,2,1,60,0,0
62405,-125,4,2,1,60,0,0
62485,-62.5,4,2,1,60,0,0
62537,-142.857142857143,4,2,1,60,0,0
62643,-100,4,2,1,60,0,0
62958,-62.5,4,2,1,60,0,0
63010,-142.857142857143,4,2,1,60,0,0
63116,-100,4,2,1,60,0,0
63432,-62.5,4,2,1,60,0,0
63484,-142.857142857143,4,2,1,60,0,0
63590,-100,4,2,1,60,0,0
63906,-62.5,4,2,1,60,0,0
63958,-142.857142857143,4,2,1,60,0,0
64064,-100,4,2,1,60,0,0
64380,-62.5,4,2,1,60,0,0
64432,-142.857142857143,4,2,1,60,0,0
64538,-100,4,2,1,60,0,0
64853,-62.5,4,2,1,60,0,0
64905,-142.857142857143,4,2,1,60,0,0
65011,-100,4,2,1,60,0,0
66274,-66.6666666666667,4,2,1,60,0,0
66485,-80,4,2,1,60,0,0
66537,-100,4,2,1,60,0,0
66590,-133.333333333333,4,2,1,60,0,0
66643,-200,4,2,1,60,0,0
66695,-100,4,2,1,60,0,0
67222,-133.333333333333,4,2,1,60,0,0
67261,-200,4,2,1,60,0,0
67301,-400,4,2,1,60,0,0
67340,-200,4,2,1,60,0,0
67380,-133.333333333333,4,2,1,60,0,0
67419,-100,4,2,1,60,0,0
67459,-80,4,2,1,60,0,0
67498,-66.6666666666667,4,2,1,60,0,0
67537,-100,4,2,1,60,0,1
82695,-100,4,2,1,60,0,0
85222,-62.5,4,2,1,60,0,0
85274,-142.857142857143,4,2,1,60,0,0
85380,-100,4,2,1,60,0,0
85695,-62.5,4,2,1,60,0,0
85748,-142.857142857143,4,2,1,60,0,0
85853,-100,4,2,1,60,0,0
86169,-62.5,4,2,1,60,0,0
86222,-142.857142857143,4,2,1,60,0,0
86327,-100,4,2,1,60,0,0
86643,-62.5,4,2,1,60,0,0
86695,-142.857142857143,4,2,1,60,0,0
86801,-100,4,2,1,60,0,0
87748,-133.333333333333,4,2,1,60,0,0
87787,-200,4,2,1,60,0,0
87827,-400,4,2,1,60,0,0
87866,-200,4,2,1,60,0,0
87906,-133.333333333333,4,2,1,60,0,0
87945,-100,4,2,1,60,0,0
87985,-80,4,2,1,60,0,0
88024,-66.6666666666667,4,2,1,60,0,0
88064,-100,4,2,1,60,0,1
95485,-83.3333333333333,4,2,1,60,0,1
95511,-100,4,2,1,60,0,1
95537,-125,4,2,1,60,0,1
95564,-74.0740740740741,4,2,1,60,0,1
95590,-100,4,2,1,60,0,1
95616,-153.846153846154,4,2,1,60,0,1
95643,-66.6666666666667,4,2,1,60,0,1
95695,-133.333333333333,4,2,1,60,0,1
95801,-66.6666666666667,4,2,1,60,0,1
95853,-133.333333333333,4,2,1,60,0,1
95958,-66.6666666666667,4,2,1,60,0,1
96010,-133.333333333333,4,2,1,60,0,1
96116,-66.6666666666667,4,2,1,60,0,1
96168,-133.333333333333,4,2,1,60,0,1
96274,-55.5555555555556,4,2,1,60,0,1
96327,-166.666666666667,4,2,1,60,0,1
96432,-76.9230769230769,4,2,1,60,0,1
96485,-117.647058823529,4,2,1,60,0,1
96590,-100,4,2,1,60,0,1
97222,-41.6666666666667,4,2,1,60,0,1
97241,-125,4,2,1,60,0,1
97380,-41.6666666666667,4,2,1,60,0,1
97399,-125,4,2,1,60,0,1
97537,-41.6666666666667,4,2,1,60,0,1
97556,-125,4,2,1,60,0,1
97695,-41.6666666666667,4,2,1,60,0,1
97714,-125,4,2,1,60,0,1
97853,-100,4,2,1,60,0,1
102906,-62.5,4,2,1,60,0,1
102958,-142.857142857143,4,2,1,60,0,1
103064,-100,4,2,1,60,0,1
103380,-62.5,4,2,1,60,0,1
103432,-142.857142857143,4,2,1,60,0,1
103537,-100,4,2,1,60,0,1
103853,-62.5,4,2,1,60,0,1
103906,-142.857142857143,4,2,1,60,0,1
104011,-100,4,2,1,60,0,1
104327,-62.5,4,2,1,60,0,1
104380,-142.857142857143,4,2,1,60,0,1
104485,-100,4,2,1,60,0,1
105274,-55.5555555555556,4,2,1,60,0,0
105327,-166.666666666667,4,2,1,60,0,0
105432,-100,4,2,1,60,0,0
107958,-100,4,2,1,60,0,1
114906,-71.4285714285714,4,2,1,60,0,1
115024,-166.666666666667,4,2,1,60,0,1
115143,-71.4285714285714,4,2,1,60,0,1
115261,-166.666666666667,4,2,1,60,0,1
115380,-71.4285714285714,4,2,1,60,0,1
115458,-166.666666666667,4,2,1,60,0,1
115537,-100,4,2,1,60,0,1
116801,-71.4285714285714,4,2,1,60,0,1
116880,-166.666666666667,4,2,1,60,0,1
116958,-71.4285714285714,4,2,1,60,0,1
116998,-166.666666666667,4,2,1,60,0,1
117037,-71.4285714285714,4,2,1,60,0,1
117077,-166.666666666667,4,2,1,60,0,1
117116,-71.4285714285714,4,2,1,60,0,1
117195,-166.666666666667,4,2,1,60,0,1
117274,-71.4285714285714,4,2,1,60,0,1
117353,-166.666666666667,4,2,1,60,0,1
117432,-62.5,4,2,1,60,0,1
117472,-125,4,2,1,60,0,1
117590,-45.4545454545455,4,2,1,60,0,1
117630,-166.666666666667,4,2,1,60,0,1
117748,-45.4545454545455,4,2,1,60,0,1
117788,-166.666666666667,4,2,1,60,0,1
117906,-62.5,4,2,1,60,0,1
117946,-125,4,2,1,60,0,1
118064,-100,4,2,1,60,0,1
123116,-62.5,4,2,1,60,0,1
123169,-142.857142857143,4,2,1,60,0,1
123274,-100,4,2,1,60,0,1
123590,-62.5,4,2,1,60,0,1
123643,-142.857142857143,4,2,1,60,0,1
123748,-100,4,2,1,60,0,1
124064,-62.5,4,2,1,60,0,1
124116,-142.857142857143,4,2,1,60,0,1
124222,-100,4,2,1,60,0,1
124537,-62.5,4,2,1,60,0,1
124590,-142.857142857143,4,2,1,60,0,1
124695,-100,4,2,1,60,0,1
125485,-50,4,2,1,60,0,1
125537,-200,4,2,1,60,0,1
125643,-100,4,2,1,60,0,1
128169,-105.263157894737,4,2,1,60,0,0
130695,-111.111111111111,4,2,1,60,0,0
133222,-117.647058823529,4,2,1,60,0,0
135748,-125,4,2,1,60,0,0

[HitObjects]
36,192,4380,128,0,6906:0:0:0:80:G#5S_Ab5S.wav
475,192,4380,1,0,0:0:0:80:A#6S_Bb6S_s.wav
402,192,4537,1,0,0:0:0:80:B6S_s.wav
182,192,4695,1,0,0:0:0:80:F#7S_Gb7S_s.wav
475,192,4853,1,0,0:0:0:80:A#6S_Bb6S_s.wav
402,192,5011,1,0,0:0:0:80:B6S_s.wav
182,192,5169,1,0,0:0:0:80:F#7S_Gb7S_s.wav
475,192,5327,1,0,0:0:0:80:A#6S_Bb6S_s.wav
402,192,5485,1,0,0:0:0:80:B6S_s.wav
182,192,5643,1,0,0:0:0:80:F#7S_Gb7S_s.wav
475,192,5801,1,0,0:0:0:80:A#6S_Bb6S_s.wav
402,192,5958,1,0,0:0:0:80:B6S_s.wav
182,192,6116,1,0,0:0:0:80:F#7S_Gb7S_s.wav
475,192,6274,1,0,0:0:0:80:A#6S_Bb6S_s.wav
402,192,6432,1,0,0:0:0:80:B6S_s.wav
182,192,6590,1,0,0:0:0:80:F#7S_Gb7S_s.wav
475,192,6748,1,0,0:0:0:80:A#6S_Bb6S_s.wav
329,192,6906,1,0,0:0:0:80:A#5S_Bb5S.wav
402,192,6906,1,0,0:0:0:80:B6S_s.wav
182,192,7064,1,0,0:0:0:80:F#7S_Gb7S_s.wav
475,192,7222,1,0,0:0:0:80:A#6S_Bb6S_s.wav
256,192,7380,1,0,0:0:0:80:B6S_s.wav
329,192,7380,1,0,0:0:0:80:B5S.wav
182,192,7537,1,0,0:0:0:80:F#7S_Gb7S_s.wav
475,192,7695,1,0,0:0:0:80:A#6S_Bb6S_s.wav
36,192,7853,1,0,0:0:0:80:B6S_s.wav
109,192,7853,1,0,0:0:0:80:F#6S_Gb6S.wav
402,192,8011,1,0,0:0:0:80:F#7S_Gb7S_s.wav
329,192,8169,1,0,0:0:0:80:A#6S_Bb6S_s.wav
109,192,8327,1,0,0:0:0:80:B6S_s.wav
182,192,8327,1,0,0:0:0:80:E6S.wav
256,192,8485,1,0,0:0:0:80:F#7S_Gb7S_s.wav
36,192,8643,1,0,0:0:0:80:B6S_s.wav
182,192,8801,1,0,0:0:0:80:F#7S_Gb7S_s.wav
256,192,8801,1,0,0:0:0:80:D#6S_Eb6S.wav
329,192,9116,1,0,0:0:0:80:G#7S_Ab7S_s.wav
475,192,9116,1,0,0:0:0:80:C#6S_Db6S.wav
182,192,9274,1,0,0:0:0:80:F#7S_Gb7S_s.wav
402,192,9274,1,0,0:0:0:0:
36,192,9432,1,0,0:0:0:80:A#6S_Bb6S_s.wav
256,192,9432,1,0,0:0:0:80:A#5S_Bb5S.wav
329,192,9432,128,0,11643:0:0:0:80:F#5S_Gb5S.wav
109,192,9590,1,0,0:0:0:80:B6S_s.wav
475,192,9748,1,0,0:0:0:80:F#7S_Gb7S_s.wav
36,192,9906,1,0,0:0:0:80:A#6S_Bb6S_s.wav
109,192,10064,1,0,0:0:0:80:B6S_s.wav
475,192,10222,1,0,0:0:0:80:F#7S_Gb7S_s.wav
36,192,10380,1,0,0:0:0:80:A#6S_Bb6S_s.wav
109,192,10537,1,0,0:0:0:80:B6S_s.wav
475,192,10695,1,0,0:0:0:80:F#7S_Gb7S_s.wav
36,192,10853,1,0,0:0:0:80:A#6S_Bb6S_s.wav
109,192,11011,1,0,0:0:0:80:B6S_s.wav
475,192,11169,1,0,0:0:0:80:F#7S_Gb7S_s.wav
36,192,11327,1,0,0:0:0:80:A#6S_Bb6S_s.wav
109,192,11485,1,0,0:0:0:80:B6S_s.wav
402,192,11643,1,0,0:0:0:80:F#7S_Gb7S_s.wav
475,192,11643,1,0,0:0:0:80:D#6S_Eb6S.wav
182,192,11801,1,0,0:0:0:80:A#6S_Bb6S_s.wav
329,192,11958,1,0,0:0:0:80:B6S_s.wav
402,192,11958,1,0,0:0:0:80:C#6S_Db6S.wav
475,192,12116,1,0,0:0:0:80:F#7S_Gb7S_s.wav
109,192,12274,1,0,0:0:0:80:A#6S_Bb6S_s.wav
182,192,12432,1,0,0:0:0:80:B6S_s.wav
329,192,12590,1,0,0:0:0:80:F#7S_Gb7S_s.wav
109,192,12748,1,0,0:0:0:80:A#6S_Bb6S_s.wav
182,192,12906,1,0,0:0:0:80:B6S_s.wav
329,192,13064,1,0,0:0:0:80:F#7S_Gb7S_s.wav
402,192,13222,1,0,0:0:0:80:B7S_s.wav
475,192,13222,1,0,0:0:0:0:
36,192,13380,1,0,0:0:0:80:A#6S_Bb6S_s.wav
329,192,13537,1,0,0:0:0:80:A#7S_Bb7S_s.wav
402,192,13537,1,0,0:0:0:0:
36,192,13695,1,0,0:0:0:80:A#6S_Bb6S_s.wav
182,192,13853,1,0,0:0:0:80:F#7S_Gb7S_s.wav
329,192,13853,1,0,0:0:0:0:
36,192,14011,1,0,0:0:0:80:A#6S_Bb6S_s.wav
182,192,14169,1,0,0:0:0:80:C#7S_Db7S_s.wav
109,192,14327,1,0,0:0:0:80:D#5S_Eb5S.wav
402,192,14327,1,0,0:0:0:80:A#6S_Bb6S_s.wav
329,192,14380,1,0,0:0:0:80:F#5S_Gb5S.wav
256,192,14432,1,0,0:0:0:80:A#5S_Bb5S.wav
36,192,14485,1,0,0:0:0:80:C#6S_Db6S.wav
182,192,14485,128,0,17011:0:0:0:80:A#6S_Bb6S_s.wav
475,192,14485,1,0,0:0:0:0:
402,192,14643,1,0,0:0:0:80:B6S_s.wav
36,192,14801,1,0,0:0:0:80:F#7S_Gb7S_s.wav
475,192,14958,1,0,0:0:0:80:A#6S_Bb6S_s.wav
402,192,15116,1,0,0:0:0:80:B6S_s.wav
36,192,15274,1,0,0:0:0:80:F#7S_Gb7S_s.wav
475,192,15432,1,0,0:0:0:80:A#6S_Bb6S_s.wav
402,192,15590,1,0,0:0:0:80:B6S_s.wav
36,192,15748,1,0,0:0:0:80:F#7S_Gb7S_s.wav
475,192,15906,1,0,0:0:0:80:A#6S_Bb6S_s.wav
402,192,16064,1,0,0:0:0:80:B6S_s.wav
36,192,16222,1,0,0:0:0:80:F#7S_Gb7S_s.wav
475,192,16380,1,0,0:0:0:80:A#6S_Bb6S_s.wav
402,192,16537,1,0,0:0:0:80:B6S_s.wav
36,192,16695,1,0,0:0:0:80:F#7S_Gb7S_s.wav
475,192,16853,1,0,0:0:0:80:A#6S_Bb6S_s.wav
329,192,17011,1,0,0:0:0:80:B6S_s.wav
402,192,17011,1,0,0:0:0:80:A#5S_Bb5S.wav
182,192,17169,1,0,0:0:0:80:F#7S_Gb7S_s.wav
475,192,17327,1,0,0:0:0:80:A#6S_Bb6S_s.wav
256,192,17485,1,0,0:0:0:80:B6S_s.wav
329,192,17485,1,0,0:0:0:80:B5S.wav
182,192,17643,1,0,0:0:0:80:F#7S_Gb7S_s.wav
475,192,17801,1,0,0:0:0:80:A#6S_Bb6S_s.wav
36,192,17958,1,0,0:0:0:80:F#6S_Gb6S.wav
109,192,17958,1,0,0:0:0:80:B6S_s.wav
329,192,18116,1,0,0:0:0:80:F#7S_Gb7S_s.wav
402,192,18274,1,0,0:0:0:80:A#6S_Bb6S_s.wav
109,192,18432,1,0,0:0:0:80:E6S.wav
182,192,18432,1,0,0:0:0:80:B6S_s.wav
329,192,18590,1,0,0:0:0:80:F#7S_Gb7S_s.wav
36,192,18748,1,0,0:0:0:80:B6S_s.wav
182,192,18906,1,0,0:0:0:80:D#6S_Eb6S.wav
329,192,18906,1,0,0:0:0:80:F#7S_Gb7S_s.wav
109,192,19064,1,0,0:0:0:0:
256,192,19222,1,0,0:0:0:80:G#7S_Ab7S_s.wav
402,192,19222,1,0,0:0:0:80:C#6S_Db6S.wav
182,192,19380,1,0,0:0:0:80:B5S_s.wav
329,192,19380,1,0,0:0:0:80:F#7S_Gb7S_s.wav
402,192,19458,1,0,0:0:0:0:
36,192,19537,1,0,0:0:0:80:A#6S_Bb6S_s.wav
109,192,19537,1,0,0:0:0:80:C#6S_Db6S.wav
475,192,19537,128,0,21748:0:0:0:0:
182,192,19695,1,0,0:0:0:80:B6S_s.wav
329,192,19853,1,0,0:0:0:80:F#7S_Gb7S_s.wav
36,192,20011,1,0,0:0:0:80:A#6S_Bb6S_s.wav
109,192,20169,1,0,0:0:0:80:B6S_s.wav
329,192,20327,1,0,0:0:0:80:F#7S_Gb7S_s.wav
36,192,20485,1,0,0:0:0:80:A#6S_Bb6S_s.wav
109,192,20643,1,0,0:0:0:80:B6S_s.wav
329,192,20801,1,0,0:0:0:80:F#7S_Gb7S_s.wav
36,192,20958,1,0,0:0:0:80:A#6S_Bb6S_s.wav
109,192,21116,1,0,0:0:0:80:B6S_s.wav
329,192,21274,1,0,0:0:0:80:F#7S_Gb7S_s.wav
36,192,21432,1,0,0:0:0:80:A#6S_Bb6S_s.wav
109,192,21590,1,0,0:0:0:80:B6S_s.wav
256,192,21748,1,0,0:0:0:80:F#7S_Gb7S_s.wav
402,192,21748,1,0,0:0:0:80:B5S_s.wav
109,192,21906,1,0,0:0:0:80:A#6S_Bb6S_s.wav
329,192,21906,1,0,0:0:0:80:A#5S_Bb5S_s.wav
182,192,22064,1,0,0:0:0:80:B6S_s.wav
402,192,22064,1,0,0:0:0:80:B5S.wav
329,192,22222,1,0,0:0:0:80:F#7S_Gb7S_s.wav
109,192,22380,1,0,0:0:0:80:A#6S_Bb6S_s.wav
182,192,22537,1,0,0:0:0:80:B6S_s.wav
329,192,22695,1,0,0:0:0:80:F#7S_Gb7S_s.wav
109,192,22853,1,0,0:0:0:60:reverse.wav
182,192,23011,1,0,0:0:0:80:B6S_s.wav
329,192,23169,1,0,0:0:0:80:F#7S_Gb7S_s.wav
36,192,23327,128,0,24590:0:0:0:80:B7S_s.wav
109,192,23327,1,0,0:0:0:0:
256,192,23327,1,0,0:0:0:0:
475,192,23485,1,0,0:0:0:80:A#6S_Bb6S_s.wav
182,192,23643,1,0,0:0:0:80:A#7S_Bb7S_s.wav
329,192,23643,1,0,0:0:0:0:
475,192,23801,1,0,0:0:0:80:A#6S_Bb6S_s.wav
256,192,23958,1,0,0:0:0:80:F#7S_Gb7S_s.wav
402,192,23958,1,0,0:0:0:0:
475,192,24116,1,0,0:0:0:80:A#6S_Bb6S_s.wav
329,192,24274,1,0,0:0:0:80:C#7S_Db7S_s.wav
109,192,24590,1,4,0:0:0:0:
402,192,24590,128,0,27116:0:0:0:80:E4S.wav
475,192,24590,128,0,27116:0:0:0:80:A#6S_Bb6S_s.wav
182,192,24748,1,0,0:0:0:80:B6S_s.wav
329,192,24906,1,0,0:0:0:80:F#7S_Gb7S_s.wav
109,192,25064,1,0,0:0:0:80:A#6S_Bb6S_s.wav
182,192,25222,1,0,0:0:0:80:B6S_s.wav
329,192,25380,1,0,0:0:0:80:F#7S_Gb7S_s.wav
109,192,25537,1,0,0:0:0:80:A#6S_Bb6S_s.wav
182,192,25695,1,0,0:0:0:80:B6S_s.wav
329,192,25853,1,0,0:0:0:80:F#7S_Gb7S_s.wav
109,192,26011,1,0,0:0:0:80:A#6S_Bb6S_s.wav
182,192,26169,1,0,0:0:0:80:B6S_s.wav
329,192,26327,1,0,0:0:0:80:F#7S_Gb7S_s.wav
109,192,26485,1,0,0:0:0:80:A#6S_Bb6S_s.wav
182,192,26643,1,0,0:0:0:80:B6S_s.wav
329,192,26801,1,0,0:0:0:80:F#7S_Gb7S_s.wav
109,192,26958,1,0,0:0:0:80:A#6S_Bb6S_s.wav
182,192,27116,1,0,0:0:0:80:B6S_s.wav
329,192,27116,128,0,27590:0:0:0:80:E4S.wav
36,192,27274,1,0,0:0:0:80:F#7S_Gb7S_s.wav
182,192,27432,1,0,0:0:0:80:A#6S_Bb6S_s.wav
109,192,27590,1,0,0:0:0:80:D#4S_Eb4S.wav
256,192,27590,128,0,28064:0:0:0:80:B6S_s.wav
475,192,27748,1,0,0:0:0:80:F#7S_Gb7S_s.wav
36,192,27906,1,0,0:0:0:80:A#6S_Bb6S_s.wav
109,192,28064,128,0,28537:0:0:0:80:B3S.wav
402,192,28064,1,0,0:0:0:80:B6S_s.wav
475,192,28222,1,0,0:0:0:80:F#7S_Gb7S_s.wav
329,192,28380,1,0,0:0:0:80:A#6S_Bb6S_s.wav
36,192,28537,128,0,29011:0:0:0:80:F#3S_Gb3S.wav
402,192,28537,1,0,0:0:0:80:B6S_s.wav
182,192,28695,1,0,0:0:0:80:F#7S_Gb7S_s.wav
475,192,28853,1,0,0:0:0:80:A#6S_Bb6S_s.wav
256,192,29011,128,0,32169:0:0:0:80:C#4S_Db4S.wav
402,192,29011,1,0,0:0:0:80:B6S_s.wav
109,192,29169,1,0,0:0:0:80:F#7S_Gb7S_s.wav
475,192,29327,1,0,0:0:0:80:A#6S_Bb6S_s.wav
402,192,29485,1,0,0:0:0:80:B6S_s.wav
109,192,29643,1,0,0:0:0:80:F#7S_Gb7S_s.wav
475,192,29801,1,0,0:0:0:80:A#6S_Bb6S_s.wav
402,192,29958,1,0,0:0:0:80:B6S_s.wav
109,192,30116,1,0,0:0:0:80:F#7S_Gb7S_s.wav
475,192,30274,1,0,0:0:0:80:A#6S_Bb6S_s.wav
402,192,30432,1,0,0:0:0:80:B6S_s.wav
109,192,30590,1,0,0:0:0:80:F#7S_Gb7S_s.wav
475,192,30748,1,0,0:0:0:80:A#6S_Bb6S_s.wav
402,192,30906,1,0,0:0:0:80:B6S_s.wav
109,192,31064,1,0,0:0:0:80:F#7S_Gb7S_s.wav
475,192,31222,1,0,0:0:0:80:A#6S_Bb6S_s.wav
402,192,31380,1,0,0:0:0:80:B6S_s.wav
109,192,31537,1,0,0:0:0:80:F#7S_Gb7S_s.wav
475,192,31695,1,0,0:0:0:80:A#6S_Bb6S_s.wav
329,192,31853,1,0,0:0:0:80:G#7S_Ab7S_s.wav
182,192,32011,128,0,32169:0:0:0:80:F#7S_Gb7S_s.wav
402,192,32011,1,0,0:0:0:0:
109,192,32064,128,0,32169:0:0:0:0:
36,192,32116,128,0,32169:0:0:0:0:
256,192,33274,1,0,0:0:0:80:F#7S_Gb7S_s.wav
329,192,33314,1,0,0:0:0:80:B7S_s.wav
402,192,33353,1,0,0:0:0:80:C#8S_Db8S_s.wav
475,192,33432,1,0,0:0:0:80:F#8S_Gb8S_s.wav
36,192,34695,1,0,0:0:0:80:G#4S_Ab4S.wav
182,192,34695,1,0,0:0:0:80:A#5S_Bb5S.wav
402,192,34695,128,0,35958:0:0:0:80:B4S.wav
475,192,34695,128,0,35958:0:0:0:80:E4S.wav
109,192,35169,1,0,0:0:0:80:B5S.wav
256,192,35169,1,0,0:0:0:0:
182,192,35643,1,0,0:0:0:80:C#6S_Db6S.wav
329,192,35643,1,0,0:0:0:0:
36,192,35958,128,0,36590:0:0:0:80:C#5S_Db5S.wav
182,192,35958,128,0,36590:0:0:0:80:A#4S_Bb4S.wav
402,192,36116,1,0,0:0:0:80:B5S.wav
475,192,36116,1,0,0:0:0:0:
402,192,36590,1,0,0:0:0:80:F#6S_Gb6S_s.wav
329,192,36669,1,0,0:0:0:80:E6S_s.wav
256,192,36748,1,0,0:0:0:80:D#6S_Eb6S_s.wav
182,192,36827,1,0,0:0:0:80:C#6S_Db6S_s.wav
329,192,36906,1,0,0:0:0:80:B5S_s.wav
256,192,36985,1,0,0:0:0:80:A#5S_Bb5S_s.wav
182,192,37064,1,0,0:0:0:80:G#5S_Ab5S_s.wav
109,192,37143,1,0,0:0:0:80:F#5S_Gb5S_s.wav
36,192,37222,1,0,0:0:0:80:C#5S_Db5S.wav
256,192,37222,1,0,0:0:0:80:A#5S_Bb5S.wav
329,192,37222,128,0,38485:0:0:0:80:G#4S_Ab4S.wav
475,192,37222,128,0,38485:0:0:0:80:D#4S_Eb4S.wav
109,192,37695,1,0,0:0:0:80:B5S.wav
182,192,37695,1,0,0:0:0:0:
182,192,38169,1,0,0:0:0:80:C#6S_Db6S.wav
256,192,38169,1,0,0:0:0:0:
36,192,38485,128,0,39116:0:0:0:80:B4S.wav
109,192,38485,128,0,39116:0:0:0:80:D#5S_Eb5S.wav
329,192,38643,1,0,0:0:0:80:B5S.wav
475,192,38643,1,0,0:0:0:0:
402,192,39116,1,0,0:0:0:80:F#5S_Gb5S_s.wav
256,192,39195,1,0,0:0:0:80:C#5S_Db5S_s.wav
402,192,39274,1,0,0:0:0:80:F#5S_Gb5S_s.wav
109,192,39353,1,0,0:0:0:80:B5S_s.wav
182,192,39432,1,0,0:0:0:80:C#6S_Db6S_s.wav
329,192,39432,1,0,0:0:0:0:
109,192,39590,1,0,0:0:0:80:B5S_s.wav
256,192,39590,1,0,0:0:0:0:
36,192,39748,1,0,0:0:0:80:B4S.wav
182,192,39748,1,0,0:0:0:80:A#5S_Bb5S.wav
402,192,39748,128,0,41011:0:0:0:80:G#4S_Ab4S.wav
475,192,39748,128,0,41011:0:0:0:80:E4S.wav
109,192,40222,1,0,0:0:0:80:B5S.wav
256,192,40222,1,0,0:0:0:0:
182,192,40695,1,0,0:0:0:80:C#6S_Db6S.wav
329,192,40695,1,0,0:0:0:0:
36,192,41011,128,0,41643:0:0:0:80:C#5S_Db5S.wav
182,192,41011,128,0,41643:0:0:0:80:F#4S_Gb4S.wav
402,192,41169,1,0,0:0:0:80:B5S.wav
475,192,41169,1,0,0:0:0:0:
109,192,41643,1,0,0:0:0:80:C#5S_Db5S.wav
402,192,41643,1,0,0:0:0:80:A#4S_Bb4S.wav
475,192,41643,1,0,0:0:0:80:F#6S_Gb6S_s.wav
329,192,41722,1,0,0:0:0:80:E6S_s.wav
256,192,41801,1,0,0:0:0:80:D#6S_Eb6S_s.wav
182,192,41880,1,0,0:0:0:80:C#6S_Db6S_s.wav
329,192,41958,1,0,0:0:0:80:B5S_s.wav
256,192,42037,1,0,0:0:0:80:A#5S_Bb5S_s.wav
182,192,42116,1,0,0:0:0:80:G#5S_Ab5S_s.wav
109,192,42195,1,0,0:0:0:80:F#5S_Gb5S_s.wav
36,192,42274,1,0,0:0:0:80:B4S.wav
256,192,42274,1,0,0:0:0:80:D#5S_Eb5S.wav
329,192,42274,128,0,44169:0:0:0:80:A#5S_Bb5S.wav
475,192,42274,128,0,44169:0:0:0:80:G#4S_Ab4S.wav
109,192,42748,1,0,0:0:0:80:B5S.wav
182,192,42748,1,0,0:0:0:0:
182,192,43222,1,0,0:0:0:80:C#6S_Db6S.wav
256,192,43222,1,0,0:0:0:0:
256,192,43695,1,0,0:0:0:80:D#6S_Eb6S.wav
402,192,43695,1,0,0:0:0:0:
182,192,44169,1,0,0:0:0:80:B6S_s.wav
109,192,44248,1,0,0:0:0:80:A#6S_Bb6S_s.wav
329,192,44327,1,0,0:0:0:80:G#6S_Ab6S_s.wav
256,192,44406,1,0,0:0:0:80:F#6S_Gb6S_s.wav
182,192,44485,1,0,0:0:0:80:E6S_s.wav
402,192,44564,1,0,0:0:0:80:D#6S_Eb6S_s.wav
329,192,44643,1,0,0:0:0:80:C#6S_Db6S_s.wav
256,192,44722,1,0,0:0:0:80:B5S_s.wav
36,192,44801,128,4,46064:0:0:0:0:
109,192,44801,1,2,0:0:0:0:
182,192,44801,1,0,0:0:0:80:A#5S_Bb5S.wav
402,192,44801,1,0,0:0:0:80:E4S.wav
475,192,44801,1,0,0:0:0:0:
182,192,45116,1,8,0:0:0:0:
256,192,45116,1,0,0:0:0:80:G#4S_Ab4S.wav
475,192,45116,1,0,0:0:0:80:B4S.wav
329,192,45274,1,0,0:0:0:80:B5S.wav
402,192,45274,1,0,0:0:0:0:
109,192,45590,1,2,0:0:0:0:
182,192,45590,1,0,0:0:0:0:
256,192,45748,1,8,0:0:0:0:
402,192,45748,1,0,0:0:0:80:C#6S_Db6S.wav
475,192,45748,1,0,0:0:0:80:B4S.wav
182,192,46064,128,2,46695:0:0:0:0:
329,192,46064,1,0,0:0:0:80:F#4S_Gb4S.wav
402,192,46064,1,0,0:0:0:0:
36,192,46222,1,0,0:0:0:80:B5S.wav
109,192,46222,1,0,0:0:0:0:
256,192,46380,1,8,0:0:0:0:
329,192,46380,1,0,0:0:0:80:A#4S_Bb4S.wav
475,192,46380,1,0,0:0:0:80:C#5S_Db5S.wav
329,192,46695,1,0,0:0:0:80:F#6S_Gb6S_s.wav
256,192,46774,1,0,0:0:0:80:E6S_s.wav
182,192,46853,1,2,0:0:0:0:
402,192,46853,1,0,0:0:0:80:D#6S_Eb6S_s.wav
475,192,46853,1,0,0:0:0:0:
109,192,46932,1,0,0:0:0:80:C#6S_Db6S_s.wav
36,192,47011,1,8,0:0:0:0:
256,192,47011,1,0,0:0:0:80:A#4S_Bb4S.wav
329,192,47011,1,0,0:0:0:80:C#5S_Db5S.wav
475,192,47011,1,0,0:0:0:80:B5S_s.wav
182,192,47090,1,0,0:0:0:80:A#5S_Bb5S_s.wav
109,192,47169,1,0,0:0:0:80:G#5S_Ab5S_s.wav
36,192,47327,1,2,0:0:0:0:
182,192,47327,1,4,0:0:0:0:
329,192,47327,128,0,48590:0:0:0:80:A#5S_Bb5S.wav
402,192,47327,1,0,0:0:0:80:G4S.wav
475,192,47327,1,0,0:0:0:0:
36,192,47643,1,8,0:0:0:0:
256,192,47643,1,0,0:0:0:80:C#5S_Db5S.wav
475,192,47643,1,0,0:0:0:80:G4S.wav
109,192,47801,1,0,0:0:0:80:C#6S_Db6S.wav
182,192,47801,1,0,0:0:0:0:
36,192,48116,1,2,0:0:0:0:
109,192,48116,1,0,0:0:0:0:
182,192,48274,1,8,0:0:0:0:
256,192,48274,1,0,0:0:0:80:A#4S_Bb4S.wav
475,192,48274,1,0,0:0:0:80:D#6S_Eb6S.wav
109,192,48590,1,2,0:0:0:0:
182,192,48590,1,0,0:0:0:80:G#4S_Ab4S.wav
475,192,48590,128,0,49537:0:0:0:80:C#6S_Db6S.wav
36,192,48906,1,8,0:0:0:0:
256,192,48906,1,0,0:0:0:80:D#5S_Eb5S.wav
329,192,48906,1,0,0:0:0:80:G#4S_Ab4S.wav
182,192,49064,1,0,0:0:0:80:B5S_s.wav
329,192,49143,1,0,0:0:0:80:A#5S_Bb5S_s.wav
182,192,49222,1,0,0:0:0:80:G#4S_Ab4S.wav
109,192,49380,1,2,0:0:0:0:
329,192,49380,1,0,0:0:0:0:
36,192,49537,1,8,0:0:0:0:
256,192,49537,1,0,0:0:0:80:D#5S_Eb5S.wav
402,192,49537,1,0,0:0:0:80:B4S.wav
36,192,49853,128,4,51116:0:0:0:0:
109,192,49853,1,2,0:0:0:0:
182,192,49853,1,0,0:0:0:80:E4S.wav
402,192,49853,1,0,0:0:0:80:A#5S_Bb5S.wav
475,192,49853,1,0,0:0:0:0:
182,192,50169,1,8,0:0:0:0:
256,192,50169,1,0,0:0:0:80:B4S.wav
475,192,50169,1,0,0:0:0:80:E4S.wav
329,192,50327,1,0,0:0:0:80:B5S.wav
402,192,50327,1,0,0:0:0:0:
109,192,50643,1,2,0:0:0:0:
182,192,50643,1,0,0:0:0:0:
256,192,50801,1,8,0:0:0:0:
402,192,50801,1,0,0:0:0:80:C#6S_Db6S.wav
475,192,50801,1,0,0:0:0:80:B4S.wav
182,192,51116,128,2,51748:0:0:0:0:
329,192,51116,1,0,0:0:0:80:F#4S_Gb4S.wav
402,192,51116,1,0,0:0:0:0:
36,192,51274,1,0,0:0:0:80:B5S.wav
109,192,51274,1,0,0:0:0:0:
256,192,51432,1,8,0:0:0:0:
329,192,51432,1,0,0:0:0:80:A#4S_Bb4S.wav
475,192,51432,1,0,0:0:0:80:F#4S_Gb4S.wav
329,192,51748,1,0,0:0:0:80:F#6S_Gb6S_s.wav
256,192,51827,1,0,0:0:0:80:E6S_s.wav
182,192,51906,1,2,0:0:0:0:
402,192,51906,1,0,0:0:0:80:D#6S_Eb6S_s.wav
475,192,51906,1,0,0:0:0:0:
329,192,51985,1,0,0:0:0:80:C#6S_Db6S_s.wav
36,192,52064,1,8,0:0:0:0:
109,192,52064,1,0,0:0:0:80:C#5S_Db5S.wav
256,192,52064,1,0,0:0:0:80:B5S_s.wav
182,192,52143,1,0,0:0:0:80:A#5S_Bb5S_s.wav
256,192,52222,1,0,0:0:0:80:G#5S_Ab5S_s.wav
329,192,52301,1,0,0:0:0:80:F#5S_Gb5S_s.wav
36,192,52380,1,6,0:0:0:0:
109,192,52380,1,0,0:0:0:80:A#5S_Bb5S.wav
182,192,52380,128,0,52695:0:0:0:80:D#5S_Eb5S.wav
402,192,52380,1,0,0:0:0:80:G#4S_Ab4S.wav
475,192,52380,1,0,0:0:0:80:B4S.wav
402,192,52537,1,0,0:0:0:0:
475,192,52537,1,0,0:0:0:0:
36,192,52695,1,2,0:0:0:0:
109,192,52695,1,0,0:0:0:80:G#4S_Ab4S_s.wav
36,192,52853,1,6,0:0:0:0:
109,192,52853,1,0,0:0:0:80:B5S.wav
329,192,52853,1,0,0:0:0:80:D#5S_Eb5S.wav
402,192,52853,1,0,0:0:0:80:G#4S_Ab4S.wav
475,192,52853,128,0,53169:0:0:0:80:B4S.wav
182,192,53011,1,0,0:0:0:0:
256,192,53011,1,0,0:0:0:0:
329,192,53169,1,2,0:0:0:0:
402,192,53169,1,0,0:0:0:80:G#4S_Ab4S_s.wav
36,192,53327,128,6,53643:0:0:0:0:
109,192,53327,1,0,0:0:0:80:D#5S_Eb5S.wav
256,192,53327,1,0,0:0:0:80:F#5S_Gb5S.wav
329,192,53327,1,0,0:0:0:80:B4S.wav
402,192,53327,1,0,0:0:0:80:G#4S_Ab4S.wav
182,192,53485,1,0,0:0:0:0:
475,192,53485,1,0,0:0:0:0:
109,192,53643,1,2,0:0:0:0:
256,192,53643,1,0,0:0:0:80:B6S.wav
475,192,53643,1,0,0:0:0:0:
329,192,53722,1,0,0:0:0:0:
182,192,53748,1,2,0:0:0:0:
402,192,53801,1,0,0:0:0:0:
109,192,53853,1,2,0:0:0:0:
475,192,53880,1,0,0:0:0:0:
36,192,53958,1,2,0:0:0:0:
256,192,53958,1,0,0:0:0:80:A#6S_Bb6S.wav
329,192,54037,1,0,0:0:0:0:
182,192,54064,1,2,0:0:0:0:
475,192,54116,1,0,0:0:0:0:
36,192,54169,1,2,0:0:0:0:
402,192,54195,1,0,0:0:0:0:
109,192,54274,1,2,0:0:0:0:
256,192,54274,1,0,0:0:0:80:F#6S_Gb6S.wav
182,192,54353,1,0,0:0:0:0:
329,192,54380,1,2,0:0:0:0:
36,192,54432,1,0,0:0:0:0:
475,192,54485,1,2,0:0:0:0:
109,192,54511,1,0,0:0:0:0:
256,192,54590,1,2,0:0:0:0:
402,192,54590,1,0,0:0:0:80:D#6S_Eb6S.wav
36,192,54669,1,0,0:0:0:0:
329,192,54695,1,2,0:0:0:0:
109,192,54748,1,0,0:0:0:0:
402,192,54801,1,2,0:0:0:0:
182,192,54827,1,0,0:0:0:0:
36,192,54906,1,2,0:0:0:0:
109,192,54906,1,4,0:0:0:0:
256,192,54906,1,0,0:0:0:80:F#6S_Gb6S.wav
329,192,54906,1,0,0:0:0:80:E4S.wav
475,192,54906,1,0,0:0:0:0:
36,192,55248,1,0,0:0:0:80:B4S.wav
182,192,55248,1,0,0:0:0:0:
109,192,55406,1,0,0:0:0:80:E5S.wav
402,192,55406,1,0,0:0:0:0:
475,192,55880,1,0,0:0:0:80:E6S.wav
36,192,56195,1,0,0:0:0:80:D#6S_Eb6S.wav
402,192,56195,1,0,0:0:0:80:F#4S_Gb4S.wav
109,192,56511,1,0,0:0:0:80:C#5S_Db5S.wav
329,192,56511,1,0,0:0:0:80:C#6S_Db6S.wav
182,192,56643,1,0,0:0:0:80:F#5S_Gb5S.wav
402,192,56643,1,0,0:0:0:0:
475,192,56801,1,0,0:0:0:80:D#6S_Eb6S.wav
329,192,57143,1,0,0:0:0:80:E6S.wav
182,192,57458,1,0,0:0:0:80:D#5S_Eb5S.wav
402,192,57458,1,0,0:0:0:80:F#6S_Gb6S.wav
329,192,58024,1,0,0:0:0:80:A#6S_Bb6S_s.wav
475,192,58064,1,0,0:0:0:80:B6S_s.wav
402,192,58327,1,0,0:0:0:80:A#6S_Bb6S_s.wav
182,192,58511,1,0,0:0:0:80:D#6S_Eb6S_s.wav
109,192,58695,1,0,0:0:0:80:F#5S_Gb5S.wav
329,192,58695,1,0,0:0:0:80:C#6S_Db6S.wav
36,192,59169,1,0,0:0:0:80:B5S_s.wav
36,192,59327,1,0,0:0:0:80:B5S.wav
256,192,59643,128,0,59958:0:0:0:0:
402,192,59801,128,0,59958:0:0:0:0:
36,192,59958,1,4,0:0:0:0:
109,192,59958,1,2,0:0:0:0:
182,192,59958,1,0,0:0:0:80:E4S.wav
329,192,59958,1,0,0:0:0:80:B5S_s.wav
475,192,59958,1,0,0:0:0:0:
256,192,60116,1,0,0:0:0:80:A#5S_Bb5S_s.wav
402,192,60116,1,0,0:0:0:0:
36,192,60274,1,8,0:0:0:0:
109,192,60274,1,0,0:0:0:80:F#5S_Gb5S_s.wav
329,192,60274,1,0,0:0:0:80:B4S.wav
475,192,60274,1,0,0:0:0:80:E5S.wav
36,192,60432,1,0,0:0:0:80:B5S_s.wav
109,192,60432,1,0,0:0:0:0:
182,192,60590,1,2,0:0:0:0:
329,192,60590,1,0,0:0:0:80:A#5S_Bb5S_s.wav
475,192,60590,1,0,0:0:0:80:E4S.wav
256,192,60748,1,2,0:0:0:0:
402,192,60748,1,0,0:0:0:80:F#5S_Gb5S_s.wav
36,192,60906,1,8,0:0:0:0:
109,192,60906,1,0,0:0:0:80:B5S_s.wav
329,192,60906,1,0,0:0:0:80:B4S.wav
475,192,60906,1,0,0:0:0:80:E4S.wav
36,192,61064,1,0,0:0:0:80:A#5S_Bb5S_s.wav
109,192,61064,1,0,0:0:0:0:
182,192,61222,1,2,0:0:0:0:
329,192,61222,1,0,0:0:0:80:F#5S_Gb5S_s.wav
475,192,61222,1,0,0:0:0:80:E4S.wav
256,192,61380,1,0,0:0:0:80:B5S_s.wav
402,192,61380,1,0,0:0:0:0:
36,192,61537,1,8,0:0:0:0:
109,192,61537,1,0,0:0:0:80:A#5S_Bb5S_s.wav
329,192,61537,1,0,0:0:0:80:B4S.wav
475,192,61537,1,0,0:0:0:80:E4S.wav
109,192,61695,1,0,0:0:0:80:F#5S_Gb5S_s.wav
182,192,61695,1,0,0:0:0:0:
36,192,61853,1,2,0:0:0:0:
182,192,61853,1,4,0:0:0:0:
256,192,61853,1,0,0:0:0:80:C#6S_Db6S_s.wav
402,192,61853,1,0,0:0:0:80:E4S.wav
475,192,61853,1,0,0:0:0:0:
109,192,62090,1,2,0:0:0:0:
182,192,62090,1,4,0:0:0:0:
329,192,62090,1,0,0:0:0:80:D#6S_Eb6S_s.wav
36,192,62327,1,2,0:0:0:0:
109,192,62327,1,4,0:0:0:0:
402,192,62327,1,0,0:0:0:80:E6S_s.wav
475,192,62327,1,0,0:0:0:0:
36,192,62485,1,6,0:0:0:0:
109,192,62485,1,0,0:0:0:80:F#5S_Gb5S.wav
256,192,62485,1,0,0:0:0:80:F#6S_Gb6S_s.wav
402,192,62485,1,0,0:0:0:80:C#5S_Db5S.wav
475,192,62485,1,0,0:0:0:80:F#4S_Gb4S.wav
182,192,62643,1,0,0:0:0:80:C#6S_Db6S_s.wav
329,192,62643,1,0,0:0:0:0:
36,192,62801,1,2,0:0:0:0:
109,192,62801,1,0,0:0:0:80:F#4S_Gb4S_s.wav
36,192,62958,1,12,0:0:0:0:
109,192,62958,1,0,0:0:0:80:F#4S_Gb4S.wav
256,192,62958,1,0,0:0:0:80:F#6S_Gb6S_s.wav
402,192,62958,1,0,0:0:0:80:F#5S_Gb5S.wav
475,192,62958,1,0,0:0:0:80:C#5S_Db5S.wav
182,192,63116,1,2,0:0:0:0:
329,192,63116,1,0,0:0:0:80:C#6S_Db6S_s.wav
402,192,63274,1,2,0:0:0:0:
475,192,63274,1,0,0:0:0:80:A#5S_Bb5S_s.wav
36,192,63432,1,4,0:0:0:0:
109,192,63432,1,0,0:0:0:80:F#6S_Gb6S_s.wav
256,192,63432,1,0,0:0:0:80:F#4S_Gb4S.wav
402,192,63432,1,0,0:0:0:80:F#5S_Gb5S.wav
475,192,63432,1,0,0:0:0:80:C#5S_Db5S.wav
182,192,63590,1,2,0:0:0:0:
329,192,63590,1,0,0:0:0:80:C#6S_Db6S_s.wav
36,192,63748,1,2,0:0:0:0:
109,192,63748,1,0,0:0:0:80:A#5S_Bb5S_s.wav
36,192,63906,1,12,0:0:0:0:
109,192,63906,1,0,0:0:0:80:F#4S_Gb4S.wav
256,192,63906,1,0,0:0:0:80:F#6S_Gb6S_s.wav
402,192,63906,1,0,0:0:0:80:F#5S_Gb5S.wav
475,192,63906,1,0,0:0:0:80:C#5S_Db5S.wav
182,192,64064,1,2,0:0:0:0:
329,192,64064,1,0,0:0:0:80:C#6S_Db6S_s.wav
402,192,64222,1,2,0:0:0:0:
475,192,64222,1,0,0:0:0:80:A#5S_Bb5S_s.wav
36,192,64380,1,6,0:0:0:0:
109,192,64380,1,0,0:0:0:80:F#5S_Gb5S.wav
256,192,64380,1,0,0:0:0:80:F#4S_Gb4S.wav
402,192,64380,1,0,0:0:0:80:C#5S_Db5S.wav
475,192,64380,1,0,0:0:0:80:F#6S_Gb6S.wav
36,192,64537,1,2,0:0:0:0:
109,192,64537,1,0,0:0:0:0:
256,192,64537,1,0,0:0:0:0:
182,192,64695,1,2,0:0:0:0:
402,192,64695,1,0,0:0:0:80:G#6S_Ab6S_s.wav
475,192,64695,1,0,0:0:0:0:
109,192,64774,1,0,0:0:0:0:
329,192,64774,1,0,0:0:0:0:
36,192,64853,1,8,0:0:0:0:
182,192,64853,1,4,0:0:0:0:
256,192,64853,1,0,0:0:0:80:F#6S_Gb6S.wav
36,192,65011,1,4,0:0:0:0:
109,192,65011,1,2,0:0:0:0:
329,192,65011,1,0,0:0:0:0:
475,192,65011,1,0,0:0:0:0:
182,192,65090,1,0,0:0:0:0:
402,192,65169,1,0,0:0:0:80:F#6S_Gb6S_s.wav
329,192,65248,1,0,0:0:0:0:
36,192,65327,1,8,0:0:0:0:
256,192,65327,1,0,0:0:0:80:G#6S_Ab6S_s.wav
109,192,65406,1,0,0:0:0:0:
329,192,65485,1,2,0:0:0:0:
402,192,65564,1,0,0:0:0:0:
182,192,65643,1,2,0:0:0:0:
256,192,65643,1,0,0:0:0:80:B6S_s.wav
329,192,65695,1,0,0:0:0:0:
36,192,65748,1,2,0:0:0:0:
402,192,65748,1,0,0:0:0:0:
475,192,65801,1,0,0:0:0:80:C#7S_Db7S_s.wav
109,192,65853,1,2,0:0:0:0:
256,192,65853,1,0,0:0:0:0:
329,192,65906,1,0,0:0:0:0:
182,192,65958,1,2,0:0:0:0:
402,192,65958,1,0,0:0:0:80:D#7S_Eb7S_s.wav
109,192,66011,1,0,0:0:0:0:
36,192,66064,1,2,0:0:0:0:
329,192,66064,1,0,0:0:0:0:
256,192,66116,1,0,0:0:0:80:E7S_s.wav
182,192,66169,1,2,0:0:0:0:
402,192,66169,1,0,0:0:0:0:
109,192,66222,1,0,0:0:0:0:
36,192,66274,1,6,0:0:0:0:
256,192,66274,1,0,0:0:0:80:C#7S_Db7S_s.wav
329,192,66274,1,0,0:0:0:80:A#4S_Bb4S_s.wav
475,192,66274,1,0,0:0:0:80:F#7S_Gb7S_s.wav
182,192,66695,1,0,0:0:0:0:
475,192,66695,1,0,0:0:0:0:
109,192,66748,1,0,0:0:0:0:
402,192,66748,1,0,0:0:0:0:
36,192,66801,1,0,0:0:0:0:
329,192,66801,1,0,0:0:0:0:
256,192,66853,1,0,0:0:0:0:
182,192,66906,1,0,0:0:0:0:
475,192,66906,1,0,0:0:0:0:
109,192,66958,1,0,0:0:0:0:
402,192,66958,1,0,0:0:0:0:
36,192,67011,1,0,0:0:0:0:
329,192,67011,1,0,0:0:0:0:
256,192,67064,1,0,0:0:0:0:
182,192,67116,1,0,0:0:0:0:
475,192,67116,1,0,0:0:0:0:
109,192,67169,1,0,0:0:0:0:
402,192,67169,1,0,0:0:0:0:
36,192,67222,1,0,0:0:0:0:
329,192,67222,1,0,0:0:0:0:
36,192,67537,128,4,67853:0:0:0:0:
109,192,67537,128,2,67853:0:0:0:0:
256,192,67537,1,0,0:0:0:80:A#6S_Bb6S.wav
402,192,67537,1,0,0:0:0:80:E4S.wav
475,192,67537,1,0,0:0:0:0:
329,192,67853,1,8,0:0:0:0:
402,192,67853,1,0,0:0:0:80:G#4S_Ab4S.wav
475,192,67853,1,0,0:0:0:80:E4S.wav
109,192,68011,128,0,68327:0:0:0:80:B6S.wav
182,192,68011,128,0,68327:0:0:0:0:
256,192,68011,1,0,0:0:0:0:
402,192,68169,1,2,0:0:0:0:
475,192,68169,1,0,0:0:0:80:E4S.wav
402,192,68327,1,2,0:0:0:0:
475,192,68327,1,0,0:0:0:0:
36,192,68485,1,8,0:0:0:0:
109,192,68485,1,0,0:0:0:80:B4S.wav
329,192,68485,1,0,0:0:0:80:G#4S_Ab4S.wav
182,192,68643,1,0,0:0:0:0:
256,192,68643,1,0,0:0:0:0:
36,192,68801,1,2,0:0:0:0:
109,192,68801,1,0,0:0:0:80:C#7S_Db7S.wav
402,192,68801,128,0,69116:0:0:0:80:F#4S_Gb4S.wav
475,192,68801,128,0,69116:0:0:0:0:
182,192,68958,1,0,0:0:0:0:
36,192,69116,1,8,0:0:0:0:
256,192,69116,1,0,0:0:0:80:A#4S_Bb4S.wav
329,192,69116,1,0,0:0:0:80:C#5S_Db5S.wav
256,192,69274,128,0,69590:0:0:0:80:F#6S_Gb6S.wav
329,192,69274,128,0,69590:0:0:0:0:
475,192,69274,1,0,0:0:0:0:
36,192,69432,1,2,0:0:0:0:
109,192,69432,1,0,0:0:0:80:F#4S_Gb4S.wav
36,192,69590,1,2,0:0:0:0:
109,192,69590,1,0,0:0:0:0:
256,192,69748,1,8,0:0:0:0:
329,192,69748,1,0,0:0:0:80:C#7S_Db7S_s.wav
475,192,69748,128,0,69906:0:0:0:80:C#5S_Db5S.wav
182,192,69906,1,0,0:0:0:80:B6S_s.wav
402,192,69906,128,0,70064:0:0:0:0:
36,192,70064,128,2,70380:0:0:0:0:
109,192,70064,128,0,70380:0:0:0:80:D#4S_Eb4S.wav
256,192,70064,1,0,0:0:0:80:A#6S_Bb6S.wav
475,192,70064,1,0,0:0:0:0:
329,192,70222,1,0,0:0:0:0:
256,192,70380,1,8,0:0:0:0:
402,192,70380,1,0,0:0:0:80:A#4S_Bb4S.wav
475,192,70380,1,0,0:0:0:80:F#4S_Gb4S.wav
109,192,70537,128,0,70853:0:0:0:80:B6S.wav
182,192,70537,128,0,70853:0:0:0:0:
329,192,70537,1,0,0:0:0:0:
256,192,70695,1,2,0:0:0:0:
402,192,70695,1,0,0:0:0:80:D#4S_Eb4S.wav
256,192,70853,1,2,0:0:0:0:
402,192,70853,1,0,0:0:0:0:
36,192,71011,1,8,0:0:0:0:
109,192,71011,1,0,0:0:0:80:F#7S_Gb7S.wav
329,192,71011,128,0,71327:0:0:0:80:D#4S_Eb4S.wav
475,192,71011,128,0,71327:0:0:0:80:A#4S_Bb4S.wav
182,192,71169,1,0,0:0:0:0:
256,192,71169,1,0,0:0:0:0:
36,192,71327,128,2,71643:0:0:0:0:
109,192,71327,128,0,71643:0:0:0:80:G#4S_Ab4S.wav
402,192,71327,1,0,0:0:0:80:A#6S_Bb6S.wav
329,192,71485,1,0,0:0:0:0:
256,192,71643,1,8,0:0:0:0:
402,192,71643,1,0,0:0:0:80:D#5S_Eb5S.wav
475,192,71643,1,0,0:0:0:80:G#4S_Ab4S.wav
109,192,71801,1,0,0:0:0:80:B6S_s.wav
182,192,71801,1,0,0:0:0:0:
109,192,71958,128,2,72274:0:0:0:0:
182,192,71958,128,0,72274:0:0:0:80:G#4S_Ab4S.wav
329,192,71958,1,0,0:0:0:80:B6S.wav
402,192,71958,1,0,0:0:0:0:
329,192,72116,1,2,0:0:0:0:
402,192,72116,1,0,0:0:0:0:
36,192,72274,1,8,0:0:0:0:
256,192,72274,1,0,0:0:0:80:B4S.wav
475,192,72274,1,0,0:0:0:80:D#5S_Eb5S.wav
182,192,72432,1,0,0:0:0:0:
402,192,72432,1,0,0:0:0:0:
36,192,72590,128,4,72906:0:0:0:0:
109,192,72590,128,2,72906:0:0:0:0:
256,192,72590,1,0,0:0:0:80:E4S.wav
329,192,72590,1,0,0:0:0:80:A#6S_Bb6S.wav
475,192,72590,1,0,0:0:0:0:
256,192,72906,1,8,0:0:0:0:
402,192,72906,1,0,0:0:0:80:B4S.wav
475,192,72906,1,0,0:0:0:80:G#4S_Ab4S.wav
109,192,73064,128,0,73380:0:0:0:80:B6S.wav
182,192,73064,128,0,73380:0:0:0:0:
329,192,73064,1,0,0:0:0:0:
402,192,73222,1,2,0:0:0:0:
475,192,73222,1,0,0:0:0:80:E4S.wav
402,192,73380,1,2,0:0:0:0:
475,192,73380,1,0,0:0:0:0:
36,192,73537,1,8,0:0:0:0:
109,192,73537,1,0,0:0:0:80:G#4S_Ab4S.wav
256,192,73537,1,0,0:0:0:80:B4S.wav
402,192,73695,1,0,0:0:0:80:F#7S_Gb7S_s.wav
475,192,73695,1,0,0:0:0:0:
36,192,73853,1,2,0:0:0:0:
109,192,73853,1,0,0:0:0:80:F#4S_Gb4S.wav
402,192,73853,1,0,0:0:0:80:F#7S_Gb7S.wav
475,192,73853,128,0,74169:0:0:0:0:
182,192,74011,1,0,0:0:0:0:
256,192,74011,1,0,0:0:0:0:
36,192,74169,1,8,0:0:0:0:
109,192,74169,1,0,0:0:0:80:A#4S_Bb4S.wav
329,192,74169,128,0,74485:0:0:0:80:E7S.wav
36,192,74327,1,0,0:0:0:0:
109,192,74327,1,0,0:0:0:0:
182,192,74485,128,2,74801:0:0:0:0:
402,192,74485,1,0,0:0:0:80:G4S.wav
475,192,74485,1,0,0:0:0:80:D#7S_Eb7S.wav
256,192,74643,1,2,0:0:0:0:
329,192,74643,1,0,0:0:0:0:
36,192,74801,128,8,75116:0:0:0:0:
402,192,74801,1,0,0:0:0:80:C#7S_Db7S.wav
475,192,74801,1,0,0:0:0:80:A#4S_Bb4S.wav
402,192,74958,1,0,0:0:0:0:
475,192,74958,1,0,0:0:0:0:
109,192,75116,128,2,75432:0:0:0:0:
182,192,75116,128,0,75432:0:0:0:80:C#7S_Db7S.wav
256,192,75116,1,0,0:0:0:80:G#4S_Ab4S.wav
329,192,75116,1,0,0:0:0:0:
402,192,75274,1,0,0:0:0:0:
36,192,75432,1,8,0:0:0:0:
329,192,75432,1,0,0:0:0:80:D#5S_Eb5S.wav
475,192,75432,1,0,0:0:0:80:B4S.wav
109,192,75590,1,0,0:0:0:80:F#7S_Gb7S.wav
329,192,75590,128,0,75906:0:0:0:0:
475,192,75590,128,0,75906:0:0:0:0:
182,192,75748,1,2,0:0:0:0:
256,192,75748,1,0,0:0:0:80:G#4S_Ab4S.wav
36,192,75906,1,2,0:0:0:0:
109,192,75906,1,0,0:0:0:0:
36,192,76064,128,8,76380:0:0:0:0:
109,192,76064,128,0,76380:0:0:0:80:B6S.wav
182,192,76064,1,0,0:0:0:80:D#5S_Eb5S.wav
402,192,76064,1,0,0:0:0:80:G#4S_Ab4S.wav
256,192,76222,1,0,0:0:0:0:
329,192,76222,1,0,0:0:0:0:
182,192,76380,1,2,0:0:0:0:
402,192,76380,1,0,0:0:0:80:B7S_s.wav
475,192,76380,1,0,0:0:0:80:G#4S_Ab4S.wav
256,192,76458,1,0,0:0:0:0:
36,192,76537,1,8,0:0:0:0:
109,192,76537,1,0,0:0:0:80:A#7S_Bb7S_s.wav
182,192,76616,1,0,0:0:0:0:
329,192,76695,1,8,0:0:0:0:
475,192,76695,1,0,0:0:0:80:D#5S_Eb5S.wav
109,192,76774,1,0,0:0:0:0:
256,192,76853,1,8,0:0:0:0:
402,192,76853,1,0,0:0:0:80:F#7S_Gb7S_s.wav
36,192,76932,1,8,0:0:0:0:
182,192,77011,1,2,0:0:0:0:
329,192,77011,1,0,0:0:0:80:G#4S_Ab4S.wav
109,192,77090,1,0,0:0:0:0:
36,192,77169,1,8,0:0:0:0:
402,192,77169,1,0,0:0:0:80:D#7S_Eb7S_s.wav
329,192,77248,1,0,0:0:0:0:
256,192,77327,1,2,0:0:0:0:
475,192,77327,1,0,0:0:0:80:D#5S_Eb5S.wav
182,192,77406,1,0,0:0:0:0:
402,192,77432,1,0,0:0:0:0:
109,192,77485,1,2,0:0:0:0:
329,192,77537,1,0,0:0:0:0:
36,192,77564,1,2,0:0:0:0:
182,192,77643,1,4,0:0:0:0:
256,192,77643,1,2,0:0:0:0:
402,192,77643,128,0,77958:0:0:0:80:A#6S_Bb6S.wav
475,192,77643,128,0,77958:0:0:0:80:E4S.wav
36,192,77958,1,8,0:0:0:0:
109,192,77958,1,0,0:0:0:80:G#4S_Ab4S.wav
182,192,77958,1,0,0:0:0:80:B4S.wav
256,192,78116,1,0,0:0:0:80:B6S.wav
329,192,78116,128,0,78432:0:0:0:0:
402,192,78116,128,0,78432:0:0:0:0:
36,192,78274,1,2,0:0:0:0:
109,192,78274,1,0,0:0:0:80:E4S.wav
36,192,78432,1,2,0:0:0:0:
109,192,78432,1,0,0:0:0:0:
182,192,78590,1,8,0:0:0:0:
402,192,78590,1,0,0:0:0:80:B4S.wav
475,192,78590,1,0,0:0:0:80:E4S.wav
256,192,78748,1,0,0:0:0:0:
329,192,78748,1,0,0:0:0:0:
36,192,78906,128,2,79222:0:0:0:0:
109,192,78906,128,0,79222:0:0:0:80:C#7S_Db7S.wav
402,192,78906,1,0,0:0:0:80:F#4S_Gb4S.wav
475,192,78906,1,0,0:0:0:0:
329,192,79064,1,0,0:0:0:0:
182,192,79222,1,8,0:0:0:0:
256,192,79222,1,0,0:0:0:80:F#4S_Gb4S.wav
475,192,79222,1,0,0:0:0:80:C#5S_Db5S.wav
36,192,79380,1,0,0:0:0:80:F#6S_Gb6S.wav
182,192,79380,128,0,79695:0:0:0:0:
256,192,79380,128,0,79695:0:0:0:0:
402,192,79537,1,2,0:0:0:0:
475,192,79537,1,0,0:0:0:80:F#4S_Gb4S.wav
402,192,79695,1,2,0:0:0:0:
475,192,79695,1,0,0:0:0:0:
36,192,79853,128,8,80011:0:0:0:0:
182,192,79853,1,0,0:0:0:80:C#5S_Db5S.wav
256,192,79853,1,0,0:0:0:80:C#7S_Db7S_s.wav
109,192,80011,128,0,80169:0:0:0:80:B6S_s.wav
329,192,80011,1,0,0:0:0:0:
36,192,80169,1,2,0:0:0:0:
256,192,80169,1,0,0:0:0:80:G4S.wav
402,192,80169,128,0,80485:0:0:0:80:A#6S_Bb6S.wav
475,192,80169,128,0,80485:0:0:0:0:
182,192,80327,1,0,0:0:0:0:
36,192,80485,1,8,0:0:0:0:
109,192,80485,1,0,0:0:0:80:C#5S_Db5S.wav
329,192,80485,1,0,0:0:0:80:A#4S_Bb4S.wav
182,192,80643,128,0,80958:0:0:0:80:C#7S_Db7S.wav
256,192,80643,128,0,80958:0:0:0:0:
475,192,80643,1,0,0:0:0:0:
329,192,80801,1,2,0:0:0:0:
402,192,80801,1,0,0:0:0:80:D#4S_Eb4S.wav
329,192,80958,1,2,0:0:0:0:
402,192,80958,1,0,0:0:0:0:
36,192,81116,128,8,81432:0:0:0:0:
182,192,81116,128,0,81432:0:0:0:80:D#7S_Eb7S.wav
256,192,81116,1,0,0:0:0:80:A#4S_Bb4S.wav
475,192,81116,1,0,0:0:0:80:D#4S_Eb4S.wav
109,192,81274,1,0,0:0:0:0:
402,192,81274,1,0,0:0:0:0:
256,192,81432,128,2,81748:0:0:0:0:
329,192,81432,128,0,81748:0:0:0:80:C#7S_Db7S.wav
475,192,81432,1,0,0:0:0:80:G#4S_Ab4S.wav
182,192,81590,1,0,0:0:0:0:
36,192,81748,1,8,0:0:0:0:
109,192,81748,1,0,0:0:0:80:B4S.wav
329,192,81906,1,0,0:0:0:80:B6S_s.wav
256,192,81985,1,0,0:0:0:80:A#6S_Bb6S_s.wav
109,192,82064,1,2,0:0:0:0:
182,192,82064,1,0,0:0:0:80:B6S.wav
329,192,82064,128,0,82380:0:0:0:80:G#4S_Ab4S.wav
402,192,82064,128,0,82380:0:0:0:0:
109,192,82222,1,2,0:0:0:0:
182,192,82222,1,0,0:0:0:0:
36,192,82380,1,8,0:0:0:0:
256,192,82380,1,0,0:0:0:80:D#5S_Eb5S.wav
475,192,82380,1,0,0:0:0:80:B4S.wav
109,192,82537,1,0,0:0:0:0:
329,192,82537,1,0,0:0:0:0:
36,192,82695,1,4,0:0:0:0:
182,192,82695,1,2,0:0:0:0:
256,192,82695,1,0,0:0:0:80:B6S_s.wav
402,192,82695,1,0,0:0:0:80:E4S.wav
475,192,82695,1,0,0:0:0:0:
109,192,82853,1,0,0:0:0:80:A#6S_Bb6S_s.wav
329,192,82853,1,0,0:0:0:0:
36,192,83011,1,8,0:0:0:0:
182,192,83011,1,0,0:0:0:80:F#6S_Gb6S_s.wav
402,192,83011,1,0,0:0:0:80:B4S.wav
256,192,83169,1,0,0:0:0:80:C#6S_Db6S_s.wav
475,192,83169,1,0,0:0:0:0:
109,192,83327,1,2,0:0:0:0:
182,192,83327,1,0,0:0:0:80:B5S_s.wav
329,192,83327,1,0,0:0:0:80:E4S.wav
36,192,83485,1,2,0:0:0:0:
256,192,83485,1,0,0:0:0:80:A#5S_Bb5S_s.wav
402,192,83485,1,0,0:0:0:0:
182,192,83643,1,8,0:0:0:0:
329,192,83643,1,0,0:0:0:80:F#5S_Gb5S_s.wav
475,192,83643,1,0,0:0:0:80:B4S.wav
109,192,83801,1,0,0:0:0:80:C#5S_Db5S_s.wav
402,192,83801,1,0,0:0:0:0:
36,192,83958,1,2,0:0:0:0:
182,192,83958,1,0,0:0:0:80:E4S.wav
256,192,83958,1,0,0:0:0:80:F#5S_Gb5S_s.wav
109,192,84116,1,0,0:0:0:80:A#5S_Bb5S_s.wav
329,192,84116,1,0,0:0:0:0:
182,192,84274,1,8,0:0:0:0:
256,192,84274,1,0,0:0:0:80:B4S.wav
402,192,84274,1,0,0:0:0:80:C#6S_Db6S_s.wav
329,192,84432,1,0,0:0:0:80:F#6S_Gb6S_s.wav
475,192,84432,1,0,0:0:0:0:
36,192,84590,1,2,0:0:0:0:
182,192,84590,1,0,0:0:0:80:E4S.wav
402,192,84590,1,0,0:0:0:80:B6S_s.wav
256,192,84748,1,2,0:0:0:0:
329,192,84748,1,0,0:0:0:0:
36,192,84906,1,8,0:0:0:0:
109,192,84906,1,0,0:0:0:80:G#4S_Ab4S.wav
402,192,84906,1,0,0:0:0:80:A#6S_Bb6S_s.wav
182,192,85064,1,0,0:0:0:80:B6S_s.wav
475,192,85064,1,0,0:0:0:0:
36,192,85222,1,6,0:0:0:0:
109,192,85222,1,0,0:0:0:80:C#5S_Db5S.wav
329,192,85222,1,0,0:0:0:80:B6S_s.wav
402,192,85222,1,0,0:0:0:80:A#4S_Bb4S.wav
256,192,85380,1,0,0:0:0:80:A#6S_Bb6S_s.wav
475,192,85380,1,0,0:0:0:0:
182,192,85458,1,0,0:0:0:0:
402,192,85458,1,0,0:0:0:0:
109,192,85537,1,2,0:0:0:0:
329,192,85537,1,0,0:0:0:80:F#4S_Gb4S_s.wav
109,192,85695,1,6,0:0:0:0:
182,192,85695,1,0,0:0:0:80:C#5S_Db5S.wav
402,192,85695,1,0,0:0:0:80:B6S_s.wav
475,192,85695,1,0,0:0:0:80:A#4S_Bb4S.wav
36,192,85853,1,0,0:0:0:80:A#6S_Bb6S_s.wav
256,192,85853,1,0,0:0:0:0:
109,192,85932,1,0,0:0:0:0:
329,192,85932,1,0,0:0:0:0:
182,192,86011,1,2,0:0:0:0:
402,192,86011,1,0,0:0:0:80:F#4S_Gb4S_s.wav
36,192,86169,1,6,0:0:0:0:
109,192,86169,1,0,0:0:0:80:A#4S_Bb4S.wav
329,192,86169,1,0,0:0:0:80:C#5S_Db5S.wav
402,192,86169,1,0,0:0:0:80:F#4S_Gb4S.wav
256,192,86327,1,0,0:0:0:80:A#6S_Bb6S_s.wav
475,192,86327,1,0,0:0:0:0:
182,192,86406,1,0,0:0:0:0:
402,192,86406,1,0,0:0:0:0:
109,192,86485,1,2,0:0:0:0:
329,192,86485,1,0,0:0:0:80:F#4S_Gb4S_s.wav
36,192,86643,1,6,0:0:0:0:
182,192,86643,1,0,0:0:0:80:C#7S_Db7S.wav
402,192,86643,1,0,0:0:0:80:C#5S_Db5S.wav
475,192,86643,1,0,0:0:0:80:A#4S_Bb4S.wav
36,192,86801,1,0,0:0:0:0:
329,192,86801,1,0,0:0:0:0:
109,192,86880,1,0,0:0:0:0:
402,192,86880,1,0,0:0:0:0:
182,192,86958,1,8,0:0:0:0:
256,192,86958,1,0,0:0:0:80:F#4S_Gb4S_s.wav
475,192,86958,1,0,0:0:0:0:
329,192,87037,1,8,0:0:0:0:
402,192,87037,1,0,0:0:0:0:
36,192,87116,1,8,0:0:0:0:
109,192,87116,1,0,0:0:0:80:C#7S_Db7S.wav
182,192,87116,1,0,0:0:0:80:C#5S_Db5S.wav
256,192,87274,1,2,0:0:0:0:
402,192,87274,1,0,0:0:0:0:
36,192,87432,1,2,0:0:0:0:
182,192,87432,1,0,0:0:0:80:A#4S_Bb4S_s.wav
475,192,87432,1,0,0:0:0:80:C#5S_Db5S_s.wav
36,192,87590,1,2,0:0:0:0:
182,192,87590,1,0,0:0:0:80:C#5S_Db5S_s.wav
475,192,87590,1,0,0:0:0:80:A#4S_Bb4S_s.wav
109,192,87748,1,0,0:0:0:80:A#6S_Bb6S.wav
329,192,87748,128,0,88064:0:0:0:0:
36,192,88064,1,12,0:0:0:0:
182,192,88064,1,0,0:0:0:80:G#4S_Ab4S.wav
402,192,88064,1,0,0:0:0:80:B4S.wav
475,192,88064,1,0,0:0:0:80:E4S.wav
109,192,88143,1,0,0:0:0:0:
256,192,88222,1,0,0:0:0:80:B6S.wav
402,192,88222,128,0,88537:0:0:0:0:
182,192,88301,1,0,0:0:0:0:
109,192,88380,1,2,0:0:0:0:
329,192,88380,1,0,0:0:0:80:E4S.wav
36,192,88458,1,0,0:0:0:0:
256,192,88537,1,2,0:0:0:0:
182,192,88616,1,0,0:0:0:0:
109,192,88695,1,8,0:0:0:0:
402,192,88695,1,0,0:0:0:80:B4S.wav
329,192,88774,1,0,0:0:0:0:
256,192,88853,1,0,0:0:0:0:
182,192,88932,1,0,0:0:0:0:
36,192,89011,128,2,89327:0:0:0:0:
109,192,89011,1,0,0:0:0:80:F#4S_Gb4S.wav
329,192,89011,1,0,0:0:0:80:C#7S_Db7S.wav
402,192,89090,1,0,0:0:0:0:
475,192,89169,1,0,0:0:0:0:
182,192,89248,1,0,0:0:0:0:
109,192,89327,1,8,0:0:0:0:
256,192,89327,1,0,0:0:0:80:C#5S_Db5S.wav
329,192,89406,1,0,0:0:0:0:
182,192,89485,128,0,89801:0:0:0:80:F#6S_Gb6S.wav
402,192,89485,1,0,0:0:0:0:
475,192,89564,1,0,0:0:0:0:
36,192,89643,1,2,0:0:0:0:
329,192,89643,1,0,0:0:0:80:F#4S_Gb4S.wav
109,192,89722,1,0,0:0:0:0:
256,192,89801,1,2,0:0:0:0:
329,192,89880,1,0,0:0:0:0:
109,192,89958,1,8,0:0:0:0:
402,192,89958,1,0,0:0:0:80:C#7S_Db7S_s.wav
256,192,90037,1,0,0:0:0:0:
329,192,90116,1,0,0:0:0:80:B6S_s.wav
402,192,90195,1,0,0:0:0:0:
182,192,90274,1,2,0:0:0:0:
256,192,90274,128,0,90590:0:0:0:80:A#6S_Bb6S.wav
475,192,90274,1,0,0:0:0:80:D#4S_Eb4S.wav
109,192,90353,1,0,0:0:0:0:
36,192,90432,1,0,0:0:0:0:
402,192,90511,1,0,0:0:0:0:
182,192,90590,1,8,0:0:0:0:
329,192,90590,1,0,0:0:0:80:A#4S_Bb4S.wav
109,192,90669,1,0,0:0:0:0:
36,192,90748,1,0,0:0:0:80:B6S.wav
329,192,90748,128,0,91064:0:0:0:0:
182,192,90827,1,0,0:0:0:0:
109,192,90906,1,2,0:0:0:0:
475,192,90906,1,0,0:0:0:80:D#4S_Eb4S.wav
402,192,90985,1,0,0:0:0:0:
256,192,91064,1,2,0:0:0:0:
182,192,91143,1,0,0:0:0:0:
36,192,91222,1,8,0:0:0:0:
109,192,91222,1,0,0:0:0:80:F#4S_Gb4S.wav
475,192,91222,128,0,91537:0:0:0:80:F#7S_Gb7S.wav
402,192,91301,1,0,0:0:0:0:
329,192,91380,1,0,0:0:0:0:
256,192,91458,1,0,0:0:0:0:
36,192,91537,1,2,0:0:0:0:
109,192,91537,1,0,0:0:0:80:A#6S_Bb6S.wav
182,192,91537,128,0,91853:0:0:0:80:G#4S_Ab4S.wav
329,192,91616,1,0,0:0:0:0:
402,192,91695,1,0,0:0:0:0:
475,192,91774,1,0,0:0:0:0:
256,192,91853,1,8,0:0:0:0:
329,192,91853,1,0,0:0:0:80:D#5S_Eb5S.wav
402,192,91932,1,0,0:0:0:0:
36,192,92011,1,0,0:0:0:80:B6S_s.wav
109,192,92011,1,0,0:0:0:0:
256,192,92090,1,0,0:0:0:0:
36,192,92169,1,2,0:0:0:0:
109,192,92169,128,0,92485:0:0:0:80:G#4S_Ab4S.wav
329,192,92169,1,0,0:0:0:80:B6S.wav
402,192,92248,1,0,0:0:0:0:
475,192,92327,1,2,0:0:0:0:
182,192,92406,1,0,0:0:0:0:
256,192,92485,1,8,0:0:0:0:
402,192,92485,1,0,0:0:0:80:D#5S_Eb5S.wav
475,192,92564,1,0,0:0:0:0:
329,192,92643,1,0,0:0:0:0:
402,192,92722,1,0,0:0:0:0:
36,192,92801,128,4,93116:0:0:0:0:
109,192,92801,1,2,0:0:0:0:
256,192,92801,1,0,0:0:0:80:A#6S_Bb6S.wav
475,192,92801,1,0,0:0:0:80:E4S.wav
182,192,92880,1,0,0:0:0:0:
329,192,92958,1,0,0:0:0:0:
256,192,93037,1,0,0:0:0:0:
182,192,93116,1,8,0:0:0:0:
402,192,93116,1,0,0:0:0:80:E4S.wav
329,192,93195,1,0,0:0:0:0:
109,192,93274,128,0,93590:0:0:0:80:B6S.wav
475,192,93274,1,0,0:0:0:0:
402,192,93353,1,0,0:0:0:0:
329,192,93432,1,2,0:0:0:0:
256,192,93511,1,0,0:0:0:0:
182,192,93590,1,2,0:0:0:0:
402,192,93669,1,0,0:0:0:0:
36,192,93748,1,8,0:0:0:0:
329,192,93748,128,0,94064:0:0:0:80:G#4S_Ab4S.wav
182,192,93827,1,0,0:0:0:0:
109,192,93906,1,0,0:0:0:0:
36,192,93985,1,0,0:0:0:0:
256,192,94064,1,2,0:0:0:0:
402,192,94064,1,0,0:0:0:80:G4S.wav
475,192,94064,128,0,94380:0:0:0:80:G7S.wav
109,192,94143,1,0,0:0:0:0:
182,192,94222,1,0,0:0:0:0:
329,192,94301,1,0,0:0:0:0:
36,192,94380,1,8,0:0:0:0:
402,192,94380,128,0,94695:0:0:0:80:E7S.wav
109,192,94458,1,0,0:0:0:0:
182,192,94537,1,0,0:0:0:0:
256,192,94616,1,0,0:0:0:0:
329,192,94695,128,2,95011:0:0:0:0:
475,192,94695,1,0,0:0:0:80:G4S.wav
36,192,94774,1,0,0:0:0:0:
109,192,94853,1,2,0:0:0:0:
182,192,94932,1,0,0:0:0:0:
256,192,95011,128,8,95327:0:0:0:0:
402,192,95011,1,0,0:0:0:80:C#7S_Db7S.wav
36,192,95090,1,0,0:0:0:0:
109,192,95169,1,0,0:0:0:0:
402,192,95248,1,0,0:0:0:0:
36,192,95327,1,2,0:0:0:0:
182,192,95327,1,0,0:0:0:80:G#4S_Ab4S_s.wav
329,192,95327,1,0,0:0:0:80:C#7S_Db7S.wav
109,192,95485,1,8,0:0:0:0:
402,192,95485,1,0,0:0:0:80:D#5S_Eb5S.wav
475,192,95485,1,0,0:0:0:80:G#4S_Ab4S.wav
256,192,95564,1,8,0:0:0:0:
329,192,95564,1,0,0:0:0:0:
182,192,95643,1,8,0:0:0:0:
402,192,95643,1,0,0:0:0:0:
475,192,95643,1,0,0:0:0:0:
182,192,95801,1,8,0:0:0:0:
402,192,95801,1,0,0:0:0:80:F#7S_Gb7S.wav
475,192,95801,1,0,0:0:0:80:D#5S_Eb5S.wav
36,192,95958,1,8,0:0:0:0:
109,192,95958,1,0,0:0:0:0:
329,192,95958,1,0,0:0:0:0:
36,192,96116,1,8,0:0:0:0:
109,192,96116,1,0,0:0:0:80:D#5S_Eb5S.wav
329,192,96116,1,0,0:0:0:80:B4S.wav
36,192,96274,1,2,0:0:0:0:
109,192,96274,1,4,0:0:0:0:
329,192,96274,1,0,0:0:0:80:B6S.wav
402,192,96274,1,0,0:0:0:0:
475,192,96274,1,0,0:0:0:0:
182,192,96432,1,0,0:0:0:80:G#4S_Ab4S_s.wav
256,192,96432,1,0,0:0:0:0:
36,192,96590,1,2,0:0:0:0:
109,192,96590,1,4,0:0:0:0:
402,192,96590,1,0,0:0:0:80:G#4S_Ab4S_s.wav
475,192,96590,1,0,0:0:0:80:B7S_s.wav
329,192,96669,1,0,0:0:0:0:
182,192,96748,1,8,0:0:0:0:
256,192,96748,1,0,0:0:0:80:D#5S_Eb5S.wav
109,192,96827,1,0,0:0:0:0:
36,192,96906,1,0,0:0:0:80:G#7S_Ab7S_s.wav
475,192,96906,1,0,0:0:0:0:
402,192,96985,1,0,0:0:0:0:
109,192,97064,1,2,0:0:0:0:
329,192,97064,1,0,0:0:0:80:G#4S_Ab4S_s.wav
182,192,97143,1,0,0:0:0:0:
256,192,97222,1,8,0:0:0:0:
402,192,97222,1,0,0:0:0:80:D#5S_Eb5S.wav
475,192,97222,128,0,97380:0:0:0:80:E7S_s.wav
36,192,97380,128,2,97537:0:0:0:0:
109,192,97380,1,0,0:0:0:80:D#7S_Eb7S_s.wav
256,192,97380,1,0,0:0:0:0:
256,192,97537,1,8,0:0:0:0:
402,192,97537,1,0,0:0:0:80:C#7S_Db7S_s.wav
475,192,97537,128,0,97695:0:0:0:80:G#4S_Ab4S_s.wav
36,192,97695,128,2,97853:0:0:0:0:
109,192,97695,1,0,0:0:0:80:D#5S_Eb5S_s.wav
256,192,97695,1,0,0:0:0:80:B6S_s.wav
182,192,97853,1,6,0:0:0:0:
329,192,97853,128,0,98169:0:0:0:80:E4S.wav
109,192,97932,1,0,0:0:0:0:
36,192,98011,1,0,0:0:0:0:
256,192,98090,1,0,0:0:0:0:
182,192,98169,1,8,0:0:0:0:
402,192,98169,1,0,0:0:0:80:G#4S_Ab4S.wav
475,192,98169,1,0,0:0:0:80:B4S.wav
109,192,98248,1,0,0:0:0:0:
256,192,98327,1,0,0:0:0:80:B6S.wav
402,192,98327,128,0,98643:0:0:0:0:
182,192,98406,1,0,0:0:0:0:
109,192,98485,1,2,0:0:0:0:
329,192,98485,1,0,0:0:0:80:E4S.wav
36,192,98564,1,0,0:0:0:0:
256,192,98643,1,2,0:0:0:0:
182,192,98722,1,0,0:0:0:0:
109,192,98801,1,8,0:0:0:0:
402,192,98801,1,0,0:0:0:80:B4S.wav
329,192,98880,1,0,0:0:0:0:
256,192,98958,1,0,0:0:0:0:
182,192,99037,1,0,0:0:0:0:
36,192,99116,128,2,99432:0:0:0:0:
109,192,99116,1,0,0:0:0:80:F#4S_Gb4S.wav
329,192,99116,1,0,0:0:0:80:C#7S_Db7S.wav
402,192,99195,1,0,0:0:0:0:
475,192,99274,1,0,0:0:0:0:
256,192,99353,1,0,0:0:0:0:
182,192,99432,1,8,0:0:0:0:
402,192,99432,1,0,0:0:0:80:C#5S_Db5S.wav
109,192,99511,1,0,0:0:0:0:
182,192,99590,128,0,99906:0:0:0:80:F#6S_Gb6S.wav
329,192,99590,1,0,0:0:0:0:
402,192,99669,1,0,0:0:0:0:
36,192,99748,1,2,0:0:0:0:
475,192,99748,1,0,0:0:0:80:F#4S_Gb4S.wav
109,192,99827,1,0,0:0:0:0:
256,192,99906,1,2,0:0:0:0:
329,192,99985,1,0,0:0:0:0:
109,192,100064,1,8,0:0:0:0:
402,192,100064,1,0,0:0:0:80:C#7S_Db7S_s.wav
182,192,100143,1,0,0:0:0:0:
329,192,100222,1,0,0:0:0:80:B6S_s.wav
402,192,100301,1,0,0:0:0:0:
182,192,100380,1,2,0:0:0:0:
256,192,100380,128,0,100695:0:0:0:80:G4S.wav
475,192,100380,1,0,0:0:0:80:A#6S_Bb6S.wav
109,192,100458,1,0,0:0:0:0:
36,192,100537,1,0,0:0:0:0:
402,192,100616,1,0,0:0:0:0:
182,192,100695,1,8,0:0:0:0:
329,192,100695,1,0,0:0:0:80:C#5S_Db5S.wav
109,192,100774,1,0,0:0:0:0:
36,192,100853,1,0,0:0:0:80:C#7S_Db7S.wav
329,192,100853,128,0,101169:0:0:0:0:
182,192,100932,1,0,0:0:0:0:
109,192,101011,1,2,0:0:0:0:
475,192,101011,1,0,0:0:0:80:D#4S_Eb4S.wav
402,192,101090,1,0,0:0:0:0:
256,192,101169,1,2,0:0:0:0:
182,192,101248,1,0,0:0:0:0:
36,192,101327,1,8,0:0:0:0:
329,192,101327,1,0,0:0:0:80:G4S.wav
475,192,101327,128,0,101643:0:0:0:80:D#7S_Eb7S.wav
256,192,101406,1,0,0:0:0:0:
182,192,101485,1,0,0:0:0:0:
109,192,101564,1,0,0:0:0:0:
36,192,101643,1,2,0:0:0:0:
182,192,101643,128,0,101958:0:0:0:80:G#4S_Ab4S.wav
256,192,101643,1,0,0:0:0:80:C#7S_Db7S.wav
329,192,101722,1,0,0:0:0:0:
402,192,101801,1,0,0:0:0:0:
475,192,101880,1,0,0:0:0:0:
36,192,101958,1,8,0:0:0:0:
329,192,101958,1,0,0:0:0:80:D#5S_Eb5S.wav
109,192,102037,1,0,0:0:0:0:
182,192,102116,1,0,0:0:0:80:B6S_s.wav
256,192,102116,1,0,0:0:0:0:
329,192,102195,1,0,0:0:0:80:A#6S_Bb6S_s.wav
36,192,102274,1,2,0:0:0:0:
109,192,102274,128,0,102590:0:0:0:80:B6S.wav
402,192,102274,1,0,0:0:0:80:G#4S_Ab4S.wav
256,192,102353,1,0,0:0:0:0:
329,192,102432,1,2,0:0:0:0:
402,192,102511,1,0,0:0:0:0:
182,192,102590,1,8,0:0:0:0:
475,192,102590,1,0,0:0:0:80:B4S.wav
256,192,102669,1,0,0:0:0:0:
329,192,102748,1,2,0:0:0:0:
402,192,102827,1,0,0:0:0:0:
36,192,102906,1,12,0:0:0:0:
109,192,102906,1,0,0:0:0:80:B4S.wav
256,192,102906,1,0,0:0:0:80:A#6S_Bb6S_s.wav
475,192,102906,1,0,0:0:0:80:G#4S_Ab4S.wav
36,192,103064,1,2,0:0:0:0:
109,192,103064,1,0,0:0:0:80:B6S_s.wav
256,192,103064,1,0,0:0:0:0:
475,192,103064,1,0,0:0:0:0:
182,192,103222,1,2,0:0:0:0:
329,192,103222,1,0,0:0:0:80:F#7S_Gb7S_s.wav
36,192,103380,1,12,0:0:0:0:
109,192,103380,1,0,0:0:0:80:B4S.wav
402,192,103380,1,0,0:0:0:80:A#6S_Bb6S_s.wav
475,192,103380,1,0,0:0:0:80:G#4S_Ab4S.wav
36,192,103537,1,2,0:0:0:0:
109,192,103537,1,0,0:0:0:80:B6S_s.wav
402,192,103537,1,0,0:0:0:0:
475,192,103537,1,0,0:0:0:0:
182,192,103695,1,2,0:0:0:0:
329,192,103695,1,0,0:0:0:80:E4S_s.wav
36,192,103853,1,12,0:0:0:0:
109,192,103853,1,0,0:0:0:80:A#6S_Bb6S_s.wav
256,192,103853,1,0,0:0:0:80:B4S.wav
475,192,103853,1,0,0:0:0:80:E4S.wav
36,192,104011,1,2,0:0:0:0:
109,192,104011,1,0,0:0:0:80:B6S_s.wav
256,192,104011,1,0,0:0:0:0:
475,192,104011,1,0,0:0:0:0:
182,192,104169,1,2,0:0:0:0:
329,192,104169,1,0,0:0:0:80:F#7S_Gb7S_s.wav
36,192,104327,1,12,0:0:0:0:
109,192,104327,1,0,0:0:0:80:A#6S_Bb6S_s.wav
402,192,104327,1,0,0:0:0:80:B4S.wav
475,192,104327,1,0,0:0:0:80:G#4S_Ab4S.wav
36,192,104485,1,2,0:0:0:0:
109,192,104485,1,0,0:0:0:80:B6S_s.wav
402,192,104485,1,0,0:0:0:0:
475,192,104485,1,0,0:0:0:0:
182,192,104643,1,12,0:0:0:0:
329,192,104643,1,0,0:0:0:80:E4S_s.wav
36,192,104801,1,8,0:0:0:0:
109,192,104801,1,0,0:0:0:80:E4S.wav
256,192,104801,1,0,0:0:0:80:B4S.wav
475,192,104801,1,0,0:0:0:80:F#7S_Gb7S_s.wav
182,192,105116,1,8,0:0:0:0:
402,192,105116,1,0,0:0:0:80:E4S_s.wav
475,192,105116,1,0,0:0:0:80:G#7S_Ab7S_s.wav
36,192,105274,1,6,0:0:0:0:
109,192,105274,1,0,0:0:0:80:F#7S_Gb7S.wav
256,192,105274,1,0,0:0:0:80:C#5S_Db5S.wav
402,192,105274,1,0,0:0:0:80:F#4S_Gb4S.wav
475,192,105274,1,0,0:0:0:80:A#4S_Bb4S.wav
36,192,105432,1,2,0:0:0:0:
109,192,105432,1,0,0:0:0:0:
329,192,105432,1,0,0:0:0:0:
256,192,105511,1,0,0:0:0:0:
182,192,105590,1,0,0:0:0:0:
402,192,105669,1,0,0:0:0:0:
109,192,105748,1,8,0:0:0:0:
329,192,105748,1,0,0:0:0:80:A#4S_Bb4S.wav
36,192,105827,1,0,0:0:0:0:
256,192,105906,1,0,0:0:0:80:A#7S_Bb7S_s.wav
182,192,105985,1,0,0:0:0:0:
109,192,106064,1,2,0:0:0:0:
329,192,106064,1,0,0:0:0:80:B7S_s.wav
402,192,106143,1,0,0:0:0:0:
256,192,106222,1,2,0:0:0:0:
475,192,106222,1,0,0:0:0:80:C#8S_Db8S_s.wav
329,192,106301,1,0,0:0:0:0:
109,192,106380,1,8,0:0:0:0:
402,192,106380,1,0,0:0:0:80:D#8S_Eb8S_s.wav
182,192,106458,1,0,0:0:0:0:
256,192,106537,1,0,0:0:0:80:E8S_s.wav
329,192,106590,1,0,0:0:0:0:
402,192,106643,1,0,0:0:0:0:
36,192,106695,1,2,0:0:0:0:
109,192,106695,1,0,0:0:0:80:F#8S_Gb8S_s.wav
475,192,106695,1,0,0:0:0:80:C#8S_Db8S_s.wav
182,192,106853,1,0,0:0:0:0:
256,192,106853,1,0,0:0:0:0:
36,192,107011,1,8,0:0:0:0:
109,192,107011,1,0,0:0:0:80:C#5S_Db5S.wav
402,192,107011,1,0,0:0:0:80:F#4S_Gb4S.wav
36,192,107169,1,8,0:0:0:0:
109,192,107169,1,0,0:0:0:0:
402,192,107169,1,0,0:0:0:0:
256,192,107327,1,2,0:0:0:0:
475,192,107327,1,0,0:0:0:80:F#4S_Gb4S.wav
182,192,107380,1,0,0:0:0:0:
109,192,107432,1,0,0:0:0:0:
36,192,107485,1,2,0:0:0:0:
402,192,107485,1,0,0:0:0:0:
329,192,107537,1,0,0:0:0:0:
182,192,107590,1,0,0:0:0:0:
109,192,107643,1,8,0:0:0:0:
475,192,107643,1,0,0:0:0:80:C#5S_Db5S.wav
402,192,107695,1,0,0:0:0:0:
329,192,107748,1,0,0:0:0:0:
36,192,107801,1,8,0:0:0:0:
256,192,107801,1,0,0:0:0:0:
109,192,107853,1,0,0:0:0:0:
182,192,107906,1,0,0:0:0:0:
36,192,107958,1,6,0:0:0:0:
329,192,107958,1,0,0:0:0:80:E4S.wav
475,192,107958,1,0,0:0:0:80:B7S_s.wav
256,192,108037,1,0,0:0:0:0:
109,192,108116,1,0,0:0:0:80:A#7S_Bb7S_s.wav
402,192,108195,1,0,0:0:0:0:
182,192,108274,1,8,0:0:0:0:
329,192,108274,1,0,0:0:0:80:B4S.wav
109,192,108353,1,0,0:0:0:0:
36,192,108432,1,0,0:0:0:80:F#7S_Gb7S_s.wav
329,192,108511,1,0,0:0:0:0:
109,192,108590,1,2,0:0:0:0:
256,192,108590,1,0,0:0:0:80:E7S_s.wav
475,192,108669,1,0,0:0:0:0:
182,192,108748,1,2,0:0:0:0:
402,192,108748,1,0,0:0:0:80:D#7S_Eb7S_s.wav
329,192,108827,1,0,0:0:0:0:
36,192,108906,1,8,0:0:0:0:
256,192,108906,1,0,0:0:0:80:E4S.wav
182,192,108985,1,0,0:0:0:0:
109,192,109064,1,0,0:0:0:80:B6S_s.wav
36,192,109143,1,0,0:0:0:0:
182,192,109222,1,2,0:0:0:0:
329,192,109222,1,0,0:0:0:80:A#6S_Bb6S_s.wav
475,192,109222,1,0,0:0:0:80:F#4S_Gb4S.wav
109,192,109301,1,0,0:0:0:0:
36,192,109380,1,0,0:0:0:80:F#6S_Gb6S_s.wav
256,192,109380,1,0,0:0:0:0:
329,192,109458,1,0,0:0:0:0:
182,192,109537,1,8,0:0:0:0:
402,192,109537,1,0,0:0:0:80:G#6S_Ab6S_s.wav
256,192,109616,1,0,0:0:0:0:
109,192,109695,1,0,0:0:0:80:A#6S_Bb6S_s.wav
329,192,109695,1,0,0:0:0:0:
182,192,109774,1,0,0:0:0:0:
36,192,109853,1,2,0:0:0:0:
329,192,109853,1,0,0:0:0:80:B6S_s.wav
402,192,109932,1,0,0:0:0:0:
109,192,110011,1,2,0:0:0:0:
475,192,110011,1,0,0:0:0:80:C#7S_Db7S_s.wav
182,192,110090,1,0,0:0:0:0:
36,192,110169,1,8,0:0:0:0:
256,192,110169,1,0,0:0:0:80:D#7S_Eb7S_s.wav
329,192,110222,1,0,0:0:0:0:
402,192,110274,1,0,0:0:0:0:
109,192,110327,1,0,0:0:0:80:E7S_s.wav
475,192,110327,1,0,0:0:0:0:
182,192,110380,1,0,0:0:0:0:
256,192,110432,1,0,0:0:0:0:
36,192,110485,1,2,0:0:0:0:
329,192,110485,1,0,0:0:0:80:F#7S_Gb7S.wav
475,192,110485,128,0,110801:0:0:0:80:D#4S_Eb4S.wav
182,192,110643,1,0,0:0:0:0:
36,192,110801,1,8,0:0:0:0:
109,192,110801,1,0,0:0:0:80:F#4S_Gb4S.wav
256,192,110801,1,0,0:0:0:80:A#4S_Bb4S.wav
182,192,110958,128,0,111274:0:0:0:80:C#7S_Db7S.wav
329,192,110958,1,0,0:0:0:0:
402,192,111116,1,2,0:0:0:0:
475,192,111116,1,0,0:0:0:80:D#4S_Eb4S.wav
36,192,111274,1,2,0:0:0:0:
109,192,111274,1,0,0:0:0:0:
182,192,111432,1,8,0:0:0:0:
329,192,111432,128,0,111748:0:0:0:80:F#4S_Gb4S.wav
402,192,111432,1,0,0:0:0:80:A#4S_Bb4S.wav
475,192,111432,1,0,0:0:0:80:D#7S_Eb7S.wav
109,192,111590,1,0,0:0:0:0:
256,192,111590,1,0,0:0:0:0:
36,192,111748,1,2,0:0:0:0:
182,192,111748,128,0,112064:0:0:0:80:C#7S_Db7S.wav
475,192,111748,1,0,0:0:0:80:G#4S_Ab4S.wav
329,192,111906,1,0,0:0:0:0:
256,192,112064,1,8,0:0:0:0:
402,192,112064,1,0,0:0:0:80:B4S.wav
475,192,112064,1,0,0:0:0:80:D#5S_Eb5S.wav
329,192,112222,1,0,0:0:0:80:B6S_s.wav
182,192,112301,1,0,0:0:0:80:A#6S_Bb6S_s.wav
36,192,112380,1,2,0:0:0:0:
109,192,112380,1,0,0:0:0:80:B6S.wav
329,192,112380,1,0,0:0:0:80:G#4S_Ab4S.wav
475,192,112380,128,0,112695:0:0:0:0:
182,192,112537,1,2,0:0:0:0:
256,192,112537,1,0,0:0:0:0:
36,192,112695,1,8,0:0:0:0:
329,192,112695,1,0,0:0:0:80:D#5S_Eb5S.wav
402,192,112695,1,0,0:0:0:80:B4S.wav
109,192,112853,1,0,0:0:0:0:
256,192,112853,1,0,0:0:0:0:
36,192,113011,1,2,0:0:0:0:
182,192,113011,1,0,0:0:0:80:E4S.wav
475,192,113011,1,0,0:0:0:80:B5S_s.wav
402,192,113090,1,0,0:0:0:0:
329,192,113169,1,0,0:0:0:80:C#6S_Db6S_s.wav
256,192,113248,1,0,0:0:0:0:
36,192,113327,1,8,0:0:0:0:
182,192,113327,1,0,0:0:0:80:G#4S_Ab4S.wav
329,192,113406,1,0,0:0:0:0:
256,192,113485,1,0,0:0:0:80:E6S_s.wav
182,192,113564,1,0,0:0:0:0:
109,192,113643,1,2,0:0:0:0:
329,192,113643,1,0,0:0:0:80:E4S.wav
402,192,113722,1,0,0:0:0:0:
182,192,113801,1,2,0:0:0:0:
475,192,113801,1,0,0:0:0:80:G#6S_Ab6S_s.wav
256,192,113880,1,0,0:0:0:0:
36,192,113958,1,8,0:0:0:0:
329,192,113958,1,0,0:0:0:80:B4S.wav
109,192,114037,1,0,0:0:0:0:
182,192,114116,1,0,0:0:0:80:B6S_s.wav
402,192,114116,1,0,0:0:0:0:
36,192,114274,128,2,114590:0:0:0:0:
109,192,114274,1,0,0:0:0:80:G4S.wav
475,192,114274,1,0,0:0:0:80:C#7S_Db7S.wav
256,192,114432,1,0,0:0:0:0:
182,192,114590,1,8,0:0:0:0:
329,192,114590,1,0,0:0:0:80:C#5S_Db5S.wav
475,192,114590,1,0,0:0:0:80:G4S.wav
36,192,114748,1,0,0:0:0:80:G6S_s.wav
109,192,114748,1,0,0:0:0:0:
256,192,114748,1,0,0:0:0:0:
182,192,114906,1,6,0:0:0:0:
329,192,114906,1,0,0:0:0:80:E7S_s.wav
402,192,114906,1,0,0:0:0:80:C#5S_Db5S_s.wav
475,192,114906,1,0,0:0:0:80:G4S_s.wav
109,192,115143,1,6,0:0:0:0:
182,192,115143,1,0,0:0:0:80:D#7S_Eb7S_s.wav
329,192,115143,1,0,0:0:0:80:G4S_s.wav
402,192,115143,1,0,0:0:0:80:C#5S_Db5S_s.wav
36,192,115380,1,6,0:0:0:0:
109,192,115380,1,0,0:0:0:80:C#7S_Db7S_s.wav
182,192,115380,1,0,0:0:0:80:C#5S_Db5S_s.wav
329,192,115380,1,0,0:0:0:80:A#4S_Bb4S_s.wav
36,192,115537,1,2,0:0:0:0:
109,192,115537,1,4,0:0:0:0:
182,192,115537,1,0,0:0:0:80:C#7S_Db7S.wav
329,192,115537,1,0,0:0:0:80:G#4S_Ab4S.wav
475,192,115537,128,0,115853:0:0:0:0:
256,192,115695,1,0,0:0:0:0:
36,192,115853,1,8,0:0:0:0:
109,192,115853,1,0,0:0:0:80:B4S.wav
329,192,115853,1,0,0:0:0:80:D#5S_Eb5S.wav
256,192,116011,1,0,0:0:0:80:B6S.wav
402,192,116011,128,0,116485:0:0:0:0:
109,192,116169,1,2,0:0:0:0:
182,192,116169,1,0,0:0:0:80:G#4S_Ab4S.wav
109,192,116327,1,2,0:0:0:0:
182,192,116327,1,0,0:0:0:0:
36,192,116485,1,8,0:0:0:0:
256,192,116485,1,0,0:0:0:80:D#5S_Eb5S.wav
475,192,116485,1,0,0:0:0:80:B4S.wav
109,192,116643,1,0,0:0:0:0:
329,192,116643,1,0,0:0:0:0:
182,192,116801,1,2,0:0:0:0:
402,192,116801,1,0,0:0:0:80:G#4S_Ab4S.wav
475,192,116801,1,0,0:0:0:80:B7S_s.wav
36,192,116958,1,8,0:0:0:0:
256,192,116958,1,0,0:0:0:80:A#7S_Bb7S_s.wav
109,192,117037,1,0,0:0:0:0:
329,192,117037,1,0,0:0:0:0:
182,192,117116,1,8,0:0:0:0:
402,192,117116,1,0,0:0:0:80:B4S.wav
475,192,117116,1,0,0:0:0:80:D#5S_Eb5S.wav
182,192,117274,1,8,0:0:0:0:
402,192,117274,1,0,0:0:0:80:F#7S_Gb7S_s.wav
475,192,117274,1,0,0:0:0:0:
36,192,117432,1,2,0:0:0:0:
109,192,117432,1,0,0:0:0:80:G#4S_Ab4S.wav
329,192,117432,1,0,0:0:0:80:E7S_s.wav
182,192,117590,1,2,0:0:0:0:
329,192,117590,1,0,0:0:0:80:D#7S_Eb7S_s.wav
475,192,117590,1,0,0:0:0:0:
109,192,117748,1,2,0:0:0:0:
256,192,117748,1,0,0:0:0:80:D#5S_Eb5S.wav
402,192,117748,1,0,0:0:0:80:C#7S_Db7S_s.wav
36,192,117906,1,2,0:0:0:0:
182,192,117906,1,0,0:0:0:80:B6S_s.wav
329,192,117906,1,0,0:0:0:0:
36,192,118064,128,4,118380:0:0:0:0:
109,192,118064,128,2,118380:0:0:0:0:
256,192,118064,1,0,0:0:0:80:E4S.wav
329,192,118064,1,0,0:0:0:80:A#6S_Bb6S.wav
475,192,118064,1,0,0:0:0:0:
256,192,118380,1,8,0:0:0:0:
402,192,118380,1,0,0:0:0:80:E4S.wav
475,192,118380,1,0,0:0:0:80:B4S.wav
109,192,118537,128,0,118853:0:0:0:80:B6S.wav
182,192,118537,128,0,118853:0:0:0:0:
329,192,118537,1,0,0:0:0:0:
402,192,118695,1,2,0:0:0:0:
475,192,118695,1,0,0:0:0:80:E4S.wav
402,192,118853,1,2,0:0:0:0:
475,192,118853,1,0,0:0:0:0:
36,192,119011,1,8,0:0:0:0:
109,192,119011,1,0,0:0:0:80:B4S.wav
329,192,119011,1,0,0:0:0:80:E4S.wav
182,192,119169,1,0,0:0:0:0:
256,192,119169,1,0,0:0:0:0:
36,192,119327,1,2,0:0:0:0:
109,192,119327,1,0,0:0:0:80:F#4S_Gb4S.wav
402,192,119327,128,0,119643:0:0:0:80:C#7S_Db7S.wav
475,192,119327,128,0,119643:0:0:0:0:
182,192,119485,1,0,0:0:0:0:
36,192,119643,1,8,0:0:0:0:
256,192,119643,1,0,0:0:0:80:C#5S_Db5S.wav
329,192,119643,1,0,0:0:0:80:F#4S_Gb4S.wav
256,192,119801,128,0,120116:0:0:0:80:F#6S_Gb6S.wav
329,192,119801,128,0,120116:0:0:0:0:
475,192,119801,1,0,0:0:0:0:
36,192,119958,1,2,0:0:0:0:
109,192,119958,1,0,0:0:0:80:F#4S_Gb4S.wav
36,192,120116,1,2,0:0:0:0:
109,192,120116,1,0,0:0:0:0:
256,192,120274,1,8,0:0:0:0:
329,192,120274,1,0,0:0:0:80:C#7S_Db7S_s.wav
475,192,120274,128,0,120432:0:0:0:80:C#5S_Db5S.wav
182,192,120432,1,0,0:0:0:80:B6S_s.wav
402,192,120432,128,0,120590:0:0:0:0:
36,192,120590,128,2,120906:0:0:0:0:
109,192,120590,128,4,120906:0:0:0:0:
256,192,120590,1,0,0:0:0:80:G4S.wav
475,192,120590,1,0,0:0:0:80:A#6S_Bb6S.wav
256,192,120906,1,8,0:0:0:0:
402,192,120906,1,0,0:0:0:80:A#4S_Bb4S.wav
475,192,120906,1,0,0:0:0:80:C#5S_Db5S.wav
109,192,121064,128,4,121380:0:0:0:0:
182,192,121064,128,2,121380:0:0:0:0:
402,192,121064,1,0,0:0:0:80:C#7S_Db7S.wav
475,192,121064,1,0,0:0:0:0:
256,192,121380,1,2,0:0:0:0:
402,192,121380,1,0,0:0:0:0:
109,192,121537,1,12,0:0:0:0:
182,192,121537,1,0,0:0:0:80:G4S.wav
256,192,121537,128,0,121853:0:0:0:80:D#7S_Eb7S.wav
402,192,121537,128,0,121853:0:0:0:80:A#4S_Bb4S.wav
36,192,121853,1,2,0:0:0:0:
109,192,121853,1,0,0:0:0:80:G#4S_Ab4S.wav
329,192,121853,1,0,0:0:0:80:C#7S_Db7S.wav
182,192,121932,1,0,0:0:0:0:
256,192,122011,1,0,0:0:0:0:
475,192,122011,1,0,0:0:0:0:
402,192,122090,1,0,0:0:0:0:
182,192,122169,1,8,0:0:0:0:
329,192,122169,1,0,0:0:0:80:D#5S_Eb5S.wav
109,192,122248,1,0,0:0:0:0:
36,192,122327,1,0,0:0:0:80:B6S_s.wav
256,192,122327,1,0,0:0:0:0:
402,192,122406,1,0,0:0:0:80:A#6S_Bb6S_s.wav
182,192,122485,1,2,0:0:0:0:
475,192,122485,1,0,0:0:0:80:G#4S_Ab4S.wav
329,192,122564,1,0,0:0:0:0:
109,192,122643,1,2,0:0:0:0:
402,192,122643,1,0,0:0:0:0:
182,192,122722,1,0,0:0:0:0:
36,192,122801,1,8,0:0:0:0:
256,192,122801,1,0,0:0:0:80:D#5S_Eb5S.wav
329,192,122880,1,0,0:0:0:0:
182,192,122958,1,2,0:0:0:0:
402,192,122958,1,0,0:0:0:0:
256,192,123037,1,0,0:0:0:0:
36,192,123116,1,12,0:0:0:0:
109,192,123116,1,0,0:0:0:80:A#6S_Bb6S_s.wav
329,192,123116,1,0,0:0:0:80:B4S.wav
402,192,123116,1,0,0:0:0:80:E4S.wav
475,192,123116,1,0,0:0:0:80:G#4S_Ab4S.wav
36,192,123274,1,2,0:0:0:0:
109,192,123274,1,0,0:0:0:80:B6S_s.wav
256,192,123432,1,2,0:0:0:0:
402,192,123432,1,0,0:0:0:80:E4S_s.wav
36,192,123590,1,12,0:0:0:0:
109,192,123590,1,0,0:0:0:80:B4S.wav
182,192,123590,1,0,0:0:0:80:A#6S_Bb6S_s.wav
402,192,123590,1,0,0:0:0:80:G#4S_Ab4S.wav
475,192,123590,1,0,0:0:0:80:E4S.wav
402,192,123748,1,2,0:0:0:0:
475,192,123748,1,0,0:0:0:80:B6S_s.wav
109,192,123906,1,2,0:0:0:0:
256,192,123906,1,0,0:0:0:80:E4S_s.wav
36,192,124064,1,12,0:0:0:0:
109,192,124064,1,0,0:0:0:80:A#6S_Bb6S_s.wav
329,192,124064,1,0,0:0:0:80:E4S.wav
402,192,124064,1,0,0:0:0:80:B4S.wav
475,192,124064,1,0,0:0:0:80:G#4S_Ab4S.wav
36,192,124222,1,2,0:0:0:0:
109,192,124222,1,0,0:0:0:80:B6S_s.wav
256,192,124380,1,2,0:0:0:0:
402,192,124380,1,0,0:0:0:80:F#7S_Gb7S_s.wav
36,192,124537,1,12,0:0:0:0:
109,192,124537,1,0,0:0:0:80:B4S.wav
182,192,124537,1,0,0:0:0:80:G#4S_Ab4S.wav
402,192,124537,1,0,0:0:0:80:A#6S_Bb6S_s.wav
475,192,124537,1,0,0:0:0:80:E4S.wav
402,192,124695,1,2,0:0:0:0:
475,192,124695,1,0,0:0:0:80:B6S_s.wav
109,192,124853,1,12,0:0:0:0:
256,192,124853,1,0,0:0:0:80:F#7S_Gb7S_s.wav
36,192,125011,1,8,0:0:0:0:
109,192,125011,1,0,0:0:0:80:G#4S_Ab4S.wav
329,192,125011,1,0,0:0:0:80:F#7S_Gb7S_s.wav
402,192,125011,1,0,0:0:0:80:B4S.wav
182,192,125169,1,2,0:0:0:0:
475,192,125169,1,0,0:0:0:0:
256,192,125327,1,8,0:0:0:0:
329,192,125327,1,0,0:0:0:80:G#7S_Ab7S_s.wav
402,192,125327,1,0,0:0:0:80:E4S_s.wav
36,192,125485,1,6,0:0:0:0:
109,192,125485,1,0,0:0:0:80:C#5S_Db5S.wav
182,192,125485,1,0,0:0:0:80:A#4S_Bb4S.wav
329,192,125485,1,0,0:0:0:80:F#7S_Gb7S.wav
402,192,125485,1,0,0:0:0:80:F#4S_Gb4S.wav
256,192,125643,1,2,0:0:0:0:
475,192,125643,1,0,0:0:0:0:
36,192,125801,1,8,0:0:0:0:
109,192,125801,1,4,0:0:0:0:
329,192,125801,1,0,0:0:0:0:
402,192,125801,1,0,0:0:0:0:
36,192,125958,1,6,0:0:0:0:
109,192,125958,1,0,0:0:0:80:C#5S_Db5S.wav
256,192,125958,1,0,0:0:0:80:F#4S_Gb4S.wav
475,192,125958,1,0,0:0:0:80:A#4S_Bb4S.wav
182,192,126116,1,2,0:0:0:0:
36,192,126274,1,4,0:0:0:0:
256,192,126274,1,0,0:0:0:80:F#4S_Gb4S.wav
402,192,126274,1,0,0:0:0:0:
475,192,126274,1,0,0:0:0:0:
402,192,126432,1,8,0:0:0:0:
475,192,126432,1,0,0:0:0:0:
36,192,126590,1,2,0:0:0:0:
109,192,126590,1,0,0:0:0:80:C#5S_Db5S.wav
256,192,126590,1,0,0:0:0:80:F#4S_Gb4S.wav
182,192,126748,1,8,0:0:0:0:
329,192,126748,1,0,0:0:0:0:
36,192,126906,1,6,0:0:0:0:
256,192,126906,1,0,0:0:0:80:A#6S_Bb6S_s.wav
475,192,126906,1,0,0:0:0:80:F#4S_Gb4S.wav
109,192,126985,1,0,0:0:0:0:
182,192,127064,1,2,0:0:0:0:
329,192,127064,1,0,0:0:0:80:F#6S_Gb6S_s.wav
402,192,127143,1,0,0:0:0:0:
36,192,127222,1,2,0:0:0:0:
475,192,127222,1,0,0:0:0:80:G#6S_Ab6S_s.wav
109,192,127301,1,0,0:0:0:0:
182,192,127380,1,2,0:0:0:0:
329,192,127380,1,0,0:0:0:80:A#6S_Bb6S_s.wav
402,192,127458,1,0,0:0:0:0:
256,192,127537,1,2,0:0:0:0:
475,192,127537,1,0,0:0:0:80:B6S_s.wav
329,192,127616,1,0,0:0:0:0:
36,192,127643,1,2,0:0:0:0:
402,192,127695,1,0,0:0:0:80:C#7S_Db7S_s.wav
109,192,127748,1,2,0:0:0:0:
475,192,127774,1,0,0:0:0:0:
182,192,127853,1,2,0:0:0:0:
329,192,127853,1,0,0:0:0:80:C#5S_Db5S.wav
36,192,127932,1,0,0:0:0:0:
402,192,127958,1,2,0:0:0:0:
109,192,128011,1,0,0:0:0:80:E7S_s.wav
475,192,128064,1,2,0:0:0:0:
182,192,128090,1,0,0:0:0:0:
36,192,128169,1,0,0:0:0:80:B5S.wav
256,192,128169,1,0,0:0:0:80:A#6S_Bb6S.wav
329,192,128169,1,0,0:0:0:80:G#5S_Ab5S.wav
109,192,128643,1,0,0:0:0:80:B6S.wav
402,192,128643,1,0,0:0:0:0:
182,192,129116,1,0,0:0:0:80:C#7S_Db7S.wav
475,192,129116,1,0,0:0:0:0:
329,192,129432,1,0,0:0:0:80:C#6S_Db6S.wav
402,192,129432,1,0,0:0:0:80:A#5S_Bb5S.wav
109,192,129590,1,0,0:0:0:80:B6S.wav
256,192,129590,1,0,0:0:0:0:
402,192,130064,1,0,0:0:0:80:F#7S_Gb7S_s.wav
329,192,130143,1,0,0:0:0:80:E7S_s.wav
256,192,130222,1,0,0:0:0:80:D#7S_Eb7S_s.wav
182,192,130301,1,0,0:0:0:80:C#7S_Db7S_s.wav
329,192,130380,1,0,0:0:0:80:B6S_s.wav
256,192,130458,1,0,0:0:0:80:A#6S_Bb6S_s.wav
182,192,130537,1,0,0:0:0:80:G#6S_Ab6S_s.wav
109,192,130616,1,0,0:0:0:80:F#6S_Gb6S_s.wav
36,192,130695,1,0,0:0:0:80:G#5S_Ab5S.wav
329,192,130695,1,0,0:0:0:80:C#6S_Db6S.wav
182,192,131169,1,0,0:0:0:80:B6S.wav
402,192,131169,1,0,0:0:0:0:
256,192,131643,1,0,0:0:0:80:C#7S_Db7S.wav
475,192,131643,1,0,0:0:0:0:
182,192,131958,1,0,0:0:0:80:D#6S_Eb6S.wav
329,192,131958,1,0,0:0:0:80:G#5S_Ab5S.wav
256,192,132116,1,0,0:0:0:80:D#7S_Eb7S.wav
402,192,132116,1,0,0:0:0:0:
182,192,132590,1,0,0:0:0:80:F#6S_Gb6S_s.wav
329,192,132669,1,0,0:0:0:80:C#6S_Db6S_s.wav
182,192,132748,1,0,0:0:0:80:F#6S_Gb6S_s.wav
402,192,132827,1,0,0:0:0:80:B6S_s.wav
256,192,132906,1,0,0:0:0:80:C#7S_Db7S_s.wav
475,192,132906,1,0,0:0:0:0:
182,192,133064,1,0,0:0:0:80:B6S_s.wav
329,192,133064,1,0,0:0:0:0:
36,192,133222,1,0,0:0:0:80:B5S.wav
256,192,133222,1,0,0:0:0:80:A#6S_Bb6S.wav
109,192,133695,1,0,0:0:0:80:B6S.wav
329,192,133695,1,0,0:0:0:0:
182,192,134169,1,0,0:0:0:80:C#7S_Db7S.wav
475,192,134169,1,0,0:0:0:0:
256,192,134485,1,0,0:0:0:80:C#6S_Db6S.wav
402,192,134485,1,0,0:0:0:80:F#5S_Gb5S.wav
109,192,134643,1,0,0:0:0:80:B6S.wav
329,192,134643,1,0,0:0:0:0:
36,192,135116,1,0,0:0:0:80:A#5S_Bb5S.wav
256,192,135116,1,0,0:0:0:80:F#7S_Gb7S_s.wav
182,192,135195,1,0,0:0:0:80:E7S_s.wav
109,192,135274,1,0,0:0:0:80:D#7S_Eb7S_s.wav
329,192,135353,1,0,0:0:0:80:C#7S_Db7S_s.wav
182,192,135432,1,0,0:0:0:80:B6S_s.wav
402,192,135511,1,0,0:0:0:80:A#6S_Bb6S_s.wav
329,192,135590,1,0,0:0:0:80:G#6S_Ab6S_s.wav
256,192,135669,1,0,0:0:0:80:F#6S_Gb6S_s.wav
182,192,135748,1,0,0:0:0:80:D#6S_Eb6S.wav
475,192,135748,1,0,0:0:0:80:B5S.wav
36,192,136222,1,0,0:0:0:80:B6S.wav
329,192,136222,1,0,0:0:0:0:
109,192,136695,1,0,0:0:0:80:C#7S_Db7S.wav
402,192,136695,1,0,0:0:0:0:
182,192,137169,1,0,0:0:0:80:D#7S_Eb7S.wav
475,192,137169,1,0,0:0:0:0:
329,192,137643,1,0,0:0:0:80:F#7S_Gb7S_s.wav
182,192,137748,1,0,0:0:0:80:C#7S_Db7S_s.wav
329,192,137827,1,0,0:0:0:80:F#7S_Gb7S_s.wav
402,192,137906,1,0,0:0:0:80:B7S_s.wav
475,192,137985,1,0,0:0:0:80:C#8S_Db8S_s.wav
402,192,138169,1,0,0:0:0:80:B7S.wav
