osu file format v14

[General]
AudioFilename: audio.mp3
AudioLeadIn: 0
PreviewTime: 67537
Countdown: 0
SampleSet: Soft
StackLeniency: 0.7
Mode: 3
LetterboxInBreaks: 0
SpecialStyle: 0
WidescreenStoryboard: 0

[Editor]
DistanceSpacing: 0.8
BeatDivisor: 4
GridSize: 16
TimelineZoom: 1.4

[Metadata]
Title:stella=steLLa
TitleUnicode:stella=steLLa
Artist:marasy
ArtistUnicode:まらしぃ
Creator:Dreamwalker
Version:Fontes' Hard
Source:CHUNITHM
Tags:marasy8 Fontes Murumoo FAMoss チュウニズム SEGA ゲーム収録曲©SEGA
BeatmapID:1188579
BeatmapSetID:562180

[Difficulty]
HPDrainRate:8
CircleSize:4
OverallDifficulty:8
ApproachRate:5
SliderMultiplier:1.4
SliderTickRate:1

[Events]
//Background and Video events
0,0,"background2.jpg",0,0
//Break Periods
//Storyboard Layer 0 (Background)
//Storyboard Layer 1 (Fail)
//Storyboard Layer 2 (Pass)
//Storyboard Layer 3 (Foreground)
//Storyboard Sound Samples
Sample,4380,0,"B5S.wav",80
Sample,4380,0,"E5S.wav",80
Sample,9432,0,"F#5S_Gb5S.wav",80
Sample,9432,0,"C#6S_Db6S.wav",80
Sample,14327,0,"A#6S_Bb6S_s.wav",80
Sample,19380,0,"F#7S_Gb7S_s.wav",80
Sample,19432,0,"D#5S_Eb5S.wav",80
Sample,19485,0,"G#5S_Ab5S.wav",80
Sample,21906,0,"A#5S_Bb5S_s.wav",80
Sample,22853,0,"A#6S_Bb6S_s.wav",80
Sample,24432,0,"A#6S_Bb6S_s.wav",80
Sample,24590,0,"E3S.wav",80
Sample,24590,0,"A#6S_Bb6S_s.wav",80
Sample,24590,0,"B3S.wav",80
Sample,27116,0,"E4S.wav",80
Sample,27590,0,"B6S_s.wav",80
Sample,28064,0,"B6S_s.wav",80
Sample,28537,0,"B6S_s.wav",80
Sample,29011,0,"B6S_s.wav",80
Sample,34695,0,"E4S.wav",80
Sample,34695,0,"B4S.wav",80
Sample,35958,0,"F#4S_Gb4S.wav",80
Sample,37222,0,"G#4S_Ab4S.wav",80
Sample,37222,0,"D#4S_Eb4S.wav",80
Sample,38485,0,"G#4S_Ab4S.wav",80
Sample,39748,0,"E4S.wav",80
Sample,39748,0,"G#4S_Ab4S.wav",80
Sample,41011,0,"A#4S_Bb4S.wav",80
Sample,41011,0,"F#4S_Gb4S.wav",80
Sample,41643,0,"G4S.wav",80
Sample,41643,0,"F#6S_Gb6S_s.wav",80
Sample,42274,0,"G#4S_Ab4S.wav",80
Sample,42274,0,"A#5S_Bb5S.wav",80
Sample,45116,0,"E4S.wav",80
Sample,45116,0,"B4S.wav",80
Sample,45432,0,"E4S.wav",80
Sample,45748,0,"B4S.wav",80
Sample,45748,0,"E4S.wav",80
Sample,45748,0,"G#4S_Ab4S.wav",80
Sample,46064,0,"F#4S_Gb4S.wav",80
Sample,46380,0,"C#5S_Db5S.wav",80
Sample,46380,0,"F#4S_Gb4S.wav",80
Sample,46695,0,"F#4S_Gb4S.wav",80
Sample,46853,0,"D#6S_Eb6S_s.wav",80
Sample,47011,0,"C#5S_Db5S.wav",80
Sample,47011,0,"B5S_s.wav",80
Sample,47011,0,"F#4S_Gb4S.wav",80
Sample,47248,0,"F#5S_Gb5S_s.wav",80
Sample,47643,0,"G4S.wav",80
Sample,47643,0,"A#4S_Bb4S.wav",80
Sample,47958,0,"G4S.wav",80
Sample,48274,0,"C#5S_Db5S.wav",80
Sample,48274,0,"D#6S_Eb6S.wav",80
Sample,48274,0,"G4S.wav",80
Sample,48590,0,"C#6S_Db6S.wav",80
Sample,48906,0,"B4S.wav",80
Sample,48906,0,"G#4S_Ab4S.wav",80
Sample,49222,0,"B5S.wav",80
Sample,49537,0,"B4S.wav",80
Sample,49537,0,"G#4S_Ab4S.wav",80
Sample,50169,0,"E4S.wav",80
Sample,50169,0,"G#4S_Ab4S.wav",80
Sample,50485,0,"E4S.wav",80
Sample,50801,0,"E4S.wav",80
Sample,50801,0,"B4S.wav",80
Sample,50801,0,"G#4S_Ab4S.wav",80
Sample,51116,0,"F#4S_Gb4S.wav",80
Sample,51432,0,"C#5S_Db5S.wav",80
Sample,51432,0,"F#4S_Gb4S.wav",80
Sample,51748,0,"F#4S_Gb4S.wav",80
Sample,51906,0,"D#6S_Eb6S_s.wav",80
Sample,52064,0,"C#5S_Db5S.wav",80
Sample,52064,0,"B5S_s.wav",80
Sample,52064,0,"A#4S_Bb4S.wav",80
Sample,52064,0,"F#4S_Gb4S.wav",80
Sample,52380,0,"B4S.wav",80
Sample,52380,0,"G#4S_Ab4S.wav",80
Sample,52695,0,"G#4S_Ab4S_s.wav",80
Sample,52853,0,"G#4S_Ab4S.wav",80
Sample,52853,0,"B4S.wav",80
Sample,53169,0,"G#4S_Ab4S_s.wav",80
Sample,53327,0,"G#4S_Ab4S.wav",80
Sample,53327,0,"B4S.wav",80
Sample,53748,0,"soft-hitwhistle.wav",0
Sample,53853,0,"soft-hitwhistle.wav",0
Sample,53958,0,"A#6S_Bb6S.wav",80
Sample,54064,0,"soft-hitwhistle.wav",0
Sample,54169,0,"soft-hitwhistle.wav",0
Sample,54274,0,"F#6S_Gb6S.wav",80
Sample,54380,0,"soft-hitwhistle.wav",0
Sample,54485,0,"soft-hitwhistle.wav",0
Sample,54590,0,"D#6S_Eb6S.wav",80
Sample,54695,0,"soft-hitwhistle.wav",0
Sample,54801,0,"soft-hitwhistle.wav",0
Sample,56195,0,"F#4S_Gb4S.wav",80
Sample,56511,0,"C#6S_Db6S.wav",80
Sample,57458,0,"A#4S_Bb4S.wav",80
Sample,57458,0,"G4S.wav",80
Sample,58695,0,"B4S.wav",80
Sample,58695,0,"G#4S_Ab4S.wav",80
Sample,60274,0,"B4S.wav",80
Sample,60274,0,"E5S.wav",80
Sample,60274,0,"E4S.wav",80
Sample,60590,0,"E4S.wav",80
Sample,60748,0,"F#5S_Gb5S_s.wav",80
Sample,60906,0,"E4S.wav",80
Sample,60906,0,"B4S.wav",80
Sample,60906,0,"E5S.wav",80
Sample,61222,0,"E4S.wav",80
Sample,61537,0,"E4S.wav",80
Sample,61537,0,"B4S.wav",80
Sample,61537,0,"E5S.wav",80
Sample,61853,0,"E4S.wav",80
Sample,62169,0,"E4S.wav",80
Sample,62169,0,"B4S.wav",80
Sample,62169,0,"E5S.wav",80
Sample,62485,0,"F#6S_Gb6S_s.wav",80
Sample,62485,0,"C#5S_Db5S.wav",80
Sample,62485,0,"F#4S_Gb4S.wav",80
Sample,62801,0,"A#5S_Bb5S_s.wav",80
Sample,62958,0,"F#5S_Gb5S.wav",80
Sample,62958,0,"C#5S_Db5S.wav",80
Sample,63116,0,"C#6S_Db6S_s.wav",80
Sample,63274,0,"F#4S_Gb4S_s.wav",80
Sample,63432,0,"F#5S_Gb5S.wav",80
Sample,63432,0,"C#5S_Db5S.wav",80
Sample,63590,0,"C#6S_Db6S_s.wav",80
Sample,63748,0,"F#4S_Gb4S_s.wav",80
Sample,63906,0,"F#5S_Gb5S.wav",80
Sample,63906,0,"C#5S_Db5S.wav",80
Sample,64064,0,"C#6S_Db6S_s.wav",80
Sample,64222,0,"F#4S_Gb4S_s.wav",80
Sample,64380,0,"C#5S_Db5S.wav",80
Sample,64380,0,"F#6S_Gb6S.wav",80
Sample,65327,0,"G#6S_Ab6S_s.wav",80
Sample,65485,0,"A#6S_Bb6S_s.wav",80
Sample,65643,0,"B6S_s.wav",80
Sample,65748,0,"soft-hitwhistle.wav",0
Sample,65853,0,"soft-hitwhistle.wav",0
Sample,65958,0,"D#7S_Eb7S_s.wav",80
Sample,66064,0,"soft-hitwhistle.wav",0
Sample,66169,0,"soft-hitwhistle.wav",0
Sample,66274,0,"F#7S_Gb7S_s.wav",80
Sample,66274,0,"A#6S_Bb6S_s.wav",80
Sample,66274,0,"C#5S_Db5S_s.wav",80
Sample,66274,0,"F#5S_Gb5S_s.wav",80
Sample,67853,0,"E4S.wav",80
Sample,67853,0,"B4S.wav",80
Sample,68485,0,"G#4S_Ab4S.wav",80
Sample,68485,0,"E4S.wav",80
Sample,69116,0,"C#5S_Db5S.wav",80
Sample,69116,0,"F#4S_Gb4S.wav",80
Sample,69748,0,"C#5S_Db5S.wav",80
Sample,69748,0,"F#4S_Gb4S.wav",80
Sample,69748,0,"A#4S_Bb4S.wav",80
Sample,70380,0,"D#4S_Eb4S.wav",80
Sample,70380,0,"F#4S_Gb4S.wav",80
Sample,71011,0,"A#4S_Bb4S.wav",80
Sample,71011,0,"D#4S_Eb4S.wav",80
Sample,71011,0,"F#4S_Gb4S.wav",80
Sample,71643,0,"G#4S_Ab4S.wav",80
Sample,71643,0,"B4S.wav",80
Sample,71958,0,"B6S.wav",80
Sample,72274,0,"G#4S_Ab4S.wav",80
Sample,72274,0,"D#5S_Eb5S.wav",80
Sample,72906,0,"E4S.wav",80
Sample,72906,0,"G#4S_Ab4S.wav",80
Sample,73537,0,"E4S.wav",80
Sample,73537,0,"B4S.wav",80
Sample,74169,0,"C#5S_Db5S.wav",80
Sample,74169,0,"E7S.wav",80
Sample,74169,0,"F#4S_Gb4S.wav",80
Sample,74643,0,"soft-hitwhistle.wav",0
Sample,74801,0,"C#5S_Db5S.wav",80
Sample,74801,0,"A#4S_Bb4S.wav",80
Sample,75432,0,"G#4S_Ab4S.wav",80
Sample,75432,0,"B4S.wav",80
Sample,76064,0,"G#4S_Ab4S.wav",80
Sample,76064,0,"D#5S_Eb5S.wav",80
Sample,76064,0,"B4S.wav",80
Sample,76380,0,"G#4S_Ab4S.wav",80
Sample,76695,0,"B4S.wav",80
Sample,76695,0,"G#7S_Ab7S_s.wav",80
Sample,76695,0,"G#4S_Ab4S.wav",80
Sample,76932,0,"soft-hitclap.wav",0
Sample,77011,0,"E7S_s.wav",80
Sample,77169,0,"D#7S_Eb7S_s.wav",80
Sample,77327,0,"D#5S_Eb5S.wav",80
Sample,77327,0,"C#7S_Db7S_s.wav",80
Sample,77327,0,"B4S.wav",80
Sample,77327,0,"G#4S_Ab4S.wav",80
Sample,77485,0,"B6S_s.wav",80
Sample,77958,0,"B4S.wav",80
Sample,77958,0,"E4S.wav",80
Sample,78590,0,"E4S.wav",80
Sample,78590,0,"G#4S_Ab4S.wav",80
Sample,79222,0,"C#5S_Db5S.wav",80
Sample,79222,0,"A#4S_Bb4S.wav",80
Sample,79853,0,"C#7S_Db7S_s.wav",80
Sample,79853,0,"A#4S_Bb4S.wav",80
Sample,79853,0,"F#4S_Gb4S.wav",80
Sample,80485,0,"G4S.wav",80
Sample,80485,0,"A#4S_Bb4S.wav",80
Sample,81116,0,"G4S.wav",80
Sample,81116,0,"D#4S_Eb4S.wav",80
Sample,81748,0,"G#4S_Ab4S.wav",80
Sample,81748,0,"D#5S_Eb5S.wav",80
Sample,82064,0,"G#4S_Ab4S.wav",80
Sample,82380,0,"B4S.wav",80
Sample,82380,0,"G#4S_Ab4S.wav",80
Sample,83011,0,"B4S.wav",80
Sample,83011,0,"E4S.wav",80
Sample,83011,0,"G#4S_Ab4S.wav",80
Sample,83327,0,"E4S.wav",80
Sample,83485,0,"A#5S_Bb5S_s.wav",80
Sample,83643,0,"G#4S_Ab4S.wav",80
Sample,83643,0,"B4S.wav",80
Sample,83643,0,"E4S.wav",80
Sample,83958,0,"F#5S_Gb5S_s.wav",80
Sample,84274,0,"G#4S_Ab4S.wav",80
Sample,84274,0,"C#6S_Db6S_s.wav",80
Sample,84274,0,"E4S.wav",80
Sample,84590,0,"B6S_s.wav",80
Sample,84906,0,"B4S.wav",80
Sample,84906,0,"A#6S_Bb6S_s.wav",80
Sample,84906,0,"E4S.wav",80
Sample,85222,0,"A#4S_Bb4S.wav",80
Sample,85222,0,"F#4S_Gb4S.wav",80
Sample,85537,0,"F#4S_Gb4S_s.wav",80
Sample,85537,0,"F#6S_Gb6S_s.wav",80
Sample,85695,0,"A#4S_Bb4S.wav",80
Sample,85695,0,"F#4S_Gb4S.wav",80
Sample,86011,0,"F#4S_Gb4S_s.wav",80
Sample,86011,0,"F#6S_Gb6S_s.wav",80
Sample,86169,0,"F#4S_Gb4S.wav",80
Sample,86169,0,"B6S_s.wav",80
Sample,86485,0,"F#4S_Gb4S_s.wav",80
Sample,86485,0,"F#6S_Gb6S_s.wav",80
Sample,86643,0,"A#4S_Bb4S.wav",80
Sample,86643,0,"F#4S_Gb4S.wav",80
Sample,86958,0,"F#4S_Gb4S_s.wav",80
Sample,87037,0,"soft-hitclap.wav",0
Sample,87116,0,"C#5S_Db5S.wav",80
Sample,87116,0,"F#4S_Gb4S.wav",80
Sample,87116,0,"A#4S_Bb4S.wav",80
Sample,87432,0,"F#4S_Gb4S_s.wav",80
Sample,87432,0,"C#5S_Db5S_s.wav",80
Sample,87590,0,"F#4S_Gb4S_s.wav",80
Sample,87590,0,"A#4S_Bb4S_s.wav",80
Sample,88064,0,"E4S.wav",80
Sample,88064,0,"B4S.wav",80
Sample,88695,0,"E4S.wav",80
Sample,88695,0,"G#4S_Ab4S.wav",80
Sample,89327,0,"A#4S_Bb4S.wav",80
Sample,89327,0,"F#4S_Gb4S.wav",80
Sample,89958,0,"A#4S_Bb4S.wav",80
Sample,89958,0,"C#5S_Db5S.wav",80
Sample,89958,0,"F#4S_Gb4S.wav",80
Sample,90590,0,"F#4S_Gb4S.wav",80
Sample,90590,0,"D#4S_Eb4S.wav",80
Sample,91222,0,"F#7S_Gb7S.wav",80
Sample,91222,0,"A#4S_Bb4S.wav",80
Sample,91222,0,"D#4S_Eb4S.wav",80
Sample,91853,0,"B4S.wav",80
Sample,91853,0,"G#4S_Ab4S.wav",80
Sample,92169,0,"B6S.wav",80
Sample,92485,0,"B4S.wav",80
Sample,92485,0,"G#4S_Ab4S.wav",80
Sample,93116,0,"G#4S_Ab4S.wav",80
Sample,93116,0,"B4S.wav",80
Sample,93748,0,"F#7S_Gb7S.wav",80
Sample,93748,0,"B4S.wav",80
Sample,93748,0,"E4S.wav",80
Sample,94380,0,"C#5S_Db5S.wav",80
Sample,94380,0,"G4S.wav",80
Sample,94380,0,"A#4S_Bb4S.wav",80
Sample,94695,0,"D#7S_Eb7S.wav",80
Sample,94853,0,"soft-hitwhistle.wav",0
Sample,95011,0,"C#5S_Db5S.wav",80
Sample,95011,0,"G4S.wav",80
Sample,95011,0,"A#4S_Bb4S.wav",80
Sample,95327,0,"C#7S_Db7S.wav",80
Sample,95485,0,"D#5S_Eb5S.wav",80
Sample,95485,0,"G#4S_Ab4S.wav",80
Sample,95485,0,"B4S.wav",80
Sample,95801,0,"B4S.wav",80
Sample,95801,0,"D#5S_Eb5S.wav",80
Sample,95801,0,"G#4S_Ab4S.wav",80
Sample,96116,0,"B4S.wav",80
Sample,96116,0,"G#4S_Ab4S.wav",80
Sample,96432,0,"G#4S_Ab4S_s.wav",80
Sample,96748,0,"D#5S_Eb5S.wav",80
Sample,96748,0,"A#7S_Bb7S_s.wav",80
Sample,96748,0,"G#4S_Ab4S.wav",80
Sample,96748,0,"B4S.wav",80
Sample,97064,0,"F#7S_Gb7S_s.wav",80
Sample,97064,0,"G#4S_Ab4S_s.wav",80
Sample,97222,0,"B4S.wav",80
Sample,97222,0,"E7S_s.wav",80
Sample,97222,0,"G#4S_Ab4S.wav",80
Sample,97380,0,"D#7S_Eb7S_s.wav",80
Sample,97537,0,"G#4S_Ab4S_s.wav",80
Sample,97537,0,"C#7S_Db7S_s.wav",80
Sample,97695,0,"D#5S_Eb5S_s.wav",80
Sample,97695,0,"B6S_s.wav",80
Sample,97695,0,"B4S_s.wav",80
Sample,97695,0,"G#4S_Ab4S_s.wav",80
Sample,98169,0,"E4S.wav",80
Sample,98169,0,"B4S.wav",80
Sample,98801,0,"E4S.wav",80
Sample,98801,0,"G#4S_Ab4S.wav",80
Sample,99432,0,"F#4S_Gb4S.wav",80
Sample,99432,0,"A#4S_Bb4S.wav",80
Sample,100064,0,"A#4S_Bb4S.wav",80
Sample,100064,0,"C#5S_Db5S.wav",80
Sample,100064,0,"F#4S_Gb4S.wav",80
Sample,100695,0,"G4S.wav",80
Sample,100695,0,"A#4S_Bb4S.wav",80
Sample,101327,0,"A#4S_Bb4S.wav",80
Sample,101327,0,"D#4S_Eb4S.wav",80
Sample,101958,0,"G#4S_Ab4S.wav",80
Sample,101958,0,"B4S.wav",80
Sample,102274,0,"G#4S_Ab4S.wav",80
Sample,102590,0,"G#4S_Ab4S.wav",80
Sample,102590,0,"D#5S_Eb5S.wav",80
Sample,102906,0,"E4S.wav",80
Sample,102906,0,"G#4S_Ab4S.wav",80
Sample,103064,0,"B6S_s.wav",80
Sample,103222,0,"E4S_s.wav",80
Sample,103380,0,"E4S.wav",80
Sample,103380,0,"G#4S_Ab4S.wav",80
Sample,103537,0,"B6S_s.wav",80
Sample,103695,0,"F#7S_Gb7S_s.wav",80
Sample,103853,0,"G#4S_Ab4S.wav",80
Sample,103853,0,"E4S.wav",80
Sample,104011,0,"B6S_s.wav",80
Sample,104169,0,"E4S_s.wav",80
Sample,104327,0,"E4S.wav",80
Sample,104327,0,"G#4S_Ab4S.wav",80
Sample,104485,0,"B6S_s.wav",80
Sample,104643,0,"F#7S_Gb7S_s.wav",80
Sample,104801,0,"F#7S_Gb7S_s.wav",80
Sample,104801,0,"B4S.wav",80
Sample,104801,0,"G#4S_Ab4S.wav",80
Sample,104958,0,"soft-hitwhistle.wav",0
Sample,105116,0,"G#7S_Ab7S_s.wav",80
Sample,105274,0,"F#4S_Gb4S.wav",80
Sample,105274,0,"A#4S_Bb4S.wav",80
Sample,105748,0,"A#4S_Bb4S.wav",80
Sample,105748,0,"G#7S_Ab7S_s.wav",80
Sample,105748,0,"C#5S_Db5S.wav",80
Sample,105748,0,"F#4S_Gb4S.wav",80
Sample,106064,0,"B7S_s.wav",80
Sample,106064,0,"F#4S_Gb4S.wav",80
Sample,106222,0,"C#8S_Db8S_s.wav",80
Sample,106380,0,"D#8S_Eb8S_s.wav",80
Sample,106380,0,"C#5S_Db5S.wav",80
Sample,106380,0,"F#4S_Gb4S.wav",80
Sample,106380,0,"A#4S_Bb4S.wav",80
Sample,106695,0,"A#7S_Bb7S_s.wav",80
Sample,106695,0,"C#8S_Db8S_s.wav",80
Sample,106695,0,"F#4S_Gb4S.wav",80
Sample,107011,0,"soft-hitclap.wav",0
Sample,107011,0,"C#5S_Db5S.wav",80
Sample,107011,0,"F#4S_Gb4S.wav",80
Sample,107011,0,"A#4S_Bb4S.wav",80
Sample,107169,0,"soft-hitclap.wav",0
Sample,107485,0,"soft-hitwhistle.wav",0
Sample,107643,0,"A#4S_Bb4S.wav",80
Sample,107643,0,"F#4S_Gb4S.wav",80
Sample,107880,0,"soft-hitclap.wav",0
Sample,108274,0,"B4S.wav",80
Sample,108274,0,"G#7S_Ab7S_s.wav",80
Sample,108274,0,"G#4S_Ab4S.wav",80
Sample,108274,0,"E4S.wav",80
Sample,108590,0,"E4S.wav",80
Sample,108748,0,"D#7S_Eb7S_s.wav",80
Sample,108906,0,"E4S.wav",80
Sample,108906,0,"B4S.wav",80
Sample,108906,0,"C#7S_Db7S_s.wav",80
Sample,108906,0,"G#4S_Ab4S.wav",80
Sample,109222,0,"F#4S_Gb4S.wav",80
Sample,109537,0,"G#6S_Ab6S_s.wav",80
Sample,109537,0,"C#5S_Db5S.wav",80
Sample,109537,0,"F#4S_Gb4S.wav",80
Sample,109537,0,"A#4S_Bb4S.wav",80
Sample,109853,0,"F#4S_Gb4S.wav",80
Sample,110011,0,"C#7S_Db7S_s.wav",80
Sample,110169,0,"D#7S_Eb7S_s.wav",80
Sample,110169,0,"C#5S_Db5S.wav",80
Sample,110169,0,"F#4S_Gb4S.wav",80
Sample,110169,0,"A#4S_Bb4S.wav",80
Sample,110485,0,"D#4S_Eb4S.wav",80
Sample,110801,0,"D#4S_Eb4S.wav",80
Sample,110801,0,"A#4S_Bb4S.wav",80
Sample,111432,0,"D#7S_Eb7S.wav",80
Sample,111432,0,"A#4S_Bb4S.wav",80
Sample,111432,0,"D#4S_Eb4S.wav",80
Sample,111748,0,"G#4S_Ab4S.wav",80
Sample,112064,0,"G#4S_Ab4S.wav",80
Sample,112064,0,"D#5S_Eb5S.wav",80
Sample,112380,0,"G#4S_Ab4S.wav",80
Sample,112695,0,"B4S.wav",80
Sample,112695,0,"G#4S_Ab4S.wav",80
Sample,113011,0,"B5S_s.wav",80
Sample,113327,0,"D#6S_Eb6S_s.wav",80
Sample,113327,0,"B4S.wav",80
Sample,113327,0,"E4S.wav",80
Sample,113643,0,"F#6S_Gb6S_s.wav",80
Sample,113801,0,"G#6S_Ab6S_s.wav",80
Sample,113958,0,"A#6S_Bb6S_s.wav",80
Sample,113958,0,"G#4S_Ab4S.wav",80
Sample,113958,0,"E4S.wav",80
Sample,114274,0,"C#7S_Db7S.wav",80
Sample,114590,0,"G4S.wav",80
Sample,114590,0,"A#4S_Bb4S.wav",80
Sample,114906,0,"G4S_s.wav",80
Sample,114906,0,"A#4S_Bb4S_s.wav",80
Sample,115143,0,"C#5S_Db5S_s.wav",80
Sample,115143,0,"A#4S_Bb4S_s.wav",80
Sample,115380,0,"C#5S_Db5S_s.wav",80
Sample,115380,0,"A#4S_Bb4S_s.wav",80
Sample,115380,0,"G4S_s.wav",80
Sample,115853,0,"G#4S_Ab4S.wav",80
Sample,115853,0,"D#5S_Eb5S.wav",80
Sample,116169,0,"G#4S_Ab4S.wav",80
Sample,116485,0,"B4S.wav",80
Sample,116485,0,"G#4S_Ab4S.wav",80
Sample,116801,0,"B7S_s.wav",80
Sample,116958,0,"A#7S_Bb7S_s.wav",80
Sample,117116,0,"D#5S_Eb5S.wav",80
Sample,117116,0,"G#7S_Ab7S_s.wav",80
Sample,117116,0,"G#4S_Ab4S.wav",80
Sample,117353,0,"soft-hitclap.wav",0
Sample,117432,0,"E7S_s.wav",80
Sample,117748,0,"B4S.wav",80
Sample,117748,0,"C#7S_Db7S_s.wav",80
Sample,117748,0,"G#4S_Ab4S.wav",80
Sample,117985,0,"soft-hitwhistle.wav",0
Sample,118380,0,"G#4S_Ab4S.wav",80
Sample,118380,0,"B4S.wav",80
Sample,119011,0,"G#4S_Ab4S.wav",80
Sample,119011,0,"E4S.wav",80
Sample,119643,0,"A#4S_Bb4S.wav",80
Sample,119643,0,"F#4S_Gb4S.wav",80
Sample,119958,0,"F#4S_Gb4S.wav",80
Sample,120274,0,"C#5S_Db5S.wav",80
Sample,120274,0,"F#4S_Gb4S.wav",80
Sample,120274,0,"A#4S_Bb4S.wav",80
Sample,120906,0,"G4S.wav",80
Sample,120906,0,"C#5S_Db5S.wav",80
Sample,121537,0,"D#4S_Eb4S.wav",80
Sample,121537,0,"A#4S_Bb4S.wav",80
Sample,122169,0,"B4S.wav",80
Sample,122169,0,"G#4S_Ab4S.wav",80
Sample,122485,0,"B6S.wav",80
Sample,122801,0,"B4S.wav",80
Sample,122801,0,"G#4S_Ab4S.wav",80
Sample,123116,0,"E4S.wav",80
Sample,123116,0,"G#4S_Ab4S.wav",80
Sample,123274,0,"B6S_s.wav",80
Sample,123432,0,"F#7S_Gb7S_s.wav",80
Sample,123590,0,"G#4S_Ab4S.wav",80
Sample,123590,0,"E4S.wav",80
Sample,123748,0,"B6S_s.wav",80
Sample,123906,0,"F#7S_Gb7S_s.wav",80
Sample,124064,0,"B4S.wav",80
Sample,124064,0,"G#4S_Ab4S.wav",80
Sample,124222,0,"B6S_s.wav",80
Sample,124380,0,"E4S_s.wav",80
Sample,124537,0,"A#6S_Bb6S_s.wav",80
Sample,124537,0,"E4S.wav",80
Sample,124695,0,"B6S_s.wav",80
Sample,124853,0,"E4S_s.wav",80
Sample,125011,0,"F#7S_Gb7S_s.wav",80
Sample,125011,0,"B4S.wav",80
Sample,125011,0,"E4S.wav",80
Sample,125327,0,"E4S_s.wav",80
Sample,125485,0,"F#7S_Gb7S.wav",80
Sample,125485,0,"F#4S_Gb4S.wav",80
Sample,125643,0,"soft-hitwhistle.wav",0
Sample,125958,0,"F#4S_Gb4S.wav",80
Sample,125958,0,"C#5S_Db5S.wav",80
Sample,125958,0,"A#4S_Bb4S.wav",80
Sample,126590,0,"C#5S_Db5S.wav",80
Sample,126590,0,"F#4S_Gb4S.wav",80
Sample,126590,0,"A#4S_Bb4S.wav",80
Sample,127064,0,"F#6S_Gb6S_s.wav",80
Sample,127222,0,"G#6S_Ab6S_s.wav",80
Sample,127222,0,"C#5S_Db5S.wav",80
Sample,127222,0,"F#4S_Gb4S.wav",80
Sample,127222,0,"A#4S_Bb4S.wav",80
Sample,127380,0,"A#6S_Bb6S_s.wav",80
Sample,127537,0,"F#4S_Gb4S.wav",80
Sample,127537,0,"B6S_s.wav",80
Sample,127643,0,"soft-hitwhistle.wav",0
Sample,127748,0,"soft-hitwhistle.wav",0
Sample,127853,0,"C#5S_Db5S.wav",80
Sample,127853,0,"D#7S_Eb7S_s.wav",80
Sample,127853,0,"A#4S_Bb4S.wav",80
Sample,127853,0,"F#4S_Gb4S.wav",80
Sample,127958,0,"soft-hitwhistle.wav",0
Sample,128011,0,"E7S_s.wav",80
Sample,128064,0,"soft-hitwhistle.wav",0
Sample,128169,0,"G#5S_Ab5S.wav",80
Sample,128169,0,"E5S.wav",80
Sample,129432,0,"F#5S_Gb5S.wav",80
Sample,130695,0,"D#5S_Eb5S.wav",80
Sample,130695,0,"A#6S_Bb6S.wav",80
Sample,131958,0,"B5S.wav",80
Sample,133222,0,"G#5S_Ab5S.wav",80
Sample,133222,0,"E5S.wav",80
Sample,134485,0,"A#5S_Bb5S.wav",80
Sample,135116,0,"G5S.wav",80
Sample,135116,0,"C#6S_Db6S.wav",80
Sample,135748,0,"G#5S_Ab5S.wav",80
Sample,135748,0,"A#6S_Bb6S.wav",80

[TimingPoints]
4380,315.789473684211,4,2,1,60,1,0
67537,-100,4,2,1,60,0,1
82695,-100,4,2,1,60,0,0
87748,-133.333333333333,4,2,1,60,0,0
87787,-200,4,2,1,60,0,0
87827,-400,4,2,1,60,0,0
87866,-200,4,2,1,60,0,0
87906,-133.333333333333,4,2,1,60,0,0
87945,-100,4,2,1,60,0,0
87985,-80,4,2,1,60,0,0
88024,-66.6666666666667,4,2,1,60,0,0
88064,-100,4,2,1,60,0,1
105274,-100,4,2,1,60,0,0
107958,-100,4,2,1,60,0,1
128169,-100,4,2,1,60,0,0

[HitObjects]
64,192,4380,5,0,0:0:0:80:G#5S_Ab5S.wav
320,192,4380,1,0,0:0:0:80:A#6S_Bb6S_s.wav
192,192,4537,1,0,0:0:0:80:B6S_s.wav
448,192,4695,1,0,0:0:0:80:F#7S_Gb7S_s.wav
64,192,4853,1,0,0:0:0:80:A#6S_Bb6S_s.wav
192,192,5011,1,0,0:0:0:80:B6S_s.wav
448,192,5169,1,0,0:0:0:80:F#7S_Gb7S_s.wav
64,192,5327,1,0,0:0:0:80:A#6S_Bb6S_s.wav
192,192,5485,1,0,0:0:0:80:B6S_s.wav
448,192,5643,1,0,0:0:0:80:F#7S_Gb7S_s.wav
64,192,5801,1,0,0:0:0:80:A#6S_Bb6S_s.wav
192,192,5958,1,0,0:0:0:80:B6S_s.wav
448,192,6116,1,0,0:0:0:80:F#7S_Gb7S_s.wav
64,192,6274,1,0,0:0:0:80:A#6S_Bb6S_s.wav
192,192,6432,1,0,0:0:0:80:B6S_s.wav
448,192,6590,1,0,0:0:0:80:F#7S_Gb7S_s.wav
64,192,6748,1,0,0:0:0:80:A#6S_Bb6S_s.wav
192,192,6906,1,0,0:0:0:80:A#5S_Bb5S.wav
320,192,6906,1,0,0:0:0:80:B6S_s.wav
448,192,7064,1,0,0:0:0:80:F#7S_Gb7S_s.wav
64,192,7222,1,0,0:0:0:80:A#6S_Bb6S_s.wav
192,192,7380,1,0,0:0:0:80:B6S_s.wav
448,192,7380,1,0,0:0:0:80:B5S.wav
320,192,7537,1,0,0:0:0:80:F#7S_Gb7S_s.wav
64,192,7695,1,0,0:0:0:80:A#6S_Bb6S_s.wav
320,192,7853,1,0,0:0:0:80:B6S_s.wav
448,192,7853,1,0,0:0:0:80:F#6S_Gb6S.wav
192,192,8011,1,0,0:0:0:80:F#7S_Gb7S_s.wav
448,192,8169,1,0,0:0:0:80:A#6S_Bb6S_s.wav
64,192,8327,1,0,0:0:0:80:B6S_s.wav
320,192,8327,1,0,0:0:0:80:E6S.wav
192,192,8485,1,0,0:0:0:80:F#7S_Gb7S_s.wav
448,192,8643,1,0,0:0:0:80:B6S_s.wav
64,192,8801,1,0,0:0:0:80:F#7S_Gb7S_s.wav
192,192,8801,1,0,0:0:0:80:D#6S_Eb6S.wav
320,192,9116,1,0,0:0:0:80:G#7S_Ab7S_s.wav
448,192,9116,1,0,0:0:0:80:C#6S_Db6S.wav
192,192,9274,1,0,0:0:0:80:F#7S_Gb7S_s.wav
64,192,9432,1,0,0:0:0:80:A#6S_Bb6S_s.wav
448,192,9432,1,0,0:0:0:80:A#5S_Bb5S.wav
320,192,9590,1,0,0:0:0:80:B6S_s.wav
64,192,9748,1,0,0:0:0:80:F#7S_Gb7S_s.wav
448,192,9906,1,0,0:0:0:80:A#6S_Bb6S_s.wav
320,192,10064,1,0,0:0:0:80:B6S_s.wav
64,192,10222,1,0,0:0:0:80:F#7S_Gb7S_s.wav
448,192,10380,1,0,0:0:0:80:A#6S_Bb6S_s.wav
320,192,10537,1,0,0:0:0:80:B6S_s.wav
64,192,10695,1,0,0:0:0:80:F#7S_Gb7S_s.wav
448,192,10853,1,0,0:0:0:80:A#6S_Bb6S_s.wav
320,192,11011,1,0,0:0:0:80:B6S_s.wav
64,192,11169,1,0,0:0:0:80:F#7S_Gb7S_s.wav
448,192,11327,1,0,0:0:0:80:A#6S_Bb6S_s.wav
320,192,11485,1,0,0:0:0:80:B6S_s.wav
64,192,11643,1,0,0:0:0:80:F#7S_Gb7S_s.wav
192,192,11643,1,0,0:0:0:80:D#6S_Eb6S.wav
448,192,11801,1,0,0:0:0:80:A#6S_Bb6S_s.wav
192,192,11958,1,0,0:0:0:80:B6S_s.wav
320,192,11958,1,0,0:0:0:80:C#6S_Db6S.wav
64,192,12116,1,0,0:0:0:80:F#7S_Gb7S_s.wav
448,192,12274,1,0,0:0:0:80:A#6S_Bb6S_s.wav
320,192,12432,1,0,0:0:0:80:B6S_s.wav
64,192,12590,1,0,0:0:0:80:F#7S_Gb7S_s.wav
448,192,12748,1,0,0:0:0:80:A#6S_Bb6S_s.wav
320,192,12906,1,0,0:0:0:80:B6S_s.wav
64,192,13064,1,0,0:0:0:80:F#7S_Gb7S_s.wav
448,192,13222,1,0,0:0:0:80:B7S_s.wav
64,192,13380,1,0,0:0:0:80:A#6S_Bb6S_s.wav
320,192,13537,1,0,0:0:0:80:A#7S_Bb7S_s.wav
64,192,13695,1,0,0:0:0:80:A#6S_Bb6S_s.wav
192,192,13853,1,0,0:0:0:80:F#7S_Gb7S_s.wav
64,192,14011,1,0,0:0:0:80:A#6S_Bb6S_s.wav
192,192,14169,1,0,0:0:0:80:C#7S_Db7S_s.wav
448,192,14327,1,0,0:0:0:80:D#5S_Eb5S.wav
320,192,14380,1,0,0:0:0:80:F#5S_Gb5S.wav
192,192,14432,1,0,0:0:0:80:A#5S_Bb5S.wav
64,192,14485,1,0,0:0:0:80:C#6S_Db6S.wav
448,192,14485,1,0,0:0:0:80:A#6S_Bb6S_s.wav
320,192,14643,1,0,0:0:0:80:B6S_s.wav
448,192,14801,1,0,0:0:0:80:F#7S_Gb7S_s.wav
64,192,14958,1,0,0:0:0:80:A#6S_Bb6S_s.wav
320,192,15116,1,0,0:0:0:80:B6S_s.wav
448,192,15274,1,0,0:0:0:80:F#7S_Gb7S_s.wav
64,192,15432,1,0,0:0:0:80:A#6S_Bb6S_s.wav
320,192,15590,1,0,0:0:0:80:B6S_s.wav
448,192,15748,1,0,0:0:0:80:F#7S_Gb7S_s.wav
64,192,15906,1,0,0:0:0:80:A#6S_Bb6S_s.wav
320,192,16064,1,0,0:0:0:80:B6S_s.wav
448,192,16222,1,0,0:0:0:80:F#7S_Gb7S_s.wav
64,192,16380,1,0,0:0:0:80:A#6S_Bb6S_s.wav
320,192,16537,1,0,0:0:0:80:B6S_s.wav
448,192,16695,1,0,0:0:0:80:F#7S_Gb7S_s.wav
64,192,16853,1,0,0:0:0:80:A#6S_Bb6S_s.wav
192,192,17011,1,0,0:0:0:80:B6S_s.wav
448,192,17011,1,0,0:0:0:80:A#5S_Bb5S.wav
320,192,17169,1,0,0:0:0:80:F#7S_Gb7S_s.wav
64,192,17327,1,0,0:0:0:80:A#6S_Bb6S_s.wav
320,192,17485,1,0,0:0:0:80:B6S_s.wav
448,192,17485,1,0,0:0:0:80:B5S.wav
192,192,17643,1,0,0:0:0:80:F#7S_Gb7S_s.wav
448,192,17801,1,0,0:0:0:80:A#6S_Bb6S_s.wav
64,192,17958,1,0,0:0:0:80:F#6S_Gb6S.wav
192,192,17958,1,0,0:0:0:80:B6S_s.wav
320,192,18116,1,0,0:0:0:80:F#7S_Gb7S_s.wav
64,192,18274,1,0,0:0:0:80:A#6S_Bb6S_s.wav
192,192,18432,1,0,0:0:0:80:E6S.wav
448,192,18432,1,0,0:0:0:80:B6S_s.wav
320,192,18590,1,0,0:0:0:80:F#7S_Gb7S_s.wav
64,192,18748,1,0,0:0:0:80:B6S_s.wav
192,192,18906,1,0,0:0:0:80:D#6S_Eb6S.wav
320,192,18906,1,0,0:0:0:80:F#7S_Gb7S_s.wav
448,192,19064,1,0,0:0:0:0:
64,192,19222,1,0,0:0:0:80:G#7S_Ab7S_s.wav
192,192,19222,1,0,0:0:0:80:C#6S_Db6S.wav
320,192,19380,1,0,0:0:0:80:B5S_s.wav
64,192,19537,1,0,0:0:0:80:A#6S_Bb6S_s.wav
448,192,19537,1,0,0:0:0:80:C#6S_Db6S.wav
192,192,19695,1,0,0:0:0:80:B6S_s.wav
64,192,19853,1,0,0:0:0:80:F#7S_Gb7S_s.wav
448,192,20011,1,0,0:0:0:80:A#6S_Bb6S_s.wav
192,192,20169,1,0,0:0:0:80:B6S_s.wav
64,192,20327,1,0,0:0:0:80:F#7S_Gb7S_s.wav
448,192,20485,1,0,0:0:0:80:A#6S_Bb6S_s.wav
192,192,20643,1,0,0:0:0:80:B6S_s.wav
64,192,20801,1,0,0:0:0:80:F#7S_Gb7S_s.wav
448,192,20958,1,0,0:0:0:80:A#6S_Bb6S_s.wav
192,192,21116,1,0,0:0:0:80:B6S_s.wav
64,192,21274,1,0,0:0:0:80:F#7S_Gb7S_s.wav
448,192,21432,1,0,0:0:0:80:A#6S_Bb6S_s.wav
192,192,21590,1,0,0:0:0:80:B6S_s.wav
64,192,21748,1,0,0:0:0:80:F#7S_Gb7S_s.wav
320,192,21748,1,0,0:0:0:80:B5S_s.wav
448,192,21906,1,0,0:0:0:80:A#6S_Bb6S_s.wav
64,192,22064,1,0,0:0:0:80:B6S_s.wav
192,192,22064,1,0,0:0:0:80:B5S.wav
448,192,22222,1,0,0:0:0:80:F#7S_Gb7S_s.wav
64,192,22380,1,0,0:0:0:80:A#6S_Bb6S_s.wav
320,192,22537,1,0,0:0:0:80:B6S_s.wav
448,192,22695,1,0,0:0:0:80:F#7S_Gb7S_s.wav
64,192,22853,1,0,0:0:0:60:reverse.wav
192,192,23011,1,0,0:0:0:80:B6S_s.wav
448,192,23169,1,0,0:0:0:80:F#7S_Gb7S_s.wav
64,192,23327,128,0,24590:0:0:0:80:B7S_s.wav
192,192,23327,1,0,0:0:0:0:
448,192,23485,1,0,0:0:0:80:A#6S_Bb6S_s.wav
192,192,23643,1,0,0:0:0:80:A#7S_Bb7S_s.wav
448,192,23801,1,0,0:0:0:80:A#6S_Bb6S_s.wav
320,192,23958,1,0,0:0:0:80:F#7S_Gb7S_s.wav
448,192,24116,1,0,0:0:0:80:A#6S_Bb6S_s.wav
192,192,24274,128,0,24590:0:0:0:80:C#7S_Db7S_s.wav
320,192,24590,1,4,0:0:0:0:
448,192,24590,128,0,27116:0:0:0:80:E4S.wav
192,192,24748,1,0,0:0:0:80:B6S_s.wav
64,192,24906,1,0,0:0:0:80:F#7S_Gb7S_s.wav
320,192,25064,1,0,0:0:0:80:A#6S_Bb6S_s.wav
192,192,25222,1,0,0:0:0:80:B6S_s.wav
64,192,25380,1,0,0:0:0:80:F#7S_Gb7S_s.wav
320,192,25537,1,0,0:0:0:80:A#6S_Bb6S_s.wav
192,192,25695,1,0,0:0:0:80:B6S_s.wav
64,192,25853,1,0,0:0:0:80:F#7S_Gb7S_s.wav
320,192,26011,1,0,0:0:0:80:A#6S_Bb6S_s.wav
192,192,26169,1,0,0:0:0:80:B6S_s.wav
64,192,26327,1,0,0:0:0:80:F#7S_Gb7S_s.wav
320,192,26485,1,0,0:0:0:80:A#6S_Bb6S_s.wav
192,192,26643,1,0,0:0:0:80:B6S_s.wav
64,192,26801,1,0,0:0:0:80:F#7S_Gb7S_s.wav
320,192,26958,1,0,0:0:0:80:A#6S_Bb6S_s.wav
192,192,27116,1,0,0:0:0:80:B6S_s.wav
448,192,27274,1,0,0:0:0:80:F#7S_Gb7S_s.wav
64,192,27432,1,0,0:0:0:80:A#6S_Bb6S_s.wav
192,192,27590,1,0,0:0:0:80:D#4S_Eb4S.wav
448,192,27748,1,0,0:0:0:80:F#7S_Gb7S_s.wav
64,192,27906,1,0,0:0:0:80:A#6S_Bb6S_s.wav
320,192,28064,1,0,0:0:0:80:B3S.wav
448,192,28222,1,0,0:0:0:80:F#7S_Gb7S_s.wav
64,192,28380,1,0,0:0:0:80:A#6S_Bb6S_s.wav
320,192,28537,1,0,0:0:0:80:F#3S_Gb3S.wav
448,192,28695,1,0,0:0:0:80:F#7S_Gb7S_s.wav
192,192,28853,1,0,0:0:0:80:A#6S_Bb6S_s.wav
320,192,29011,1,0,0:0:0:80:C#4S_Db4S.wav
448,192,29169,1,0,0:0:0:80:F#7S_Gb7S_s.wav
192,192,29327,1,0,0:0:0:80:A#6S_Bb6S_s.wav
320,192,29485,1,0,0:0:0:80:B6S_s.wav
448,192,29643,1,0,0:0:0:80:F#7S_Gb7S_s.wav
192,192,29801,1,0,0:0:0:80:A#6S_Bb6S_s.wav
320,192,29958,1,0,0:0:0:80:B6S_s.wav
448,192,30116,1,0,0:0:0:80:F#7S_Gb7S_s.wav
192,192,30274,1,0,0:0:0:80:A#6S_Bb6S_s.wav
320,192,30432,1,0,0:0:0:80:B6S_s.wav
448,192,30590,1,0,0:0:0:80:F#7S_Gb7S_s.wav
192,192,30748,1,0,0:0:0:80:A#6S_Bb6S_s.wav
320,192,30906,1,0,0:0:0:80:B6S_s.wav
448,192,31064,1,0,0:0:0:80:F#7S_Gb7S_s.wav
192,192,31222,1,0,0:0:0:80:A#6S_Bb6S_s.wav
320,192,31380,1,0,0:0:0:80:B6S_s.wav
448,192,31537,1,0,0:0:0:80:F#7S_Gb7S_s.wav
64,192,31695,1,0,0:0:0:80:A#6S_Bb6S_s.wav
448,192,31853,1,0,0:0:0:80:G#7S_Ab7S_s.wav
192,192,32011,1,0,0:0:0:80:F#7S_Gb7S_s.wav
64,192,33274,1,0,0:0:0:80:F#7S_Gb7S_s.wav
192,192,33314,1,0,0:0:0:80:B7S_s.wav
320,192,33353,1,0,0:0:0:80:C#8S_Db8S_s.wav
448,192,33432,1,0,0:0:0:80:F#8S_Gb8S_s.wav
64,192,34695,128,0,35958:0:0:0:80:G#4S_Ab4S.wav
192,192,34695,1,0,0:0:0:80:A#5S_Bb5S.wav
320,192,35169,1,0,0:0:0:80:B5S.wav
448,192,35169,1,0,0:0:0:0:
192,192,35643,1,0,0:0:0:80:C#6S_Db6S.wav
448,192,35643,1,0,0:0:0:0:
320,192,35958,1,0,0:0:0:80:C#5S_Db5S.wav
448,192,35958,128,0,36590:0:0:0:80:A#4S_Bb4S.wav
64,192,36116,1,0,0:0:0:80:B5S.wav
192,192,36116,1,0,0:0:0:0:
64,192,36590,1,0,0:0:0:80:F#6S_Gb6S_s.wav
192,192,36669,1,0,0:0:0:80:E6S_s.wav
320,192,36748,1,0,0:0:0:80:D#6S_Eb6S_s.wav
448,192,36827,1,0,0:0:0:80:C#6S_Db6S_s.wav
192,192,36906,1,0,0:0:0:80:B5S_s.wav
320,192,36985,1,0,0:0:0:80:A#5S_Bb5S_s.wav
64,192,37064,1,0,0:0:0:80:G#5S_Ab5S_s.wav
192,192,37143,1,0,0:0:0:80:F#5S_Gb5S_s.wav
320,192,37222,1,0,0:0:0:80:C#5S_Db5S.wav
448,192,37222,128,0,38485:0:0:0:80:A#5S_Bb5S.wav
64,192,37695,1,0,0:0:0:80:B5S.wav
192,192,37695,1,0,0:0:0:0:
64,192,38169,1,0,0:0:0:80:C#6S_Db6S.wav
320,192,38169,1,0,0:0:0:0:
64,192,38485,1,0,0:0:0:80:B4S.wav
192,192,38485,128,0,39116:0:0:0:80:D#5S_Eb5S.wav
320,192,38643,1,0,0:0:0:80:B5S.wav
448,192,38643,1,0,0:0:0:0:
64,192,39116,1,0,0:0:0:80:F#5S_Gb5S_s.wav
448,192,39195,1,0,0:0:0:80:C#5S_Db5S_s.wav
192,192,39274,1,0,0:0:0:80:F#5S_Gb5S_s.wav
320,192,39353,1,0,0:0:0:80:B5S_s.wav
64,192,39432,1,0,0:0:0:80:C#6S_Db6S_s.wav
192,192,39590,1,0,0:0:0:80:B5S_s.wav
320,192,39748,1,0,0:0:0:80:B4S.wav
448,192,39748,128,0,41011:0:0:0:80:A#5S_Bb5S.wav
64,192,40222,1,0,0:0:0:80:B5S.wav
192,192,40222,1,0,0:0:0:0:
192,192,40695,1,0,0:0:0:80:C#6S_Db6S.wav
320,192,40695,1,0,0:0:0:0:
64,192,41011,128,0,41643:0:0:0:80:C#5S_Db5S.wav
192,192,41169,1,0,0:0:0:80:B5S.wav
320,192,41169,1,0,0:0:0:0:
192,192,41643,1,0,0:0:0:80:C#5S_Db5S.wav
448,192,41643,1,0,0:0:0:80:A#4S_Bb4S.wav
320,192,41722,1,0,0:0:0:80:E6S_s.wav
192,192,41801,1,0,0:0:0:80:D#6S_Eb6S_s.wav
64,192,41880,1,0,0:0:0:80:C#6S_Db6S_s.wav
320,192,41958,1,0,0:0:0:80:B5S_s.wav
192,192,42037,1,0,0:0:0:80:A#5S_Bb5S_s.wav
448,192,42116,1,0,0:0:0:80:G#5S_Ab5S_s.wav
320,192,42195,1,0,0:0:0:80:F#5S_Gb5S_s.wav
64,192,42274,128,0,42669:0:0:0:80:B4S.wav
192,192,42274,128,0,42669:0:0:0:80:D#5S_Eb5S.wav
192,192,42748,128,0,43143:0:0:0:80:B5S.wav
320,192,42748,128,0,43143:0:0:0:0:
320,192,43222,128,0,43616:0:0:0:80:C#6S_Db6S.wav
448,192,43222,128,0,43616:0:0:0:0:
64,192,43695,128,0,44169:0:0:0:80:D#6S_Eb6S.wav
192,192,43695,128,0,44169:0:0:0:0:
448,192,44169,1,0,0:0:0:80:B6S_s.wav
320,192,44248,1,0,0:0:0:80:A#6S_Bb6S_s.wav
192,192,44327,1,0,0:0:0:80:G#6S_Ab6S_s.wav
64,192,44406,1,0,0:0:0:80:F#6S_Gb6S_s.wav
320,192,44485,1,0,0:0:0:80:E6S_s.wav
192,192,44564,1,0,0:0:0:80:D#6S_Eb6S_s.wav
448,192,44643,1,0,0:0:0:80:C#6S_Db6S_s.wav
320,192,44722,1,0,0:0:0:80:B5S_s.wav
64,192,44801,1,6,0:0:0:0:
192,192,44801,1,0,0:0:0:80:A#5S_Bb5S.wav
448,192,44801,1,0,0:0:0:80:E4S.wav
320,192,45116,1,8,0:0:0:0:
448,192,45116,1,0,0:0:0:80:G#4S_Ab4S.wav
192,192,45274,1,0,0:0:0:80:B5S.wav
448,192,45274,128,0,45748:0:0:0:0:
64,192,45590,1,2,0:0:0:0:
192,192,45590,1,0,0:0:0:0:
64,192,45748,128,8,46064:0:0:0:0:
320,192,45748,1,0,0:0:0:80:C#6S_Db6S.wav
192,192,46064,1,2,0:0:0:0:
320,192,46222,128,0,46695:0:0:0:80:B5S.wav
448,192,46222,1,0,0:0:0:0:
64,192,46380,1,8,0:0:0:0:
192,192,46380,1,0,0:0:0:80:A#4S_Bb4S.wav
448,192,46695,1,0,0:0:0:80:F#6S_Gb6S_s.wav
320,192,46774,1,0,0:0:0:80:E6S_s.wav
192,192,46853,1,2,0:0:0:0:
64,192,46932,1,0,0:0:0:80:C#6S_Db6S_s.wav
320,192,47011,1,8,0:0:0:0:
448,192,47011,1,0,0:0:0:80:A#4S_Bb4S.wav
192,192,47090,1,0,0:0:0:80:A#5S_Bb5S_s.wav
64,192,47169,1,0,0:0:0:80:G#5S_Ab5S_s.wav
192,192,47327,128,6,47643:0:0:0:0:
320,192,47327,1,0,0:0:0:80:A#5S_Bb5S.wav
448,192,47327,1,0,0:0:0:80:G4S.wav
64,192,47643,1,8,0:0:0:0:
448,192,47643,1,0,0:0:0:80:C#5S_Db5S.wav
320,192,47801,1,0,0:0:0:80:C#6S_Db6S.wav
448,192,47801,128,0,48274:0:0:0:0:
64,192,48116,1,2,0:0:0:0:
192,192,48116,1,0,0:0:0:0:
64,192,48274,128,8,48590:0:0:0:0:
320,192,48274,1,0,0:0:0:80:A#4S_Bb4S.wav
192,192,48590,1,2,0:0:0:0:
448,192,48590,128,0,49064:0:0:0:80:G#4S_Ab4S.wav
64,192,48906,1,8,0:0:0:0:
192,192,48906,1,0,0:0:0:80:D#5S_Eb5S.wav
320,192,49064,1,0,0:0:0:80:B5S_s.wav
192,192,49143,1,0,0:0:0:80:A#5S_Bb5S_s.wav
64,192,49222,1,0,0:0:0:80:G#4S_Ab4S.wav
192,192,49380,1,2,0:0:0:0:
320,192,49380,1,0,0:0:0:0:
64,192,49537,1,8,0:0:0:0:
448,192,49537,1,0,0:0:0:80:D#5S_Eb5S.wav
64,192,49853,1,6,0:0:0:0:
320,192,49853,1,0,0:0:0:80:E4S.wav
448,192,49853,128,0,50169:0:0:0:80:A#5S_Bb5S.wav
64,192,50169,1,8,0:0:0:0:
192,192,50169,1,0,0:0:0:80:B4S.wav
64,192,50327,128,0,50801:0:0:0:80:B5S.wav
320,192,50327,1,0,0:0:0:0:
320,192,50643,1,2,0:0:0:0:
448,192,50643,1,0,0:0:0:0:
192,192,50801,1,8,0:0:0:0:
448,192,50801,128,0,51116:0:0:0:80:C#6S_Db6S.wav
320,192,51116,1,2,0:0:0:0:
64,192,51274,1,0,0:0:0:80:B5S.wav
192,192,51274,128,0,51748:0:0:0:0:
320,192,51432,1,8,0:0:0:0:
448,192,51432,1,0,0:0:0:80:A#4S_Bb4S.wav
64,192,51748,1,0,0:0:0:80:F#6S_Gb6S_s.wav
192,192,51827,1,0,0:0:0:80:E6S_s.wav
320,192,51906,1,2,0:0:0:0:
448,192,51985,1,0,0:0:0:80:C#6S_Db6S_s.wav
192,192,52064,1,8,0:0:0:0:
320,192,52143,1,0,0:0:0:80:A#5S_Bb5S_s.wav
64,192,52222,1,0,0:0:0:80:G#5S_Ab5S_s.wav
192,192,52301,1,0,0:0:0:80:F#5S_Gb5S_s.wav
64,192,52380,1,6,0:0:0:0:
320,192,52380,1,0,0:0:0:80:A#5S_Bb5S.wav
448,192,52380,1,0,0:0:0:80:D#5S_Eb5S.wav
192,192,52537,1,0,0:0:0:0:
320,192,52695,1,2,0:0:0:0:
64,192,52853,1,6,0:0:0:0:
192,192,52853,1,0,0:0:0:80:B5S.wav
448,192,52853,1,0,0:0:0:80:D#5S_Eb5S.wav
320,192,53011,1,0,0:0:0:0:
192,192,53169,1,2,0:0:0:0:
64,192,53327,1,6,0:0:0:0:
320,192,53327,1,0,0:0:0:80:D#5S_Eb5S.wav
448,192,53327,1,0,0:0:0:80:F#5S_Gb5S.wav
192,192,53485,1,0,0:0:0:0:
64,192,53643,1,2,0:0:0:0:
448,192,53643,1,0,0:0:0:80:B6S.wav
320,192,53722,1,0,0:0:0:0:
192,192,53801,1,0,0:0:0:0:
448,192,53880,1,0,0:0:0:0:
64,192,53958,1,2,0:0:0:0:
192,192,54037,1,0,0:0:0:0:
320,192,54116,1,0,0:0:0:0:
64,192,54195,1,0,0:0:0:0:
448,192,54274,1,2,0:0:0:0:
192,192,54353,1,0,0:0:0:0:
320,192,54432,1,0,0:0:0:0:
64,192,54511,1,0,0:0:0:0:
448,192,54590,1,2,0:0:0:0:
320,192,54669,1,0,0:0:0:0:
192,192,54748,1,0,0:0:0:0:
64,192,54827,1,0,0:0:0:0:
192,192,54906,1,6,0:0:0:0:
320,192,54906,1,0,0:0:0:80:F#6S_Gb6S.wav
448,192,54906,1,0,0:0:0:80:E4S.wav
64,192,55248,1,0,0:0:0:80:B4S.wav
320,192,55406,1,0,0:0:0:80:E5S.wav
448,192,55880,1,0,0:0:0:80:E6S.wav
192,192,56195,1,0,0:0:0:80:D#6S_Eb6S.wav
64,192,56511,1,0,0:0:0:80:C#5S_Db5S.wav
448,192,56643,1,0,0:0:0:80:F#5S_Gb5S.wav
320,192,56801,1,0,0:0:0:80:D#6S_Eb6S.wav
192,192,57143,1,0,0:0:0:80:E6S.wav
64,192,57458,1,0,0:0:0:80:D#5S_Eb5S.wav
320,192,57458,1,0,0:0:0:80:F#6S_Gb6S.wav
320,192,58024,1,0,0:0:0:80:A#6S_Bb6S_s.wav
448,192,58064,1,0,0:0:0:80:B6S_s.wav
64,192,58327,1,0,0:0:0:80:A#6S_Bb6S_s.wav
192,192,58511,1,0,0:0:0:80:D#6S_Eb6S_s.wav
320,192,58695,1,0,0:0:0:80:F#5S_Gb5S.wav
448,192,58695,1,0,0:0:0:80:C#6S_Db6S.wav
192,192,59169,1,0,0:0:0:80:B5S_s.wav
192,192,59327,1,0,0:0:0:80:B5S.wav
320,192,59643,128,0,59722:0:0:0:0:
192,192,59801,128,0,59880:0:0:0:0:
64,192,59958,1,6,0:0:0:0:
320,192,59958,1,0,0:0:0:80:E4S.wav
448,192,59958,1,0,0:0:0:80:B5S_s.wav
192,192,60116,1,0,0:0:0:80:A#5S_Bb5S_s.wav
64,192,60274,1,8,0:0:0:0:
448,192,60274,1,0,0:0:0:80:F#5S_Gb5S_s.wav
320,192,60432,1,0,0:0:0:80:B5S_s.wav
64,192,60590,1,2,0:0:0:0:
192,192,60590,1,0,0:0:0:80:A#5S_Bb5S_s.wav
448,192,60748,1,2,0:0:0:0:
64,192,60906,1,8,0:0:0:0:
320,192,60906,1,0,0:0:0:80:B5S_s.wav
192,192,61064,1,0,0:0:0:80:A#5S_Bb5S_s.wav
320,192,61222,1,2,0:0:0:0:
448,192,61222,1,0,0:0:0:80:F#5S_Gb5S_s.wav
64,192,61380,1,0,0:0:0:80:B5S_s.wav
192,192,61537,1,8,0:0:0:0:
448,192,61537,1,0,0:0:0:80:A#5S_Bb5S_s.wav
320,192,61695,1,0,0:0:0:80:F#5S_Gb5S_s.wav
64,192,61853,128,6,62011:0:0:0:0:
192,192,61853,128,0,62011:0:0:0:80:C#6S_Db6S_s.wav
192,192,62090,128,6,62248:0:0:0:0:
320,192,62090,128,0,62248:0:0:0:80:D#6S_Eb6S_s.wav
320,192,62327,128,6,62485:0:0:0:0:
448,192,62327,128,0,62485:0:0:0:80:E6S_s.wav
64,192,62485,1,6,0:0:0:0:
192,192,62485,1,0,0:0:0:80:F#5S_Gb5S.wav
320,192,62643,1,0,0:0:0:80:C#6S_Db6S_s.wav
64,192,62801,1,2,0:0:0:0:
192,192,62801,1,0,0:0:0:80:F#4S_Gb4S_s.wav
64,192,62958,1,12,0:0:0:0:
320,192,62958,1,0,0:0:0:80:F#4S_Gb4S.wav
448,192,62958,1,0,0:0:0:80:F#6S_Gb6S_s.wav
192,192,63116,1,2,0:0:0:0:
320,192,63274,1,2,0:0:0:0:
448,192,63274,1,0,0:0:0:80:A#5S_Bb5S_s.wav
64,192,63432,1,4,0:0:0:0:
192,192,63432,1,0,0:0:0:80:F#6S_Gb6S_s.wav
448,192,63432,1,0,0:0:0:80:F#4S_Gb4S.wav
320,192,63590,1,2,0:0:0:0:
64,192,63748,1,2,0:0:0:0:
192,192,63748,1,0,0:0:0:80:A#5S_Bb5S_s.wav
64,192,63906,1,12,0:0:0:0:
320,192,63906,1,0,0:0:0:80:F#4S_Gb4S.wav
448,192,63906,1,0,0:0:0:80:F#6S_Gb6S_s.wav
192,192,64064,1,2,0:0:0:0:
320,192,64222,1,2,0:0:0:0:
448,192,64222,1,0,0:0:0:80:A#5S_Bb5S_s.wav
64,192,64380,1,6,0:0:0:0:
192,192,64380,1,0,0:0:0:80:F#5S_Gb5S.wav
448,192,64380,1,0,0:0:0:80:F#4S_Gb4S.wav
320,192,64537,1,2,0:0:0:0:
64,192,64695,1,2,0:0:0:0:
448,192,64695,1,0,0:0:0:80:G#6S_Ab6S_s.wav
192,192,64853,1,12,0:0:0:0:
320,192,64853,1,0,0:0:0:80:F#6S_Gb6S.wav
64,192,65011,1,4,0:0:0:0:
320,192,65011,1,2,0:0:0:0:
448,192,65011,1,0,0:0:0:0:
192,192,65090,1,0,0:0:0:0:
320,192,65169,1,0,0:0:0:80:F#6S_Gb6S_s.wav
448,192,65248,1,0,0:0:0:0:
192,192,65327,1,8,0:0:0:0:
320,192,65406,1,0,0:0:0:0:
64,192,65485,1,2,0:0:0:0:
192,192,65564,1,0,0:0:0:0:
448,192,65643,1,2,0:0:0:0:
320,192,65722,1,0,0:0:0:0:
192,192,65801,1,0,0:0:0:80:C#7S_Db7S_s.wav
64,192,65880,1,0,0:0:0:0:
320,192,65958,1,2,0:0:0:0:
192,192,66037,1,0,0:0:0:0:
448,192,66116,1,0,0:0:0:80:E7S_s.wav
320,192,66195,1,0,0:0:0:0:
64,192,66274,128,6,67169:0:0:0:0:
192,192,66274,1,0,0:0:0:80:C#7S_Db7S_s.wav
448,192,66274,1,0,0:0:0:80:A#4S_Bb4S_s.wav
320,192,66695,128,0,67169:0:0:0:0:
448,192,66695,128,0,67169:0:0:0:0:
64,192,67222,1,0,0:0:0:0:
320,192,67222,1,0,0:0:0:0:
448,192,67222,1,0,0:0:0:0:
64,192,67537,128,4,67853:0:0:0:0:
192,192,67537,1,2,0:0:0:0:
320,192,67537,1,0,0:0:0:80:A#6S_Bb6S.wav
448,192,67537,1,0,0:0:0:80:E4S.wav
320,192,67853,1,8,0:0:0:0:
448,192,67853,1,0,0:0:0:80:G#4S_Ab4S.wav
192,192,68011,1,0,0:0:0:80:B6S.wav
448,192,68011,128,0,68485:0:0:0:0:
64,192,68169,1,2,0:0:0:0:
320,192,68169,1,0,0:0:0:80:E4S.wav
192,192,68327,1,2,0:0:0:0:
64,192,68485,1,8,0:0:0:0:
320,192,68485,1,0,0:0:0:80:B4S.wav
64,192,68801,1,2,0:0:0:0:
192,192,68801,1,0,0:0:0:80:C#7S_Db7S.wav
448,192,68801,128,0,69116:0:0:0:80:F#4S_Gb4S.wav
64,192,69116,1,8,0:0:0:0:
320,192,69116,1,0,0:0:0:80:A#4S_Bb4S.wav
64,192,69274,128,0,69748:0:0:0:80:F#6S_Gb6S.wav
192,192,69274,1,0,0:0:0:0:
320,192,69432,1,2,0:0:0:0:
448,192,69432,1,0,0:0:0:80:F#4S_Gb4S.wav
192,192,69590,1,2,0:0:0:0:
320,192,69748,1,8,0:0:0:0:
448,192,69748,1,0,0:0:0:80:C#7S_Db7S_s.wav
192,192,69906,1,0,0:0:0:80:B6S_s.wav
64,192,70064,1,2,0:0:0:0:
320,192,70064,128,0,70380:0:0:0:80:D#4S_Eb4S.wav
448,192,70064,1,0,0:0:0:80:A#6S_Bb6S.wav
64,192,70380,1,8,0:0:0:0:
192,192,70380,1,0,0:0:0:80:A#4S_Bb4S.wav
64,192,70537,128,0,71011:0:0:0:80:B6S.wav
320,192,70537,1,0,0:0:0:0:
192,192,70695,1,2,0:0:0:0:
448,192,70695,1,0,0:0:0:80:D#4S_Eb4S.wav
320,192,70853,1,2,0:0:0:0:
192,192,71011,1,8,0:0:0:0:
448,192,71011,128,0,71327:0:0:0:80:F#7S_Gb7S.wav
64,192,71169,1,0,0:0:0:0:
64,192,71327,1,2,0:0:0:0:
192,192,71327,128,0,71643:0:0:0:80:G#4S_Ab4S.wav
320,192,71327,1,0,0:0:0:80:A#6S_Bb6S.wav
64,192,71643,1,8,0:0:0:0:
448,192,71643,1,0,0:0:0:80:D#5S_Eb5S.wav
320,192,71801,1,0,0:0:0:80:B6S_s.wav
448,192,71801,1,0,0:0:0:0:
64,192,71958,1,2,0:0:0:0:
192,192,71958,1,0,0:0:0:80:G#4S_Ab4S.wav
320,192,72116,1,2,0:0:0:0:
64,192,72274,1,8,0:0:0:0:
448,192,72274,1,0,0:0:0:80:B4S.wav
192,192,72432,1,0,0:0:0:0:
64,192,72590,1,6,0:0:0:0:
320,192,72590,1,0,0:0:0:80:E4S.wav
448,192,72590,128,0,72906:0:0:0:80:A#6S_Bb6S.wav
64,192,72906,1,8,0:0:0:0:
192,192,72906,1,0,0:0:0:80:B4S.wav
64,192,73064,128,0,73537:0:0:0:80:B6S.wav
448,192,73064,1,0,0:0:0:0:
192,192,73222,1,2,0:0:0:0:
320,192,73222,1,0,0:0:0:80:E4S.wav
448,192,73380,1,2,0:0:0:0:
192,192,73537,1,8,0:0:0:0:
320,192,73537,1,0,0:0:0:80:G#4S_Ab4S.wav
64,192,73695,1,0,0:0:0:80:F#7S_Gb7S_s.wav
192,192,73695,1,0,0:0:0:0:
64,192,73853,1,2,0:0:0:0:
320,192,73853,128,0,74169:0:0:0:80:F#4S_Gb4S.wav
448,192,73853,128,0,74485:0:0:0:80:F#7S_Gb7S.wav
64,192,74169,1,8,0:0:0:0:
192,192,74169,1,0,0:0:0:80:A#4S_Bb4S.wav
64,192,74485,128,2,75116:0:0:0:0:
192,192,74485,128,0,74801:0:0:0:80:G4S.wav
320,192,74485,1,0,0:0:0:80:D#7S_Eb7S.wav
320,192,74801,1,8,0:0:0:0:
448,192,74801,1,0,0:0:0:80:C#7S_Db7S.wav
192,192,75116,1,2,0:0:0:0:
320,192,75116,1,0,0:0:0:80:C#7S_Db7S.wav
448,192,75116,128,0,75432:0:0:0:80:G#4S_Ab4S.wav
64,192,75432,1,8,0:0:0:0:
320,192,75432,1,0,0:0:0:80:D#5S_Eb5S.wav
64,192,75590,128,0,76064:0:0:0:80:F#7S_Gb7S.wav
192,192,75590,1,0,0:0:0:0:
320,192,75748,1,2,0:0:0:0:
448,192,75748,1,0,0:0:0:80:G#4S_Ab4S.wav
192,192,75906,1,2,0:0:0:0:
320,192,76064,1,8,0:0:0:0:
448,192,76064,128,0,76380:0:0:0:80:B6S.wav
192,192,76222,1,0,0:0:0:0:
64,192,76380,1,2,0:0:0:0:
320,192,76380,1,0,0:0:0:80:B7S_s.wav
320,192,76537,1,8,0:0:0:0:
448,192,76537,1,0,0:0:0:80:A#7S_Bb7S_s.wav
64,192,76695,1,8,0:0:0:0:
192,192,76695,1,0,0:0:0:80:D#5S_Eb5S.wav
192,192,76853,1,8,0:0:0:0:
320,192,76853,1,0,0:0:0:80:F#7S_Gb7S_s.wav
64,192,77011,1,2,0:0:0:0:
448,192,77011,1,0,0:0:0:80:G#4S_Ab4S.wav
320,192,77090,1,0,0:0:0:0:
192,192,77169,1,8,0:0:0:0:
64,192,77248,1,0,0:0:0:0:
320,192,77327,1,2,0:0:0:0:
192,192,77406,1,0,0:0:0:0:
448,192,77485,1,2,0:0:0:0:
320,192,77564,1,2,0:0:0:0:
64,192,77643,1,6,0:0:0:0:
192,192,77643,1,0,0:0:0:80:A#6S_Bb6S.wav
448,192,77643,128,0,77958:0:0:0:80:E4S.wav
64,192,77958,1,8,0:0:0:0:
320,192,77958,1,0,0:0:0:80:G#4S_Ab4S.wav
64,192,78116,128,0,78590:0:0:0:80:B6S.wav
192,192,78116,1,0,0:0:0:0:
320,192,78274,1,2,0:0:0:0:
448,192,78274,1,0,0:0:0:80:E4S.wav
192,192,78432,1,2,0:0:0:0:
320,192,78590,1,8,0:0:0:0:
448,192,78590,1,0,0:0:0:80:B4S.wav
64,192,78906,128,2,79222:0:0:0:0:
192,192,78906,1,0,0:0:0:80:C#7S_Db7S.wav
448,192,78906,1,0,0:0:0:80:F#4S_Gb4S.wav
192,192,79222,1,8,0:0:0:0:
320,192,79222,1,0,0:0:0:80:F#4S_Gb4S.wav
320,192,79380,1,0,0:0:0:80:F#6S_Gb6S.wav
448,192,79380,128,0,79853:0:0:0:0:
64,192,79537,1,2,0:0:0:0:
192,192,79537,1,0,0:0:0:80:F#4S_Gb4S.wav
320,192,79695,1,2,0:0:0:0:
64,192,79853,1,8,0:0:0:0:
192,192,79853,1,0,0:0:0:80:C#5S_Db5S.wav
320,192,80011,1,0,0:0:0:80:B6S_s.wav
64,192,80169,1,2,0:0:0:0:
192,192,80169,128,0,80485:0:0:0:80:G4S.wav
448,192,80169,1,0,0:0:0:80:A#6S_Bb6S.wav
320,192,80485,1,8,0:0:0:0:
448,192,80485,1,0,0:0:0:80:C#5S_Db5S.wav
64,192,80643,1,0,0:0:0:80:C#7S_Db7S.wav
448,192,80643,128,0,80958:0:0:0:0:
64,192,80801,1,2,0:0:0:0:
192,192,80801,1,0,0:0:0:80:D#4S_Eb4S.wav
320,192,80958,1,2,0:0:0:0:
64,192,81116,128,8,81432:0:0:0:0:
192,192,81116,1,0,0:0:0:80:D#7S_Eb7S.wav
448,192,81116,1,0,0:0:0:80:A#4S_Bb4S.wav
192,192,81432,1,2,0:0:0:0:
320,192,81432,128,0,81906:0:0:0:80:C#7S_Db7S.wav
448,192,81432,1,0,0:0:0:80:G#4S_Ab4S.wav
64,192,81748,1,8,0:0:0:0:
448,192,81748,1,0,0:0:0:80:B4S.wav
192,192,81906,1,0,0:0:0:80:B6S_s.wav
64,192,81985,1,0,0:0:0:80:A#6S_Bb6S_s.wav
320,192,82064,1,2,0:0:0:0:
448,192,82064,1,0,0:0:0:80:B6S.wav
192,192,82222,1,2,0:0:0:0:
64,192,82380,1,8,0:0:0:0:
448,192,82380,1,0,0:0:0:80:D#5S_Eb5S.wav
320,192,82537,1,0,0:0:0:0:
64,192,82695,1,6,0:0:0:0:
192,192,82695,1,0,0:0:0:80:B6S_s.wav
448,192,82695,1,0,0:0:0:80:E4S.wav
320,192,82853,1,0,0:0:0:80:A#6S_Bb6S_s.wav
64,192,83011,1,8,0:0:0:0:
448,192,83011,1,0,0:0:0:80:F#6S_Gb6S_s.wav
192,192,83169,1,0,0:0:0:80:C#6S_Db6S_s.wav
320,192,83327,1,2,0:0:0:0:
448,192,83327,1,0,0:0:0:80:B5S_s.wav
64,192,83485,1,2,0:0:0:0:
192,192,83643,1,8,0:0:0:0:
320,192,83643,1,0,0:0:0:80:F#5S_Gb5S_s.wav
448,192,83801,1,0,0:0:0:80:C#5S_Db5S_s.wav
64,192,83958,1,2,0:0:0:0:
320,192,83958,1,0,0:0:0:80:E4S.wav
192,192,84116,1,0,0:0:0:80:A#5S_Bb5S_s.wav
64,192,84274,1,8,0:0:0:0:
448,192,84274,1,0,0:0:0:80:B4S.wav
320,192,84432,1,0,0:0:0:80:F#6S_Gb6S_s.wav
64,192,84590,1,2,0:0:0:0:
192,192,84590,1,0,0:0:0:80:E4S.wav
320,192,84748,1,2,0:0:0:0:
64,192,84906,1,8,0:0:0:0:
192,192,84906,1,0,0:0:0:80:G#4S_Ab4S.wav
448,192,85064,1,0,0:0:0:80:B6S_s.wav
64,192,85222,128,6,85537:0:0:0:0:
192,192,85222,1,0,0:0:0:80:C#5S_Db5S.wav
320,192,85222,1,0,0:0:0:80:B6S_s.wav
448,192,85380,1,0,0:0:0:80:A#6S_Bb6S_s.wav
320,192,85458,1,0,0:0:0:0:
192,192,85537,1,2,0:0:0:0:
192,192,85695,1,6,0:0:0:0:
320,192,85695,1,0,0:0:0:80:C#5S_Db5S.wav
448,192,85695,128,0,86011:0:0:0:80:B6S_s.wav
64,192,85853,1,0,0:0:0:80:A#6S_Bb6S_s.wav
192,192,85932,1,0,0:0:0:0:
320,192,86011,1,2,0:0:0:0:
64,192,86169,1,6,0:0:0:0:
192,192,86169,1,0,0:0:0:80:A#4S_Bb4S.wav
448,192,86169,128,0,86485:0:0:0:80:C#5S_Db5S.wav
320,192,86327,1,0,0:0:0:80:A#6S_Bb6S_s.wav
192,192,86406,1,0,0:0:0:0:
64,192,86485,1,2,0:0:0:0:
64,192,86643,1,6,0:0:0:0:
320,192,86643,1,0,0:0:0:80:C#7S_Db7S.wav
448,192,86643,1,0,0:0:0:80:C#5S_Db5S.wav
192,192,86801,1,0,0:0:0:0:
64,192,86958,1,8,0:0:0:0:
320,192,87116,1,8,0:0:0:0:
448,192,87116,1,0,0:0:0:80:C#7S_Db7S.wav
192,192,87274,1,2,0:0:0:0:
320,192,87274,1,0,0:0:0:0:
64,192,87432,1,2,0:0:0:0:
192,192,87432,1,0,0:0:0:80:A#4S_Bb4S_s.wav
320,192,87590,1,2,0:0:0:0:
448,192,87590,1,0,0:0:0:80:C#5S_Db5S_s.wav
64,192,87748,128,0,88064:0:0:0:80:A#6S_Bb6S.wav
192,192,87748,128,0,88064:0:0:0:0:
320,192,88064,1,12,0:0:0:0:
448,192,88064,1,0,0:0:0:80:G#4S_Ab4S.wav
64,192,88222,1,0,0:0:0:80:B6S.wav
448,192,88222,1,0,0:0:0:0:
192,192,88380,1,2,0:0:0:0:
320,192,88380,1,0,0:0:0:80:E4S.wav
448,192,88537,1,2,0:0:0:0:
64,192,88695,1,8,0:0:0:0:
320,192,88695,1,0,0:0:0:80:B4S.wav
192,192,88853,1,0,0:0:0:0:
64,192,89011,128,2,89327:0:0:0:0:
320,192,89011,1,0,0:0:0:80:F#4S_Gb4S.wav
448,192,89011,1,0,0:0:0:80:C#7S_Db7S.wav
192,192,89327,1,8,0:0:0:0:
448,192,89327,1,0,0:0:0:80:C#5S_Db5S.wav
320,192,89485,1,0,0:0:0:80:F#6S_Gb6S.wav
448,192,89485,128,0,89958:0:0:0:0:
64,192,89643,1,2,0:0:0:0:
192,192,89643,1,0,0:0:0:80:F#4S_Gb4S.wav
320,192,89801,1,2,0:0:0:0:
64,192,89958,1,8,0:0:0:0:
192,192,89958,1,0,0:0:0:80:C#7S_Db7S_s.wav
320,192,90116,1,0,0:0:0:80:B6S_s.wav
64,192,90274,1,2,0:0:0:0:
192,192,90274,128,0,90590:0:0:0:80:A#6S_Bb6S.wav
448,192,90274,1,0,0:0:0:80:D#4S_Eb4S.wav
320,192,90590,1,8,0:0:0:0:
448,192,90590,1,0,0:0:0:80:A#4S_Bb4S.wav
192,192,90748,1,0,0:0:0:80:B6S.wav
448,192,90748,128,0,91222:0:0:0:0:
64,192,90906,1,2,0:0:0:0:
320,192,90906,1,0,0:0:0:80:D#4S_Eb4S.wav
192,192,91064,1,2,0:0:0:0:
64,192,91222,128,8,91537:0:0:0:0:
320,192,91222,1,0,0:0:0:80:F#4S_Gb4S.wav
448,192,91380,1,0,0:0:0:0:
192,192,91537,1,2,0:0:0:0:
320,192,91537,128,0,91853:0:0:0:80:A#6S_Bb6S.wav
448,192,91537,1,0,0:0:0:80:G#4S_Ab4S.wav
64,192,91853,1,8,0:0:0:0:
448,192,91853,1,0,0:0:0:80:D#5S_Eb5S.wav
64,192,92011,1,0,0:0:0:80:B6S_s.wav
192,192,92011,1,0,0:0:0:0:
320,192,92169,1,2,0:0:0:0:
448,192,92169,1,0,0:0:0:80:G#4S_Ab4S.wav
192,192,92327,1,2,0:0:0:0:
64,192,92485,1,8,0:0:0:0:
448,192,92485,1,0,0:0:0:80:D#5S_Eb5S.wav
320,192,92643,1,0,0:0:0:0:
64,192,92801,128,6,93116:0:0:0:0:
192,192,92801,1,0,0:0:0:80:A#6S_Bb6S.wav
448,192,92801,1,0,0:0:0:80:E4S.wav
192,192,93116,1,8,0:0:0:0:
320,192,93116,1,0,0:0:0:80:E4S.wav
64,192,93274,128,0,93748:0:0:0:80:B6S.wav
448,192,93274,1,0,0:0:0:0:
192,192,93432,1,2,0:0:0:0:
320,192,93432,1,0,0:0:0:80:E4S.wav
448,192,93590,1,2,0:0:0:0:
192,192,93748,128,8,94064:0:0:0:0:
320,192,93748,1,0,0:0:0:80:G#4S_Ab4S.wav
64,192,94064,128,2,94380:0:0:0:0:
320,192,94064,1,0,0:0:0:80:G4S.wav
448,192,94064,128,0,94695:0:0:0:80:G7S.wav
192,192,94380,1,8,0:0:0:0:
320,192,94380,1,0,0:0:0:80:E7S.wav
192,192,94695,128,2,95327:0:0:0:0:
320,192,94695,128,0,95011:0:0:0:80:G4S.wav
64,192,95011,1,8,0:0:0:0:
448,192,95011,1,0,0:0:0:80:C#7S_Db7S.wav
64,192,95327,1,2,0:0:0:0:
320,192,95327,1,0,0:0:0:80:G#4S_Ab4S_s.wav
448,192,95485,1,8,0:0:0:0:
320,192,95564,1,8,0:0:0:0:
64,192,95643,1,8,0:0:0:0:
192,192,95643,1,0,0:0:0:0:
320,192,95801,1,8,0:0:0:0:
448,192,95801,1,0,0:0:0:80:F#7S_Gb7S.wav
64,192,95958,1,8,0:0:0:0:
192,192,95958,1,0,0:0:0:0:
320,192,96116,1,8,0:0:0:0:
448,192,96116,1,0,0:0:0:80:D#5S_Eb5S.wav
64,192,96274,1,2,0:0:0:0:
192,192,96274,1,4,0:0:0:0:
448,192,96274,128,0,96590:0:0:0:80:B6S.wav
64,192,96590,1,6,0:0:0:0:
192,192,96590,1,0,0:0:0:80:G#4S_Ab4S_s.wav
320,192,96590,1,0,0:0:0:80:B7S_s.wav
448,192,96669,1,0,0:0:0:0:
320,192,96748,1,8,0:0:0:0:
192,192,96827,1,0,0:0:0:0:
64,192,96906,1,0,0:0:0:80:G#7S_Ab7S_s.wav
320,192,96985,1,0,0:0:0:0:
192,192,97064,1,2,0:0:0:0:
64,192,97143,1,0,0:0:0:0:
320,192,97222,1,8,0:0:0:0:
448,192,97222,1,0,0:0:0:80:D#5S_Eb5S.wav
192,192,97301,1,0,0:0:0:0:
320,192,97380,1,2,0:0:0:0:
448,192,97458,1,0,0:0:0:0:
64,192,97537,1,8,0:0:0:0:
192,192,97616,1,0,0:0:0:0:
320,192,97695,1,2,0:0:0:0:
448,192,97774,1,0,0:0:0:0:
64,192,97853,1,6,0:0:0:0:
192,192,97853,1,0,0:0:0:80:E4S.wav
320,192,97853,1,0,0:0:0:80:A#6S_Bb6S.wav
320,192,98169,1,8,0:0:0:0:
448,192,98169,1,0,0:0:0:80:G#4S_Ab4S.wav
192,192,98327,1,0,0:0:0:80:B6S.wav
448,192,98327,128,0,98801:0:0:0:0:
64,192,98485,1,2,0:0:0:0:
320,192,98485,1,0,0:0:0:80:E4S.wav
192,192,98643,1,2,0:0:0:0:
64,192,98801,1,8,0:0:0:0:
320,192,98801,1,0,0:0:0:80:B4S.wav
448,192,98958,1,0,0:0:0:0:
64,192,99116,128,2,99432:0:0:0:0:
192,192,99116,1,0,0:0:0:80:F#4S_Gb4S.wav
320,192,99116,1,0,0:0:0:80:C#7S_Db7S.wav
192,192,99432,1,8,0:0:0:0:
448,192,99432,1,0,0:0:0:80:C#5S_Db5S.wav
64,192,99590,128,0,100064:0:0:0:80:F#6S_Gb6S.wav
192,192,99590,1,0,0:0:0:0:
320,192,99748,1,2,0:0:0:0:
448,192,99748,1,0,0:0:0:80:F#4S_Gb4S.wav
192,192,99906,1,2,0:0:0:0:
320,192,100064,1,8,0:0:0:0:
448,192,100064,1,0,0:0:0:80:C#7S_Db7S_s.wav
192,192,100222,1,0,0:0:0:80:B6S_s.wav
64,192,100380,1,2,0:0:0:0:
320,192,100380,128,0,100695:0:0:0:80:G4S.wav
448,192,100380,1,0,0:0:0:80:A#6S_Bb6S.wav
64,192,100695,1,8,0:0:0:0:
192,192,100695,1,0,0:0:0:80:C#5S_Db5S.wav
64,192,100853,128,0,101169:0:0:0:80:C#7S_Db7S.wav
448,192,100853,1,0,0:0:0:0:
320,192,101011,1,2,0:0:0:0:
448,192,101011,1,0,0:0:0:80:D#4S_Eb4S.wav
192,192,101169,1,2,0:0:0:0:
64,192,101327,1,8,0:0:0:0:
320,192,101327,1,0,0:0:0:80:G4S.wav
448,192,101327,128,0,101643:0:0:0:80:D#7S_Eb7S.wav
64,192,101643,1,2,0:0:0:0:
192,192,101643,128,0,102116:0:0:0:80:G#4S_Ab4S.wav
320,192,101643,1,0,0:0:0:80:C#7S_Db7S.wav
64,192,101958,1,8,0:0:0:0:
448,192,101958,1,0,0:0:0:80:D#5S_Eb5S.wav
320,192,102116,1,0,0:0:0:80:B6S_s.wav
448,192,102195,1,0,0:0:0:80:A#6S_Bb6S_s.wav
64,192,102274,1,2,0:0:0:0:
192,192,102274,1,0,0:0:0:80:B6S.wav
320,192,102432,1,2,0:0:0:0:
64,192,102590,1,8,0:0:0:0:
448,192,102590,1,0,0:0:0:80:B4S.wav
192,192,102748,1,2,0:0:0:0:
64,192,102906,1,12,0:0:0:0:
320,192,102906,1,0,0:0:0:80:B4S.wav
448,192,102906,1,0,0:0:0:80:A#6S_Bb6S_s.wav
192,192,103064,1,2,0:0:0:0:
320,192,103222,1,2,0:0:0:0:
448,192,103222,1,0,0:0:0:80:F#7S_Gb7S_s.wav
64,192,103380,1,12,0:0:0:0:
192,192,103380,1,0,0:0:0:80:B4S.wav
448,192,103380,1,0,0:0:0:80:A#6S_Bb6S_s.wav
320,192,103537,1,2,0:0:0:0:
64,192,103695,1,2,0:0:0:0:
192,192,103695,1,0,0:0:0:80:E4S_s.wav
64,192,103853,1,12,0:0:0:0:
320,192,103853,1,0,0:0:0:80:A#6S_Bb6S_s.wav
448,192,103853,1,0,0:0:0:80:B4S.wav
192,192,104011,1,2,0:0:0:0:
320,192,104169,1,2,0:0:0:0:
448,192,104169,1,0,0:0:0:80:F#7S_Gb7S_s.wav
64,192,104327,1,12,0:0:0:0:
192,192,104327,1,0,0:0:0:80:A#6S_Bb6S_s.wav
448,192,104327,1,0,0:0:0:80:B4S.wav
320,192,104485,1,2,0:0:0:0:
64,192,104643,1,12,0:0:0:0:
448,192,104643,1,0,0:0:0:80:E4S_s.wav
192,192,104801,1,8,0:0:0:0:
320,192,104801,1,0,0:0:0:80:E4S.wav
64,192,105116,1,8,0:0:0:0:
448,192,105116,1,0,0:0:0:80:E4S_s.wav
192,192,105274,1,6,0:0:0:0:
320,192,105274,1,0,0:0:0:80:F#7S_Gb7S.wav
448,192,105274,1,0,0:0:0:80:C#5S_Db5S.wav
64,192,105432,1,2,0:0:0:0:
192,192,105511,1,0,0:0:0:0:
448,192,105590,1,0,0:0:0:0:
320,192,105669,1,0,0:0:0:0:
64,192,105748,1,8,0:0:0:0:
192,192,105827,1,0,0:0:0:0:
320,192,105906,1,0,0:0:0:80:A#7S_Bb7S_s.wav
64,192,105985,1,0,0:0:0:0:
448,192,106064,1,2,0:0:0:0:
320,192,106143,1,0,0:0:0:0:
192,192,106222,1,2,0:0:0:0:
64,192,106301,1,0,0:0:0:0:
320,192,106380,1,8,0:0:0:0:
448,192,106458,1,0,0:0:0:0:
192,192,106537,1,0,0:0:0:80:E8S_s.wav
320,192,106616,1,0,0:0:0:0:
64,192,106695,1,2,0:0:0:0:
448,192,106695,1,0,0:0:0:80:F#8S_Gb8S_s.wav
64,192,107327,128,2,107801:0:0:0:0:
192,192,107327,128,0,107801:0:0:0:80:F#4S_Gb4S.wav
320,192,107643,1,8,0:0:0:0:
448,192,107643,1,0,0:0:0:80:C#5S_Db5S.wav
320,192,107801,1,8,0:0:0:0:
448,192,107801,1,0,0:0:0:0:
64,192,107958,1,6,0:0:0:0:
192,192,107958,1,0,0:0:0:80:E4S.wav
448,192,107958,1,0,0:0:0:80:B7S_s.wav
320,192,108037,1,0,0:0:0:0:
192,192,108116,1,0,0:0:0:80:A#7S_Bb7S_s.wav
64,192,108195,1,0,0:0:0:0:
320,192,108274,1,8,0:0:0:0:
192,192,108353,1,0,0:0:0:0:
64,192,108432,1,0,0:0:0:80:F#7S_Gb7S_s.wav
448,192,108511,1,0,0:0:0:0:
64,192,108590,1,2,0:0:0:0:
192,192,108590,1,0,0:0:0:80:E7S_s.wav
320,192,108669,1,0,0:0:0:0:
448,192,108748,1,2,0:0:0:0:
64,192,108827,1,0,0:0:0:0:
192,192,108906,1,8,0:0:0:0:
448,192,108985,1,0,0:0:0:0:
320,192,109064,1,0,0:0:0:80:B6S_s.wav
192,192,109143,1,0,0:0:0:0:
64,192,109222,1,2,0:0:0:0:
448,192,109222,1,0,0:0:0:80:A#6S_Bb6S_s.wav
320,192,109301,1,0,0:0:0:0:
192,192,109380,1,0,0:0:0:80:F#6S_Gb6S_s.wav
64,192,109458,1,0,0:0:0:0:
320,192,109537,1,8,0:0:0:0:
448,192,109616,1,0,0:0:0:0:
64,192,109695,1,0,0:0:0:80:A#6S_Bb6S_s.wav
192,192,109774,1,0,0:0:0:0:
320,192,109853,1,2,0:0:0:0:
448,192,109853,1,0,0:0:0:80:B6S_s.wav
64,192,109932,1,0,0:0:0:0:
192,192,110011,1,2,0:0:0:0:
320,192,110090,1,0,0:0:0:0:
64,192,110169,1,8,0:0:0:0:
192,192,110248,1,0,0:0:0:0:
448,192,110327,1,0,0:0:0:80:E7S_s.wav
320,192,110406,1,0,0:0:0:0:
192,192,110485,1,2,0:0:0:0:
448,192,110485,1,0,0:0:0:80:F#7S_Gb7S.wav
64,192,110801,1,8,0:0:0:0:
192,192,110801,1,0,0:0:0:80:F#4S_Gb4S.wav
448,192,110958,1,0,0:0:0:80:C#7S_Db7S.wav
192,192,111116,1,2,0:0:0:0:
320,192,111116,1,0,0:0:0:80:D#4S_Eb4S.wav
64,192,111274,1,2,0:0:0:0:
320,192,111432,1,8,0:0:0:0:
448,192,111432,1,0,0:0:0:80:F#4S_Gb4S.wav
192,192,111590,1,0,0:0:0:0:
64,192,111748,1,2,0:0:0:0:
448,192,111748,1,0,0:0:0:80:C#7S_Db7S.wav
320,192,111906,1,0,0:0:0:0:
64,192,112064,1,8,0:0:0:0:
192,192,112064,1,0,0:0:0:80:B4S.wav
64,192,112222,1,0,0:0:0:80:B6S_s.wav
192,192,112301,1,0,0:0:0:80:A#6S_Bb6S_s.wav
320,192,112380,1,2,0:0:0:0:
448,192,112380,1,0,0:0:0:80:B6S.wav
448,192,112537,1,2,0:0:0:0:
64,192,112695,1,8,0:0:0:0:
320,192,112695,1,0,0:0:0:80:D#5S_Eb5S.wav
192,192,112853,1,0,0:0:0:0:
320,192,113011,1,2,0:0:0:0:
448,192,113011,1,0,0:0:0:80:E4S.wav
192,192,113090,1,0,0:0:0:0:
64,192,113169,1,0,0:0:0:80:C#6S_Db6S_s.wav
448,192,113248,1,0,0:0:0:0:
192,192,113327,1,8,0:0:0:0:
320,192,113327,1,0,0:0:0:80:G#4S_Ab4S.wav
64,192,113406,1,0,0:0:0:0:
448,192,113485,1,0,0:0:0:80:E6S_s.wav
320,192,113564,1,0,0:0:0:0:
64,192,113643,1,2,0:0:0:0:
192,192,113643,1,0,0:0:0:80:E4S.wav
320,192,113722,1,0,0:0:0:0:
448,192,113801,1,2,0:0:0:0:
320,192,113958,1,8,0:0:0:0:
448,192,113958,1,0,0:0:0:80:B4S.wav
192,192,114037,1,0,0:0:0:0:
64,192,114116,1,0,0:0:0:80:B6S_s.wav
320,192,114274,1,2,0:0:0:0:
448,192,114274,128,0,114590:0:0:0:80:G4S.wav
64,192,114590,1,8,0:0:0:0:
192,192,114590,1,0,0:0:0:80:C#5S_Db5S.wav
448,192,114748,1,0,0:0:0:80:G6S_s.wav
64,192,114906,1,6,0:0:0:0:
192,192,114906,1,0,0:0:0:80:E7S_s.wav
320,192,114906,1,0,0:0:0:80:C#5S_Db5S_s.wav
192,192,115143,1,6,0:0:0:0:
320,192,115143,1,0,0:0:0:80:D#7S_Eb7S_s.wav
448,192,115143,1,0,0:0:0:80:G4S_s.wav
320,192,115380,1,6,0:0:0:0:
448,192,115380,1,0,0:0:0:80:C#7S_Db7S_s.wav
64,192,115537,1,6,0:0:0:0:
192,192,115537,1,0,0:0:0:80:C#7S_Db7S.wav
448,192,115537,128,0,115853:0:0:0:80:G#4S_Ab4S.wav
192,192,115853,1,8,0:0:0:0:
320,192,115853,1,0,0:0:0:80:B4S.wav
64,192,116011,128,0,116485:0:0:0:80:B6S.wav
192,192,116011,1,0,0:0:0:0:
448,192,116169,1,2,0:0:0:0:
320,192,116327,1,2,0:0:0:0:
192,192,116485,1,8,0:0:0:0:
448,192,116485,1,0,0:0:0:80:D#5S_Eb5S.wav
64,192,116643,1,0,0:0:0:0:
192,192,116801,1,2,0:0:0:0:
320,192,116801,1,0,0:0:0:80:G#4S_Ab4S.wav
448,192,116958,1,8,0:0:0:0:
320,192,117037,1,0,0:0:0:0:
64,192,117116,1,8,0:0:0:0:
192,192,117116,1,0,0:0:0:80:B4S.wav
64,192,117274,1,8,0:0:0:0:
192,192,117274,1,0,0:0:0:80:F#7S_Gb7S_s.wav
320,192,117432,1,2,0:0:0:0:
448,192,117432,1,0,0:0:0:80:G#4S_Ab4S.wav
64,192,117590,1,2,0:0:0:0:
448,192,117590,1,0,0:0:0:80:D#7S_Eb7S_s.wav
192,192,117748,1,2,0:0:0:0:
320,192,117748,1,0,0:0:0:80:D#5S_Eb5S.wav
64,192,117906,1,2,0:0:0:0:
192,192,117906,1,0,0:0:0:80:B6S_s.wav
64,192,118064,1,6,0:0:0:0:
320,192,118064,1,0,0:0:0:80:E4S.wav
448,192,118064,128,0,118380:0:0:0:80:A#6S_Bb6S.wav
64,192,118380,1,8,0:0:0:0:
192,192,118380,1,0,0:0:0:80:E4S.wav
64,192,118537,128,0,119011:0:0:0:80:B6S.wav
448,192,118537,1,0,0:0:0:0:
192,192,118695,1,2,0:0:0:0:
320,192,118695,1,0,0:0:0:80:E4S.wav
192,192,118853,1,2,0:0:0:0:
320,192,119011,1,8,0:0:0:0:
448,192,119011,1,0,0:0:0:80:B4S.wav
192,192,119169,1,0,0:0:0:0:
64,192,119327,1,2,0:0:0:0:
320,192,119327,1,0,0:0:0:80:F#4S_Gb4S.wav
448,192,119327,128,0,119643:0:0:0:80:C#7S_Db7S.wav
192,192,119643,1,8,0:0:0:0:
320,192,119643,1,0,0:0:0:80:C#5S_Db5S.wav
320,192,119801,1,0,0:0:0:80:F#6S_Gb6S.wav
448,192,119801,128,0,120274:0:0:0:0:
64,192,119958,1,2,0:0:0:0:
320,192,120116,1,2,0:0:0:0:
64,192,120274,1,8,0:0:0:0:
192,192,120274,1,0,0:0:0:80:C#7S_Db7S_s.wav
320,192,120432,1,0,0:0:0:80:B6S_s.wav
64,192,120590,1,6,0:0:0:0:
192,192,120590,128,0,120906:0:0:0:80:G4S.wav
448,192,120590,1,0,0:0:0:80:A#6S_Bb6S.wav
320,192,120906,1,8,0:0:0:0:
448,192,120906,1,0,0:0:0:80:A#4S_Bb4S.wav
64,192,121064,1,6,0:0:0:0:
448,192,121064,128,0,121380:0:0:0:80:C#7S_Db7S.wav
64,192,121222,1,2,0:0:0:0:
192,192,121222,1,0,0:0:0:80:D#4S_Eb4S.wav
320,192,121380,1,2,0:0:0:0:
64,192,121537,128,12,121853:0:0:0:0:
192,192,121537,1,0,0:0:0:80:G4S.wav
448,192,121537,1,0,0:0:0:80:D#7S_Eb7S.wav
192,192,121853,1,2,0:0:0:0:
320,192,121853,128,0,122327:0:0:0:80:G#4S_Ab4S.wav
448,192,121853,1,0,0:0:0:80:C#7S_Db7S.wav
64,192,122169,1,8,0:0:0:0:
448,192,122169,1,0,0:0:0:80:D#5S_Eb5S.wav
192,192,122327,1,0,0:0:0:80:B6S_s.wav
64,192,122406,1,0,0:0:0:80:A#6S_Bb6S_s.wav
320,192,122485,1,2,0:0:0:0:
448,192,122485,1,0,0:0:0:80:G#4S_Ab4S.wav
192,192,122643,1,2,0:0:0:0:
64,192,122801,1,8,0:0:0:0:
448,192,122801,1,0,0:0:0:80:D#5S_Eb5S.wav
320,192,122958,1,2,0:0:0:0:
64,192,123116,1,12,0:0:0:0:
192,192,123116,1,0,0:0:0:80:A#6S_Bb6S_s.wav
448,192,123116,1,0,0:0:0:80:B4S.wav
320,192,123274,1,2,0:0:0:0:
64,192,123432,1,2,0:0:0:0:
192,192,123432,1,0,0:0:0:80:E4S_s.wav
64,192,123590,1,12,0:0:0:0:
320,192,123590,1,0,0:0:0:80:B4S.wav
448,192,123590,1,0,0:0:0:80:A#6S_Bb6S_s.wav
192,192,123748,1,2,0:0:0:0:
320,192,123906,1,2,0:0:0:0:
448,192,123906,1,0,0:0:0:80:E4S_s.wav
64,192,124064,1,12,0:0:0:0:
192,192,124064,1,0,0:0:0:80:A#6S_Bb6S_s.wav
448,192,124064,1,0,0:0:0:80:E4S.wav
320,192,124222,1,2,0:0:0:0:
64,192,124380,1,2,0:0:0:0:
192,192,124380,1,0,0:0:0:80:F#7S_Gb7S_s.wav
64,192,124537,1,12,0:0:0:0:
320,192,124537,1,0,0:0:0:80:B4S.wav
448,192,124537,1,0,0:0:0:80:G#4S_Ab4S.wav
192,192,124695,1,2,0:0:0:0:
320,192,124853,1,12,0:0:0:0:
448,192,124853,1,0,0:0:0:80:F#7S_Gb7S_s.wav
320,192,125011,1,8,0:0:0:0:
448,192,125011,1,0,0:0:0:80:G#4S_Ab4S.wav
64,192,125169,1,2,0:0:0:0:
192,192,125327,1,8,0:0:0:0:
320,192,125327,1,0,0:0:0:80:G#7S_Ab7S_s.wav
64,192,125485,1,6,0:0:0:0:
192,192,125485,1,0,0:0:0:80:C#5S_Db5S.wav
448,192,125485,1,0,0:0:0:80:A#4S_Bb4S.wav
64,192,125801,1,8,0:0:0:0:
320,192,125801,1,4,0:0:0:0:
448,192,125801,1,0,0:0:0:0:
192,192,125958,1,6,0:0:0:0:
320,192,126116,1,2,0:0:0:0:
64,192,126274,1,4,0:0:0:0:
192,192,126274,1,0,0:0:0:80:F#4S_Gb4S.wav
448,192,126274,1,0,0:0:0:0:
320,192,126432,1,8,0:0:0:0:
64,192,126590,1,2,0:0:0:0:
192,192,126748,1,8,0:0:0:0:
64,192,126906,1,6,0:0:0:0:
320,192,126906,1,0,0:0:0:80:A#6S_Bb6S_s.wav
448,192,126906,1,0,0:0:0:80:F#4S_Gb4S.wav
192,192,126985,1,0,0:0:0:0:
320,192,127064,1,2,0:0:0:0:
448,192,127143,1,0,0:0:0:0:
192,192,127222,1,2,0:0:0:0:
320,192,127301,1,0,0:0:0:0:
64,192,127380,1,2,0:0:0:0:
192,192,127458,1,0,0:0:0:0:
448,192,127537,1,2,0:0:0:0:
320,192,127616,1,0,0:0:0:0:
192,192,127695,1,0,0:0:0:80:C#7S_Db7S_s.wav
64,192,127774,1,0,0:0:0:0:
448,192,127853,128,2,128169:0:0:0:0:
64,192,128169,1,0,0:0:0:80:B5S.wav
320,192,128169,1,0,0:0:0:80:A#6S_Bb6S.wav
64,192,128643,1,0,0:0:0:80:B6S.wav
192,192,128643,1,0,0:0:0:0:
192,192,129116,1,0,0:0:0:80:C#7S_Db7S.wav
448,192,129116,1,0,0:0:0:0:
320,192,129432,1,0,0:0:0:80:C#6S_Db6S.wav
448,192,129432,1,0,0:0:0:80:A#5S_Bb5S.wav
64,192,129590,128,0,130064:0:0:0:80:B6S.wav
192,192,129590,1,0,0:0:0:0:
448,192,130064,1,0,0:0:0:80:F#7S_Gb7S_s.wav
320,192,130143,1,0,0:0:0:80:E7S_s.wav
192,192,130222,1,0,0:0:0:80:D#7S_Eb7S_s.wav
64,192,130301,1,0,0:0:0:80:C#7S_Db7S_s.wav
320,192,130380,1,0,0:0:0:80:B6S_s.wav
192,192,130458,1,0,0:0:0:80:A#6S_Bb6S_s.wav
448,192,130537,1,0,0:0:0:80:G#6S_Ab6S_s.wav
320,192,130616,1,0,0:0:0:80:F#6S_Gb6S_s.wav
64,192,130695,1,0,0:0:0:80:G#5S_Ab5S.wav
192,192,130695,1,0,0:0:0:80:C#6S_Db6S.wav
192,192,131169,1,0,0:0:0:80:B6S.wav
320,192,131169,1,0,0:0:0:0:
192,192,131643,1,0,0:0:0:80:C#7S_Db7S.wav
448,192,131643,1,0,0:0:0:0:
64,192,131958,1,0,0:0:0:80:D#6S_Eb6S.wav
192,192,131958,1,0,0:0:0:80:G#5S_Ab5S.wav
320,192,132116,1,0,0:0:0:80:D#7S_Eb7S.wav
448,192,132116,128,0,132590:0:0:0:0:
64,192,132590,1,0,0:0:0:80:F#6S_Gb6S_s.wav
320,192,132669,1,0,0:0:0:80:C#6S_Db6S_s.wav
192,192,132748,1,0,0:0:0:80:F#6S_Gb6S_s.wav
448,192,132827,1,0,0:0:0:80:B6S_s.wav
64,192,132906,1,0,0:0:0:80:C#7S_Db7S_s.wav
192,192,133064,1,0,0:0:0:80:B6S_s.wav
320,192,133222,1,0,0:0:0:80:B5S.wav
448,192,133222,1,0,0:0:0:80:A#6S_Bb6S.wav
192,192,133695,1,0,0:0:0:80:B6S.wav
320,192,133695,1,0,0:0:0:0:
64,192,134169,1,0,0:0:0:80:C#7S_Db7S.wav
320,192,134169,1,0,0:0:0:0:
320,192,134485,1,0,0:0:0:80:C#6S_Db6S.wav
448,192,134485,1,0,0:0:0:80:F#5S_Gb5S.wav
64,192,134643,1,0,0:0:0:80:B6S.wav
192,192,134643,128,0,135116:0:0:0:0:
64,192,135116,1,0,0:0:0:80:A#5S_Bb5S.wav
448,192,135116,1,0,0:0:0:80:F#7S_Gb7S_s.wav
320,192,135195,1,0,0:0:0:80:E7S_s.wav
192,192,135274,1,0,0:0:0:80:D#7S_Eb7S_s.wav
64,192,135353,1,0,0:0:0:80:C#7S_Db7S_s.wav
320,192,135432,1,0,0:0:0:80:B6S_s.wav
448,192,135511,1,0,0:0:0:80:A#6S_Bb6S_s.wav
192,192,135590,1,0,0:0:0:80:G#6S_Ab6S_s.wav
320,192,135669,1,0,0:0:0:80:F#6S_Gb6S_s.wav
64,192,135748,1,0,0:0:0:80:D#6S_Eb6S.wav
448,192,135748,1,0,0:0:0:80:B5S.wav
64,192,136222,1,0,0:0:0:80:B6S.wav
192,192,136222,1,0,0:0:0:0:
192,192,136695,1,0,0:0:0:80:C#7S_Db7S.wav
320,192,136695,1,0,0:0:0:0:
320,192,137169,1,0,0:0:0:80:D#7S_Eb7S.wav
448,192,137169,128,0,140485:0:0:0:0:
64,192,137643,1,0,0:0:0:80:F#7S_Gb7S_s.wav
320,192,137748,1,0,0:0:0:80:C#7S_Db7S_s.wav
192,192,137827,1,0,0:0:0:80:F#7S_Gb7S_s.wav
64,192,137906,1,0,0:0:0:80:B7S_s.wav
320,192,137985,1,0,0:0:0:80:C#8S_Db8S_s.wav
192,192,138169,1,0,0:0:0:80:B7S.wav
