osu file format v14

[General]
AudioFilename: kors k x marasy - Play Time!! (Unofficial Title).mp3
AudioLeadIn: 0
PreviewTime: 114214
Countdown: 0
SampleSet: Soft
StackLeniency: 0.7
Mode: 3
LetterboxInBreaks: 0
SpecialStyle: 0
WidescreenStoryboard: 0

[Editor]
DistanceSpacing: 0.9
BeatDivisor: 4
GridSize: 8
TimelineZoom: 2.3

[Metadata]
Title:Play Time!!
TitleUnicode:Play Time!!
Artist:maras k
ArtistUnicode:maras k
Creator:ExVeemon
Version:SC
Source:
Tags:まらしぃ marasy kors k Beat Piano Music
BeatmapID:692198
BeatmapSetID:309653

[Difficulty]
HPDrainRate:8.5
CircleSize:4
OverallDifficulty:8
ApproachRate:5
SliderMultiplier:3.59999990463257
SliderTickRate:4

[Events]
//Background and Video events
0,0,"playtime.jpg",0,0
//Break Periods
//Storyboard Layer 0 (Background)
//Storyboard Layer 1 (Fail)
//Storyboard Layer 2 (Pass)
//Storyboard Layer 3 (Foreground)
//Storyboard Sound Samples

[TimingPoints]
1408,324.324324324324,4,2,0,50,1,0
37732,-100,4,2,0,50,0,1
58164,-100,4,2,0,50,0,0
58489,-100,4,2,0,50,0,1
77948,-100,4,2,0,50,0,0
115570,-100,4,2,0,50,0,1
133732,-100,4,2,0,50,0,0
136326,-100,4,2,0,50,0,1
146705,-100,4,2,0,50,0,0
151894,-100,4,2,0,50,0,1
162272,-100,4,2,0,50,0,0

[HitObjects]
448,192,1408,128,2,1570:0:0:0:0:
320,192,1408,1,0,0:0:0:0:
192,192,1408,1,0,0:0:0:0:
64,192,1570,1,0,0:0:0:0:
448,192,1732,128,2,1894:0:0:0:0:
192,192,1732,1,8,0:0:0:0:
64,192,1894,1,0,0:0:0:0:
448,192,2056,128,2,2218:0:0:0:0:
192,192,2056,1,0,0:0:0:0:
320,192,2218,128,2,2299:0:0:0:0:
64,192,2218,1,0,0:0:0:0:
192,192,2299,128,2,2380:0:0:0:0:
64,192,2380,128,2,2543:0:0:0:0:
448,192,2380,1,8,0:0:0:0:
320,192,2543,128,2,2624:0:0:0:0:
192,192,2543,1,0,0:0:0:0:
192,192,2705,128,2,2867:0:0:0:0:
448,192,2705,1,0,0:0:0:0:
448,192,2867,128,2,3029:0:0:0:0:
64,192,2867,1,0,0:0:0:0:
192,192,3029,128,2,3191:0:0:0:0:
320,192,3029,1,8,0:0:0:0:
448,192,3191,128,2,3353:0:0:0:0:
64,192,3191,1,0,0:0:0:0:
64,192,3353,128,2,3678:0:0:0:0:
320,192,3353,1,0,0:0:0:0:
192,192,3516,1,0,0:0:0:0:
192,192,3678,128,2,3759:0:0:0:0:
320,192,3678,1,8,0:0:0:0:
64,192,3840,128,2,3921:0:0:0:0:
192,192,3840,1,0,0:0:0:0:
192,192,4002,128,2,4164:0:0:0:0:
320,192,4002,1,0,0:0:0:0:
320,192,4164,128,2,4326:0:0:0:0:
448,192,4164,1,0,0:0:0:0:
448,192,4326,128,2,4651:0:0:0:0:
64,192,4326,1,8,0:0:0:0:
320,192,4489,1,0,0:0:0:0:
64,192,4651,128,2,4813:0:0:0:0:
192,192,4651,1,0,0:0:0:0:
192,192,4813,128,2,4894:0:0:0:0:
448,192,4813,1,0,0:0:0:0:
320,192,4975,128,2,5056:0:0:0:0:
64,192,4975,1,8,0:0:0:0:
448,192,5137,128,2,5299:0:0:0:0:
192,192,5137,1,0,0:0:0:0:
64,192,5299,1,0,0:0:0:0:
320,192,5462,128,2,5543:0:0:0:0:
448,192,5462,1,0,0:0:0:0:
192,192,5624,128,2,5705:0:0:0:0:
64,192,5624,1,8,0:0:0:0:
320,192,5786,128,2,5867:0:0:0:0:
448,192,5786,1,0,0:0:0:0:
448,192,5948,128,2,6272:0:0:0:0:
64,192,5948,1,0,0:0:0:0:
192,192,6110,1,0,0:0:0:0:
64,192,6272,128,2,6353:0:0:0:0:
320,192,6272,1,8,0:0:0:0:
192,192,6353,128,2,6435:0:0:0:0:
320,192,6435,128,2,6516:0:0:0:0:
64,192,6435,1,0,0:0:0:0:
448,192,6516,128,2,6597:0:0:0:0:
320,192,6597,128,2,6759:0:0:0:0:
192,192,6597,1,0,0:0:0:0:
64,192,6759,1,0,0:0:0:0:
192,192,6921,128,2,7083:0:0:0:0:
320,192,6921,1,8,0:0:0:0:
448,192,7083,1,0,0:0:0:0:
64,192,7245,128,2,7407:0:0:0:0:
192,192,7245,1,0,0:0:0:0:
320,192,7407,128,2,7489:0:0:0:0:
448,192,7407,1,0,0:0:0:0:
192,192,7489,128,2,7570:0:0:0:0:
64,192,7570,128,2,7732:0:0:0:0:
320,192,7570,1,8,0:0:0:0:
192,192,7732,128,2,7894:0:0:0:0:
448,192,7732,1,0,0:0:0:0:
320,192,7894,1,0,0:0:0:0:
320,192,8056,128,2,8137:0:0:0:0:
448,192,8056,1,0,0:0:0:0:
192,192,8218,128,2,8380:0:0:0:0:
64,192,8218,1,8,0:0:0:0:
320,192,8380,128,2,8462:0:0:0:0:
448,192,8380,1,0,0:0:0:0:
64,192,8543,128,2,8867:0:0:0:0:
192,192,8543,1,0,0:0:0:0:
320,192,8705,1,0,0:0:0:0:
320,192,8867,128,2,8948:0:0:0:0:
192,192,8867,1,8,0:0:0:0:
192,192,9029,128,2,9110:0:0:0:0:
448,192,9029,1,0,0:0:0:0:
64,192,9191,128,2,9272:0:0:0:0:
320,192,9191,1,0,0:0:0:0:
320,192,9353,128,2,9435:0:0:0:0:
64,192,9353,1,8,0:0:0:0:
448,192,9353,1,0,0:0:0:0:
192,192,9394,128,4,9516:0:0:0:0:
448,192,9516,128,2,9759:0:0:0:0:
64,192,9516,1,0,0:0:0:0:
192,192,9678,1,0,0:0:0:0:
64,192,9840,128,2,9921:0:0:0:0:
320,192,9840,1,8,0:0:0:0:
192,192,9840,1,0,0:0:0:0:
448,192,9880,128,4,10002:0:0:0:0:
192,192,10002,128,2,10083:0:0:0:0:
320,192,10002,1,0,0:0:0:0:
320,192,10164,128,2,10245:0:0:0:0:
448,192,10164,1,0,0:0:0:0:
64,192,10205,1,8,0:0:0:0:
192,192,10245,128,4,10367:0:0:0:0:
448,192,10326,128,2,10489:0:0:0:0:
320,192,10326,1,0,0:0:0:0:
64,192,10489,1,0,0:0:0:0:
320,192,10651,128,2,10732:0:0:0:0:
448,192,10651,1,0,0:0:0:0:
192,192,10813,128,2,10894:0:0:0:0:
64,192,10813,1,8,0:0:0:0:
320,192,10975,128,2,11056:0:0:0:0:
448,192,10975,1,0,0:0:0:0:
64,192,11137,128,2,11462:0:0:0:0:
192,192,11137,1,0,0:0:0:0:
448,192,11299,128,2,11786:0:0:0:0:
320,192,11299,128,2,11786:0:0:0:0:
192,192,11299,1,0,0:0:0:0:
192,192,11462,1,8,0:0:0:0:
64,192,11624,1,0,0:0:0:0:
192,192,11786,128,2,12029:0:0:0:0:
64,192,11786,1,4,0:0:0:0:
320,192,11948,1,0,0:0:0:0:
192,192,12110,128,2,12353:0:0:0:0:
64,192,12110,1,0,0:0:0:0:
448,192,12110,1,8,0:0:0:0:
320,192,12272,1,0,0:0:0:0:
192,192,12435,128,2,12597:0:0:0:0:
448,192,12435,1,0,0:0:0:0:
448,192,12597,128,2,12678:0:0:0:0:
64,192,12597,1,0,0:0:0:0:
320,192,12678,128,2,12759:0:0:0:0:
448,192,12759,1,0,0:0:0:0:
192,192,12759,1,8,0:0:0:0:
64,192,12759,128,2,12921:0:0:0:0:
192,192,12921,128,2,13083:0:0:0:0:
320,192,12921,1,0,0:0:0:0:
320,192,13083,128,2,13245:0:0:0:0:
448,192,13083,1,0,0:0:0:0:
448,192,13245,128,2,13407:0:0:0:0:
192,192,13245,1,0,0:0:0:0:
320,192,13407,128,2,13570:0:0:0:0:
64,192,13407,1,8,0:0:0:0:
192,192,13407,1,0,0:0:0:0:
448,192,13570,128,2,13732:0:0:0:0:
64,192,13570,1,0,0:0:0:0:
192,192,13732,128,2,13975:0:0:0:0:
320,192,13732,1,0,0:0:0:0:
448,192,13894,1,0,0:0:0:0:
192,192,14056,128,2,14218:0:0:0:0:
64,192,14056,1,0,0:0:0:0:
320,192,14056,1,8,0:0:0:0:
64,192,14218,128,2,14380:0:0:0:0:
448,192,14218,1,0,0:0:0:0:
192,192,14380,128,2,14543:0:0:0:0:
320,192,14380,1,0,0:0:0:0:
320,192,14543,128,2,14705:0:0:0:0:
448,192,14543,1,0,0:0:0:0:
64,192,14705,1,8,0:0:0:0:
192,192,14705,1,0,0:0:0:0:
448,192,14705,128,2,15029:0:0:0:0:
320,192,14867,1,0,0:0:0:0:
64,192,15029,128,2,15191:0:0:0:0:
192,192,15029,1,0,0:0:0:0:
192,192,15191,128,2,15353:0:0:0:0:
320,192,15191,1,0,0:0:0:0:
320,192,15353,128,2,15516:0:0:0:0:
64,192,15353,1,0,0:0:0:0:
448,192,15353,1,8,0:0:0:0:
448,192,15516,128,2,15840:0:0:0:0:
192,192,15516,1,0,0:0:0:0:
64,192,15678,1,0,0:0:0:0:
320,192,15840,128,2,16002:0:0:0:0:
192,192,15840,1,0,0:0:0:0:
192,192,16002,128,2,16164:0:0:0:0:
64,192,16002,1,8,0:0:0:0:
448,192,16002,1,0,0:0:0:0:
320,192,16164,128,2,16326:0:0:0:0:
448,192,16164,1,0,0:0:0:0:
448,192,16326,128,2,16651:0:0:0:0:
64,192,16326,1,0,3:0:0:0:
192,192,16407,1,0,3:0:0:0:
64,192,16489,1,0,3:0:0:0:
320,192,16570,1,0,3:0:0:0:
64,192,16651,1,0,3:0:0:0:
192,192,16651,1,8,0:0:0:0:
320,192,16732,1,0,3:0:0:0:
448,192,16813,1,0,3:0:0:0:
64,192,16813,128,2,16894:0:0:0:0:
320,192,16894,128,2,16975:0:0:0:0:
192,192,16894,1,0,3:0:0:0:
64,192,16975,1,0,3:0:0:0:
448,192,16975,128,2,17137:0:0:0:0:
192,192,17137,1,0,0:0:0:0:
320,192,17299,128,2,17462:0:0:0:0:
64,192,17299,1,8,0:0:0:0:
448,192,17299,1,0,0:0:0:0:
192,192,17462,1,0,0:0:0:0:
192,192,17624,128,2,17786:0:0:0:0:
448,192,17624,1,0,0:0:0:0:
320,192,17786,128,2,17867:0:0:0:0:
64,192,17786,1,0,0:0:0:0:
192,192,17867,128,2,17948:0:0:0:0:
64,192,17948,128,2,18110:0:0:0:0:
320,192,17948,1,0,0:0:0:0:
448,192,17948,1,8,0:0:0:0:
192,192,18110,128,2,18272:0:0:0:0:
320,192,18110,1,0,0:0:0:0:
448,192,18272,1,0,0:0:0:0:
320,192,18435,128,2,18597:0:0:0:0:
192,192,18435,1,0,0:0:0:0:
192,192,18597,128,2,18759:0:0:0:0:
64,192,18597,1,0,0:0:0:0:
448,192,18597,1,8,0:0:0:0:
448,192,18759,128,2,18921:0:0:0:0:
320,192,18759,1,0,0:0:0:0:
320,192,18921,128,2,19164:0:0:0:0:
192,192,18921,1,0,0:0:0:0:
64,192,19083,1,0,0:0:0:0:
320,192,19245,128,2,19407:0:0:0:0:
192,192,19245,1,8,0:0:0:0:
448,192,19245,1,0,0:0:0:0:
64,192,19407,128,2,19570:0:0:0:0:
192,192,19407,1,0,0:0:0:0:
192,192,19570,128,2,19732:0:0:0:0:
320,192,19570,1,0,0:0:0:0:
320,192,19732,128,2,19894:0:0:0:0:
448,192,19732,1,0,0:0:0:0:
448,192,19894,128,2,20218:0:0:0:0:
64,192,19894,1,8,0:0:0:0:
192,192,19894,1,0,0:0:0:0:
320,192,20056,1,0,0:0:0:0:
64,192,20218,128,2,20380:0:0:0:0:
192,192,20218,1,0,0:0:0:0:
192,192,20380,128,2,20543:0:0:0:0:
320,192,20380,1,0,0:0:0:0:
320,192,20543,128,2,20705:0:0:0:0:
448,192,20543,1,8,0:0:0:0:
64,192,20543,1,0,0:0:0:0:
448,192,20705,128,2,21029:0:0:0:0:
192,192,20705,1,4,1:0:0:0:
64,192,20705,128,0,21840:0:0:0:0:
320,192,21029,128,2,21191:0:0:0:0:
192,192,21191,128,2,21353:0:0:0:0:
448,192,21353,128,2,21516:0:0:0:0:
192,192,21516,128,2,21840:0:0:0:0:
320,192,21840,1,8,0:0:0:0:
448,192,21840,1,0,0:0:0:0:
448,192,22002,128,2,22326:0:0:0:0:
192,192,22164,1,4,1:0:0:0:
320,192,22164,1,8,0:0:0:0:
64,192,22164,128,0,23137:0:0:0:0:
320,192,22326,128,2,22489:0:0:0:0:
192,192,22489,128,2,22651:0:0:0:0:
448,192,22489,1,8,0:0:0:0:
448,192,22651,128,2,22813:0:0:0:0:
192,192,22813,128,2,23137:0:0:0:0:
320,192,22813,1,8,0:0:0:0:
448,192,23137,1,8,0:0:0:0:
320,192,23137,1,0,0:0:0:0:
448,192,23299,128,2,23624:0:0:0:0:
192,192,23299,1,0,0:0:0:0:
64,192,23462,128,0,24435:0:0:0:0:
192,192,23462,1,8,0:0:0:0:
320,192,23462,1,4,1:0:0:0:
320,192,23624,128,2,23786:0:0:0:0:
192,192,23786,128,2,23948:0:0:0:0:
448,192,23786,1,8,0:0:0:0:
448,192,23948,128,2,24110:0:0:0:0:
192,192,24110,128,2,24435:0:0:0:0:
320,192,24110,1,8,0:0:0:0:
448,192,24435,1,8,0:0:0:0:
320,192,24435,1,0,0:0:0:0:
448,192,24597,128,2,24921:0:0:0:0:
192,192,24597,1,0,0:0:0:0:
64,192,24759,128,0,25326:0:0:0:0:
192,192,24759,1,8,0:0:0:0:
320,192,24759,1,4,1:0:0:0:
320,192,24921,128,2,25083:0:0:0:0:
192,192,25083,128,2,25245:0:0:0:0:
448,192,25083,1,8,0:0:0:0:
320,192,25245,128,2,25407:0:0:0:0:
448,192,25407,128,2,25570:0:0:0:0:
64,192,25407,128,4,26056:1:0:0:0:
192,192,25407,1,8,0:0:0:0:
320,192,25570,128,2,25732:0:0:0:0:
192,192,25732,128,2,25894:0:0:0:0:
448,192,25732,1,8,0:0:0:0:
320,192,25894,128,2,26056:0:0:0:0:
64,192,26218,128,4,26299:0:0:0:0:
192,192,26218,128,0,26299:0:0:0:0:
448,192,26218,128,0,26299:0:0:0:0:
192,192,26380,128,0,26462:0:0:0:0:
448,192,26380,128,0,26462:0:0:0:0:
320,192,26380,128,4,26462:0:0:0:0:
320,192,26543,128,0,26624:0:0:0:0:
64,192,26543,128,4,26624:0:0:0:0:
192,192,26543,128,0,26624:0:0:0:0:
320,192,26705,128,0,27029:0:0:0:0:
448,192,26705,128,4,27029:0:0:0:0:
64,192,26705,128,0,27029:0:0:0:0:
192,192,27029,1,8,0:0:0:0:
320,192,27110,1,8,0:0:0:0:
448,192,27110,1,0,0:0:0:0:
64,192,27191,1,0,0:0:0:0:
192,192,27191,1,8,0:0:0:0:
320,192,27272,1,8,0:0:0:0:
448,192,27272,1,0,0:0:0:0:
64,192,27353,1,8,0:0:0:0:
192,192,27353,1,4,0:0:0:0:
320,192,27353,1,0,0:0:0:0:
192,192,27678,1,0,0:0:0:0:
448,192,27678,1,2,0:0:0:0:
64,192,28002,1,8,0:0:0:0:
192,192,28002,1,0,0:0:0:0:
448,192,28002,1,0,0:0:0:0:
320,192,28326,1,2,0:0:0:0:
448,192,28326,1,0,0:0:0:0:
64,192,28651,1,8,0:0:0:0:
192,192,28651,1,0,0:0:0:0:
320,192,28651,1,0,0:0:0:0:
192,192,28975,1,0,0:0:0:0:
448,192,28975,1,2,0:0:0:0:
64,192,29137,1,0,3:0:0:0:
192,192,29218,1,0,3:0:0:0:
64,192,29299,1,0,3:0:0:0:
320,192,29299,1,8,0:0:0:0:
448,192,29299,1,0,0:0:0:0:
192,192,29380,1,0,3:0:0:0:
320,192,29462,1,0,3:0:0:0:
448,192,29462,128,2,29543:0:0:0:0:
64,192,29624,1,0,3:0:0:0:
192,192,29624,1,0,0:0:0:0:
320,192,29624,1,0,0:0:0:0:
320,192,29732,128,2,29813:0:0:0:0:
192,192,29948,128,2,30029:0:0:0:0:
64,192,29948,1,0,0:0:0:0:
320,192,29948,1,8,0:0:0:0:
448,192,29948,1,0,0:0:0:0:
64,192,30191,128,2,30272:0:0:0:0:
192,192,30272,1,0,0:0:0:0:
448,192,30272,1,0,0:0:0:0:
192,192,30489,128,2,30570:0:0:0:0:
320,192,30597,1,0,0:0:0:0:
448,192,30597,1,0,0:0:0:0:
64,192,30597,1,8,0:0:0:0:
448,192,30813,128,2,30894:0:0:0:0:
192,192,30921,1,0,0:0:0:0:
320,192,30921,1,0,0:0:0:0:
320,192,31083,1,0,0:0:0:0:
192,192,31110,128,2,31191:0:0:0:0:
64,192,31245,1,0,0:0:0:0:
320,192,31245,1,0,0:0:0:0:
448,192,31245,1,8,0:0:0:0:
192,192,31407,128,2,31489:0:0:0:0:
64,192,31407,1,0,3:0:0:0:
320,192,31489,128,2,31570:0:0:0:0:
448,192,31489,1,0,3:0:0:0:
192,192,31570,128,2,31651:0:0:0:0:
64,192,31570,1,0,3:0:0:0:
320,192,31651,128,2,31732:0:0:0:0:
448,192,31651,1,0,3:0:0:0:
192,192,31732,128,2,31813:0:0:0:0:
64,192,31732,1,0,3:0:0:0:
320,192,31813,128,2,31894:0:0:0:0:
448,192,31813,1,0,3:0:0:0:
192,192,31894,128,2,31975:0:0:0:0:
64,192,31894,1,8,0:0:0:0:
448,192,31975,1,0,3:0:0:0:
64,192,32056,128,2,32218:0:0:0:0:
320,192,32056,1,0,3:0:0:0:
192,192,32218,128,2,32380:0:0:0:0:
320,192,32218,1,0,0:0:0:0:
448,192,32218,1,0,3:0:0:0:
64,192,32380,128,2,32462:0:0:0:0:
448,192,32380,1,0,0:0:0:0:
320,192,32462,128,2,32543:0:0:0:0:
448,192,32543,128,2,32624:0:0:0:0:
64,192,32543,1,8,0:0:0:0:
192,192,32543,1,4,0:0:0:0:
192,192,32705,1,0,0:0:0:0:
320,192,32786,128,2,32867:0:0:0:0:
64,192,32867,1,8,0:0:0:0:
320,192,33029,1,0,0:0:0:0:
192,192,33056,128,2,33137:0:0:0:0:
64,192,33191,1,8,0:0:0:0:
320,192,33353,1,0,0:0:0:0:
64,192,33380,128,2,33462:0:0:0:0:
192,192,33516,1,8,0:0:0:0:
320,192,33678,128,2,33759:0:0:0:0:
448,192,33678,1,0,0:0:0:0:
448,192,33840,128,2,33921:0:0:0:0:
64,192,33840,1,8,0:0:0:0:
192,192,33840,1,4,0:0:0:0:
192,192,34002,1,0,0:0:0:0:
320,192,34083,128,2,34164:0:0:0:0:
64,192,34164,1,8,0:0:0:0:
320,192,34326,1,0,3:0:0:0:
192,192,34380,128,2,34462:0:0:0:0:
448,192,34407,1,0,3:0:0:0:
64,192,34489,1,8,0:0:0:0:
320,192,34489,1,0,3:0:0:0:
448,192,34570,1,0,3:0:0:0:
320,192,34651,1,0,3:0:0:0:
64,192,34651,128,2,34732:0:0:0:0:
448,192,34732,1,0,3:0:0:0:
192,192,34813,1,8,0:0:0:0:
64,192,34894,128,2,34975:0:0:0:0:
448,192,34975,1,0,0:0:0:0:
192,192,34975,128,2,35029:0:0:0:0:
320,192,35029,128,2,35083:0:0:0:0:
448,192,35083,128,2,35137:0:0:0:0:
64,192,35137,1,4,0:0:0:0:
192,192,35137,1,0,3:0:0:0:
320,192,35218,1,0,3:0:0:0:
448,192,35218,1,0,0:0:0:0:
64,192,35299,128,2,35380:0:0:0:0:
192,192,35299,1,0,3:0:0:0:
320,192,35380,128,2,35462:0:0:0:0:
448,192,35380,1,0,3:0:0:0:
64,192,35462,128,2,35543:0:0:0:0:
192,192,35462,1,0,3:0:0:0:
320,192,35543,128,2,35624:0:0:0:0:
448,192,35543,1,0,3:0:0:0:
192,192,35624,128,2,35705:0:0:0:0:
64,192,35624,1,0,3:0:0:0:
448,192,35705,128,2,35786:0:0:0:0:
320,192,35705,1,0,3:0:0:0:
192,192,35786,128,2,35867:0:0:0:0:
64,192,35786,1,0,3:0:0:0:
448,192,35867,128,2,35948:0:0:0:0:
320,192,35867,1,0,3:0:0:0:
192,192,35948,1,0,3:0:0:0:
64,192,35948,128,2,36029:0:0:0:0:
320,192,36029,128,2,36110:0:0:0:0:
448,192,36029,1,0,3:0:0:0:
64,192,36110,1,0,0:0:0:0:
192,192,36110,1,0,3:0:0:0:
320,192,36191,1,0,3:0:0:0:
448,192,36191,1,0,0:0:0:0:
64,192,36272,1,0,0:0:0:0:
192,192,36272,1,0,3:0:0:0:
320,192,36353,1,0,3:0:0:0:
448,192,36353,1,0,0:0:0:0:
64,192,36435,1,4,0:0:0:0:
448,192,36435,1,0,3:0:0:0:
192,192,36435,128,0,37732:0:0:0:0:
64,192,36759,128,0,37732:0:0:0:0:
320,192,36759,128,2,36840:0:0:0:0:
320,192,37083,128,2,37164:0:0:0:0:
448,192,37407,128,2,37489:1:0:0:0:
448,192,37732,128,2,37975:0:0:0:0:
320,192,37732,1,0,1:0:0:0:
192,192,37894,1,0,0:0:0:0:
448,192,38056,128,2,38299:0:0:0:0:
64,192,38056,1,0,0:0:0:0:
320,192,38056,1,0,1:0:0:0:
192,192,38218,1,0,0:0:0:0:
448,192,38380,128,2,38543:0:0:0:0:
64,192,38380,1,0,0:0:0:0:
192,192,38380,1,0,1:0:0:0:
320,192,38543,128,2,38624:0:0:0:0:
64,192,38543,1,0,0:0:0:0:
192,192,38624,128,2,38705:0:0:0:0:
64,192,38705,128,2,38867:0:0:0:0:
320,192,38705,1,0,0:0:0:0:
448,192,38705,1,0,1:0:0:0:
192,192,38867,128,2,39029:0:0:0:0:
320,192,38867,1,0,0:0:0:0:
448,192,38867,1,0,1:0:0:0:
320,192,39029,128,2,39191:0:0:0:0:
64,192,39029,1,0,0:0:0:0:
448,192,39029,1,0,1:0:0:0:
448,192,39191,128,2,39353:0:0:0:0:
192,192,39191,1,0,0:0:0:0:
320,192,39353,128,2,39516:0:0:0:0:
64,192,39353,1,0,1:0:0:0:
192,192,39353,1,0,0:0:0:0:
448,192,39516,128,2,39678:0:0:0:0:
192,192,39516,1,0,0:0:0:0:
192,192,39678,128,2,39921:0:0:0:0:
64,192,39678,1,0,0:0:0:0:
320,192,39678,1,0,1:0:0:0:
320,192,39840,1,0,1:0:0:0:
320,192,39921,1,0,1:0:0:0:
192,192,40002,128,2,40164:0:0:0:0:
320,192,40002,1,0,1:0:0:0:
64,192,40164,128,2,40326:0:0:0:0:
320,192,40164,1,0,1:0:0:0:
448,192,40164,1,0,0:0:0:0:
320,192,40326,128,2,40489:0:0:0:0:
192,192,40326,1,0,1:0:0:0:
448,192,40326,1,0,0:0:0:0:
192,192,40489,128,2,40651:0:0:0:0:
64,192,40489,1,0,0:0:0:0:
448,192,40651,128,2,40975:0:0:0:0:
64,192,40651,1,0,1:0:0:0:
320,192,40651,1,0,0:0:0:0:
192,192,40813,1,0,0:0:0:0:
64,192,40975,128,2,41137:0:0:0:0:
320,192,40975,1,0,0:0:0:0:
192,192,40975,1,0,1:0:0:0:
320,192,41137,128,2,41299:0:0:0:0:
192,192,41137,1,0,0:0:0:0:
192,192,41299,128,2,41462:0:0:0:0:
64,192,41299,1,0,0:0:0:0:
448,192,41299,1,0,1:0:0:0:
448,192,41462,128,2,41786:0:0:0:0:
64,192,41462,1,0,0:0:0:0:
320,192,41462,1,0,1:0:0:0:
64,192,41624,1,0,0:0:0:0:
192,192,41624,1,0,1:0:0:0:
320,192,41786,128,2,41948:0:0:0:0:
192,192,41786,1,0,0:0:0:0:
192,192,41948,128,2,42110:0:0:0:0:
64,192,41948,1,0,1:0:0:0:
448,192,41948,1,0,0:0:0:0:
320,192,42110,128,2,42272:0:0:0:0:
64,192,42110,1,0,0:0:0:0:
448,192,42272,128,2,42597:0:0:0:0:
64,192,42272,1,0,0:0:0:0:
192,192,42272,1,0,1:0:0:0:
320,192,42353,1,0,1:0:0:0:
192,192,42435,1,0,1:0:0:0:
64,192,42435,1,0,0:0:0:0:
320,192,42516,1,0,1:0:0:0:
192,192,42597,1,0,1:0:0:0:
64,192,42597,1,0,0:0:0:0:
64,192,42759,128,2,42840:0:0:0:0:
320,192,42759,1,0,1:0:0:0:
448,192,42759,1,0,0:0:0:0:
192,192,42840,128,2,42921:0:0:0:0:
448,192,42921,128,2,43083:0:0:0:0:
64,192,42921,1,0,0:0:0:0:
320,192,42921,1,0,1:0:0:0:
192,192,43083,1,0,0:0:0:0:
320,192,43245,128,2,43407:0:0:0:0:
64,192,43245,1,0,1:0:0:0:
448,192,43245,1,0,0:0:0:0:
192,192,43407,1,0,0:0:0:0:
192,192,43570,128,2,43732:0:0:0:0:
320,192,43570,1,0,0:0:0:0:
64,192,43570,1,0,1:0:0:0:
64,192,43732,128,2,43813:0:0:0:0:
448,192,43732,1,0,0:0:0:0:
192,192,43813,128,2,43894:0:0:0:0:
64,192,43894,1,0,0:0:0:0:
448,192,43894,1,0,1:0:0:0:
320,192,43894,128,2,44056:0:0:0:0:
448,192,44056,128,2,44218:0:0:0:0:
192,192,44056,1,0,1:0:0:0:
192,192,44137,1,0,1:0:0:0:
192,192,44218,1,0,1:0:0:0:
448,192,44380,128,2,44543:0:0:0:0:
320,192,44380,1,0,0:0:0:0:
192,192,44543,128,2,44705:0:0:0:0:
64,192,44543,1,0,0:0:0:0:
320,192,44543,1,0,1:0:0:0:
448,192,44705,128,2,44867:0:0:0:0:
64,192,44705,1,0,0:0:0:0:
64,192,44867,128,2,45191:0:0:0:0:
192,192,44867,1,0,1:0:0:0:
320,192,44867,1,0,0:0:0:0:
192,192,45029,1,0,0:0:0:0:
192,192,45191,128,2,45353:0:0:0:0:
320,192,45191,1,0,0:0:0:0:
448,192,45191,1,0,1:0:0:0:
64,192,45353,128,2,45516:0:0:0:0:
320,192,45353,1,0,0:0:0:0:
448,192,45353,1,0,1:0:0:0:
192,192,45516,128,2,45678:0:0:0:0:
320,192,45516,1,0,0:0:0:0:
448,192,45516,1,0,1:0:0:0:
320,192,45678,128,2,45840:0:0:0:0:
64,192,45678,1,0,0:0:0:0:
448,192,45840,128,2,46002:0:0:0:0:
64,192,45840,1,0,1:0:0:0:
192,192,45840,1,0,0:0:0:0:
64,192,46002,1,0,1:0:0:0:
192,192,46043,1,0,1:0:0:0:
320,192,46083,1,0,1:0:0:0:
192,192,46124,1,0,1:0:0:0:
448,192,46164,128,2,46326:0:0:0:0:
320,192,46164,1,0,1:0:0:0:
64,192,46164,1,0,0:0:0:0:
320,192,46326,128,2,46489:0:0:0:0:
64,192,46326,1,0,1:0:0:0:
192,192,46326,1,0,0:0:0:0:
192,192,46489,128,2,46651:0:0:0:0:
448,192,46489,1,0,3:0:0:0:
64,192,46651,128,2,46813:0:0:0:0:
320,192,46651,1,0,1:0:0:0:
448,192,46651,1,0,0:0:0:0:
448,192,46975,128,2,47137:0:0:0:0:
192,192,46975,1,0,1:0:0:0:
192,192,47056,1,0,1:0:0:0:
320,192,47137,128,2,47299:0:0:0:0:
64,192,47137,1,0,0:0:0:0:
192,192,47137,1,0,1:0:0:0:
448,192,47299,128,2,47462:0:0:0:0:
64,192,47299,1,0,0:0:0:0:
192,192,47299,1,0,1:0:0:0:
64,192,47462,128,2,47624:0:0:0:0:
192,192,47462,1,0,1:0:0:0:
320,192,47462,1,0,0:0:0:0:
448,192,47624,128,0,47705:3:0:0:0:
192,192,47705,128,0,47786:3:0:0:0:
64,192,47786,128,0,48110:0:0:0:0:
320,192,47786,128,2,47867:3:0:0:0:
448,192,47867,128,2,47948:3:0:0:0:
320,192,47948,128,2,48029:3:0:0:0:
448,192,48029,128,2,48110:3:0:0:0:
320,192,48110,1,0,1:0:0:0:
192,192,48110,128,2,48353:0:0:0:0:
320,192,48272,1,0,0:0:0:0:
192,192,48435,128,2,48678:0:0:0:0:
64,192,48435,1,0,0:0:0:0:
448,192,48435,1,0,1:0:0:0:
320,192,48597,1,0,0:0:0:0:
192,192,48759,128,2,48921:0:0:0:0:
64,192,48759,1,0,0:0:0:0:
448,192,48759,1,0,1:0:0:0:
448,192,48921,128,2,49002:0:0:0:0:
64,192,48921,1,0,0:0:0:0:
320,192,49002,128,2,49083:0:0:0:0:
192,192,49083,128,2,49245:0:0:0:0:
64,192,49083,1,0,1:0:0:0:
448,192,49083,1,0,0:0:0:0:
320,192,49245,128,2,49407:0:0:0:0:
64,192,49245,1,0,1:0:0:0:
448,192,49245,1,0,0:0:0:0:
64,192,49407,128,2,49570:0:0:0:0:
192,192,49407,1,0,1:0:0:0:
448,192,49407,1,0,0:0:0:0:
448,192,49570,128,2,49732:0:0:0:0:
320,192,49570,1,0,0:0:0:0:
64,192,49732,128,2,49894:0:0:0:0:
192,192,49732,1,0,1:0:0:0:
320,192,49732,1,0,0:0:0:0:
448,192,49894,128,2,50056:0:0:0:0:
320,192,49894,1,0,0:0:0:0:
320,192,50056,128,2,50380:0:0:0:0:
64,192,50056,1,0,0:0:0:0:
192,192,50056,1,0,1:0:0:0:
192,192,50218,1,0,1:0:0:0:
192,192,50299,1,0,1:0:0:0:
448,192,50380,128,2,50543:0:0:0:0:
192,192,50380,1,0,1:0:0:0:
320,192,50543,128,2,50705:0:0:0:0:
64,192,50543,1,0,0:0:0:0:
192,192,50543,1,0,1:0:0:0:
64,192,50705,128,2,50867:0:0:0:0:
192,192,50705,1,0,1:0:0:0:
448,192,50705,1,0,0:0:0:0:
192,192,50867,128,2,51029:0:0:0:0:
320,192,50867,1,0,0:0:0:0:
320,192,51029,128,2,51353:0:0:0:0:
64,192,51029,1,0,0:0:0:0:
448,192,51029,1,0,1:0:0:0:
192,192,51191,1,0,0:0:0:0:
192,192,51353,128,2,51516:0:0:0:0:
64,192,51353,1,0,1:0:0:0:
448,192,51353,1,0,0:0:0:0:
320,192,51516,128,2,51678:0:0:0:0:
64,192,51516,1,0,0:0:0:0:
192,192,51678,128,2,51840:0:0:0:0:
64,192,51678,1,0,1:0:0:0:
448,192,51678,1,0,0:0:0:0:
448,192,51840,128,2,52164:0:0:0:0:
320,192,51840,1,0,0:0:0:0:
64,192,51840,1,0,1:0:0:0:
64,192,52002,1,0,1:0:0:0:
192,192,52002,1,0,0:0:0:0:
320,192,52164,128,2,52326:0:0:0:0:
64,192,52164,1,0,0:0:0:0:
64,192,52326,128,2,52489:0:0:0:0:
192,192,52326,1,0,0:0:0:0:
448,192,52326,1,0,1:0:0:0:
192,192,52489,128,2,52651:0:0:0:0:
320,192,52489,1,0,0:0:0:0:
320,192,52651,128,2,52975:0:0:0:0:
448,192,52651,1,0,0:0:0:0:
64,192,52651,1,0,1:0:0:0:
192,192,52732,1,0,1:0:0:0:
64,192,52813,1,0,1:0:0:0:
448,192,52813,1,0,0:0:0:0:
192,192,52894,1,0,1:0:0:0:
64,192,52975,1,0,1:0:0:0:
448,192,52975,1,0,0:0:0:0:
192,192,53137,128,2,53218:0:0:0:0:
64,192,53137,1,0,0:0:0:0:
448,192,53137,1,0,1:0:0:0:
320,192,53218,128,2,53299:0:0:0:0:
448,192,53299,128,2,53462:0:0:0:0:
64,192,53299,1,0,0:0:0:0:
192,192,53299,1,0,1:0:0:0:
192,192,53462,1,0,0:0:0:0:
192,192,53624,128,2,53786:0:0:0:0:
320,192,53624,1,0,1:0:0:0:
64,192,53624,1,0,0:0:0:0:
320,192,53786,1,0,0:0:0:0:
64,192,53948,128,2,54110:0:0:0:0:
320,192,53948,1,0,1:0:0:0:
448,192,53948,1,0,0:0:0:0:
192,192,54110,128,2,54191:0:0:0:0:
448,192,54110,1,0,0:0:0:0:
320,192,54191,128,2,54272:0:0:0:0:
64,192,54272,128,2,54435:0:0:0:0:
192,192,54272,1,0,0:0:0:0:
448,192,54272,1,0,1:0:0:0:
192,192,54435,128,2,54759:0:0:0:0:
320,192,54435,1,0,1:0:0:0:
320,192,54516,1,0,1:0:0:0:
320,192,54597,1,0,1:0:0:0:
320,192,54759,128,2,54921:0:0:0:0:
64,192,54759,1,0,0:0:0:0:
64,192,54921,128,2,55083:0:0:0:0:
192,192,54921,1,0,1:0:0:0:
448,192,54921,1,0,0:0:0:0:
320,192,55083,128,2,55245:0:0:0:0:
192,192,55083,1,0,0:0:0:0:
192,192,55245,128,2,55489:0:0:0:0:
64,192,55245,1,0,1:0:0:0:
448,192,55245,1,0,0:0:0:0:
320,192,55407,1,0,0:0:0:0:
192,192,55570,128,2,55732:0:0:0:0:
64,192,55570,1,0,0:0:0:0:
448,192,55570,1,0,1:0:0:0:
64,192,55732,128,2,55894:0:0:0:0:
320,192,55732,1,0,1:0:0:0:
448,192,55732,1,0,0:0:0:0:
192,192,55894,128,2,56056:0:0:0:0:
320,192,55894,1,4,0:0:0:0:
448,192,55894,1,0,1:0:0:0:
320,192,56056,128,2,56218:0:0:0:0:
448,192,56056,1,0,0:0:0:0:
448,192,56218,128,2,56380:0:0:0:0:
64,192,56218,1,0,0:0:0:0:
192,192,56218,1,0,1:0:0:0:
64,192,56380,1,0,1:0:0:0:
192,192,56421,1,0,1:0:0:0:
320,192,56462,1,0,1:0:0:0:
448,192,56502,1,0,1:0:0:0:
64,192,56543,128,2,56705:0:0:0:0:
192,192,56543,1,4,0:0:0:0:
320,192,56543,1,0,1:0:0:0:
320,192,56705,128,2,56867:0:0:0:0:
192,192,56705,1,0,1:0:0:0:
448,192,56705,1,0,0:0:0:0:
192,192,56867,128,2,57029:0:0:0:0:
64,192,56867,1,0,3:0:0:0:
320,192,57029,1,0,1:0:0:0:
64,192,57029,1,4,0:0:0:0:
448,192,57029,128,2,57353:0:0:0:0:
320,192,57353,128,2,57516:0:0:0:0:
192,192,57353,1,0,1:0:0:0:
192,192,57435,1,0,1:0:0:0:
64,192,57516,1,0,0:0:0:0:
192,192,57516,1,0,1:0:0:0:
448,192,57516,128,2,57678:0:0:0:0:
192,192,57678,128,2,57840:0:0:0:0:
64,192,57678,1,0,0:0:0:0:
320,192,57678,1,0,1:0:0:0:
448,192,57840,1,0,0:0:0:0:
320,192,57840,1,0,1:0:0:0:
64,192,57840,128,2,58164:0:0:0:0:
192,192,58164,128,0,58489:0:0:0:0:
448,192,58164,128,0,58489:0:0:0:0:
320,192,58164,1,4,0:0:0:0:
64,192,58489,1,0,1:0:0:0:
320,192,58489,1,0,0:0:0:0:
64,192,58651,1,0,0:0:0:0:
320,192,58651,1,2,0:0:0:0:
448,192,58651,1,0,0:0:0:0:
192,192,58813,1,0,1:0:0:0:
448,192,58813,1,0,0:0:0:0:
64,192,58894,1,0,0:0:0:0:
320,192,58894,1,2,0:0:0:0:
448,192,58975,1,0,0:0:0:0:
320,192,59137,1,2,0:0:0:0:
192,192,59137,1,0,0:0:0:0:
64,192,59137,1,0,1:0:0:0:
448,192,59137,1,0,0:0:0:0:
320,192,59299,1,0,0:0:0:0:
192,192,59380,1,0,0:0:0:0:
448,192,59380,1,2,0:0:0:0:
64,192,59462,1,0,1:0:0:0:
320,192,59462,1,0,0:0:0:0:
320,192,59624,1,2,0:0:0:0:
448,192,59624,1,0,0:0:0:0:
64,192,59624,1,0,0:0:0:0:
192,192,59786,1,0,1:0:0:0:
320,192,59786,1,0,0:0:0:0:
192,192,59948,1,2,0:0:0:0:
448,192,59948,1,0,0:0:0:0:
64,192,59948,1,0,0:0:0:0:
320,192,60110,1,0,1:0:0:0:
64,192,60110,1,0,0:0:0:0:
192,192,60191,1,2,0:0:0:0:
448,192,60191,1,0,0:0:0:0:
320,192,60272,1,0,0:0:0:0:
192,192,60435,1,0,1:0:0:0:
448,192,60435,1,0,0:0:0:0:
64,192,60435,1,0,0:0:0:0:
320,192,60435,1,2,0:0:0:0:
448,192,60597,1,0,0:0:0:0:
192,192,60678,1,0,0:0:0:0:
320,192,60678,1,2,0:0:0:0:
64,192,60759,1,0,1:0:0:0:
448,192,60759,1,0,0:0:0:0:
64,192,60921,1,0,0:0:0:0:
320,192,60921,1,0,0:0:0:0:
192,192,60921,1,2,0:0:0:0:
320,192,61083,1,0,0:0:0:0:
448,192,61083,1,0,0:0:0:0:
64,192,61083,128,0,61164:3:0:0:0:
192,192,61164,128,0,61245:3:0:0:0:
320,192,61245,128,0,61326:3:0:0:0:
64,192,61245,1,2,0:0:0:0:
448,192,61326,128,0,61407:3:0:0:0:
192,192,61407,1,0,0:0:0:0:
64,192,61489,1,0,0:0:0:0:
320,192,61489,1,2,0:0:0:0:
192,192,61570,128,0,61651:3:0:0:0:
448,192,61570,1,0,0:0:0:0:
320,192,61651,128,0,61732:3:0:0:0:
64,192,61732,128,0,61813:3:0:0:0:
448,192,61732,1,2,0:0:0:0:
192,192,61813,128,0,61894:3:0:0:0:
448,192,61894,1,0,0:0:0:0:
192,192,61975,1,0,0:0:0:0:
320,192,61975,1,2,0:0:0:0:
448,192,62056,1,0,0:0:0:0:
64,192,62056,128,0,62137:3:0:0:0:
192,192,62137,128,0,62218:3:0:0:0:
64,192,62218,1,2,0:0:0:0:
320,192,62218,128,0,62299:3:0:0:0:
448,192,62299,128,0,62380:3:0:0:0:
192,192,62380,1,0,0:0:0:0:
64,192,62380,1,4,3:0:0:0:
320,192,62543,128,2,62624:0:0:0:0:
192,192,62624,128,2,62705:0:0:0:0:
448,192,62624,1,4,3:0:0:0:
64,192,62705,128,2,62786:0:0:0:0:
320,192,62786,128,2,62867:0:0:0:0:
448,192,62867,128,2,62948:0:0:0:0:
192,192,62867,1,4,3:0:0:0:
320,192,62948,128,2,63029:0:0:0:0:
64,192,62948,1,4,3:0:0:0:
448,192,63029,128,2,63110:0:0:0:0:
192,192,63029,1,4,3:0:0:0:
320,192,63110,128,2,63191:0:0:0:0:
192,192,63191,128,2,63272:0:0:0:0:
64,192,63272,128,2,63353:0:0:0:0:
448,192,63353,128,2,63435:0:0:0:0:
320,192,63435,128,2,63516:0:0:0:0:
192,192,63516,128,2,63597:0:0:0:0:
448,192,63516,1,4,3:0:0:0:
64,192,63597,128,2,63678:0:0:0:0:
320,192,63678,1,0,1:0:0:0:
448,192,63678,1,4,0:0:0:0:
192,192,63678,1,0,0:0:0:0:
192,192,63840,1,2,0:0:0:0:
320,192,63840,1,0,0:0:0:0:
64,192,63840,1,0,0:0:0:0:
64,192,64002,1,0,0:0:0:0:
448,192,64002,1,0,1:0:0:0:
192,192,64083,1,2,0:0:0:0:
320,192,64083,1,0,0:0:0:0:
448,192,64164,1,0,0:0:0:0:
64,192,64326,1,0,1:0:0:0:
192,192,64326,1,0,0:0:0:0:
448,192,64326,1,2,0:0:0:0:
320,192,64326,128,0,64813:0:0:0:0:
64,192,64489,1,0,0:0:0:0:
192,192,64570,1,2,0:0:0:0:
448,192,64570,1,0,0:0:0:0:
64,192,64651,1,0,1:0:0:0:
448,192,64813,1,0,0:0:0:0:
64,192,64813,1,0,0:0:0:0:
192,192,64813,1,2,0:0:0:0:
192,192,64975,1,0,1:0:0:0:
320,192,64975,1,0,0:0:0:0:
320,192,65137,1,2,0:0:0:0:
448,192,65137,1,0,0:0:0:0:
64,192,65137,1,0,0:0:0:0:
192,192,65299,1,0,1:0:0:0:
64,192,65299,1,0,0:0:0:0:
320,192,65380,1,2,0:0:0:0:
448,192,65380,1,0,0:0:0:0:
64,192,65462,1,0,0:0:0:0:
320,192,65624,1,0,0:0:0:0:
64,192,65624,1,2,0:0:0:0:
448,192,65624,1,0,1:0:0:0:
192,192,65624,128,0,65705:3:0:0:0:
320,192,65705,128,0,65786:3:0:0:0:
192,192,65786,1,0,0:0:0:0:
448,192,65786,128,0,65867:3:0:0:0:
64,192,65867,1,2,0:0:0:0:
320,192,65867,128,0,65948:3:0:0:0:
192,192,65948,1,0,1:0:0:0:
448,192,65948,1,0,0:0:0:0:
64,192,66110,1,2,0:0:0:0:
320,192,66110,1,0,1:0:0:0:
448,192,66110,1,0,0:0:0:0:
192,192,66110,128,0,66191:3:0:0:0:
64,192,66435,1,0,1:0:0:0:
192,192,66435,1,0,0:0:0:0:
320,192,66435,1,0,0:0:0:0:
64,192,66678,1,0,1:0:0:0:
192,192,66678,1,0,0:0:0:0:
320,192,66678,1,0,0:0:0:0:
64,192,66921,1,0,1:0:0:0:
320,192,66921,1,0,0:0:0:0:
448,192,66921,1,0,0:0:0:0:
64,192,67164,1,0,1:0:0:0:
192,192,67164,1,0,0:0:0:0:
448,192,67164,1,0,0:0:0:0:
192,192,67407,1,0,0:0:0:0:
320,192,67407,1,0,1:0:0:0:
448,192,67407,1,0,0:0:0:0:
64,192,67407,128,0,67570:3:0:0:0:
448,192,67570,128,0,67610:3:0:0:0:
320,192,67610,128,0,67651:3:0:0:0:
192,192,67651,128,0,67691:3:0:0:0:
64,192,67691,128,0,67732:3:0:0:0:
448,192,67732,128,0,67772:3:0:0:0:
320,192,67772,128,0,67813:3:0:0:0:
192,192,67813,128,0,67853:3:0:0:0:
64,192,67853,128,0,67894:3:0:0:0:
448,192,67894,1,0,0:0:0:0:
320,192,67894,1,0,1:0:0:0:
64,192,67975,1,0,0:0:0:0:
192,192,67975,1,0,1:0:0:0:
320,192,68056,1,0,1:0:0:0:
448,192,68056,1,0,0:0:0:0:
64,192,68137,1,0,0:0:0:0:
192,192,68137,1,0,1:0:0:0:
448,192,68218,1,0,3:0:0:0:
192,192,68259,1,0,3:0:0:0:
320,192,68299,1,0,3:0:0:0:
64,192,68340,1,0,3:0:0:0:
448,192,68380,1,0,3:0:0:0:
192,192,68421,1,0,3:0:0:0:
320,192,68462,1,0,3:0:0:0:
64,192,68502,1,0,3:0:0:0:
448,192,68543,128,2,68867:1:0:0:0:
192,192,68543,1,0,3:0:0:0:
64,192,68867,1,0,1:0:0:0:
320,192,68867,1,0,0:0:0:0:
192,192,68948,1,0,0:0:0:0:
64,192,69029,1,0,0:0:0:0:
320,192,69029,1,2,0:0:0:0:
192,192,69110,1,0,0:0:0:0:
448,192,69191,1,0,1:0:0:0:
320,192,69191,1,0,0:0:0:0:
64,192,69272,1,0,0:0:0:0:
192,192,69272,1,2,0:0:0:0:
320,192,69353,1,0,0:0:0:0:
192,192,69435,1,0,0:0:0:0:
320,192,69516,1,2,0:0:0:0:
64,192,69516,1,0,1:0:0:0:
448,192,69516,1,0,0:0:0:0:
192,192,69597,1,0,0:0:0:0:
320,192,69678,1,0,0:0:0:0:
192,192,69759,1,2,0:0:0:0:
448,192,69759,1,0,0:0:0:0:
64,192,69840,1,0,1:0:0:0:
320,192,69840,1,0,0:0:0:0:
192,192,69921,1,0,0:0:0:0:
320,192,70002,1,2,0:0:0:0:
64,192,70002,1,0,0:0:0:0:
448,192,70083,1,0,0:0:0:0:
192,192,70164,1,0,0:0:0:0:
320,192,70164,1,0,1:0:0:0:
64,192,70245,1,0,0:0:0:0:
448,192,70326,1,0,0:0:0:0:
320,192,70326,1,2,0:0:0:0:
192,192,70407,1,0,0:0:0:0:
320,192,70489,1,0,0:0:0:0:
64,192,70489,1,0,1:0:0:0:
192,192,70570,1,2,0:0:0:0:
448,192,70570,1,0,0:0:0:0:
320,192,70651,1,0,0:0:0:0:
448,192,70732,1,0,0:0:0:0:
64,192,70813,1,0,0:0:0:0:
320,192,70813,1,2,0:0:0:0:
192,192,70813,1,0,1:0:0:0:
448,192,70894,1,0,0:0:0:0:
64,192,70975,1,0,0:0:0:0:
192,192,71056,1,2,0:0:0:0:
320,192,71056,1,0,0:0:0:0:
64,192,71137,1,0,0:0:0:0:
448,192,71137,1,0,1:0:0:0:
320,192,71218,1,0,0:0:0:0:
64,192,71299,1,0,0:0:0:0:
192,192,71299,1,0,0:0:0:0:
448,192,71299,1,2,0:0:0:0:
320,192,71380,1,0,0:0:0:0:
192,192,71462,1,0,1:0:0:0:
448,192,71462,1,0,0:0:0:0:
64,192,71462,128,2,71624:3:0:0:0:
448,192,71624,1,0,0:0:0:0:
320,192,71624,1,0,0:0:0:0:
192,192,71624,128,2,71705:3:0:0:0:
64,192,71705,128,2,71786:3:0:0:0:
320,192,71786,1,0,1:0:0:0:
192,192,71786,128,2,71867:3:0:0:0:
448,192,71867,128,2,71948:3:0:0:0:
192,192,71948,128,2,72029:3:0:0:0:
320,192,71948,1,0,1:0:0:0:
448,192,72029,128,2,72110:3:0:0:0:
320,192,72110,1,0,1:0:0:0:
192,192,72110,128,2,72191:3:0:0:0:
64,192,72191,128,2,72272:3:0:0:0:
448,192,72272,128,2,72353:3:0:0:0:
320,192,72272,1,0,1:0:0:0:
64,192,72353,128,2,72435:3:0:0:0:
192,192,72353,1,0,0:0:0:0:
320,192,72435,1,0,1:0:0:0:
448,192,72435,128,2,72516:3:0:0:0:
192,192,72516,1,0,0:0:0:0:
64,192,72597,1,0,1:0:0:0:
448,192,72597,1,0,0:0:0:0:
320,192,72678,1,0,0:0:0:0:
192,192,72759,1,4,0:0:0:0:
448,192,72759,1,0,0:0:0:0:
64,192,72759,1,0,1:0:0:0:
64,192,72921,128,2,73164:0:0:0:0:
192,192,72921,128,0,73164:0:0:0:0:
448,192,73164,1,2,0:0:0:0:
320,192,73205,1,2,0:0:0:0:
192,192,73245,1,2,0:0:0:0:
64,192,73286,1,2,0:0:0:0:
448,192,73326,1,2,0:0:0:0:
320,192,73367,1,2,0:0:0:0:
192,192,73407,1,2,0:0:0:0:
64,192,73448,1,2,0:0:0:0:
448,192,73489,128,2,73570:0:0:0:0:
192,192,73570,128,2,73651:0:0:0:0:
64,192,73570,1,4,3:0:0:0:
320,192,73651,128,2,73732:0:0:0:0:
448,192,73732,128,2,73813:0:0:0:0:
192,192,73813,128,2,73894:0:0:0:0:
64,192,73894,128,2,73975:0:0:0:0:
320,192,73894,1,4,3:0:0:0:
192,192,73975,128,2,74056:0:0:0:0:
448,192,74056,1,4,3:0:0:0:
320,192,74056,1,4,0:0:0:0:
64,192,74056,1,0,1:0:0:0:
192,192,74137,1,0,0:0:0:0:
320,192,74218,1,2,0:0:0:0:
448,192,74218,1,0,0:0:0:0:
64,192,74218,1,0,0:0:0:0:
192,192,74299,1,0,0:0:0:0:
320,192,74380,1,0,0:0:0:0:
448,192,74380,1,0,1:0:0:0:
192,192,74462,1,2,0:0:0:0:
64,192,74462,1,0,0:0:0:0:
448,192,74543,1,0,0:0:0:0:
320,192,74624,1,0,0:0:0:0:
192,192,74705,1,0,0:0:0:0:
64,192,74705,1,0,1:0:0:0:
448,192,74705,1,2,0:0:0:0:
320,192,74786,1,0,0:0:0:0:
64,192,74867,1,0,0:0:0:0:
448,192,74948,1,0,0:0:0:0:
320,192,74948,1,2,0:0:0:0:
192,192,75029,1,0,0:0:0:0:
64,192,75029,1,0,1:0:0:0:
320,192,75110,1,0,0:0:0:0:
448,192,75191,1,0,0:0:0:0:
64,192,75191,1,0,0:0:0:0:
192,192,75191,1,2,0:0:0:0:
320,192,75272,1,0,0:0:0:0:
64,192,75353,128,2,75516:3:0:0:0:
448,192,75353,1,0,1:0:0:0:
192,192,75353,1,0,0:0:0:0:
320,192,75435,1,0,0:0:0:0:
448,192,75516,128,2,75597:3:0:0:0:
320,192,75597,128,2,75678:3:0:0:0:
64,192,75678,128,2,75759:3:0:0:0:
192,192,75678,1,0,1:0:0:0:
448,192,75759,128,2,75840:3:0:0:0:
320,192,75840,128,2,76002:3:0:0:0:
64,192,76002,128,2,76164:3:0:0:0:
448,192,76002,1,0,0:0:0:0:
192,192,76002,1,0,1:0:0:0:
448,192,76164,128,2,76245:3:0:0:0:
320,192,76245,128,2,76326:3:0:0:0:
64,192,76326,128,2,76407:3:0:0:0:
192,192,76326,1,0,1:0:0:0:
448,192,76407,1,0,0:0:0:0:
64,192,76489,128,2,76570:3:0:0:0:
192,192,76489,1,0,0:0:0:0:
320,192,76489,1,0,0:0:0:0:
192,192,76651,1,0,0:0:0:0:
320,192,76651,1,0,1:0:0:0:
448,192,76651,1,0,0:0:0:0:
64,192,76813,1,0,1:0:0:0:
320,192,76813,1,0,0:0:0:0:
448,192,76813,1,0,0:0:0:0:
64,192,76975,1,0,1:0:0:0:
192,192,76975,1,0,0:0:0:0:
320,192,76975,1,0,0:0:0:0:
64,192,77137,1,0,1:0:0:0:
192,192,77137,1,0,0:0:0:0:
448,192,77137,1,0,0:0:0:0:
448,192,77299,1,0,1:0:0:0:
320,192,77299,128,0,77380:3:0:0:0:
64,192,77380,1,0,1:0:0:0:
192,192,77380,128,0,77462:3:0:0:0:
448,192,77462,1,0,1:0:0:0:
320,192,77462,128,0,77543:3:0:0:0:
64,192,77543,1,0,1:0:0:0:
192,192,77543,128,0,77624:3:0:0:0:
320,192,77624,1,0,1:0:0:0:
448,192,77624,128,2,77705:3:0:0:0:
192,192,77705,1,0,1:0:0:0:
64,192,77705,128,2,77786:3:0:0:0:
320,192,77786,1,0,1:0:0:0:
448,192,77786,128,2,77867:3:0:0:0:
192,192,77867,1,0,1:0:0:0:
64,192,77867,128,2,77948:3:0:0:0:
320,192,77948,128,4,79245:0:0:0:0:
448,192,77948,128,0,79245:0:0:0:0:
64,192,78597,128,2,78678:1:0:0:0:
192,192,78597,128,0,79245:0:0:0:0:
64,192,78921,128,2,79002:1:0:0:0:
64,192,79245,128,4,79326:0:0:0:0:
192,192,79570,128,4,79651:0:0:0:0:
320,192,79570,1,0,1:0:0:0:
64,192,79570,1,0,0:0:0:0:
448,192,79570,1,0,0:0:0:0:
320,192,79894,128,4,79975:0:0:0:0:
192,192,79894,1,0,1:0:0:0:
448,192,79894,1,0,0:0:0:0:
64,192,79894,1,0,0:0:0:0:
448,192,80218,128,4,80299:0:0:0:0:
64,192,80218,1,0,1:0:0:0:
192,192,80218,1,0,0:0:0:0:
320,192,80218,1,0,0:0:0:0:
192,192,80543,128,2,80867:0:0:0:0:
64,192,80543,1,0,3:0:0:0:
320,192,80543,128,4,80624:0:0:0:0:
448,192,80624,1,0,3:0:0:0:
320,192,80705,1,0,3:0:0:0:
448,192,80786,1,0,3:0:0:0:
64,192,80867,128,2,81191:0:0:0:0:
320,192,80867,1,0,3:0:0:0:
448,192,80948,1,0,3:0:0:0:
192,192,81029,1,0,3:0:0:0:
320,192,81110,1,0,3:0:0:0:
448,192,81191,128,2,81516:0:0:0:0:
192,192,81191,1,0,3:0:0:0:
320,192,81272,1,0,3:0:0:0:
64,192,81353,1,0,3:0:0:0:
192,192,81435,1,0,3:0:0:0:
320,192,81516,128,2,81840:0:0:0:0:
64,192,81516,1,0,3:0:0:0:
192,192,81597,1,0,3:0:0:0:
64,192,81678,1,0,3:0:0:0:
192,192,81759,1,0,3:0:0:0:
64,192,81840,1,0,3:0:0:0:
448,192,81840,128,2,83137:0:0:0:0:
192,192,81840,1,4,1:0:0:0:
320,192,82164,1,2,0:0:0:0:
320,192,82489,1,2,0:0:0:0:
320,192,82651,1,2,0:0:0:0:
192,192,82732,1,2,0:0:0:0:
64,192,82813,1,2,0:0:0:0:
192,192,82975,1,2,0:0:0:0:
64,192,83137,128,0,84435:0:0:0:0:
320,192,83137,1,2,0:0:0:0:
448,192,83299,1,2,0:0:0:0:
320,192,83462,1,2,0:0:0:0:
448,192,83624,1,2,0:0:0:0:
320,192,83786,128,2,84110:0:0:0:0:
448,192,84110,1,2,0:0:0:0:
192,192,84272,1,2,0:0:0:0:
192,192,84435,128,0,85083:0:0:0:0:
320,192,84435,1,2,0:0:0:0:
448,192,84597,1,2,0:0:0:0:
64,192,84759,128,2,85083:0:0:0:0:
320,192,85083,128,0,85570:0:0:0:0:
448,192,85083,1,2,0:0:0:0:
64,192,85245,1,2,0:0:0:0:
192,192,85407,1,2,0:0:0:0:
448,192,85570,128,0,87029:0:0:0:0:
64,192,85570,128,2,85894:0:0:0:0:
192,192,85894,1,2,0:0:0:0:
64,192,86056,1,2,0:0:0:0:
192,192,86218,1,2,0:0:0:0:
320,192,86380,1,2,0:0:0:0:
192,192,86543,1,2,0:0:0:0:
64,192,86705,1,2,0:0:0:0:
320,192,86786,1,2,0:0:0:0:
64,192,86867,1,2,0:0:0:0:
192,192,86907,1,2,0:0:0:0:
320,192,86948,1,2,0:0:0:0:
64,192,86989,1,2,0:0:0:0:
320,192,87029,128,0,87678:0:0:0:0:
192,192,87029,128,2,87353:0:0:0:0:
64,192,87353,128,2,87678:0:0:0:0:
448,192,87678,128,0,88002:0:0:0:0:
192,192,87678,1,2,0:0:0:0:
320,192,87840,1,2,0:0:0:0:
64,192,87921,1,2,0:0:0:0:
320,192,88002,1,2,0:0:0:0:
192,192,88002,128,0,88164:0:0:0:0:
320,192,88164,128,2,88489:0:0:0:0:
64,192,88326,128,0,89624:0:0:0:0:
448,192,88489,1,2,0:0:0:0:
192,192,88651,1,2,0:0:0:0:
448,192,88813,1,2,0:0:0:0:
320,192,88975,128,2,89299:0:0:0:0:
448,192,89299,1,2,0:0:0:0:
192,192,89462,1,2,0:0:0:0:
320,192,89624,128,0,90759:0:0:0:0:
448,192,89624,1,2,0:0:0:0:
64,192,89786,1,2,0:0:0:0:
192,192,89948,128,2,90272:0:0:0:0:
64,192,90272,1,2,0:0:0:0:
192,192,90435,1,2,0:0:0:0:
448,192,90597,1,2,0:0:0:0:
448,192,90759,128,0,92218:0:0:0:0:
192,192,90759,128,2,91083:0:0:0:0:
64,192,90759,128,2,91083:0:0:0:0:
320,192,91083,1,2,0:0:0:0:
192,192,91245,1,2,0:0:0:0:
320,192,91407,1,2,0:0:0:0:
64,192,91570,128,2,92056:0:0:0:0:
320,192,92056,1,2,0:0:0:0:
192,192,92097,1,2,0:0:0:0:
64,192,92137,1,2,0:0:0:0:
192,192,92178,1,2,0:0:0:0:
320,192,92218,128,2,92462:0:0:0:0:
64,192,92218,1,0,3:0:0:0:
320,192,92543,128,2,92867:0:0:0:0:
64,192,92543,1,0,3:0:0:0:
192,192,92867,128,2,93029:0:0:0:0:
64,192,92867,1,0,1:0:0:0:
448,192,92867,1,0,0:0:0:0:
320,192,93029,128,2,93110:0:0:0:0:
192,192,93110,128,2,93191:0:0:0:0:
64,192,93191,128,2,93353:0:0:0:0:
448,192,93191,1,0,3:0:0:0:
192,192,93353,128,2,93516:0:0:0:0:
320,192,93353,1,0,3:0:0:0:
320,192,93516,128,2,93678:0:0:0:0:
64,192,93516,1,0,3:0:0:0:
448,192,93678,128,2,93840:0:0:0:0:
192,192,93678,1,0,3:0:0:0:
320,192,93840,128,2,94002:0:0:0:0:
64,192,93840,1,0,3:0:0:0:
448,192,94002,128,2,94164:0:0:0:0:
192,192,94002,1,0,3:0:0:0:
192,192,94164,128,2,94489:0:0:0:0:
64,192,94164,1,0,0:0:0:0:
320,192,94164,1,0,1:0:0:0:
448,192,94489,128,2,94651:0:0:0:0:
320,192,94489,1,0,3:0:0:0:
320,192,94651,128,2,94813:0:0:0:0:
64,192,94651,1,0,3:0:0:0:
192,192,94813,128,2,94975:0:0:0:0:
448,192,94813,1,0,0:0:0:0:
64,192,94813,1,0,3:0:0:0:
320,192,94975,128,2,95137:0:0:0:0:
448,192,95137,128,2,95462:0:0:0:0:
64,192,95137,1,0,3:0:0:0:
192,192,95137,1,0,0:0:0:0:
64,192,95462,128,2,95624:0:0:0:0:
192,192,95462,1,0,1:0:0:0:
320,192,95462,1,0,0:0:0:0:
192,192,95624,128,2,95786:0:0:0:0:
448,192,95624,1,0,3:0:0:0:
320,192,95786,128,2,95948:0:0:0:0:
64,192,95786,1,0,3:0:0:0:
448,192,95948,128,2,96272:0:0:0:0:
64,192,95948,1,0,0:0:0:0:
192,192,95948,1,0,1:0:0:0:
192,192,96272,128,2,96435:0:0:0:0:
320,192,96272,1,0,1:0:0:0:
64,192,96272,1,0,0:0:0:0:
64,192,96435,128,2,96597:0:0:0:0:
448,192,96435,1,0,3:0:0:0:
192,192,96597,128,2,96759:0:0:0:0:
320,192,96597,1,0,3:0:0:0:
320,192,96759,128,2,97083:0:0:0:0:
448,192,96759,128,0,96840:3:0:0:0:
64,192,96840,128,0,96921:3:0:0:0:
448,192,96921,128,0,97002:3:0:0:0:
64,192,97002,128,0,97083:3:0:0:0:
192,192,97083,128,2,97245:0:0:0:0:
448,192,97083,128,0,97164:3:0:0:0:
320,192,97164,128,0,97245:3:0:0:0:
64,192,97245,128,2,97326:0:0:0:0:
448,192,97245,128,0,97326:3:0:0:0:
320,192,97326,128,0,97407:3:0:0:0:
192,192,97326,128,2,97407:0:0:0:0:
448,192,97407,128,2,97732:0:0:0:0:
320,192,97732,128,2,98056:0:0:0:0:
64,192,97732,1,0,3:0:0:0:
192,192,97732,1,0,0:0:0:0:
192,192,98056,128,2,98218:0:0:0:0:
64,192,98056,1,0,0:0:0:0:
448,192,98056,1,0,1:0:0:0:
64,192,98218,128,2,98299:0:0:0:0:
448,192,98218,1,0,3:0:0:0:
320,192,98299,128,2,98380:0:0:0:0:
64,192,98380,128,2,98543:0:0:0:0:
192,192,98380,1,0,3:0:0:0:
192,192,98543,128,2,98867:0:0:0:0:
320,192,98543,128,0,98624:3:0:0:0:
448,192,98624,128,0,98705:3:0:0:0:
64,192,98705,1,0,3:0:0:0:
448,192,98867,128,2,99029:0:0:0:0:
64,192,98867,128,0,98948:3:0:0:0:
320,192,98948,128,0,99029:3:0:0:0:
192,192,99029,128,2,99191:0:0:0:0:
448,192,99191,128,2,99353:0:0:0:0:
64,192,99191,128,0,99272:3:0:0:0:
320,192,99191,1,0,3:0:0:0:
192,192,99272,128,0,99353:3:0:0:0:
64,192,99353,128,2,99678:0:0:0:0:
320,192,99353,128,0,99435:3:0:0:0:
192,192,99435,128,0,99516:3:0:0:0:
448,192,99516,128,0,99597:3:0:0:0:
192,192,99597,128,0,99678:3:0:0:0:
320,192,99678,128,2,99840:0:0:0:0:
448,192,99678,128,0,99759:3:0:0:0:
64,192,99759,128,0,99840:3:0:0:0:
192,192,99840,128,2,100002:0:0:0:0:
64,192,100002,128,2,100164:0:0:0:0:
320,192,100002,1,0,3:0:0:0:
448,192,100002,1,0,0:0:0:0:
192,192,100164,128,2,100326:0:0:0:0:
448,192,100326,128,2,100651:0:0:0:0:
64,192,100326,1,0,3:0:0:0:
320,192,100326,1,0,0:0:0:0:
192,192,100651,128,2,100813:0:0:0:0:
64,192,100651,1,0,0:0:0:0:
320,192,100651,1,0,1:0:0:0:
320,192,100813,128,2,100975:0:0:0:0:
448,192,100813,1,0,3:0:0:0:
448,192,100975,128,2,101137:0:0:0:0:
64,192,100975,1,0,3:0:0:0:
64,192,101137,128,2,101462:0:0:0:0:
192,192,101137,1,0,1:0:0:0:
320,192,101137,128,2,101462:0:0:0:0:
448,192,101462,128,2,101624:0:0:0:0:
192,192,101462,1,0,1:0:0:0:
192,192,101624,128,2,101786:0:0:0:0:
64,192,101624,1,0,3:0:0:0:
320,192,101786,128,2,101948:0:0:0:0:
448,192,101786,1,0,3:0:0:0:
64,192,101948,128,2,102272:0:0:0:0:
192,192,101948,1,0,1:0:0:0:
448,192,101948,1,0,0:0:0:0:
320,192,102110,1,0,3:0:0:0:
448,192,102110,1,0,0:0:0:0:
320,192,102435,1,0,3:0:0:0:
448,192,102435,1,0,0:0:0:0:
64,192,102597,1,4,1:0:0:0:
448,192,102597,1,0,0:0:0:0:
320,192,102597,1,0,1:0:0:0:
192,192,102597,128,2,102840:0:0:0:0:
192,192,102921,128,2,103245:0:0:0:0:
320,192,102921,1,0,1:0:0:0:
64,192,103083,1,0,1:0:0:0:
448,192,103083,1,4,1:0:0:0:
320,192,103245,1,0,3:0:0:0:
448,192,103326,1,0,3:0:0:0:
320,192,103407,1,0,3:0:0:0:
192,192,103489,1,0,3:0:0:0:
64,192,103570,1,0,3:0:0:0:
320,192,103570,1,0,0:0:0:0:
448,192,103570,1,8,2:0:0:0:
320,192,103732,1,0,0:0:0:0:
448,192,103732,1,8,2:0:0:0:
320,192,103894,1,0,1:0:0:0:
448,192,103894,1,0,0:0:0:0:
64,192,103894,1,4,1:0:0:0:
192,192,103894,128,2,104137:0:0:0:0:
192,192,104218,128,2,104543:0:0:0:0:
320,192,104218,1,0,1:0:0:0:
64,192,104380,1,4,1:0:0:0:
448,192,104380,1,0,1:0:0:0:
320,192,104543,1,0,3:0:0:0:
448,192,104624,1,0,3:0:0:0:
320,192,104705,1,0,3:0:0:0:
192,192,104786,1,0,3:0:0:0:
64,192,104867,1,0,3:0:0:0:
320,192,104867,1,0,0:0:0:0:
448,192,104867,1,8,0:0:0:0:
320,192,105029,1,0,0:0:0:0:
448,192,105029,1,8,0:0:0:0:
192,192,105191,1,4,1:0:0:0:
320,192,105191,1,0,1:0:0:0:
64,192,105191,128,2,105435:0:0:0:0:
448,192,105191,1,0,0:0:0:0:
320,192,105516,1,0,1:0:0:0:
64,192,105516,128,2,105840:0:0:0:0:
448,192,105678,1,0,1:0:0:0:
192,192,105678,1,4,1:0:0:0:
448,192,105840,1,0,3:0:0:0:
320,192,105921,1,0,3:0:0:0:
192,192,106002,1,0,3:0:0:0:
64,192,106083,1,0,3:0:0:0:
448,192,106164,1,0,0:0:0:0:
192,192,106164,1,0,3:0:0:0:
320,192,106164,1,8,0:0:0:0:
192,192,106326,1,0,0:0:0:0:
320,192,106326,1,8,0:0:0:0:
192,192,106489,1,0,0:0:0:0:
320,192,106489,1,0,1:0:0:0:
448,192,106489,1,4,1:0:0:0:
64,192,106489,128,2,106732:0:0:0:0:
64,192,106813,128,2,107137:0:0:0:0:
320,192,106813,1,0,1:0:0:0:
192,192,106975,1,0,1:0:0:0:
448,192,106975,1,4,1:0:0:0:
448,192,107137,1,0,3:0:0:0:
320,192,107218,1,0,3:0:0:0:
192,192,107299,1,0,3:0:0:0:
64,192,107380,1,0,3:0:0:0:
192,192,107462,1,0,3:0:0:0:
320,192,107462,1,8,0:0:0:0:
448,192,107462,1,0,0:0:0:0:
192,192,107624,1,0,0:0:0:0:
320,192,107624,1,8,0:0:0:0:
320,192,107786,1,0,3:0:0:0:
64,192,107786,1,4,1:0:0:0:
448,192,107786,1,0,0:0:0:0:
192,192,107867,1,0,3:0:0:0:
64,192,107948,1,0,3:0:0:0:
448,192,108029,1,0,3:0:0:0:
320,192,108110,1,8,0:0:0:0:
64,192,108110,1,0,0:0:0:0:
192,192,108110,1,0,3:0:0:0:
64,192,108272,1,0,0:0:0:0:
192,192,108272,1,8,0:0:0:0:
192,192,108435,1,0,0:0:0:0:
320,192,108435,1,0,3:0:0:0:
448,192,108435,1,4,1:0:0:0:
64,192,108516,1,0,3:0:0:0:
448,192,108597,1,0,3:0:0:0:
320,192,108678,1,0,3:0:0:0:
192,192,108759,1,8,0:0:0:0:
64,192,108759,1,0,3:0:0:0:
448,192,108759,1,0,0:0:0:0:
448,192,108921,1,0,0:0:0:0:
320,192,108921,1,8,0:0:0:0:
64,192,109083,1,4,0:0:0:0:
192,192,109083,1,0,3:0:0:0:
320,192,109083,1,0,0:0:0:0:
448,192,109164,1,0,3:0:0:0:
320,192,109245,1,0,3:0:0:0:
192,192,109326,1,0,3:0:0:0:
64,192,109407,1,0,3:0:0:0:
320,192,109407,1,8,0:0:0:0:
448,192,109407,1,0,0:0:0:0:
320,192,109570,1,0,0:0:0:0:
192,192,109570,1,8,0:0:0:0:
448,192,109732,1,4,0:0:0:0:
64,192,109732,1,0,0:0:0:0:
192,192,109732,1,0,3:0:0:0:
320,192,109813,1,0,3:0:0:0:
192,192,109894,1,0,3:0:0:0:
64,192,109975,1,0,3:0:0:0:
448,192,110056,1,0,0:0:0:0:
192,192,110056,1,8,0:0:0:0:
320,192,110056,1,0,3:0:0:0:
192,192,110218,1,0,0:0:0:0:
320,192,110218,1,8,0:0:0:0:
320,192,110380,1,0,0:0:0:0:
192,192,110380,1,4,1:0:0:0:
64,192,110380,128,2,110543:0:0:0:0:
448,192,110380,1,0,1:0:0:0:
192,192,110543,1,0,0:0:0:0:
320,192,110543,1,0,1:0:0:0:
192,192,110705,1,4,1:0:0:0:
448,192,110705,1,0,1:0:0:0:
64,192,110705,128,2,110867:0:0:0:0:
320,192,110705,1,0,0:0:0:0:
192,192,110867,1,0,0:0:0:0:
448,192,110867,1,0,1:0:0:0:
448,192,111029,1,0,0:0:0:0:
64,192,111029,128,2,111191:0:0:0:0:
192,192,111029,1,4,1:0:0:0:
320,192,111029,1,0,1:0:0:0:
192,192,111191,1,0,0:0:0:0:
320,192,111191,1,0,1:0:0:0:
192,192,111353,1,4,1:0:0:0:
64,192,111353,128,2,111516:0:0:0:0:
448,192,111353,1,0,1:0:0:0:
320,192,111353,1,0,0:0:0:0:
192,192,111516,1,0,0:0:0:0:
448,192,111516,1,0,1:0:0:0:
448,192,111678,1,0,1:0:0:0:
64,192,111678,1,4,1:0:0:0:
192,192,111678,128,0,111759:3:0:0:0:
320,192,111759,128,0,111840:3:0:0:0:
448,192,111840,128,0,111921:3:0:0:0:
64,192,111921,128,0,112002:3:0:0:0:
192,192,112002,128,0,112083:3:0:0:0:
320,192,112083,128,0,112164:3:0:0:0:
448,192,112164,128,0,112245:3:0:0:0:
64,192,112245,128,0,112326:3:0:0:0:
192,192,112326,128,0,112407:3:0:0:0:
320,192,112407,128,0,112489:3:0:0:0:
448,192,112489,128,0,112570:3:0:0:0:
64,192,112570,128,0,112651:3:0:0:0:
192,192,112651,128,0,112732:3:0:0:0:
320,192,112732,128,0,112813:3:0:0:0:
448,192,112813,128,0,112894:3:0:0:0:
64,192,112894,128,0,112975:3:0:0:0:
192,192,112975,128,0,113056:3:0:0:0:
448,192,112975,1,2,3:0:0:0:
320,192,113056,128,0,113137:3:0:0:0:
448,192,113137,128,0,113218:3:0:0:0:
64,192,113218,128,0,113299:3:0:0:0:
192,192,113299,128,0,113380:3:0:0:0:
448,192,113299,1,2,3:0:0:0:
320,192,113380,128,0,113462:3:0:0:0:
448,192,113462,128,0,113543:3:0:0:0:
64,192,113543,128,0,113624:3:0:0:0:
192,192,113624,128,0,113705:3:0:0:0:
448,192,113624,1,2,3:0:0:0:
320,192,113705,128,0,113786:3:0:0:0:
448,192,113786,128,0,113867:3:0:0:0:
64,192,113867,128,0,113948:3:0:0:0:
192,192,113948,128,0,114029:3:0:0:0:
448,192,113948,1,2,3:0:0:0:
320,192,114029,128,0,114110:3:0:0:0:
448,192,114110,128,0,114191:3:0:0:0:
64,192,114191,128,0,114272:3:0:0:0:
192,192,114272,128,2,114597:0:0:0:0:
320,192,114272,128,2,114353:3:0:0:0:
448,192,114353,1,0,3:0:0:0:
320,192,114435,1,0,3:0:0:0:
448,192,114516,1,0,3:0:0:0:
320,192,114597,128,2,114921:0:0:0:0:
64,192,114597,128,2,114678:3:0:0:0:
448,192,114678,1,0,3:0:0:0:
192,192,114759,1,0,3:0:0:0:
448,192,114840,1,0,3:0:0:0:
64,192,114921,128,2,115245:0:0:0:0:
192,192,114921,128,2,115002:3:0:0:0:
448,192,115002,1,0,3:0:0:0:
320,192,115083,1,0,3:0:0:0:
192,192,115164,1,0,3:0:0:0:
448,192,115245,128,2,115570:0:0:0:0:
320,192,115245,128,0,115326:0:0:0:0:
192,192,115326,1,0,3:0:0:0:
64,192,115407,1,0,3:0:0:0:
192,192,115489,1,0,3:0:0:0:
64,192,115570,1,0,3:0:0:0:
320,192,115570,128,4,115813:1:0:0:0:
192,192,115732,1,0,0:0:0:0:
320,192,115894,128,2,116056:0:0:0:0:
64,192,115894,1,0,1:0:0:0:
448,192,115894,1,0,0:0:0:0:
192,192,116056,128,2,116380:0:0:0:0:
64,192,116056,1,0,0:0:0:0:
320,192,116218,1,0,1:0:0:0:
448,192,116218,1,0,0:0:0:0:
64,192,116380,1,0,0:0:0:0:
192,192,116543,128,2,116867:0:0:0:0:
64,192,116543,1,0,0:0:0:0:
320,192,116543,1,0,1:0:0:0:
320,192,116705,1,0,0:0:0:0:
320,192,116867,128,2,117191:0:0:0:0:
64,192,116867,1,0,1:0:0:0:
448,192,116867,1,0,0:0:0:0:
192,192,117029,1,0,0:0:0:0:
448,192,117191,128,2,117516:0:0:0:0:
64,192,117191,1,0,0:0:0:0:
192,192,117191,1,0,1:0:0:0:
320,192,117353,1,0,0:0:0:0:
320,192,117516,128,2,117759:0:0:0:0:
64,192,117516,1,0,0:0:0:0:
192,192,117516,1,0,1:0:0:0:
64,192,117678,1,0,0:0:0:0:
192,192,117759,128,2,118002:0:0:0:0:
320,192,117840,1,0,1:0:0:0:
448,192,117840,1,0,0:0:0:0:
64,192,118002,128,2,118164:0:0:0:0:
320,192,118002,1,0,0:0:0:0:
448,192,118002,1,0,1:0:0:0:
192,192,118164,128,2,118489:0:0:0:0:
320,192,118164,1,0,1:0:0:0:
448,192,118164,1,0,0:0:0:0:
64,192,118326,1,0,0:0:0:0:
320,192,118489,1,0,1:0:0:0:
448,192,118489,1,0,0:0:0:0:
320,192,118651,128,2,118975:0:0:0:0:
192,192,118651,1,0,0:0:0:0:
64,192,118813,1,0,1:0:0:0:
448,192,118813,1,0,0:0:0:0:
192,192,118975,1,0,0:0:0:0:
448,192,119137,128,2,119380:0:0:0:0:
64,192,119137,1,0,0:0:0:0:
320,192,119137,1,0,1:0:0:0:
320,192,119299,1,0,0:0:0:0:
448,192,119462,128,2,119705:0:0:0:0:
64,192,119462,1,0,0:0:0:0:
192,192,119462,1,0,1:0:0:0:
64,192,119624,1,0,0:0:0:0:
192,192,119786,1,0,1:0:0:0:
320,192,119786,1,0,0:0:0:0:
192,192,119948,128,2,120272:0:0:0:0:
64,192,119948,1,0,0:0:0:0:
320,192,120110,1,0,1:0:0:0:
448,192,120110,1,0,0:0:0:0:
448,192,120272,128,2,120516:0:0:0:0:
320,192,120272,1,0,3:0:0:0:
192,192,120353,1,0,0:0:0:0:
64,192,120353,1,0,1:0:0:0:
320,192,120435,1,0,1:0:0:0:
64,192,120435,1,0,0:0:0:0:
192,192,120516,128,2,120759:0:0:0:0:
320,192,120597,1,0,1:0:0:0:
448,192,120597,1,0,0:0:0:0:
64,192,120759,128,2,121083:0:0:0:0:
320,192,120759,1,0,1:0:0:0:
448,192,120759,1,0,0:0:0:0:
320,192,120921,1,0,0:0:0:0:
320,192,121083,128,2,121245:0:0:0:0:
192,192,121083,1,0,1:0:0:0:
448,192,121083,1,0,0:0:0:0:
192,192,121245,128,2,121407:0:0:0:0:
64,192,121245,1,0,0:0:0:0:
320,192,121407,1,0,0:0:0:0:
448,192,121407,1,0,1:0:0:0:
192,192,121570,1,0,0:0:0:0:
192,192,121732,128,2,121894:0:0:0:0:
64,192,121732,1,0,0:0:0:0:
320,192,121732,1,0,1:0:0:0:
448,192,121894,1,0,0:0:0:0:
448,192,122056,128,2,122218:0:0:0:0:
64,192,122056,1,0,1:0:0:0:
192,192,122056,1,0,0:0:0:0:
320,192,122218,128,2,122380:0:0:0:0:
192,192,122218,1,0,0:0:0:0:
192,192,122380,128,2,122543:0:0:0:0:
64,192,122380,1,0,0:0:0:0:
448,192,122380,1,0,1:0:0:0:
64,192,122543,128,2,122705:0:0:0:0:
320,192,122543,1,0,0:0:0:0:
192,192,122705,1,0,1:0:0:0:
448,192,122705,1,0,0:0:0:0:
192,192,122867,128,2,123029:0:0:0:0:
320,192,122867,1,0,0:0:0:0:
64,192,123029,1,0,1:0:0:0:
448,192,123029,1,0,0:0:0:0:
192,192,123191,128,2,123353:0:0:0:0:
448,192,123191,1,0,0:0:0:0:
64,192,123191,1,0,1:0:0:0:
320,192,123353,128,2,123516:0:0:0:0:
64,192,123353,1,0,1:0:0:0:
448,192,123353,1,0,0:0:0:0:
192,192,123516,128,2,123678:0:0:0:0:
448,192,123516,1,0,0:0:0:0:
448,192,123678,1,0,0:0:0:0:
64,192,123678,128,2,123840:0:0:0:0:
320,192,123678,1,0,1:0:0:0:
192,192,123840,128,2,124002:0:0:0:0:
320,192,123840,1,0,0:0:0:0:
320,192,124002,128,2,124164:0:0:0:0:
64,192,124002,1,0,0:0:0:0:
448,192,124002,1,0,1:0:0:0:
448,192,124164,128,2,124326:0:0:0:0:
64,192,124164,1,0,0:0:0:0:
192,192,124326,1,0,1:0:0:0:
320,192,124326,1,0,0:0:0:0:
320,192,124489,128,2,124651:0:0:0:0:
192,192,124489,1,0,0:0:0:0:
64,192,124651,1,0,1:0:0:0:
448,192,124651,1,0,0:0:0:0:
192,192,124813,128,2,124894:0:0:0:0:
320,192,124813,1,0,0:0:0:0:
192,192,124975,128,2,125299:0:0:0:0:
64,192,124975,1,0,0:0:0:0:
448,192,124975,1,0,1:0:0:0:
320,192,125137,1,0,1:0:0:0:
320,192,125218,1,0,1:0:0:0:
64,192,125299,128,2,125624:0:0:0:0:
320,192,125299,1,0,1:0:0:0:
320,192,125462,1,0,3:0:0:0:
320,192,125624,1,0,1:0:0:0:
192,192,125624,128,2,125948:0:0:0:0:
448,192,125624,1,4,0:0:0:0:
64,192,125786,1,0,0:0:0:0:
320,192,125948,128,2,126191:0:0:0:0:
64,192,125948,1,0,1:0:0:0:
448,192,125948,1,0,0:0:0:0:
192,192,126110,1,0,0:0:0:0:
320,192,126272,128,2,126435:0:0:0:0:
64,192,126272,1,0,1:0:0:0:
448,192,126272,1,0,0:0:0:0:
448,192,126435,128,2,126759:0:0:0:0:
192,192,126435,1,0,0:0:0:0:
64,192,126597,1,0,0:0:0:0:
192,192,126597,1,0,1:0:0:0:
192,192,126759,1,0,0:0:0:0:
448,192,126921,128,2,127245:0:0:0:0:
64,192,126921,1,0,0:0:0:0:
320,192,126921,1,0,1:0:0:0:
320,192,127083,1,0,0:0:0:0:
320,192,127245,128,2,127570:0:0:0:0:
64,192,127245,1,0,1:0:0:0:
192,192,127245,1,0,0:0:0:0:
448,192,127407,1,0,0:0:0:0:
448,192,127570,128,2,127894:0:0:0:0:
64,192,127570,1,0,1:0:0:0:
192,192,127570,1,0,0:0:0:0:
320,192,127732,1,0,0:0:0:0:
320,192,127894,128,2,128137:0:0:0:0:
64,192,127894,1,0,0:0:0:0:
192,192,127894,1,0,1:0:0:0:
64,192,128056,1,0,0:0:0:0:
192,192,128137,128,2,128380:0:0:0:0:
64,192,128218,1,0,0:0:0:0:
448,192,128218,1,0,1:0:0:0:
64,192,128380,128,2,128543:0:0:0:0:
320,192,128380,1,0,1:0:0:0:
448,192,128380,1,0,0:0:0:0:
192,192,128543,128,2,128867:0:0:0:0:
320,192,128543,1,0,1:0:0:0:
448,192,128543,1,0,0:0:0:0:
64,192,128705,1,0,0:0:0:0:
64,192,128867,1,0,1:0:0:0:
320,192,128867,1,0,0:0:0:0:
448,192,129029,1,0,0:0:0:0:
320,192,129029,128,2,129516:0:0:0:0:
64,192,129191,1,0,1:0:0:0:
192,192,129191,1,0,0:0:0:0:
64,192,129353,1,0,0:0:0:0:
448,192,129516,128,2,129759:0:0:0:0:
64,192,129516,1,0,0:0:0:0:
192,192,129516,1,0,1:0:0:0:
192,192,129678,1,0,0:0:0:0:
448,192,129840,128,2,130164:0:0:0:0:
64,192,129840,1,0,0:0:0:0:
320,192,129840,1,0,1:0:0:0:
64,192,130002,1,0,0:0:0:0:
192,192,130164,1,0,1:0:0:0:
320,192,130164,1,0,0:0:0:0:
64,192,130326,1,0,0:0:0:0:
320,192,130347,128,2,130651:0:0:0:0:
192,192,130489,1,0,1:0:0:0:
448,192,130489,1,0,0:0:0:0:
448,192,130651,128,2,130894:0:0:0:0:
64,192,130651,1,0,1:0:0:0:
64,192,130732,1,0,1:0:0:0:
64,192,130813,1,0,1:0:0:0:
192,192,130894,128,2,131137:0:0:0:0:
320,192,130975,1,0,1:0:0:0:
448,192,130975,1,0,0:0:0:0:
64,192,131137,128,2,131462:0:0:0:0:
320,192,131137,1,0,0:0:0:0:
448,192,131137,1,0,1:0:0:0:
320,192,131299,1,0,0:0:0:0:
320,192,131462,128,2,131624:0:0:0:0:
192,192,131462,1,0,1:0:0:0:
448,192,131462,1,0,0:0:0:0:
64,192,131624,128,2,131948:0:0:0:0:
448,192,131624,1,0,0:0:0:0:
192,192,131786,1,0,0:0:0:0:
320,192,131786,1,0,1:0:0:0:
192,192,131948,1,0,0:0:0:0:
64,192,132110,128,2,132272:0:0:0:0:
320,192,132110,1,0,1:0:0:0:
448,192,132110,1,0,0:0:0:0:
320,192,132272,128,2,132435:0:0:0:0:
192,192,132272,1,0,0:0:0:0:
448,192,132435,1,0,1:0:0:0:
192,192,132435,1,0,3:0:0:0:
64,192,132516,1,0,3:0:0:0:
192,192,132597,128,2,132759:0:0:0:0:
448,192,132597,1,0,3:0:0:0:
320,192,132678,1,0,3:0:0:0:
320,192,132759,128,2,132921:0:0:0:0:
64,192,132759,1,0,1:0:0:0:
448,192,132759,1,0,3:0:0:0:
192,192,132840,1,0,3:0:0:0:
448,192,132921,128,2,133083:0:0:0:0:
64,192,132921,1,0,3:0:0:0:
192,192,132921,1,0,1:0:0:0:
320,192,133002,1,0,3:0:0:0:
192,192,133083,1,0,3:0:0:0:
64,192,133083,1,0,1:0:0:0:
320,192,133164,1,0,3:0:0:0:
64,192,133245,128,2,133407:0:0:0:0:
192,192,133245,1,0,3:0:0:0:
320,192,133326,1,0,3:0:0:0:
192,192,133407,128,0,133732:0:0:0:0:
448,192,133570,128,2,133732:0:0:0:0:
320,192,133732,128,2,133894:0:0:0:0:
64,192,133732,1,0,3:0:0:0:
192,192,133894,128,2,134056:0:0:0:0:
320,192,134056,128,2,134218:0:0:0:0:
448,192,134056,1,0,3:0:0:0:
192,192,134218,128,2,134380:0:0:0:0:
320,192,134380,128,2,134543:0:0:0:0:
64,192,134380,1,0,1:0:0:0:
448,192,134543,128,2,134705:0:0:0:0:
64,192,134705,1,0,0:0:0:0:
192,192,134705,1,0,3:0:0:0:
320,192,134867,128,2,135191:0:0:0:0:
64,192,135029,1,0,0:0:0:0:
448,192,135029,1,0,3:0:0:0:
192,192,135191,128,2,135272:0:0:0:0:
192,192,135353,128,2,135678:0:0:0:0:
320,192,135353,1,0,3:0:0:0:
448,192,135353,1,0,0:0:0:0:
64,192,135353,128,0,135678:1:0:0:0:
448,192,135678,1,0,1:0:0:0:
320,192,135678,128,2,136002:0:0:0:0:
64,192,136002,128,0,136326:1:0:0:0:
448,192,136002,128,2,136326:0:0:0:0:
192,192,136002,128,0,136326:0:0:0:0:
320,192,136326,128,4,136570:1:0:0:0:
192,192,136489,1,0,0:0:0:0:
320,192,136651,128,2,136894:0:0:0:0:
64,192,136651,1,0,1:0:0:0:
448,192,136651,1,0,0:0:0:0:
192,192,136651,1,0,0:0:0:0:
192,192,136813,1,0,0:0:0:0:
320,192,136975,128,2,137137:0:0:0:0:
64,192,136975,1,0,1:0:0:0:
448,192,136975,1,0,0:0:0:0:
192,192,136975,1,0,0:0:0:0:
192,192,137137,128,2,137218:0:0:0:0:
64,192,137137,1,0,0:0:0:0:
448,192,137218,128,2,137299:0:0:0:0:
64,192,137299,128,2,137462:0:0:0:0:
192,192,137299,1,0,0:0:0:0:
320,192,137299,1,0,1:0:0:0:
192,192,137462,128,2,137624:0:0:0:0:
320,192,137462,1,0,0:0:0:0:
320,192,137624,128,2,137786:0:0:0:0:
64,192,137624,1,0,0:0:0:0:
448,192,137624,1,0,1:0:0:0:
448,192,137786,128,2,137948:0:0:0:0:
192,192,137786,1,0,0:0:0:0:
192,192,137948,128,2,138110:0:0:0:0:
64,192,137948,1,0,0:0:0:0:
320,192,137948,1,0,1:0:0:0:
448,192,138110,128,2,138272:0:0:0:0:
320,192,138110,1,0,0:0:0:0:
64,192,138272,128,2,138597:0:0:0:0:
192,192,138272,1,0,1:0:0:0:
320,192,138272,1,0,0:0:0:0:
192,192,138435,1,0,0:0:0:0:
192,192,138597,128,2,138759:0:0:0:0:
320,192,138597,1,0,1:0:0:0:
448,192,138597,1,0,0:0:0:0:
64,192,138759,128,2,138921:0:0:0:0:
448,192,138759,1,0,0:0:0:0:
320,192,138759,1,0,1:0:0:0:
192,192,138921,128,2,139083:0:0:0:0:
320,192,138921,1,0,1:0:0:0:
448,192,138921,1,0,0:0:0:0:
320,192,139083,128,2,139245:0:0:0:0:
64,192,139083,1,0,0:0:0:0:
448,192,139245,128,2,139570:0:0:0:0:
64,192,139245,1,0,0:0:0:0:
192,192,139245,1,0,1:0:0:0:
192,192,139407,1,0,0:0:0:0:
64,192,139570,128,2,139732:0:0:0:0:
192,192,139570,1,0,0:0:0:0:
320,192,139570,1,0,1:0:0:0:
192,192,139732,128,2,139894:0:0:0:0:
448,192,139732,1,0,0:0:0:0:
320,192,139894,128,2,140056:0:0:0:0:
64,192,139894,1,0,0:0:0:0:
448,192,139894,1,0,1:0:0:0:
448,192,140056,128,2,140380:0:0:0:0:
192,192,140056,1,0,0:0:0:0:
64,192,140218,1,0,0:0:0:0:
320,192,140218,1,0,0:0:0:0:
192,192,140218,1,0,1:0:0:0:
320,192,140380,128,2,140543:0:0:0:0:
192,192,140380,1,0,0:0:0:0:
192,192,140543,128,2,140705:0:0:0:0:
64,192,140543,1,0,0:0:0:0:
448,192,140543,1,0,1:0:0:0:
320,192,140705,128,2,140867:0:0:0:0:
448,192,140705,1,0,0:0:0:0:
448,192,140867,128,2,141029:0:0:0:0:
64,192,140867,1,0,1:0:0:0:
192,192,140867,1,0,0:0:0:0:
192,192,141029,1,0,3:0:0:0:
320,192,141110,1,0,1:0:0:0:
64,192,141110,1,0,0:0:0:0:
448,192,141191,1,0,0:0:0:0:
192,192,141191,1,0,1:0:0:0:
64,192,141191,1,0,0:0:0:0:
320,192,141353,1,0,1:0:0:0:
448,192,141353,1,0,0:0:0:0:
64,192,141353,1,0,0:0:0:0:
448,192,141516,128,2,141759:0:0:0:0:
192,192,141516,1,0,1:0:0:0:
320,192,141516,1,0,0:0:0:0:
64,192,141516,1,0,0:0:0:0:
192,192,141678,1,0,0:0:0:0:
448,192,141840,128,2,142083:0:0:0:0:
64,192,141840,1,0,0:0:0:0:
192,192,141840,1,0,0:0:0:0:
320,192,141840,1,0,1:0:0:0:
64,192,142002,1,0,0:0:0:0:
448,192,142164,128,2,142326:0:0:0:0:
64,192,142164,1,0,0:0:0:0:
192,192,142164,1,0,1:0:0:0:
320,192,142164,1,0,0:0:0:0:
320,192,142326,128,2,142407:0:0:0:0:
64,192,142326,1,0,0:0:0:0:
192,192,142407,128,2,142489:0:0:0:0:
64,192,142489,128,2,142651:0:0:0:0:
320,192,142489,1,0,0:0:0:0:
448,192,142489,1,0,1:0:0:0:
192,192,142651,128,2,142975:0:0:0:0:
320,192,142651,1,0,0:0:0:0:
64,192,142813,1,0,0:0:0:0:
320,192,142813,1,0,1:0:0:0:
448,192,142813,1,0,0:0:0:0:
320,192,142975,128,2,143137:0:0:0:0:
64,192,142975,1,0,0:0:0:0:
64,192,143137,128,2,143299:0:0:0:0:
192,192,143137,1,0,1:0:0:0:
448,192,143137,1,0,0:0:0:0:
192,192,143299,128,2,143462:0:0:0:0:
320,192,143299,1,0,0:0:0:0:
64,192,143462,128,2,143786:0:0:0:0:
320,192,143462,1,0,0:0:0:0:
448,192,143462,1,0,1:0:0:0:
320,192,143624,1,0,0:0:0:0:
320,192,143786,128,2,143948:0:0:0:0:
192,192,143786,1,0,1:0:0:0:
448,192,143786,1,0,0:0:0:0:
192,192,143948,128,2,144110:0:0:0:0:
64,192,143948,1,0,0:0:0:0:
448,192,143948,1,0,1:0:0:0:
320,192,144110,128,2,144272:0:0:0:0:
448,192,144110,1,0,0:0:0:0:
64,192,144110,1,0,1:0:0:0:
448,192,144272,128,2,144435:0:0:0:0:
192,192,144272,1,0,0:0:0:0:
320,192,144435,128,2,144759:0:0:0:0:
64,192,144435,1,0,0:0:0:0:
192,192,144435,1,0,1:0:0:0:
64,192,144597,1,0,0:0:0:0:
64,192,144759,128,2,144921:0:0:0:0:
192,192,144759,1,0,1:0:0:0:
448,192,144759,1,0,0:0:0:0:
192,192,144921,128,2,145083:0:0:0:0:
320,192,144921,1,0,0:0:0:0:
320,192,145083,128,2,145245:0:0:0:0:
64,192,145083,1,0,0:0:0:0:
448,192,145083,1,0,1:0:0:0:
448,192,145245,128,2,145407:0:0:0:0:
192,192,145245,1,0,0:0:0:0:
64,192,145407,1,0,1:0:0:0:
192,192,145407,1,0,0:0:0:0:
320,192,145407,1,0,0:0:0:0:
320,192,145570,128,2,145651:0:0:0:0:
192,192,145570,1,0,0:0:0:0:
320,192,145732,128,2,146056:0:0:0:0:
64,192,145732,1,0,0:0:0:0:
192,192,145732,1,0,1:0:0:0:
448,192,145732,1,0,0:0:0:0:
64,192,145894,1,0,1:0:0:0:
64,192,145975,1,0,1:0:0:0:
192,192,146056,128,2,146380:0:0:0:0:
64,192,146056,1,0,1:0:0:0:
448,192,146218,1,0,3:0:0:0:
320,192,146380,128,2,146705:0:0:0:0:
64,192,146380,1,0,1:0:0:0:
448,192,146380,1,0,0:0:0:0:
192,192,146543,1,0,0:0:0:0:
64,192,146705,1,0,1:0:0:0:
192,192,146705,1,0,0:0:0:0:
448,192,146705,128,2,146948:0:0:0:0:
64,192,146867,1,0,1:0:0:0:
320,192,146867,1,0,0:0:0:0:
448,192,147029,128,2,147272:0:0:0:0:
64,192,147029,1,0,1:0:0:0:
192,192,147029,1,0,0:0:0:0:
320,192,147191,1,0,0:0:0:0:
192,192,147191,1,0,1:0:0:0:
448,192,147353,128,2,147516:0:0:0:0:
64,192,147353,1,0,1:0:0:0:
320,192,147353,1,0,0:0:0:0:
320,192,147516,128,2,147597:0:0:0:0:
64,192,147516,1,0,1:0:0:0:
192,192,147516,1,0,0:0:0:0:
192,192,147597,128,2,147678:0:0:0:0:
64,192,147678,128,2,147840:0:0:0:0:
320,192,147678,1,0,0:0:0:0:
448,192,147678,1,0,1:0:0:0:
320,192,147840,128,2,148002:0:0:0:0:
192,192,147840,1,0,0:0:0:0:
448,192,147840,1,0,1:0:0:0:
192,192,148002,128,2,148164:0:0:0:0:
64,192,148002,1,0,3:0:0:0:
448,192,148083,1,0,3:0:0:0:
64,192,148164,128,2,148326:0:0:0:0:
320,192,148164,1,0,3:0:0:0:
448,192,148245,1,0,3:0:0:0:
192,192,148326,128,2,148489:0:0:0:0:
320,192,148326,1,0,3:0:0:0:
448,192,148407,1,0,3:0:0:0:
64,192,148489,128,2,148651:0:0:0:0:
320,192,148489,1,0,3:0:0:0:
448,192,148570,1,0,3:0:0:0:
320,192,148651,128,2,148894:0:0:0:0:
192,192,148651,1,0,3:0:0:0:
448,192,148732,1,0,3:0:0:0:
192,192,148813,1,0,3:0:0:0:
64,192,148894,1,0,3:0:0:0:
448,192,148975,128,2,149137:0:0:0:0:
192,192,148975,1,0,3:0:0:0:
320,192,149056,1,0,3:0:0:0:
192,192,149137,128,2,149299:0:0:0:0:
64,192,149137,1,0,3:0:0:0:
320,192,149218,1,0,3:0:0:0:
64,192,149299,128,0,149705:1:0:0:0:
448,192,149299,1,2,3:0:0:0:
320,192,149380,1,2,3:0:0:0:
192,192,149462,1,2,3:0:0:0:
448,192,149543,1,2,3:0:0:0:
320,192,149624,1,2,3:0:0:0:
448,192,149705,1,2,3:0:0:0:
64,192,149786,128,0,150191:0:0:0:0:
192,192,149786,128,0,150191:1:0:0:0:
320,192,149786,1,2,3:0:0:0:
448,192,149867,1,2,3:0:0:0:
320,192,149948,1,2,3:0:0:0:
448,192,150029,1,2,3:0:0:0:
320,192,150110,1,2,3:0:0:0:
448,192,150191,1,2,3:0:0:0:
64,192,150272,128,0,150597:0:0:0:0:
320,192,150272,128,0,150597:0:0:0:0:
192,192,150272,128,0,150597:1:0:0:0:
448,192,150597,128,4,150759:0:0:0:0:
320,192,150759,1,0,3:0:0:0:
192,192,150799,1,0,3:0:0:0:
64,192,150840,1,0,3:0:0:0:
192,192,150880,1,0,3:0:0:0:
448,192,150921,1,0,3:0:0:0:
320,192,150962,1,0,3:0:0:0:
64,192,151002,1,0,3:0:0:0:
192,192,151043,1,0,3:0:0:0:
448,192,151083,1,0,3:0:0:0:
320,192,151124,1,0,3:0:0:0:
192,192,151164,1,0,3:0:0:0:
64,192,151205,1,0,3:0:0:0:
320,192,151245,1,0,1:0:0:0:
448,192,151245,1,0,0:0:0:0:
64,192,151326,1,0,0:0:0:0:
192,192,151326,1,0,1:0:0:0:
320,192,151407,1,0,1:0:0:0:
448,192,151407,1,0,0:0:0:0:
64,192,151489,1,0,0:0:0:0:
192,192,151489,1,0,1:0:0:0:
448,192,151570,1,0,0:0:0:0:
320,192,151570,1,0,1:0:0:0:
64,192,151651,1,0,0:0:0:0:
192,192,151651,1,0,1:0:0:0:
448,192,151732,1,0,0:0:0:0:
320,192,151732,1,0,1:0:0:0:
64,192,151813,1,0,0:0:0:0:
192,192,151813,1,0,1:0:0:0:
192,192,151894,1,4,1:0:0:0:
448,192,151894,1,0,1:0:0:0:
320,192,151894,128,2,152137:0:0:0:0:
64,192,152056,1,0,0:0:0:0:
320,192,152218,128,2,152462:0:0:0:0:
192,192,152218,1,0,1:0:0:0:
64,192,152218,1,0,0:0:0:0:
448,192,152218,1,0,0:0:0:0:
192,192,152380,1,0,0:0:0:0:
320,192,152543,128,2,152705:0:0:0:0:
64,192,152543,1,0,0:0:0:0:
192,192,152543,1,0,1:0:0:0:
448,192,152543,1,0,0:0:0:0:
64,192,152705,128,2,152786:0:0:0:0:
448,192,152705,1,0,0:0:0:0:
192,192,152786,128,2,152867:0:0:0:0:
320,192,152867,128,2,153029:0:0:0:0:
64,192,152867,1,0,0:0:0:0:
448,192,152867,1,0,1:0:0:0:
448,192,153029,128,2,153353:0:0:0:0:
192,192,153029,1,0,0:0:0:0:
64,192,153191,1,0,0:0:0:0:
192,192,153191,1,0,1:0:0:0:
320,192,153191,1,0,0:0:0:0:
64,192,153353,128,2,153516:0:0:0:0:
320,192,153353,1,0,0:0:0:0:
192,192,153516,128,2,153678:0:0:0:0:
320,192,153516,1,0,1:0:0:0:
448,192,153516,1,0,0:0:0:0:
448,192,153678,128,2,153840:0:0:0:0:
64,192,153678,1,0,0:0:0:0:
64,192,153840,1,0,1:0:0:0:
192,192,153840,1,0,0:0:0:0:
320,192,153840,1,0,0:0:0:0:
192,192,154002,128,2,154245:0:0:0:0:
320,192,154002,1,0,0:0:0:0:
64,192,154164,1,0,0:0:0:0:
320,192,154164,1,0,1:0:0:0:
448,192,154164,1,0,0:0:0:0:
192,192,154326,128,2,154489:0:0:0:0:
448,192,154326,1,0,0:0:0:0:
320,192,154326,1,0,1:0:0:0:
64,192,154326,1,0,0:0:0:0:
320,192,154489,128,2,154651:0:0:0:0:
64,192,154489,1,0,1:0:0:0:
448,192,154489,1,0,0:0:0:0:
192,192,154651,128,2,154813:0:0:0:0:
64,192,154651,1,0,0:0:0:0:
320,192,154813,128,2,154975:0:0:0:0:
64,192,154813,1,0,0:0:0:0:
448,192,154813,1,0,1:0:0:0:
192,192,154975,128,2,155137:0:0:0:0:
448,192,154975,1,0,0:0:0:0:
320,192,155137,128,2,155299:0:0:0:0:
64,192,155137,1,0,1:0:0:0:
448,192,155137,1,0,0:0:0:0:
448,192,155299,128,2,155462:0:0:0:0:
192,192,155299,1,0,0:0:0:0:
64,192,155462,1,0,0:0:0:0:
320,192,155462,1,0,1:0:0:0:
320,192,155624,128,2,155786:0:0:0:0:
192,192,155624,1,0,1:0:0:0:
192,192,155705,1,0,1:0:0:0:
192,192,155786,1,0,1:0:0:0:
448,192,155786,1,0,0:0:0:0:
192,192,155948,128,2,156029:0:0:0:0:
64,192,155948,1,0,0:0:0:0:
320,192,155948,1,0,1:0:0:0:
448,192,155948,1,0,0:0:0:0:
192,192,156110,128,2,156435:0:0:0:0:
64,192,156110,1,0,1:0:0:0:
448,192,156110,1,0,0:0:0:0:
448,192,156353,1,0,3:0:0:0:
320,192,156394,1,0,3:0:0:0:
64,192,156435,1,0,3:0:0:0:
448,192,156475,1,0,3:0:0:0:
320,192,156516,1,0,3:0:0:0:
192,192,156556,1,0,3:0:0:0:
64,192,156597,1,0,3:0:0:0:
448,192,156637,1,0,3:0:0:0:
320,192,156678,1,0,3:0:0:0:
192,192,156718,1,0,3:0:0:0:
64,192,156759,1,0,3:0:0:0:
448,192,156759,128,4,157083:0:0:0:0:
192,192,156921,1,0,0:0:0:0:
320,192,156921,1,0,1:0:0:0:
64,192,157002,1,2,3:0:0:0:
192,192,157043,1,2,3:0:0:0:
320,192,157083,128,4,157407:1:0:0:0:
64,192,157083,1,2,3:0:0:0:
64,192,157407,1,0,0:0:0:0:
192,192,157407,1,0,1:0:0:0:
448,192,157407,1,0,0:0:0:0:
320,192,157570,1,0,0:0:0:0:
64,192,157732,1,0,0:0:0:0:
192,192,157732,1,0,1:0:0:0:
448,192,157732,1,0,0:0:0:0:
320,192,157894,1,0,0:0:0:0:
64,192,157975,1,0,0:0:0:0:
192,192,157975,1,0,1:0:0:0:
448,192,157975,1,0,0:0:0:0:
320,192,158056,1,0,0:0:0:0:
64,192,158218,1,0,0:0:0:0:
192,192,158218,1,0,1:0:0:0:
448,192,158218,1,0,0:0:0:0:
64,192,158380,128,2,158867:0:0:0:0:
192,192,158380,1,0,1:0:0:0:
320,192,158380,1,0,0:0:0:0:
448,192,158380,1,0,0:0:0:0:
320,192,158543,1,0,0:0:0:0:
192,192,158705,1,0,0:0:0:0:
320,192,158705,1,0,1:0:0:0:
448,192,158705,1,0,0:0:0:0:
192,192,158867,128,2,159353:0:0:0:0:
320,192,158867,1,0,0:0:0:0:
448,192,159029,1,0,0:0:0:0:
320,192,159029,1,0,1:0:0:0:
64,192,159029,1,0,0:0:0:0:
64,192,159191,1,0,0:0:0:0:
448,192,159191,1,0,0:0:0:0:
320,192,159272,1,0,1:0:0:0:
320,192,159353,128,2,159678:0:0:0:0:
64,192,159353,1,0,1:0:0:0:
448,192,159353,1,0,0:0:0:0:
192,192,159516,1,0,1:0:0:0:
64,192,159678,128,2,160326:0:0:0:0:
192,192,159678,1,0,0:0:0:0:
448,192,159678,1,0,1:0:0:0:
192,192,159840,1,0,1:0:0:0:
320,192,159840,1,0,0:0:0:0:
320,192,160002,1,0,1:0:0:0:
448,192,160002,1,0,0:0:0:0:
448,192,160164,1,0,0:0:0:0:
192,192,160164,1,0,1:0:0:0:
192,192,160326,1,0,3:0:0:0:
320,192,160367,1,0,3:0:0:0:
448,192,160407,1,0,3:0:0:0:
64,192,160448,1,0,3:0:0:0:
192,192,160489,1,0,3:0:0:0:
320,192,160529,1,0,3:0:0:0:
448,192,160570,1,0,3:0:0:0:
64,192,160610,1,0,3:0:0:0:
192,192,160651,1,0,3:0:0:0:
320,192,160691,1,0,3:0:0:0:
448,192,160732,1,0,3:0:0:0:
64,192,160772,1,0,3:0:0:0:
192,192,160813,1,0,3:0:0:0:
320,192,160853,1,0,3:0:0:0:
448,192,160894,1,0,3:0:0:0:
64,192,160935,1,0,3:0:0:0:
192,192,160975,1,0,3:0:0:0:
320,192,160975,128,2,161056:3:0:0:0:
64,192,161299,128,0,161380:3:0:0:0:
192,192,161299,128,0,161380:0:0:0:0:
64,192,161624,128,0,161705:3:0:0:0:
192,192,161786,128,2,161867:0:0:0:0:
448,192,161948,128,2,162029:0:0:0:0:
320,192,161948,128,0,162029:0:0:0:0:
192,192,161948,128,0,162029:0:0:0:0:
64,192,162110,1,0,3:0:0:0:
192,192,162151,1,0,3:0:0:0:
320,192,162191,1,0,3:0:0:0:
448,192,162232,1,0,3:0:0:0:
192,192,162272,128,2,162516:0:0:0:0:
64,192,162272,128,0,164867:0:0:0:0:
320,192,162272,128,0,162435:0:0:0:0:
192,192,162597,128,2,162840:0:0:0:0:
320,192,162759,128,0,162921:0:0:0:0:
192,192,162921,128,2,163083:0:0:0:0:
448,192,163083,128,2,163164:0:0:0:0:
320,192,163164,128,2,163245:0:0:0:0:
192,192,163245,128,2,163407:0:0:0:0:
448,192,163245,128,0,163407:0:0:0:0:
320,192,163407,128,2,163570:0:0:0:0:
192,192,163570,128,2,163732:0:0:0:0:
448,192,163570,128,0,163732:0:0:0:0:
320,192,163732,128,2,163894:0:0:0:0:
192,192,163894,128,2,164056:0:0:0:0:
448,192,164056,128,2,164218:0:0:0:0:
320,192,164056,128,0,164137:0:0:0:0:
320,192,164218,128,2,164462:0:0:0:0:
320,192,164543,128,2,164705:0:0:0:0:
448,192,164543,128,0,164705:0:0:0:0:
192,192,164705,128,2,164867:0:0:0:0:
320,192,164867,128,2,165029:0:0:0:0:
448,192,164867,128,0,165029:0:0:0:0:
64,192,165029,128,2,165191:0:0:0:0:
448,192,165191,128,2,165516:0:0:0:0:
64,192,165516,128,2,165678:0:0:0:0:
320,192,165516,128,2,165678:0:0:0:0:
192,192,165516,128,0,165597:0:0:0:0:
192,192,165678,128,2,165840:0:0:0:0:
320,192,165840,128,2,166002:0:0:0:0:
448,192,166002,128,2,166326:0:0:0:0:
64,192,166002,128,0,166164:0:0:0:0:
320,192,166326,128,2,166489:0:0:0:0:
64,192,166489,128,2,166651:0:0:0:0:
192,192,166489,128,0,166570:0:0:0:0:
192,192,166651,128,2,166813:0:0:0:0:
448,192,166813,128,2,167137:0:0:0:0:
192,192,166975,128,0,167137:0:0:0:0:
64,192,167137,1,2,0:0:0:0:
320,192,167137,128,0,167218:0:0:0:0:
192,192,167218,1,2,0:0:0:0:
320,192,167299,1,2,0:0:0:0:
448,192,167380,1,2,0:0:0:0:
320,192,167462,128,2,167786:0:0:0:0:
64,192,167462,128,0,167786:0:0:0:0:
192,192,167786,128,2,168110:0:0:0:0:
448,192,167786,128,0,168110:0:0:0:0:
320,192,168110,128,2,168272:0:0:0:0:
64,192,168110,128,0,168191:0:0:0:0:
192,192,168272,128,2,168353:0:0:0:0:
64,192,168353,128,2,168435:0:0:0:0:
192,192,168435,128,2,168597:0:0:0:0:
320,192,168435,128,0,168516:0:0:0:0:
320,192,168597,128,2,168921:0:0:0:0:
64,192,168597,128,0,168759:0:0:0:0:
192,192,168921,128,2,169083:0:0:0:0:
320,192,169083,128,2,169245:0:0:0:0:
448,192,169245,128,2,169570:0:0:0:0:
64,192,169245,128,0,169407:0:0:0:0:
64,192,169570,128,2,169894:0:0:0:0:
192,192,169894,128,2,170056:0:0:0:0:
320,192,170056,128,2,170218:0:0:0:0:
448,192,170056,128,0,170218:0:0:0:0:
64,192,170056,128,0,170137:0:0:0:0:
192,192,170218,128,2,170299:0:0:0:0:
64,192,170218,128,0,170299:0:0:0:0:
320,192,170299,128,2,170380:0:0:0:0:
448,192,170299,128,0,170380:0:0:0:0:
64,192,170380,128,0,170462:0:0:0:0:
192,192,170380,128,2,170462:0:0:0:0:
320,192,170543,128,2,170624:0:0:0:0:
448,192,170543,128,0,170624:0:0:0:0:
192,192,170543,128,0,170624:0:0:0:0:
192,192,170705,128,2,170786:0:0:0:0:
64,192,170705,128,0,170786:0:0:0:0:
320,192,170786,128,2,170867:0:0:0:0:
448,192,170786,128,0,170867:0:0:0:0:
64,192,170867,128,0,170948:0:0:0:0:
192,192,170867,128,2,170948:0:0:0:0:
448,192,171029,128,0,171191:0:0:0:0:
320,192,171029,128,2,171191:0:0:0:0:
192,192,171191,128,2,171516:0:0:0:0:
64,192,171191,128,0,171516:0:0:0:0:
448,192,171516,128,0,171678:0:0:0:0:
320,192,171516,128,2,171678:0:0:0:0:
192,192,171678,128,2,171840:0:0:0:0:
64,192,171678,128,0,171840:0:0:0:0:
448,192,171840,128,2,172326:0:0:0:0:
192,192,172002,1,2,0:0:0:0:
320,192,172002,128,0,172326:0:0:0:0:
64,192,172083,1,2,0:0:0:0:
192,192,172164,1,2,0:0:0:0:
64,192,172245,1,2,0:0:0:0:
64,192,172326,128,0,172651:3:0:0:0:
192,192,172326,1,2,0:0:0:0:
