osu file format v14

[General]
AudioFilename: kors k x marasy - Play Time!! (Unofficial Title).mp3
AudioLeadIn: 0
PreviewTime: 114214
Countdown: 0
SampleSet: Soft
StackLeniency: 0.7
Mode: 3
LetterboxInBreaks: 0
SpecialStyle: 0
WidescreenStoryboard: 0

[Editor]
DistanceSpacing: 0.9
BeatDivisor: 6
GridSize: 8
TimelineZoom: 2

[Metadata]
Title:Play Time!!
TitleUnicode:Play Time!!
Artist:maras k
ArtistUnicode:maras k
Creator:ExVeemon
Version:MX
Source:
Tags:まらしぃ marasy kors k Beat Piano Music
BeatmapID:693148
BeatmapSetID:309653

[Difficulty]
HPDrainRate:8
CircleSize:4
OverallDifficulty:7.5
ApproachRate:5
SliderMultiplier:3.59999990463257
SliderTickRate:4

[Events]
//Background and Video events
0,0,"playtime.jpg",0,0
//Break Periods
//Storyboard Layer 0 (Background)
//Storyboard Layer 1 (Fail)
//Storyboard Layer 2 (Pass)
//Storyboard Layer 3 (Foreground)
//Storyboard Sound Samples

[TimingPoints]
1408,324.324324324324,4,2,0,50,1,0
37732,-100,4,2,0,50,0,1
58164,-100,4,2,0,50,0,0
58489,-100,4,2,0,50,0,1
77948,-100,4,2,0,50,0,0
115570,-100,4,2,0,50,0,1
133732,-100,4,2,0,50,0,0
136326,-100,4,2,0,50,0,1
146705,-100,4,2,0,50,0,0
151894,-100,4,2,0,50,0,1
162272,-100,4,2,0,50,0,0

[HitObjects]
64,192,1408,5,2,0:0:0:0:
448,192,1408,1,0,0:0:0:0:
320,192,1570,1,0,0:0:0:0:
64,192,1732,1,2,0:0:0:0:
448,192,1732,1,8,0:0:0:0:
320,192,1894,1,0,0:0:0:0:
64,192,2056,1,2,0:0:0:0:
448,192,2056,1,0,0:0:0:0:
320,192,2218,1,2,0:0:0:0:
192,192,2299,1,2,0:0:0:0:
64,192,2380,1,2,0:0:0:0:
448,192,2380,1,8,0:0:0:0:
192,192,2543,1,2,0:0:0:0:
320,192,2705,1,2,0:0:0:0:
64,192,2705,1,0,0:0:0:0:
448,192,2867,1,2,0:0:0:0:
320,192,3029,1,2,0:0:0:0:
64,192,3029,1,8,0:0:0:0:
448,192,3191,1,2,0:0:0:0:
192,192,3353,1,0,0:0:0:0:
64,192,3353,128,2,3678:0:0:0:0:
448,192,3516,1,0,0:0:0:0:
192,192,3678,1,2,0:0:0:0:
320,192,3678,1,8,0:0:0:0:
64,192,3840,1,2,0:0:0:0:
192,192,4002,1,2,0:0:0:0:
448,192,4002,1,0,0:0:0:0:
320,192,4164,1,2,0:0:0:0:
64,192,4326,1,8,0:0:0:0:
448,192,4326,128,2,4651:0:0:0:0:
320,192,4489,1,0,0:0:0:0:
64,192,4651,1,2,0:0:0:0:
320,192,4651,1,0,0:0:0:0:
192,192,4813,1,2,0:0:0:0:
320,192,4975,1,2,0:0:0:0:
64,192,4975,1,8,0:0:0:0:
448,192,5137,1,2,0:0:0:0:
64,192,5299,1,0,0:0:0:0:
192,192,5299,1,0,0:0:0:0:
320,192,5462,1,2,0:0:0:0:
192,192,5624,1,2,0:0:0:0:
64,192,5624,1,8,0:0:0:0:
320,192,5786,1,2,0:0:0:0:
192,192,5948,1,0,0:0:0:0:
448,192,5948,128,2,6272:0:0:0:0:
320,192,6110,1,0,0:0:0:0:
192,192,6272,1,2,0:0:0:0:
320,192,6272,1,8,0:0:0:0:
64,192,6353,1,2,0:0:0:0:
192,192,6435,1,2,0:0:0:0:
320,192,6516,1,2,0:0:0:0:
448,192,6597,1,2,0:0:0:0:
192,192,6597,1,0,0:0:0:0:
64,192,6759,1,0,0:0:0:0:
320,192,6921,1,8,0:0:0:0:
192,192,6921,1,2,0:0:0:0:
448,192,7083,1,0,0:0:0:0:
192,192,7245,1,0,0:0:0:0:
64,192,7245,1,2,0:0:0:0:
320,192,7407,1,2,0:0:0:0:
192,192,7489,1,2,0:0:0:0:
64,192,7570,1,2,0:0:0:0:
448,192,7570,1,8,0:0:0:0:
192,192,7732,1,2,0:0:0:0:
64,192,7894,1,0,0:0:0:0:
320,192,7894,1,0,0:0:0:0:
320,192,8056,1,2,0:0:0:0:
192,192,8218,1,2,0:0:0:0:
448,192,8218,1,8,0:0:0:0:
448,192,8380,1,2,0:0:0:0:
320,192,8543,1,0,0:0:0:0:
64,192,8543,128,2,8867:0:0:0:0:
448,192,8705,1,0,0:0:0:0:
320,192,8867,1,2,0:0:0:0:
192,192,8867,1,8,0:0:0:0:
192,192,9029,1,2,0:0:0:0:
64,192,9191,1,2,0:0:0:0:
448,192,9191,1,0,0:0:0:0:
320,192,9353,128,4,9435:0:0:0:0:
448,192,9516,1,2,0:0:0:0:
192,192,9516,1,8,0:0:0:0:
192,192,9678,1,0,0:0:0:0:
64,192,9840,1,2,0:0:0:0:
320,192,9840,128,4,9921:0:0:0:0:
448,192,10002,1,2,0:0:0:0:
192,192,10164,1,8,0:0:0:0:
64,192,10164,1,2,0:0:0:0:
320,192,10245,128,4,10326:0:0:0:0:
192,192,10326,1,2,0:0:0:0:
448,192,10489,1,0,0:0:0:0:
64,192,10489,1,0,0:0:0:0:
320,192,10651,1,2,0:0:0:0:
192,192,10813,1,2,0:0:0:0:
448,192,10813,1,8,0:0:0:0:
320,192,10975,1,2,0:0:0:0:
448,192,11137,1,0,0:0:0:0:
64,192,11137,128,2,11462:0:0:0:0:
192,192,11299,128,2,11786:0:0:0:0:
320,192,11299,1,0,0:0:0:0:
320,192,11462,1,0,0:0:0:0:
448,192,11462,1,8,0:0:0:0:
448,192,11624,1,0,0:0:0:0:
64,192,11786,1,4,0:0:0:0:
320,192,11786,128,2,11948:0:0:0:0:
448,192,11948,1,0,0:0:0:0:
64,192,12110,1,8,0:0:0:0:
192,192,12110,1,0,0:0:0:0:
320,192,12110,128,2,12272:0:0:0:0:
192,192,12272,1,0,0:0:0:0:
64,192,12435,1,0,0:0:0:0:
448,192,12435,1,0,0:0:0:0:
320,192,12435,128,2,12597:0:0:0:0:
448,192,12597,1,2,0:0:0:0:
192,192,12678,1,2,0:0:0:0:
64,192,12759,1,8,0:0:0:0:
320,192,12759,1,2,0:0:0:0:
320,192,12921,1,2,0:0:0:0:
64,192,13083,1,0,0:0:0:0:
192,192,13083,128,2,13245:0:0:0:0:
448,192,13083,1,0,0:0:0:0:
448,192,13245,128,2,13407:0:0:0:0:
320,192,13245,1,0,0:0:0:0:
192,192,13407,128,2,13570:0:0:0:0:
64,192,13407,1,8,0:0:0:0:
448,192,13570,128,2,13732:0:0:0:0:
320,192,13570,1,0,0:0:0:0:
64,192,13732,128,2,14056:0:0:0:0:
192,192,13732,1,0,0:0:0:0:
320,192,13894,1,0,0:0:0:0:
448,192,14056,1,8,0:0:0:0:
192,192,14056,1,2,0:0:0:0:
320,192,14218,1,2,0:0:0:0:
448,192,14380,1,0,0:0:0:0:
192,192,14380,1,0,0:0:0:0:
64,192,14380,128,2,14543:0:0:0:0:
320,192,14543,128,2,14705:0:0:0:0:
448,192,14705,128,2,15029:0:0:0:0:
64,192,14705,1,0,0:0:0:0:
192,192,14705,1,8,0:0:0:0:
192,192,14867,1,0,0:0:0:0:
64,192,15029,1,2,0:0:0:0:
320,192,15029,1,0,0:0:0:0:
192,192,15191,1,2,0:0:0:0:
320,192,15353,1,2,0:0:0:0:
64,192,15353,1,8,0:0:0:0:
448,192,15516,128,2,15840:0:0:0:0:
192,192,15516,1,0,0:0:0:0:
320,192,15678,1,0,0:0:0:0:
192,192,15678,1,0,0:0:0:0:
64,192,15840,1,2,0:0:0:0:
192,192,16002,1,8,0:0:0:0:
448,192,16002,1,2,0:0:0:0:
320,192,16164,1,2,0:0:0:0:
448,192,16326,128,2,16651:0:0:0:0:
64,192,16326,1,0,0:0:0:0:
192,192,16489,1,0,0:0:0:0:
64,192,16651,1,0,0:0:0:0:
320,192,16651,1,8,0:0:0:0:
192,192,16813,1,2,0:0:0:0:
320,192,16894,1,2,0:0:0:0:
64,192,16975,1,0,0:0:0:0:
448,192,16975,128,2,17137:0:0:0:0:
192,192,17137,1,0,0:0:0:0:
320,192,17299,128,2,17462:0:0:0:0:
64,192,17299,1,8,0:0:0:0:
192,192,17462,1,0,0:0:0:0:
192,192,17624,128,2,17786:0:0:0:0:
320,192,17624,1,0,0:0:0:0:
448,192,17786,1,2,0:0:0:0:
320,192,17867,1,2,0:0:0:0:
64,192,17948,1,8,0:0:0:0:
192,192,17948,1,2,0:0:0:0:
320,192,18110,128,2,18435:0:0:0:0:
448,192,18110,1,0,0:0:0:0:
64,192,18272,1,0,0:0:0:0:
192,192,18272,1,0,0:0:0:0:
448,192,18435,1,2,0:0:0:0:
64,192,18597,1,8,0:0:0:0:
192,192,18597,128,2,18759:0:0:0:0:
448,192,18759,128,2,18921:0:0:0:0:
320,192,18759,1,0,0:0:0:0:
320,192,18921,128,2,19245:0:0:0:0:
64,192,18921,1,0,0:0:0:0:
192,192,18921,1,0,0:0:0:0:
192,192,19083,1,0,0:0:0:0:
64,192,19245,1,2,0:0:0:0:
448,192,19245,1,8,0:0:0:0:
192,192,19407,1,2,0:0:0:0:
64,192,19570,1,2,0:0:0:0:
448,192,19570,1,0,0:0:0:0:
320,192,19732,1,2,0:0:0:0:
448,192,19894,128,2,20218:0:0:0:0:
192,192,19894,1,8,0:0:0:0:
320,192,19894,1,0,0:0:0:0:
64,192,20056,1,0,0:0:0:0:
192,192,20218,1,2,0:0:0:0:
64,192,20218,1,0,0:0:0:0:
320,192,20380,1,2,0:0:0:0:
448,192,20543,1,2,0:0:0:0:
192,192,20543,1,8,0:0:0:0:
448,192,20705,128,2,21029:0:0:0:0:
192,192,20705,128,4,21029:1:0:0:0:
320,192,21029,128,2,21191:0:0:0:0:
192,192,21191,128,2,21353:0:0:0:0:
448,192,21353,128,2,21516:0:0:0:0:
192,192,21516,128,2,21840:0:0:0:0:
64,192,21840,1,8,0:0:0:0:
320,192,21840,1,0,0:0:0:0:
320,192,22002,128,2,22326:0:0:0:0:
64,192,22164,128,4,22489:1:0:0:0:
448,192,22164,1,8,0:0:0:0:
192,192,22326,128,2,22489:0:0:0:0:
320,192,22489,128,2,22651:0:0:0:0:
448,192,22651,128,2,22813:0:0:0:0:
192,192,22813,128,2,23137:0:0:0:0:
320,192,23137,1,8,0:0:0:0:
448,192,23137,1,0,0:0:0:0:
448,192,23299,128,2,23624:0:0:0:0:
64,192,23462,128,4,23786:1:0:0:0:
192,192,23462,1,8,0:0:0:0:
320,192,23624,128,2,23786:0:0:0:0:
192,192,23786,128,2,23948:0:0:0:0:
448,192,23948,128,2,24110:0:0:0:0:
320,192,24110,128,2,24435:0:0:0:0:
64,192,24435,1,0,0:0:0:0:
192,192,24435,1,8,0:0:0:0:
448,192,24597,128,2,24921:0:0:0:0:
64,192,24759,128,4,25083:1:0:0:0:
192,192,24759,1,8,0:0:0:0:
320,192,24921,128,2,25083:0:0:0:0:
192,192,25083,128,2,25245:0:0:0:0:
448,192,25083,1,8,0:0:0:0:
320,192,25245,128,2,25407:0:0:0:0:
448,192,25407,128,2,25570:0:0:0:0:
64,192,25407,128,4,25732:1:0:0:0:
192,192,25407,1,8,0:0:0:0:
320,192,25570,128,2,25732:0:0:0:0:
192,192,25732,128,2,25894:0:0:0:0:
448,192,25732,1,8,0:0:0:0:
320,192,25894,128,2,26056:0:0:0:0:
64,192,26218,1,4,0:0:0:0:
320,192,26218,1,0,0:0:0:0:
192,192,26218,1,0,0:0:0:0:
192,192,26380,1,4,0:0:0:0:
64,192,26380,1,0,0:0:0:0:
320,192,26380,1,0,0:0:0:0:
64,192,26543,1,0,0:0:0:0:
192,192,26543,1,0,0:0:0:0:
320,192,26543,1,4,0:0:0:0:
320,192,26705,128,0,27029:0:0:0:0:
448,192,26705,128,4,27029:0:0:0:0:
192,192,26705,128,0,27029:0:0:0:0:
64,192,27029,1,8,0:0:0:0:
192,192,27110,1,8,0:0:0:0:
320,192,27191,1,8,0:0:0:0:
448,192,27272,1,8,0:0:0:0:
192,192,27353,1,0,0:0:0:0:
320,192,27353,1,8,0:0:0:0:
64,192,27353,128,4,27678:0:0:0:0:
448,192,27678,128,2,28002:0:0:0:0:
192,192,27678,1,0,0:0:0:0:
320,192,28002,1,0,0:0:0:0:
192,192,28002,1,8,0:0:0:0:
448,192,28326,128,2,28651:0:0:0:0:
320,192,28326,1,0,0:0:0:0:
64,192,28651,128,0,28975:0:0:0:0:
192,192,28651,1,8,0:0:0:0:
448,192,28975,128,2,29299:0:0:0:0:
192,192,29137,1,0,3:0:0:0:
320,192,29218,1,0,3:0:0:0:
192,192,29299,1,8,0:0:0:0:
64,192,29299,1,0,3:0:0:0:
320,192,29380,1,0,3:0:0:0:
448,192,29462,128,2,29543:0:0:0:0:
320,192,29732,128,2,29813:0:0:0:0:
192,192,29948,128,2,30029:0:0:0:0:
448,192,29948,1,0,0:0:0:0:
320,192,29948,1,8,0:0:0:0:
64,192,30191,128,2,30272:0:0:0:0:
192,192,30489,128,2,30570:0:0:0:0:
64,192,30597,1,8,0:0:0:0:
448,192,30813,128,2,30894:0:0:0:0:
192,192,31110,128,2,31191:0:0:0:0:
320,192,31245,1,0,0:0:0:0:
448,192,31245,1,8,0:0:0:0:
64,192,31245,1,0,0:0:0:0:
192,192,31326,1,0,0:0:0:0:
320,192,31407,1,2,0:0:0:0:
448,192,31489,1,2,0:0:0:0:
320,192,31570,1,2,0:0:0:0:
192,192,31651,1,2,0:0:0:0:
64,192,31732,1,2,0:0:0:0:
448,192,31732,1,0,0:0:0:0:
192,192,31813,1,2,0:0:0:0:
320,192,31894,1,2,0:0:0:0:
64,192,31894,1,8,0:0:0:0:
448,192,31975,1,0,0:0:0:0:
64,192,32056,128,2,32218:0:0:0:0:
320,192,32056,1,0,0:0:0:0:
192,192,32218,128,2,32380:0:0:0:0:
64,192,32380,1,2,0:0:0:0:
320,192,32462,1,2,0:0:0:0:
192,192,32543,1,4,0:0:0:0:
64,192,32543,1,8,0:0:0:0:
448,192,32543,128,2,32624:0:0:0:0:
320,192,32786,128,2,32867:0:0:0:0:
64,192,32867,1,8,0:0:0:0:
192,192,33056,128,2,33137:0:0:0:0:
448,192,33191,1,8,0:0:0:0:
64,192,33380,128,2,33462:0:0:0:0:
192,192,33516,1,8,0:0:0:0:
320,192,33678,128,2,33759:0:0:0:0:
448,192,33840,128,2,33921:0:0:0:0:
192,192,33840,1,8,0:0:0:0:
64,192,33840,128,4,33921:0:0:0:0:
320,192,34083,128,2,34164:0:0:0:0:
64,192,34164,1,8,0:0:0:0:
192,192,34380,128,2,34462:0:0:0:0:
448,192,34489,1,8,0:0:0:0:
64,192,34651,128,2,34732:0:0:0:0:
320,192,34813,1,8,0:0:0:0:
192,192,34975,1,2,0:0:0:0:
320,192,35029,1,2,0:0:0:0:
448,192,35083,1,2,0:0:0:0:
64,192,35137,1,4,0:0:0:0:
192,192,35137,1,0,3:0:0:0:
320,192,35218,1,0,3:0:0:0:
448,192,35299,1,0,3:0:0:0:
64,192,35380,1,0,3:0:0:0:
192,192,35462,1,0,0:0:0:0:
448,192,35462,1,0,3:0:0:0:
320,192,35543,1,0,3:0:0:0:
448,192,35624,1,0,3:0:0:0:
64,192,35705,1,0,3:0:0:0:
192,192,35786,1,0,0:0:0:0:
448,192,35786,1,0,3:0:0:0:
320,192,35867,1,0,3:0:0:0:
448,192,35948,1,0,3:0:0:0:
64,192,36029,1,0,3:0:0:0:
448,192,36110,1,0,0:0:0:0:
320,192,36110,1,0,3:0:0:0:
64,192,36191,1,0,0:0:0:0:
192,192,36191,1,0,3:0:0:0:
320,192,36272,1,0,3:0:0:0:
448,192,36272,1,0,0:0:0:0:
64,192,36353,1,0,0:0:0:0:
192,192,36353,1,0,3:0:0:0:
448,192,36435,128,4,37732:0:0:0:0:
320,192,36435,1,0,3:0:0:0:
320,192,36759,128,0,37732:0:0:0:0:
64,192,36759,1,2,0:0:0:0:
64,192,37083,1,2,0:0:0:0:
192,192,37407,1,2,1:0:0:0:
64,192,37732,1,0,1:0:0:0:
192,192,37732,1,2,0:0:0:0:
320,192,37894,1,0,0:0:0:0:
64,192,38056,1,0,1:0:0:0:
192,192,38056,1,2,0:0:0:0:
448,192,38056,1,0,0:0:0:0:
320,192,38218,1,0,0:0:0:0:
64,192,38380,1,0,1:0:0:0:
192,192,38380,1,2,0:0:0:0:
448,192,38380,1,0,0:0:0:0:
320,192,38543,1,2,0:0:0:0:
192,192,38624,1,2,0:0:0:0:
64,192,38705,1,2,0:0:0:0:
320,192,38705,1,0,1:0:0:0:
448,192,38705,1,0,0:0:0:0:
192,192,38867,1,2,0:0:0:0:
448,192,38867,1,0,1:0:0:0:
320,192,39029,128,2,39191:0:0:0:0:
64,192,39029,1,0,1:0:0:0:
192,192,39029,1,0,0:0:0:0:
448,192,39191,128,2,39353:0:0:0:0:
320,192,39353,128,2,39516:0:0:0:0:
64,192,39353,1,0,0:0:0:0:
192,192,39353,1,0,1:0:0:0:
448,192,39516,128,2,39678:0:0:0:0:
320,192,39678,1,0,1:0:0:0:
64,192,39678,128,2,39840:0:0:0:0:
192,192,39840,1,0,0:0:0:0:
448,192,39840,1,0,1:0:0:0:
320,192,39921,1,0,1:0:0:0:
192,192,40002,1,0,1:0:0:0:
448,192,40002,1,2,0:0:0:0:
192,192,40164,1,0,1:0:0:0:
448,192,40164,1,2,0:0:0:0:
64,192,40326,128,2,40489:0:0:0:0:
320,192,40326,1,0,1:0:0:0:
448,192,40326,1,0,0:0:0:0:
192,192,40489,128,2,40651:0:0:0:0:
320,192,40651,128,2,40813:0:0:0:0:
64,192,40651,1,0,1:0:0:0:
448,192,40651,1,0,0:0:0:0:
64,192,40975,1,0,1:0:0:0:
448,192,40975,1,0,0:0:0:0:
192,192,40975,1,2,0:0:0:0:
320,192,41137,1,2,0:0:0:0:
448,192,41299,1,2,0:0:0:0:
192,192,41299,1,0,0:0:0:0:
64,192,41299,1,0,1:0:0:0:
448,192,41462,128,2,41786:0:0:0:0:
192,192,41462,1,0,0:0:0:0:
64,192,41462,1,0,1:0:0:0:
64,192,41624,1,0,1:0:0:0:
192,192,41624,1,0,0:0:0:0:
320,192,41786,1,2,0:0:0:0:
64,192,41948,1,2,0:0:0:0:
320,192,41948,1,0,1:0:0:0:
448,192,42110,1,2,0:0:0:0:
448,192,42272,128,2,42597:0:0:0:0:
64,192,42272,1,0,1:0:0:0:
192,192,42353,1,0,1:0:0:0:
64,192,42435,1,0,1:0:0:0:
192,192,42516,1,0,1:0:0:0:
64,192,42597,1,0,1:0:0:0:
64,192,42759,1,2,0:0:0:0:
320,192,42759,1,0,1:0:0:0:
192,192,42840,1,2,0:0:0:0:
64,192,42921,1,0,1:0:0:0:
448,192,42921,128,2,43083:0:0:0:0:
320,192,42921,1,0,0:0:0:0:
192,192,43083,1,0,0:0:0:0:
320,192,43245,128,2,43407:0:0:0:0:
64,192,43245,1,0,1:0:0:0:
448,192,43245,1,0,0:0:0:0:
192,192,43407,1,0,0:0:0:0:
192,192,43570,128,2,43732:0:0:0:0:
320,192,43570,1,0,1:0:0:0:
64,192,43570,1,0,0:0:0:0:
448,192,43732,1,2,0:0:0:0:
320,192,43813,1,2,0:0:0:0:
64,192,43894,1,2,0:0:0:0:
448,192,43894,1,0,1:0:0:0:
64,192,44056,1,2,0:0:0:0:
192,192,44056,1,0,1:0:0:0:
320,192,44137,1,0,1:0:0:0:
64,192,44218,1,0,0:0:0:0:
192,192,44218,1,0,1:0:0:0:
448,192,44380,1,2,0:0:0:0:
64,192,44543,1,2,0:0:0:0:
320,192,44543,1,0,1:0:0:0:
448,192,44543,1,0,0:0:0:0:
192,192,44705,1,2,0:0:0:0:
64,192,44867,128,2,45191:0:0:0:0:
320,192,44867,1,0,0:0:0:0:
448,192,44867,1,0,1:0:0:0:
320,192,45029,1,0,0:0:0:0:
192,192,45191,1,0,1:0:0:0:
448,192,45191,1,2,0:0:0:0:
320,192,45353,1,2,0:0:0:0:
64,192,45353,1,0,1:0:0:0:
192,192,45516,1,0,1:0:0:0:
448,192,45516,1,0,0:0:0:0:
64,192,45516,128,2,45678:0:0:0:0:
320,192,45678,128,2,45840:0:0:0:0:
448,192,45678,1,0,0:0:0:0:
448,192,45840,128,2,46002:0:0:0:0:
64,192,45840,1,0,0:0:0:0:
192,192,45840,1,0,1:0:0:0:
64,192,46002,1,0,1:0:0:0:
192,192,46043,1,0,1:0:0:0:
320,192,46083,1,0,1:0:0:0:
448,192,46124,1,0,1:0:0:0:
64,192,46164,1,0,1:0:0:0:
192,192,46164,128,2,46326:0:0:0:0:
320,192,46326,128,2,46489:0:0:0:0:
448,192,46326,1,0,1:0:0:0:
192,192,46489,128,2,46651:0:0:0:0:
448,192,46651,128,2,46813:0:0:0:0:
320,192,46651,1,0,0:0:0:0:
64,192,46651,1,0,1:0:0:0:
64,192,46975,1,0,1:0:0:0:
320,192,46975,1,2,0:0:0:0:
192,192,47056,1,0,1:0:0:0:
64,192,47137,1,2,0:0:0:0:
320,192,47137,1,0,1:0:0:0:
192,192,47299,128,2,47462:0:0:0:0:
320,192,47299,1,0,1:0:0:0:
64,192,47462,128,2,47624:0:0:0:0:
320,192,47462,1,0,1:0:0:0:
448,192,47462,1,0,0:0:0:0:
448,192,47624,128,0,47786:3:0:0:0:
64,192,47786,128,2,47867:3:0:0:0:
320,192,47867,128,2,47948:3:0:0:0:
192,192,47948,128,2,48029:3:0:0:0:
448,192,48029,128,2,48110:3:0:0:0:
64,192,48110,1,0,1:0:0:0:
320,192,48110,1,2,0:0:0:0:
192,192,48272,1,0,0:0:0:0:
64,192,48435,1,0,1:0:0:0:
320,192,48435,1,2,0:0:0:0:
448,192,48435,1,0,0:0:0:0:
192,192,48597,1,0,0:0:0:0:
64,192,48759,1,0,1:0:0:0:
320,192,48759,1,2,0:0:0:0:
448,192,48759,1,0,0:0:0:0:
448,192,48921,1,2,0:0:0:0:
320,192,49002,1,2,0:0:0:0:
192,192,49083,1,2,0:0:0:0:
64,192,49083,1,0,1:0:0:0:
448,192,49083,1,0,0:0:0:0:
320,192,49245,1,2,0:0:0:0:
192,192,49245,1,0,1:0:0:0:
64,192,49407,128,2,49570:0:0:0:0:
192,192,49407,1,0,1:0:0:0:
448,192,49407,1,0,0:0:0:0:
320,192,49570,128,2,49732:0:0:0:0:
64,192,49732,128,2,49894:0:0:0:0:
192,192,49732,1,0,1:0:0:0:
448,192,49732,1,0,0:0:0:0:
448,192,49894,128,2,50056:0:0:0:0:
320,192,50056,1,0,1:0:0:0:
192,192,50056,128,2,50218:0:0:0:0:
320,192,50218,1,0,1:0:0:0:
448,192,50218,1,0,0:0:0:0:
64,192,50299,1,0,1:0:0:0:
320,192,50380,1,2,0:0:0:0:
448,192,50380,1,0,1:0:0:0:
320,192,50543,1,0,0:0:0:0:
448,192,50543,1,0,1:0:0:0:
64,192,50543,1,2,0:0:0:0:
64,192,50705,128,2,50867:0:0:0:0:
192,192,50705,1,0,1:0:0:0:
448,192,50705,1,0,0:0:0:0:
192,192,50867,128,2,51029:0:0:0:0:
320,192,50867,1,0,0:0:0:0:
320,192,51029,128,2,51191:0:0:0:0:
448,192,51029,1,0,1:0:0:0:
64,192,51029,1,0,0:0:0:0:
192,192,51191,1,0,0:0:0:0:
448,192,51353,1,0,0:0:0:0:
320,192,51353,1,0,1:0:0:0:
64,192,51353,1,2,0:0:0:0:
192,192,51516,1,2,0:0:0:0:
320,192,51678,1,2,0:0:0:0:
64,192,51678,1,0,1:0:0:0:
192,192,51678,1,0,0:0:0:0:
448,192,51840,128,2,52164:0:0:0:0:
64,192,51840,1,0,0:0:0:0:
192,192,51840,1,0,1:0:0:0:
64,192,52002,1,0,1:0:0:0:
192,192,52002,1,0,0:0:0:0:
320,192,52164,1,2,0:0:0:0:
64,192,52326,1,2,0:0:0:0:
320,192,52326,1,0,1:0:0:0:
448,192,52326,1,0,0:0:0:0:
320,192,52489,1,2,0:0:0:0:
448,192,52651,128,2,52975:0:0:0:0:
192,192,52651,1,0,1:0:0:0:
64,192,52732,1,0,1:0:0:0:
192,192,52813,1,0,1:0:0:0:
64,192,52894,1,0,1:0:0:0:
192,192,52975,1,0,1:0:0:0:
64,192,53137,1,2,0:0:0:0:
192,192,53218,1,2,0:0:0:0:
448,192,53299,128,2,53462:0:0:0:0:
64,192,53299,1,0,0:0:0:0:
320,192,53299,1,0,1:0:0:0:
192,192,53462,1,0,0:0:0:0:
192,192,53624,128,2,53786:0:0:0:0:
320,192,53624,1,0,0:0:0:0:
64,192,53624,1,0,1:0:0:0:
448,192,53786,1,0,0:0:0:0:
64,192,53948,128,2,54110:0:0:0:0:
320,192,53948,1,0,1:0:0:0:
192,192,53948,1,0,0:0:0:0:
448,192,54110,1,2,0:0:0:0:
320,192,54191,1,2,0:0:0:0:
192,192,54272,1,0,1:0:0:0:
64,192,54272,1,2,0:0:0:0:
448,192,54272,1,0,0:0:0:0:
448,192,54435,1,0,1:0:0:0:
64,192,54435,1,2,0:0:0:0:
192,192,54516,1,0,1:0:0:0:
448,192,54597,1,0,1:0:0:0:
64,192,54597,1,0,0:0:0:0:
320,192,54759,1,2,0:0:0:0:
192,192,54921,1,2,0:0:0:0:
448,192,54921,1,0,1:0:0:0:
320,192,54921,1,0,0:0:0:0:
64,192,55083,1,2,0:0:0:0:
64,192,55245,1,0,1:0:0:0:
448,192,55245,1,0,0:0:0:0:
192,192,55245,128,2,55570:0:0:0:0:
320,192,55407,1,0,0:0:0:0:
64,192,55570,1,2,0:0:0:0:
448,192,55570,1,0,1:0:0:0:
192,192,55732,1,0,1:0:0:0:
448,192,55732,1,2,0:0:0:0:
64,192,55894,128,2,56056:0:0:0:0:
192,192,55894,1,0,1:0:0:0:
448,192,55894,1,4,0:0:0:0:
320,192,56056,128,2,56218:0:0:0:0:
448,192,56056,1,0,0:0:0:0:
448,192,56218,128,2,56380:0:0:0:0:
192,192,56218,1,0,1:0:0:0:
64,192,56218,1,0,0:0:0:0:
64,192,56380,1,0,1:0:0:0:
192,192,56421,1,0,1:0:0:0:
320,192,56462,1,0,1:0:0:0:
448,192,56502,1,0,1:0:0:0:
64,192,56543,128,2,56705:0:0:0:0:
192,192,56543,1,0,1:0:0:0:
192,192,56705,128,2,56867:0:0:0:0:
320,192,56705,1,0,1:0:0:0:
320,192,56867,128,2,57029:0:0:0:0:
448,192,56867,1,0,0:0:0:0:
448,192,57029,128,2,57191:0:0:0:0:
192,192,57029,1,4,0:0:0:0:
64,192,57029,1,0,1:0:0:0:
64,192,57353,1,2,0:0:0:0:
192,192,57353,1,0,1:0:0:0:
320,192,57435,1,0,1:0:0:0:
448,192,57435,1,2,0:0:0:0:
64,192,57516,1,2,0:0:0:0:
192,192,57516,1,0,1:0:0:0:
448,192,57678,128,2,58164:0:0:0:0:
320,192,57678,1,0,1:0:0:0:
64,192,57840,128,2,58164:0:0:0:0:
192,192,57840,1,0,1:0:0:0:
192,192,58164,128,4,58489:0:0:0:0:
320,192,58489,1,0,0:0:0:0:
448,192,58489,1,0,1:0:0:0:
64,192,58651,1,2,0:0:0:0:
320,192,58651,1,0,0:0:0:0:
448,192,58813,1,0,1:0:0:0:
64,192,58894,1,2,0:0:0:0:
320,192,58894,1,0,0:0:0:0:
448,192,58975,1,0,0:0:0:0:
320,192,59137,1,2,0:0:0:0:
64,192,59137,1,0,1:0:0:0:
320,192,59299,1,0,0:0:0:0:
192,192,59380,1,2,0:0:0:0:
448,192,59380,1,0,0:0:0:0:
64,192,59462,1,0,1:0:0:0:
448,192,59624,1,0,0:0:0:0:
320,192,59624,1,2,0:0:0:0:
320,192,59786,1,0,1:0:0:0:
64,192,59948,1,0,0:0:0:0:
192,192,59948,1,2,0:0:0:0:
320,192,60110,1,0,1:0:0:0:
64,192,60191,1,0,0:0:0:0:
192,192,60191,1,2,0:0:0:0:
320,192,60272,1,0,0:0:0:0:
192,192,60435,1,0,1:0:0:0:
448,192,60435,1,2,0:0:0:0:
64,192,60597,1,0,0:0:0:0:
192,192,60678,1,2,0:0:0:0:
320,192,60678,1,0,0:0:0:0:
448,192,60759,1,0,1:0:0:0:
64,192,60921,1,2,0:0:0:0:
192,192,60921,1,0,0:0:0:0:
448,192,61083,1,0,1:0:0:0:
192,192,61245,1,0,0:0:0:0:
320,192,61245,1,2,0:0:0:0:
64,192,61407,1,0,1:0:0:0:
192,192,61489,1,0,0:0:0:0:
320,192,61489,1,2,0:0:0:0:
64,192,61570,1,0,0:0:0:0:
192,192,61732,1,0,1:0:0:0:
448,192,61732,1,2,0:0:0:0:
192,192,61894,1,0,0:0:0:0:
64,192,61975,1,0,0:0:0:0:
320,192,61975,1,2,0:0:0:0:
192,192,62056,1,0,1:0:0:0:
192,192,62218,1,0,0:0:0:0:
448,192,62218,1,2,0:0:0:0:
64,192,62380,1,4,3:0:0:0:
320,192,62380,1,0,0:0:0:0:
64,192,62543,1,0,0:0:0:0:
320,192,62624,1,4,3:0:0:0:
448,192,62624,1,0,0:0:0:0:
192,192,62705,1,0,0:0:0:0:
448,192,62786,1,0,0:0:0:0:
192,192,62867,1,0,0:0:0:0:
64,192,62867,1,4,3:0:0:0:
320,192,62948,1,4,3:0:0:0:
448,192,63029,128,2,63110:0:0:0:0:
64,192,63029,1,4,3:0:0:0:
192,192,63029,1,0,0:0:0:0:
320,192,63110,128,2,63191:0:0:0:0:
448,192,63191,128,2,63272:0:0:0:0:
320,192,63272,128,2,63353:0:0:0:0:
192,192,63353,128,2,63435:0:0:0:0:
64,192,63435,128,2,63516:0:0:0:0:
320,192,63516,128,2,63597:0:0:0:0:
192,192,63597,128,2,63678:0:0:0:0:
64,192,63678,1,4,0:0:0:0:
448,192,63678,1,0,1:0:0:0:
64,192,63840,1,0,0:0:0:0:
192,192,63840,1,2,0:0:0:0:
448,192,64002,1,0,1:0:0:0:
64,192,64083,1,0,0:0:0:0:
192,192,64083,1,2,0:0:0:0:
448,192,64164,1,0,0:0:0:0:
192,192,64326,1,0,1:0:0:0:
320,192,64326,1,2,0:0:0:0:
64,192,64326,128,0,64813:0:0:0:0:
192,192,64489,1,0,0:0:0:0:
448,192,64570,1,2,0:0:0:0:
320,192,64570,1,0,0:0:0:0:
192,192,64651,1,0,1:0:0:0:
320,192,64813,1,2,0:0:0:0:
448,192,64813,1,0,0:0:0:0:
192,192,64975,1,0,1:0:0:0:
64,192,65137,1,0,0:0:0:0:
448,192,65137,1,2,0:0:0:0:
192,192,65299,1,0,1:0:0:0:
64,192,65380,1,2,0:0:0:0:
448,192,65380,1,0,0:0:0:0:
192,192,65462,1,0,0:0:0:0:
320,192,65624,1,2,0:0:0:0:
448,192,65624,1,0,1:0:0:0:
448,192,65786,1,0,0:0:0:0:
192,192,65867,1,2,0:0:0:0:
320,192,65867,1,0,0:0:0:0:
64,192,65948,1,0,1:0:0:0:
192,192,66110,1,0,0:0:0:0:
448,192,66110,1,0,1:0:0:0:
320,192,66110,1,2,0:0:0:0:
64,192,66435,1,0,1:0:0:0:
320,192,66435,1,0,0:0:0:0:
448,192,66435,1,0,0:0:0:0:
64,192,66678,1,0,1:0:0:0:
320,192,66678,1,0,0:0:0:0:
448,192,66678,1,0,0:0:0:0:
64,192,66921,1,0,1:0:0:0:
192,192,66921,1,0,0:0:0:0:
448,192,66921,1,0,0:0:0:0:
320,192,67164,1,0,0:0:0:0:
192,192,67164,1,0,0:0:0:0:
64,192,67164,1,0,1:0:0:0:
192,192,67407,1,0,1:0:0:0:
320,192,67407,1,0,0:0:0:0:
448,192,67407,1,0,0:0:0:0:
448,192,67570,128,0,67651:3:0:0:0:
320,192,67651,128,0,67732:3:0:0:0:
192,192,67732,128,0,67813:3:0:0:0:
64,192,67813,128,0,67894:3:0:0:0:
448,192,67894,1,0,0:0:0:0:
320,192,67894,1,0,1:0:0:0:
192,192,67975,1,0,1:0:0:0:
64,192,68056,1,0,1:0:0:0:
192,192,68137,1,0,1:0:0:0:
320,192,68218,1,0,0:0:0:0:
448,192,68218,1,0,0:0:0:0:
64,192,68218,1,0,3:0:0:0:
192,192,68272,1,0,3:0:0:0:
320,192,68326,1,0,3:0:0:0:
448,192,68380,1,0,3:0:0:0:
64,192,68435,1,0,3:0:0:0:
192,192,68489,1,0,3:0:0:0:
320,192,68543,128,2,68867:1:0:0:0:
64,192,68867,1,0,0:0:0:0:
192,192,68867,1,0,1:0:0:0:
448,192,68867,1,0,0:0:0:0:
64,192,69029,1,0,0:0:0:0:
320,192,69029,1,2,0:0:0:0:
192,192,69191,1,0,1:0:0:0:
320,192,69272,1,2,0:0:0:0:
64,192,69272,1,0,0:0:0:0:
192,192,69353,1,0,0:0:0:0:
320,192,69516,1,2,0:0:0:0:
64,192,69516,1,0,1:0:0:0:
192,192,69678,1,0,0:0:0:0:
64,192,69759,1,0,0:0:0:0:
448,192,69759,1,2,0:0:0:0:
320,192,69840,1,0,1:0:0:0:
448,192,70002,1,0,0:0:0:0:
320,192,70002,1,2,0:0:0:0:
64,192,70164,1,0,1:0:0:0:
448,192,70326,1,0,0:0:0:0:
320,192,70326,1,2,0:0:0:0:
64,192,70489,1,0,1:0:0:0:
320,192,70570,1,2,0:0:0:0:
448,192,70570,1,0,0:0:0:0:
192,192,70651,1,0,0:0:0:0:
320,192,70813,1,2,0:0:0:0:
64,192,70813,1,0,1:0:0:0:
64,192,70975,1,0,0:0:0:0:
192,192,71056,1,0,0:0:0:0:
320,192,71056,1,2,0:0:0:0:
448,192,71137,1,0,1:0:0:0:
64,192,71299,1,0,0:0:0:0:
192,192,71299,1,2,0:0:0:0:
448,192,71462,1,0,1:0:0:0:
320,192,71624,1,0,0:0:0:0:
64,192,71624,1,2,0:0:0:0:
64,192,71786,1,0,1:0:0:0:
448,192,71786,1,0,0:0:0:0:
320,192,71867,1,2,0:0:0:0:
64,192,71948,1,0,1:0:0:0:
448,192,71948,1,0,0:0:0:0:
448,192,72110,1,0,0:0:0:0:
64,192,72110,1,0,1:0:0:0:
192,192,72110,1,2,0:0:0:0:
448,192,72272,1,0,0:0:0:0:
64,192,72272,1,0,1:0:0:0:
320,192,72353,1,2,0:0:0:0:
448,192,72435,1,0,0:0:0:0:
64,192,72435,1,0,1:0:0:0:
64,192,72597,1,0,1:0:0:0:
448,192,72597,1,0,0:0:0:0:
192,192,72597,1,2,0:0:0:0:
64,192,72759,1,0,1:0:0:0:
448,192,72759,1,4,0:0:0:0:
320,192,72921,128,2,73164:0:0:0:0:
448,192,73164,128,2,73245:0:0:0:0:
320,192,73245,128,2,73326:0:0:0:0:
192,192,73326,128,2,73407:0:0:0:0:
64,192,73407,128,2,73489:0:0:0:0:
448,192,73489,128,2,73570:0:0:0:0:
192,192,73570,128,2,73651:0:0:0:0:
320,192,73651,128,2,73732:0:0:0:0:
448,192,73732,128,2,73813:0:0:0:0:
192,192,73813,128,2,73894:0:0:0:0:
64,192,73894,128,2,73975:0:0:0:0:
192,192,73975,128,2,74056:0:0:0:0:
320,192,74056,1,4,0:0:0:0:
448,192,74056,1,4,3:0:0:0:
64,192,74056,1,0,1:0:0:0:
64,192,74218,1,0,0:0:0:0:
192,192,74218,1,2,0:0:0:0:
320,192,74380,1,0,1:0:0:0:
64,192,74462,1,0,0:0:0:0:
192,192,74462,1,2,0:0:0:0:
320,192,74543,1,0,0:0:0:0:
192,192,74705,1,2,0:0:0:0:
64,192,74705,1,0,1:0:0:0:
192,192,74867,1,0,0:0:0:0:
64,192,74948,1,0,0:0:0:0:
320,192,74948,1,2,0:0:0:0:
448,192,75029,1,0,1:0:0:0:
192,192,75191,1,0,0:0:0:0:
320,192,75191,1,2,0:0:0:0:
64,192,75353,1,0,1:0:0:0:
448,192,75516,1,0,0:0:0:0:
320,192,75516,1,2,0:0:0:0:
192,192,75678,1,0,1:0:0:0:
448,192,75759,1,0,0:0:0:0:
320,192,75759,1,2,0:0:0:0:
64,192,75840,1,0,0:0:0:0:
192,192,76002,1,2,0:0:0:0:
448,192,76002,1,0,1:0:0:0:
64,192,76164,1,0,0:0:0:0:
192,192,76245,1,2,0:0:0:0:
320,192,76245,1,0,0:0:0:0:
448,192,76326,1,0,1:0:0:0:
64,192,76489,1,2,0:0:0:0:
320,192,76489,1,0,0:0:0:0:
320,192,76651,1,0,0:0:0:0:
192,192,76651,1,0,1:0:0:0:
64,192,76651,1,0,0:0:0:0:
320,192,76813,1,0,0:0:0:0:
192,192,76813,1,0,1:0:0:0:
64,192,76813,1,0,0:0:0:0:
448,192,76975,1,0,0:0:0:0:
320,192,76975,1,0,0:0:0:0:
192,192,76975,1,0,1:0:0:0:
448,192,77137,1,0,0:0:0:0:
320,192,77137,1,0,0:0:0:0:
192,192,77137,1,0,1:0:0:0:
192,192,77299,1,0,1:0:0:0:
64,192,77299,1,0,3:0:0:0:
448,192,77380,1,0,3:0:0:0:
320,192,77380,1,0,1:0:0:0:
192,192,77462,1,0,1:0:0:0:
64,192,77462,1,0,3:0:0:0:
448,192,77543,1,0,3:0:0:0:
320,192,77543,1,0,1:0:0:0:
192,192,77624,1,0,1:0:0:0:
64,192,77624,1,2,3:0:0:0:
448,192,77705,1,2,3:0:0:0:
320,192,77705,1,0,1:0:0:0:
192,192,77786,1,0,1:0:0:0:
64,192,77786,1,2,3:0:0:0:
448,192,77867,1,2,3:0:0:0:
320,192,77867,1,0,1:0:0:0:
64,192,77948,128,0,79245:0:0:0:0:
192,192,77948,1,4,0:0:0:0:
448,192,78597,128,0,79245:0:0:0:0:
320,192,78597,1,2,1:0:0:0:
320,192,78921,1,2,1:0:0:0:
320,192,79245,1,0,1:0:0:0:
192,192,79245,128,4,79570:0:0:0:0:
448,192,79570,1,0,1:0:0:0:
64,192,79570,128,4,79894:0:0:0:0:
320,192,79894,128,4,80218:0:0:0:0:
192,192,79894,1,0,1:0:0:0:
448,192,80218,128,4,80543:0:0:0:0:
64,192,80218,1,0,1:0:0:0:
64,192,80543,128,0,80867:3:0:0:0:
320,192,80543,1,4,0:0:0:0:
192,192,80867,128,0,81191:3:0:0:0:
320,192,81191,128,0,81516:3:0:0:0:
448,192,81516,128,0,81840:3:0:0:0:
64,192,81678,1,2,0:0:0:0:
192,192,81759,1,2,0:0:0:0:
320,192,81840,1,4,0:0:0:0:
64,192,81840,1,2,0:0:0:0:
320,192,82164,1,2,0:0:0:0:
320,192,82489,1,2,0:0:0:0:
320,192,82651,1,2,0:0:0:0:
192,192,82732,1,2,0:0:0:0:
64,192,82813,1,2,0:0:0:0:
192,192,82975,1,2,0:0:0:0:
320,192,83137,1,2,0:0:0:0:
448,192,83299,1,2,0:0:0:0:
320,192,83462,1,2,0:0:0:0:
448,192,83624,1,2,0:0:0:0:
192,192,83786,128,2,84110:0:0:0:0:
320,192,84110,1,0,0:0:0:0:
448,192,84110,1,2,0:0:0:0:
192,192,84272,1,2,0:0:0:0:
64,192,84435,1,2,0:0:0:0:
192,192,84597,1,2,0:0:0:0:
320,192,84759,128,2,85083:0:0:0:0:
64,192,85083,1,2,0:0:0:0:
448,192,85083,1,0,0:0:0:0:
192,192,85245,1,2,0:0:0:0:
320,192,85407,1,2,0:0:0:0:
448,192,85570,128,2,85894:0:0:0:0:
192,192,85894,1,2,0:0:0:0:
64,192,86056,1,2,0:0:0:0:
192,192,86218,1,2,0:0:0:0:
320,192,86380,128,2,86705:0:0:0:0:
448,192,86543,1,2,0:0:0:0:
192,192,86705,1,2,0:0:0:0:
64,192,86786,1,2,0:0:0:0:
192,192,86867,1,2,0:0:0:0:
320,192,86948,1,2,0:0:0:0:
448,192,87029,128,2,87353:0:0:0:0:
64,192,87029,1,0,0:0:0:0:
320,192,87353,128,2,87678:0:0:0:0:
64,192,87353,1,0,0:0:0:0:
192,192,87678,1,2,0:0:0:0:
64,192,87678,1,0,0:0:0:0:
448,192,87840,1,2,0:0:0:0:
320,192,87921,1,2,0:0:0:0:
192,192,88002,1,2,0:0:0:0:
320,192,88164,128,2,88489:0:0:0:0:
64,192,88164,1,0,0:0:0:0:
448,192,88489,1,2,0:0:0:0:
192,192,88651,1,2,0:0:0:0:
448,192,88813,1,2,0:0:0:0:
320,192,88975,128,2,89299:0:0:0:0:
448,192,89299,1,2,0:0:0:0:
192,192,89462,1,2,0:0:0:0:
64,192,89624,1,2,0:0:0:0:
192,192,89786,1,2,0:0:0:0:
448,192,89948,128,2,90272:0:0:0:0:
64,192,90272,1,2,0:0:0:0:
192,192,90435,1,2,0:0:0:0:
320,192,90597,1,2,0:0:0:0:
448,192,90759,128,2,91083:0:0:0:0:
192,192,90759,128,2,91083:0:0:0:0:
320,192,91083,1,2,0:0:0:0:
64,192,91083,1,0,0:0:0:0:
192,192,91245,1,0,0:0:0:0:
448,192,91245,1,2,0:0:0:0:
320,192,91407,1,2,0:0:0:0:
64,192,91407,1,0,0:0:0:0:
64,192,91570,128,2,92056:0:0:0:0:
192,192,92056,1,2,0:0:0:0:
320,192,92137,1,2,0:0:0:0:
448,192,92218,1,2,0:0:0:0:
192,192,92218,1,0,0:0:0:0:
64,192,92218,1,0,3:0:0:0:
448,192,92543,1,2,0:0:0:0:
192,192,92543,1,0,3:0:0:0:
448,192,92867,1,2,0:0:0:0:
64,192,92867,1,0,1:0:0:0:
320,192,93029,1,2,0:0:0:0:
192,192,93110,1,2,0:0:0:0:
64,192,93191,1,2,0:0:0:0:
448,192,93191,1,0,3:0:0:0:
192,192,93353,1,2,0:0:0:0:
448,192,93353,1,0,3:0:0:0:
320,192,93516,1,2,0:0:0:0:
64,192,93516,1,0,3:0:0:0:
448,192,93678,1,2,0:0:0:0:
192,192,93678,1,0,3:0:0:0:
320,192,93840,1,2,0:0:0:0:
64,192,93840,1,0,3:0:0:0:
448,192,94002,1,2,0:0:0:0:
192,192,94002,1,0,3:0:0:0:
64,192,94164,1,0,1:0:0:0:
192,192,94164,1,2,0:0:0:0:
320,192,94489,1,0,3:0:0:0:
448,192,94489,1,2,0:0:0:0:
64,192,94651,1,0,3:0:0:0:
320,192,94651,1,2,0:0:0:0:
64,192,94813,1,0,3:0:0:0:
192,192,94813,1,2,0:0:0:0:
320,192,94975,1,2,0:0:0:0:
192,192,95137,1,0,3:0:0:0:
448,192,95137,1,2,0:0:0:0:
320,192,95462,1,0,1:0:0:0:
64,192,95462,1,2,0:0:0:0:
192,192,95624,1,2,0:0:0:0:
448,192,95624,1,0,3:0:0:0:
320,192,95786,1,2,0:0:0:0:
64,192,95786,1,0,3:0:0:0:
448,192,95948,1,2,0:0:0:0:
192,192,95948,1,0,1:0:0:0:
320,192,96272,1,0,1:0:0:0:
192,192,96272,1,2,0:0:0:0:
448,192,96435,1,0,3:0:0:0:
64,192,96435,1,2,0:0:0:0:
192,192,96597,1,2,0:0:0:0:
320,192,96597,1,0,3:0:0:0:
448,192,96759,1,2,0:0:0:0:
64,192,96759,1,0,1:0:0:0:
192,192,96921,1,0,3:0:0:0:
320,192,97083,1,0,1:0:0:0:
64,192,97083,128,2,97245:0:0:0:0:
448,192,97245,1,0,1:0:0:0:
192,192,97245,1,2,0:0:0:0:
320,192,97326,1,2,0:0:0:0:
192,192,97407,1,0,3:0:0:0:
448,192,97407,128,2,97732:0:0:0:0:
64,192,97732,1,0,3:0:0:0:
192,192,97732,1,0,0:0:0:0:
320,192,97732,128,2,98056:0:0:0:0:
64,192,98056,1,0,0:0:0:0:
192,192,98056,1,2,0:0:0:0:
448,192,98056,1,0,1:0:0:0:
320,192,98218,1,2,0:0:0:0:
192,192,98299,1,2,0:0:0:0:
448,192,98380,1,0,3:0:0:0:
64,192,98380,1,2,0:0:0:0:
192,192,98543,1,2,0:0:0:0:
320,192,98543,1,0,3:0:0:0:
64,192,98705,1,0,0:0:0:0:
448,192,98705,1,0,3:0:0:0:
320,192,98867,1,2,0:0:0:0:
192,192,99029,1,2,0:0:0:0:
448,192,99029,1,0,3:0:0:0:
320,192,99191,1,2,0:0:0:0:
192,192,99353,1,0,1:0:0:0:
64,192,99353,128,2,99678:0:0:0:0:
192,192,99678,1,0,1:0:0:0:
448,192,99678,1,2,0:0:0:0:
320,192,99840,1,2,0:0:0:0:
64,192,100002,1,0,3:0:0:0:
192,192,100002,1,2,0:0:0:0:
320,192,100164,1,2,0:0:0:0:
448,192,100326,1,2,0:0:0:0:
192,192,100326,1,0,3:0:0:0:
64,192,100651,1,2,0:0:0:0:
192,192,100651,1,0,1:0:0:0:
320,192,100813,1,2,0:0:0:0:
448,192,100975,1,2,0:0:0:0:
192,192,100975,1,0,3:0:0:0:
64,192,101137,1,0,1:0:0:0:
192,192,101137,128,2,101462:0:0:0:0:
320,192,101299,1,0,0:0:0:0:
448,192,101462,1,2,0:0:0:0:
64,192,101462,1,0,1:0:0:0:
64,192,101624,1,0,3:0:0:0:
320,192,101624,1,2,0:0:0:0:
320,192,101786,1,0,3:0:0:0:
448,192,101786,1,2,0:0:0:0:
320,192,101948,1,0,1:0:0:0:
192,192,101948,128,2,102272:0:0:0:0:
448,192,102272,1,0,3:0:0:0:
64,192,102435,1,0,3:0:0:0:
320,192,102597,128,2,102759:0:0:0:0:
192,192,102597,1,0,1:0:0:0:
448,192,102597,1,4,1:0:0:0:
320,192,102921,128,2,103083:0:0:0:0:
192,192,102921,1,0,1:0:0:0:
448,192,102921,1,0,0:0:0:0:
448,192,103245,1,0,3:0:0:0:
320,192,103326,1,0,3:0:0:0:
192,192,103407,1,0,3:0:0:0:
64,192,103489,1,0,3:0:0:0:
320,192,103570,1,0,3:0:0:0:
448,192,103570,1,8,0:0:0:0:
320,192,103732,1,0,0:0:0:0:
448,192,103732,1,8,0:0:0:0:
320,192,103894,1,0,1:0:0:0:
192,192,103894,128,2,104056:0:0:0:0:
64,192,103894,1,4,1:0:0:0:
192,192,104218,128,2,104380:0:0:0:0:
64,192,104218,1,0,0:0:0:0:
320,192,104218,1,0,1:0:0:0:
64,192,104543,1,0,3:0:0:0:
192,192,104624,1,0,3:0:0:0:
320,192,104705,1,0,3:0:0:0:
448,192,104786,1,0,3:0:0:0:
192,192,104867,1,0,3:0:0:0:
64,192,104867,1,8,0:0:0:0:
192,192,105029,1,0,0:0:0:0:
64,192,105029,1,8,0:0:0:0:
192,192,105191,128,2,105353:0:0:0:0:
320,192,105191,1,4,1:0:0:0:
64,192,105191,1,0,1:0:0:0:
64,192,105516,1,0,1:0:0:0:
320,192,105516,1,0,0:0:0:0:
192,192,105516,128,2,105678:0:0:0:0:
320,192,105840,1,0,3:0:0:0:
192,192,105921,1,0,3:0:0:0:
64,192,106002,1,0,3:0:0:0:
448,192,106083,1,0,3:0:0:0:
192,192,106164,1,8,0:0:0:0:
320,192,106164,1,0,3:0:0:0:
192,192,106326,1,8,0:0:0:0:
320,192,106326,1,0,0:0:0:0:
320,192,106489,128,2,106651:0:0:0:0:
448,192,106489,1,4,1:0:0:0:
192,192,106489,1,0,1:0:0:0:
320,192,106813,128,2,106975:0:0:0:0:
192,192,106813,1,0,1:0:0:0:
448,192,106813,1,0,0:0:0:0:
192,192,107137,1,0,3:0:0:0:
320,192,107218,1,0,3:0:0:0:
448,192,107299,1,0,3:0:0:0:
64,192,107380,1,0,3:0:0:0:
320,192,107462,1,8,0:0:0:0:
192,192,107462,1,0,3:0:0:0:
320,192,107624,1,8,0:0:0:0:
192,192,107624,1,0,0:0:0:0:
64,192,107786,1,4,1:0:0:0:
192,192,107786,1,0,3:0:0:0:
448,192,107867,1,0,3:0:0:0:
320,192,107948,1,0,3:0:0:0:
192,192,108029,1,0,3:0:0:0:
64,192,108110,1,0,3:0:0:0:
448,192,108110,1,8,0:0:0:0:
192,192,108272,1,8,0:0:0:0:
64,192,108435,1,4,1:0:0:0:
320,192,108435,1,0,3:0:0:0:
448,192,108516,1,0,3:0:0:0:
320,192,108597,1,0,3:0:0:0:
192,192,108678,1,0,3:0:0:0:
64,192,108759,1,0,3:0:0:0:
448,192,108759,1,8,0:0:0:0:
320,192,108921,1,8,0:0:0:0:
192,192,109083,1,0,3:0:0:0:
448,192,109083,1,4,0:0:0:0:
320,192,109164,1,0,3:0:0:0:
192,192,109245,1,0,3:0:0:0:
64,192,109326,1,0,3:0:0:0:
320,192,109407,1,0,3:0:0:0:
448,192,109407,1,8,0:0:0:0:
192,192,109570,1,8,0:0:0:0:
64,192,109732,1,0,3:0:0:0:
448,192,109732,1,4,0:0:0:0:
320,192,109813,1,0,3:0:0:0:
192,192,109894,1,0,3:0:0:0:
64,192,109975,1,0,3:0:0:0:
192,192,110056,1,0,3:0:0:0:
448,192,110056,1,8,0:0:0:0:
320,192,110218,1,8,0:0:0:0:
64,192,110380,1,4,1:0:0:0:
192,192,110380,1,2,0:0:0:0:
448,192,110380,1,0,1:0:0:0:
64,192,110543,1,0,0:0:0:0:
192,192,110543,1,0,0:0:0:0:
448,192,110543,1,0,1:0:0:0:
192,192,110705,1,4,1:0:0:0:
320,192,110705,1,2,0:0:0:0:
448,192,110705,1,0,1:0:0:0:
192,192,110867,1,0,0:0:0:0:
320,192,110867,1,0,0:0:0:0:
448,192,110867,1,0,1:0:0:0:
64,192,111029,1,4,1:0:0:0:
448,192,111029,1,0,1:0:0:0:
320,192,111029,1,2,0:0:0:0:
64,192,111191,1,0,0:0:0:0:
320,192,111191,1,0,0:0:0:0:
448,192,111191,1,0,1:0:0:0:
192,192,111353,1,4,1:0:0:0:
320,192,111353,1,0,1:0:0:0:
64,192,111353,1,2,0:0:0:0:
64,192,111516,1,0,0:0:0:0:
192,192,111516,1,0,0:0:0:0:
320,192,111516,1,0,1:0:0:0:
448,192,111678,128,0,114272:0:0:0:0:
64,192,111678,1,4,1:0:0:0:
320,192,111678,1,0,3:0:0:0:
192,192,111759,1,0,3:0:0:0:
320,192,111840,1,0,3:0:0:0:
64,192,111921,1,0,3:0:0:0:
192,192,112002,1,0,3:0:0:0:
320,192,112083,1,0,3:0:0:0:
64,192,112164,1,0,3:0:0:0:
192,192,112245,1,0,3:0:0:0:
320,192,112326,1,0,3:0:0:0:
64,192,112407,1,0,3:0:0:0:
192,192,112489,1,0,3:0:0:0:
320,192,112570,1,0,3:0:0:0:
64,192,112651,1,0,3:0:0:0:
192,192,112732,1,0,3:0:0:0:
320,192,112813,1,0,3:0:0:0:
64,192,112894,1,0,3:0:0:0:
192,192,112975,1,0,3:0:0:0:
320,192,112975,1,2,3:0:0:0:
64,192,113299,1,2,3:0:0:0:
320,192,113299,1,0,0:0:0:0:
64,192,113624,1,2,3:0:0:0:
192,192,113624,1,0,0:0:0:0:
64,192,113948,1,0,0:0:0:0:
320,192,113948,1,2,3:0:0:0:
192,192,114272,1,2,3:0:0:0:
64,192,114272,128,2,114597:0:0:0:0:
192,192,114597,128,2,114921:0:0:0:0:
320,192,114597,1,2,3:0:0:0:
320,192,114921,128,2,115245:0:0:0:0:
448,192,114921,1,2,3:0:0:0:
448,192,115245,128,2,115570:0:0:0:0:
192,192,115245,1,2,0:0:0:0:
64,192,115570,1,0,1:0:0:0:
192,192,115570,1,2,0:0:0:0:
320,192,115570,1,4,1:0:0:0:
64,192,115732,1,0,0:0:0:0:
192,192,115894,1,2,0:0:0:0:
448,192,115894,1,0,0:0:0:0:
320,192,115894,1,0,1:0:0:0:
448,192,116056,1,0,0:0:0:0:
64,192,116056,1,2,0:0:0:0:
192,192,116218,1,0,0:0:0:0:
64,192,116218,1,0,1:0:0:0:
448,192,116218,1,0,0:0:0:0:
192,192,116380,1,0,0:0:0:0:
448,192,116543,1,0,1:0:0:0:
64,192,116543,1,0,0:0:0:0:
320,192,116543,1,2,0:0:0:0:
320,192,116705,1,0,0:0:0:0:
64,192,116867,1,0,0:0:0:0:
192,192,116867,1,0,1:0:0:0:
320,192,116867,1,2,0:0:0:0:
64,192,117029,1,0,0:0:0:0:
192,192,117191,1,0,0:0:0:0:
320,192,117191,1,0,1:0:0:0:
448,192,117191,1,2,0:0:0:0:
192,192,117353,1,0,0:0:0:0:
320,192,117516,128,2,117759:0:0:0:0:
64,192,117516,1,0,1:0:0:0:
448,192,117516,1,0,0:0:0:0:
64,192,117678,1,0,0:0:0:0:
192,192,117759,128,2,118002:0:0:0:0:
448,192,117840,1,0,1:0:0:0:
320,192,117840,1,0,0:0:0:0:
64,192,118002,128,2,118164:0:0:0:0:
320,192,118002,1,0,0:0:0:0:
448,192,118002,1,0,1:0:0:0:
320,192,118164,1,2,0:0:0:0:
448,192,118164,1,0,1:0:0:0:
192,192,118326,1,0,0:0:0:0:
64,192,118489,1,0,0:0:0:0:
320,192,118489,1,0,1:0:0:0:
448,192,118489,1,0,0:0:0:0:
448,192,118651,1,0,0:0:0:0:
192,192,118651,1,2,0:0:0:0:
320,192,118813,1,0,0:0:0:0:
192,192,118813,1,0,0:0:0:0:
64,192,118813,1,0,1:0:0:0:
320,192,118975,1,0,0:0:0:0:
192,192,119137,1,0,1:0:0:0:
320,192,119137,1,0,0:0:0:0:
448,192,119137,1,2,0:0:0:0:
192,192,119299,1,0,0:0:0:0:
64,192,119462,1,0,0:0:0:0:
320,192,119462,1,0,1:0:0:0:
448,192,119462,1,2,0:0:0:0:
448,192,119624,1,0,0:0:0:0:
64,192,119786,1,0,1:0:0:0:
320,192,119786,1,0,0:0:0:0:
448,192,119786,1,0,0:0:0:0:
192,192,119948,1,2,0:0:0:0:
448,192,119948,1,0,0:0:0:0:
192,192,120110,1,0,1:0:0:0:
320,192,120110,1,0,0:0:0:0:
448,192,120110,1,0,0:0:0:0:
448,192,120272,128,2,120516:0:0:0:0:
320,192,120272,1,0,1:0:0:0:
64,192,120353,1,0,1:0:0:0:
192,192,120435,1,0,1:0:0:0:
320,192,120516,128,2,120759:0:0:0:0:
64,192,120597,1,0,1:0:0:0:
192,192,120597,1,0,0:0:0:0:
192,192,120759,128,2,121083:0:0:0:0:
448,192,120759,1,0,0:0:0:0:
64,192,120759,1,0,1:0:0:0:
320,192,120921,1,0,0:0:0:0:
320,192,121083,128,2,121245:0:0:0:0:
64,192,121083,1,0,0:0:0:0:
448,192,121083,1,0,1:0:0:0:
192,192,121245,128,2,121407:0:0:0:0:
64,192,121245,1,0,0:0:0:0:
320,192,121407,1,0,1:0:0:0:
448,192,121407,1,0,0:0:0:0:
64,192,121570,1,0,0:0:0:0:
192,192,121732,1,2,0:0:0:0:
320,192,121732,1,0,0:0:0:0:
64,192,121732,1,0,1:0:0:0:
320,192,121894,1,0,0:0:0:0:
448,192,122056,128,2,122218:0:0:0:0:
64,192,122056,1,0,1:0:0:0:
192,192,122056,1,0,0:0:0:0:
320,192,122218,128,2,122380:0:0:0:0:
192,192,122218,1,0,0:0:0:0:
192,192,122380,128,2,122543:0:0:0:0:
448,192,122380,1,0,1:0:0:0:
64,192,122380,1,0,0:0:0:0:
64,192,122543,128,2,122705:0:0:0:0:
320,192,122543,1,0,0:0:0:0:
192,192,122705,1,0,1:0:0:0:
448,192,122705,1,0,0:0:0:0:
320,192,122867,128,2,123029:0:0:0:0:
192,192,123029,1,0,0:0:0:0:
64,192,123029,1,0,1:0:0:0:
448,192,123029,1,0,0:0:0:0:
64,192,123191,1,0,1:0:0:0:
192,192,123191,1,0,0:0:0:0:
320,192,123191,1,0,0:0:0:0:
448,192,123353,128,2,123516:0:0:0:0:
192,192,123353,1,0,0:0:0:0:
64,192,123353,1,0,1:0:0:0:
64,192,123516,128,2,123678:0:0:0:0:
320,192,123516,1,0,0:0:0:0:
448,192,123678,128,2,123840:0:0:0:0:
192,192,123678,1,0,0:0:0:0:
320,192,123678,1,0,1:0:0:0:
64,192,123840,128,2,124002:0:0:0:0:
192,192,123840,1,0,0:0:0:0:
320,192,124002,128,2,124164:0:0:0:0:
192,192,124002,1,0,1:0:0:0:
448,192,124002,1,0,0:0:0:0:
448,192,124164,128,2,124326:0:0:0:0:
64,192,124164,1,0,0:0:0:0:
192,192,124326,1,0,0:0:0:0:
64,192,124326,1,0,1:0:0:0:
320,192,124489,1,2,0:0:0:0:
192,192,124489,1,0,0:0:0:0:
64,192,124651,1,0,1:0:0:0:
448,192,124651,1,0,0:0:0:0:
320,192,124651,1,0,0:0:0:0:
192,192,124813,1,2,0:0:0:0:
64,192,124813,1,0,0:0:0:0:
64,192,124975,1,0,0:0:0:0:
192,192,124975,1,2,0:0:0:0:
320,192,124975,1,0,1:0:0:0:
320,192,125137,1,0,1:0:0:0:
448,192,125137,1,0,0:0:0:0:
192,192,125218,1,0,1:0:0:0:
320,192,125299,1,0,1:0:0:0:
448,192,125299,1,0,0:0:0:0:
64,192,125299,128,2,125624:0:0:0:0:
192,192,125462,1,0,3:0:0:0:
192,192,125624,128,2,125948:0:0:0:0:
320,192,125624,1,0,0:0:0:0:
448,192,125624,1,0,1:0:0:0:
320,192,125786,1,0,0:0:0:0:
64,192,125948,1,0,1:0:0:0:
320,192,125948,1,2,0:0:0:0:
448,192,125948,1,0,0:0:0:0:
64,192,126110,1,0,0:0:0:0:
192,192,126272,1,0,1:0:0:0:
320,192,126272,1,2,0:0:0:0:
448,192,126272,1,0,0:0:0:0:
448,192,126435,1,2,0:0:0:0:
320,192,126435,1,0,0:0:0:0:
192,192,126597,1,0,0:0:0:0:
64,192,126597,1,0,1:0:0:0:
320,192,126597,1,0,0:0:0:0:
320,192,126759,1,0,0:0:0:0:
192,192,126921,1,0,1:0:0:0:
64,192,126921,1,0,0:0:0:0:
448,192,126921,1,2,0:0:0:0:
192,192,127083,1,0,0:0:0:0:
320,192,127245,1,2,0:0:0:0:
192,192,127245,1,0,1:0:0:0:
448,192,127245,1,0,0:0:0:0:
64,192,127407,1,0,0:0:0:0:
64,192,127570,1,0,0:0:0:0:
192,192,127570,1,0,1:0:0:0:
448,192,127570,1,2,0:0:0:0:
320,192,127732,1,0,0:0:0:0:
448,192,127894,128,2,128137:0:0:0:0:
64,192,127894,1,0,1:0:0:0:
320,192,127894,1,0,0:0:0:0:
192,192,128056,1,0,0:0:0:0:
320,192,128137,128,2,128380:0:0:0:0:
64,192,128218,1,0,0:0:0:0:
192,192,128218,1,0,1:0:0:0:
64,192,128380,128,2,128543:0:0:0:0:
448,192,128380,1,0,1:0:0:0:
192,192,128380,1,0,0:0:0:0:
192,192,128543,1,2,0:0:0:0:
320,192,128543,1,0,1:0:0:0:
448,192,128705,1,0,0:0:0:0:
64,192,128867,1,0,0:0:0:0:
192,192,128867,1,0,1:0:0:0:
448,192,128867,1,0,0:0:0:0:
320,192,129029,1,2,0:0:0:0:
64,192,129029,1,0,0:0:0:0:
192,192,129191,1,0,1:0:0:0:
320,192,129191,1,0,0:0:0:0:
448,192,129191,1,0,0:0:0:0:
64,192,129353,1,0,0:0:0:0:
192,192,129516,1,0,0:0:0:0:
64,192,129516,1,0,1:0:0:0:
320,192,129516,1,2,0:0:0:0:
192,192,129678,1,0,0:0:0:0:
64,192,129840,1,0,0:0:0:0:
448,192,129840,1,0,1:0:0:0:
320,192,129840,1,2,0:0:0:0:
64,192,130002,1,0,0:0:0:0:
192,192,130164,1,0,1:0:0:0:
320,192,130164,1,0,0:0:0:0:
448,192,130164,1,0,0:0:0:0:
448,192,130326,1,2,0:0:0:0:
64,192,130326,1,0,0:0:0:0:
64,192,130489,1,0,0:0:0:0:
192,192,130489,1,0,0:0:0:0:
320,192,130489,1,0,1:0:0:0:
448,192,130651,128,2,130894:0:0:0:0:
64,192,130651,1,0,0:0:0:0:
192,192,130651,1,0,1:0:0:0:
320,192,130732,1,0,1:0:0:0:
64,192,130813,1,0,0:0:0:0:
192,192,130813,1,0,1:0:0:0:
320,192,130894,128,2,131137:0:0:0:0:
64,192,130975,1,0,0:0:0:0:
192,192,130975,1,0,1:0:0:0:
192,192,131137,128,2,131462:0:0:0:0:
64,192,131137,1,0,0:0:0:0:
448,192,131137,1,0,1:0:0:0:
320,192,131299,1,0,0:0:0:0:
320,192,131462,128,2,131624:0:0:0:0:
64,192,131462,1,0,0:0:0:0:
448,192,131462,1,0,1:0:0:0:
64,192,131624,128,2,131948:0:0:0:0:
192,192,131624,1,0,0:0:0:0:
448,192,131786,1,0,0:0:0:0:
320,192,131786,1,0,1:0:0:0:
192,192,131948,1,0,0:0:0:0:
320,192,132110,1,0,1:0:0:0:
64,192,132110,1,2,0:0:0:0:
448,192,132110,1,0,0:0:0:0:
192,192,132272,1,2,0:0:0:0:
448,192,132272,1,0,0:0:0:0:
448,192,132435,1,0,0:0:0:0:
64,192,132435,1,0,1:0:0:0:
192,192,132435,1,0,0:0:0:0:
192,192,132597,128,2,132759:0:0:0:0:
320,192,132597,1,0,0:0:0:0:
320,192,132759,128,2,132921:0:0:0:0:
448,192,132759,1,0,0:0:0:0:
64,192,132759,1,0,1:0:0:0:
448,192,132921,128,2,133083:0:0:0:0:
64,192,132921,1,0,1:0:0:0:
192,192,132921,1,0,0:0:0:0:
64,192,133083,1,0,1:0:0:0:
192,192,133083,1,0,0:0:0:0:
320,192,133245,1,0,3:0:0:0:
64,192,133407,128,0,133732:0:0:0:0:
320,192,133407,128,0,133732:0:0:0:0:
192,192,133732,128,2,133894:0:0:0:0:
64,192,133894,128,2,134056:0:0:0:0:
192,192,134056,128,2,134218:0:0:0:0:
64,192,134218,128,2,134380:0:0:0:0:
192,192,134380,128,2,134543:0:0:0:0:
320,192,134543,128,2,134705:0:0:0:0:
192,192,134867,128,2,135191:0:0:0:0:
320,192,135191,1,2,0:0:0:0:
320,192,135353,128,2,135678:0:0:0:0:
448,192,135353,1,0,0:0:0:0:
64,192,135353,128,0,135678:0:0:0:0:
192,192,135353,1,0,1:0:0:0:
448,192,135678,1,0,1:0:0:0:
192,192,135678,128,2,136002:0:0:0:0:
448,192,136002,128,0,136326:0:0:0:0:
320,192,136002,128,0,136326:1:0:0:0:
64,192,136002,128,2,136326:0:0:0:0:
192,192,136326,1,4,1:0:0:0:
320,192,136489,1,0,0:0:0:0:
64,192,136651,1,0,1:0:0:0:
192,192,136651,1,2,0:0:0:0:
448,192,136651,1,0,0:0:0:0:
320,192,136813,1,0,0:0:0:0:
64,192,136975,1,0,1:0:0:0:
192,192,136975,1,2,0:0:0:0:
448,192,136975,1,0,0:0:0:0:
320,192,137137,1,2,0:0:0:0:
192,192,137218,1,2,0:0:0:0:
64,192,137299,1,2,0:0:0:0:
448,192,137299,1,0,1:0:0:0:
320,192,137299,1,0,0:0:0:0:
192,192,137462,1,2,0:0:0:0:
320,192,137624,128,2,137786:0:0:0:0:
64,192,137624,1,0,1:0:0:0:
192,192,137624,1,0,0:0:0:0:
448,192,137786,128,2,137948:0:0:0:0:
192,192,137786,1,0,0:0:0:0:
320,192,137948,128,2,138110:0:0:0:0:
64,192,137948,1,0,0:0:0:0:
192,192,137948,1,0,1:0:0:0:
448,192,138110,128,2,138272:0:0:0:0:
64,192,138110,1,0,0:0:0:0:
192,192,138272,128,2,138435:0:0:0:0:
64,192,138272,1,0,0:0:0:0:
320,192,138272,1,0,1:0:0:0:
320,192,138435,1,0,0:0:0:0:
320,192,138597,1,0,1:0:0:0:
448,192,138597,1,0,0:0:0:0:
64,192,138597,1,2,0:0:0:0:
320,192,138759,1,0,1:0:0:0:
448,192,138759,1,0,0:0:0:0:
64,192,138759,1,2,0:0:0:0:
320,192,138921,1,0,1:0:0:0:
448,192,138921,1,0,0:0:0:0:
192,192,138921,128,2,139083:0:0:0:0:
320,192,139083,128,2,139245:0:0:0:0:
64,192,139083,1,0,0:0:0:0:
448,192,139245,128,2,139407:0:0:0:0:
64,192,139245,1,0,1:0:0:0:
192,192,139245,1,0,0:0:0:0:
320,192,139407,1,0,0:0:0:0:
64,192,139570,1,2,0:0:0:0:
192,192,139570,1,0,1:0:0:0:
448,192,139570,1,0,0:0:0:0:
448,192,139732,1,2,0:0:0:0:
192,192,139894,1,2,0:0:0:0:
64,192,139894,1,0,0:0:0:0:
320,192,139894,1,0,1:0:0:0:
320,192,140056,128,2,140380:0:0:0:0:
192,192,140056,1,0,0:0:0:0:
448,192,140218,1,0,0:0:0:0:
64,192,140218,1,0,1:0:0:0:
192,192,140380,1,2,0:0:0:0:
320,192,140543,1,2,0:0:0:0:
448,192,140543,1,0,1:0:0:0:
64,192,140543,1,2,0:0:0:0:
64,192,140705,1,2,0:0:0:0:
192,192,140867,1,0,1:0:0:0:
448,192,140867,1,0,0:0:0:0:
320,192,140867,128,2,141029:0:0:0:0:
64,192,141029,1,0,1:0:0:0:
192,192,141110,1,0,1:0:0:0:
448,192,141110,1,0,0:0:0:0:
64,192,141191,1,0,1:0:0:0:
320,192,141191,1,0,0:0:0:0:
64,192,141353,1,0,1:0:0:0:
320,192,141353,1,0,0:0:0:0:
448,192,141353,1,0,0:0:0:0:
64,192,141516,1,0,1:0:0:0:
192,192,141516,1,0,0:0:0:0:
320,192,141516,1,2,0:0:0:0:
448,192,141678,1,0,0:0:0:0:
64,192,141840,1,0,1:0:0:0:
192,192,141840,1,0,0:0:0:0:
320,192,141840,1,2,0:0:0:0:
448,192,142002,1,0,0:0:0:0:
64,192,142164,1,0,1:0:0:0:
192,192,142164,1,0,0:0:0:0:
320,192,142164,1,2,0:0:0:0:
448,192,142326,1,2,0:0:0:0:
320,192,142407,1,2,0:0:0:0:
64,192,142489,1,0,1:0:0:0:
192,192,142489,1,2,0:0:0:0:
448,192,142489,1,0,0:0:0:0:
192,192,142651,1,2,0:0:0:0:
64,192,142813,1,0,1:0:0:0:
192,192,142813,1,0,0:0:0:0:
320,192,142813,1,0,0:0:0:0:
320,192,142975,128,2,143137:0:0:0:0:
448,192,142975,1,0,0:0:0:0:
64,192,143137,128,2,143299:0:0:0:0:
192,192,143137,1,0,1:0:0:0:
448,192,143137,1,0,0:0:0:0:
192,192,143299,128,2,143462:0:0:0:0:
320,192,143299,1,0,0:0:0:0:
64,192,143462,128,2,143786:0:0:0:0:
320,192,143462,1,0,0:0:0:0:
448,192,143462,1,0,1:0:0:0:
320,192,143624,1,0,0:0:0:0:
192,192,143786,1,0,0:0:0:0:
320,192,143786,1,2,0:0:0:0:
448,192,143786,1,0,1:0:0:0:
192,192,143948,1,2,0:0:0:0:
64,192,143948,1,0,0:0:0:0:
448,192,143948,1,0,1:0:0:0:
64,192,144110,1,2,0:0:0:0:
192,192,144110,1,0,0:0:0:0:
320,192,144110,1,0,1:0:0:0:
448,192,144272,1,2,0:0:0:0:
192,192,144435,128,2,144759:0:0:0:0:
320,192,144435,1,0,1:0:0:0:
448,192,144435,1,0,0:0:0:0:
64,192,144597,1,0,0:0:0:0:
320,192,144759,1,2,0:0:0:0:
448,192,144759,1,0,1:0:0:0:
64,192,144921,1,2,0:0:0:0:
192,192,145083,1,2,0:0:0:0:
320,192,145083,1,0,1:0:0:0:
448,192,145083,1,0,0:0:0:0:
320,192,145245,1,2,0:0:0:0:
64,192,145407,1,0,1:0:0:0:
192,192,145407,1,0,0:0:0:0:
448,192,145407,1,0,0:0:0:0:
320,192,145570,1,2,0:0:0:0:
320,192,145732,128,2,146056:0:0:0:0:
448,192,145732,1,0,0:0:0:0:
64,192,145732,1,0,1:0:0:0:
64,192,145894,1,0,1:0:0:0:
448,192,145894,1,0,0:0:0:0:
192,192,145975,1,0,1:0:0:0:
64,192,146056,1,0,1:0:0:0:
448,192,146056,1,2,0:0:0:0:
192,192,146218,1,0,3:0:0:0:
64,192,146380,1,0,0:0:0:0:
320,192,146380,1,2,0:0:0:0:
448,192,146380,1,0,1:0:0:0:
192,192,146543,1,0,0:0:0:0:
64,192,146705,1,0,0:0:0:0:
320,192,146705,1,0,1:0:0:0:
64,192,146867,1,0,0:0:0:0:
192,192,146867,1,0,1:0:0:0:
320,192,147029,1,0,1:0:0:0:
448,192,147029,1,0,0:0:0:0:
192,192,147191,1,0,0:0:0:0:
320,192,147191,1,0,1:0:0:0:
64,192,147353,1,0,1:0:0:0:
448,192,147353,1,0,0:0:0:0:
192,192,147516,1,0,1:0:0:0:
448,192,147516,1,0,0:0:0:0:
64,192,147678,1,0,1:0:0:0:
320,192,147678,1,0,0:0:0:0:
192,192,147840,1,0,1:0:0:0:
320,192,147840,1,0,0:0:0:0:
64,192,148002,1,0,3:0:0:0:
192,192,148002,1,0,0:0:0:0:
320,192,148083,1,0,3:0:0:0:
64,192,148164,1,0,3:0:0:0:
192,192,148164,1,0,0:0:0:0:
448,192,148245,1,0,3:0:0:0:
64,192,148326,1,0,3:0:0:0:
192,192,148326,1,0,0:0:0:0:
320,192,148407,1,0,3:0:0:0:
64,192,148489,1,0,3:0:0:0:
192,192,148489,1,0,0:0:0:0:
448,192,148570,1,0,3:0:0:0:
64,192,148651,1,0,3:0:0:0:
192,192,148651,1,0,0:0:0:0:
320,192,148732,1,0,3:0:0:0:
64,192,148813,1,0,3:0:0:0:
192,192,148813,1,0,0:0:0:0:
448,192,148894,1,0,3:0:0:0:
64,192,148975,1,0,3:0:0:0:
192,192,148975,1,0,0:0:0:0:
320,192,149056,1,0,3:0:0:0:
64,192,149137,1,0,3:0:0:0:
192,192,149137,1,0,0:0:0:0:
448,192,149218,1,0,3:0:0:0:
192,192,149299,128,0,149705:1:0:0:0:
320,192,149786,128,0,150191:1:0:0:0:
64,192,149786,128,0,150191:0:0:0:0:
448,192,150272,128,0,150597:0:0:0:0:
320,192,150272,128,0,150597:1:0:0:0:
64,192,150597,128,4,151245:1:0:0:0:
192,192,150597,128,0,151245:1:0:0:0:
320,192,151245,1,0,1:0:0:0:
448,192,151245,1,0,0:0:0:0:
64,192,151326,1,0,0:0:0:0:
192,192,151326,1,0,1:0:0:0:
320,192,151407,1,0,1:0:0:0:
448,192,151407,1,0,0:0:0:0:
64,192,151489,1,0,0:0:0:0:
192,192,151489,1,0,1:0:0:0:
320,192,151570,1,0,1:0:0:0:
448,192,151570,1,0,0:0:0:0:
64,192,151651,1,0,0:0:0:0:
192,192,151651,1,0,1:0:0:0:
320,192,151732,1,0,1:0:0:0:
448,192,151732,1,0,0:0:0:0:
64,192,151813,1,0,0:0:0:0:
192,192,151813,1,0,1:0:0:0:
320,192,151894,1,2,0:0:0:0:
192,192,151894,1,0,1:0:0:0:
448,192,151894,1,4,1:0:0:0:
320,192,152056,1,0,0:0:0:0:
64,192,152218,1,0,0:0:0:0:
192,192,152218,1,2,0:0:0:0:
448,192,152218,1,0,1:0:0:0:
320,192,152380,1,0,0:0:0:0:
64,192,152543,1,0,0:0:0:0:
192,192,152543,1,2,0:0:0:0:
448,192,152543,1,0,1:0:0:0:
448,192,152705,1,2,0:0:0:0:
192,192,152786,1,2,0:0:0:0:
64,192,152867,1,2,0:0:0:0:
320,192,152867,1,0,1:0:0:0:
448,192,152867,1,0,0:0:0:0:
320,192,153029,128,2,153353:0:0:0:0:
192,192,153029,1,0,0:0:0:0:
64,192,153191,1,0,1:0:0:0:
192,192,153191,1,0,0:0:0:0:
448,192,153191,1,0,0:0:0:0:
448,192,153353,1,2,0:0:0:0:
64,192,153516,1,2,0:0:0:0:
192,192,153516,1,0,1:0:0:0:
320,192,153516,1,0,0:0:0:0:
192,192,153678,1,2,0:0:0:0:
64,192,153840,1,0,0:0:0:0:
320,192,153840,1,0,1:0:0:0:
448,192,153840,1,0,0:0:0:0:
448,192,154002,1,2,0:0:0:0:
320,192,154164,1,0,0:0:0:0:
192,192,154164,1,0,0:0:0:0:
64,192,154164,1,0,1:0:0:0:
320,192,154326,1,0,0:0:0:0:
192,192,154326,1,2,0:0:0:0:
64,192,154326,1,0,1:0:0:0:
192,192,154489,1,0,0:0:0:0:
64,192,154489,1,0,1:0:0:0:
448,192,154489,128,2,154651:0:0:0:0:
64,192,154651,128,2,154813:0:0:0:0:
320,192,154651,1,0,0:0:0:0:
448,192,154813,128,2,154975:0:0:0:0:
192,192,154813,1,0,1:0:0:0:
64,192,154975,128,2,155137:0:0:0:0:
320,192,154975,1,0,0:0:0:0:
448,192,155137,1,0,1:0:0:0:
192,192,155137,128,2,155299:0:0:0:0:
448,192,155299,128,2,155462:0:0:0:0:
320,192,155299,1,0,0:0:0:0:
64,192,155462,1,0,1:0:0:0:
192,192,155462,1,0,0:0:0:0:
64,192,155624,1,2,0:0:0:0:
192,192,155624,1,0,1:0:0:0:
320,192,155705,1,0,1:0:0:0:
448,192,155705,1,0,0:0:0:0:
64,192,155786,1,0,0:0:0:0:
192,192,155786,1,0,1:0:0:0:
320,192,155948,1,0,0:0:0:0:
64,192,155948,1,2,0:0:0:0:
448,192,155948,1,0,1:0:0:0:
192,192,156110,128,2,156435:0:0:0:0:
64,192,156110,1,0,0:0:0:0:
448,192,156110,1,0,1:0:0:0:
64,192,156272,1,0,0:0:0:0:
448,192,156272,1,0,1:0:0:0:
64,192,156435,1,0,0:0:0:0:
448,192,156435,1,0,1:0:0:0:
64,192,156597,1,0,0:0:0:0:
192,192,156597,1,0,0:0:0:0:
320,192,156597,1,0,1:0:0:0:
320,192,156759,1,0,1:0:0:0:
448,192,156759,1,0,0:0:0:0:
64,192,156759,1,0,0:0:0:0:
192,192,156921,1,0,0:0:0:0:
320,192,156921,1,0,1:0:0:0:
448,192,156921,1,0,0:0:0:0:
64,192,157002,1,2,3:0:0:0:
192,192,157043,1,2,3:0:0:0:
320,192,157083,128,4,157407:1:0:0:0:
64,192,157407,1,0,1:0:0:0:
192,192,157407,1,0,0:0:0:0:
448,192,157570,1,0,0:0:0:0:
192,192,157732,1,0,0:0:0:0:
64,192,157732,1,0,1:0:0:0:
320,192,157894,1,0,0:0:0:0:
64,192,157975,1,0,1:0:0:0:
192,192,157975,1,0,0:0:0:0:
320,192,158056,1,0,0:0:0:0:
448,192,158218,1,0,0:0:0:0:
192,192,158218,1,0,1:0:0:0:
64,192,158380,1,2,0:0:0:0:
192,192,158380,1,0,1:0:0:0:
448,192,158380,1,0,0:0:0:0:
320,192,158543,1,0,0:0:0:0:
192,192,158705,1,0,1:0:0:0:
448,192,158705,1,0,0:0:0:0:
64,192,158867,1,0,0:0:0:0:
320,192,158867,1,2,0:0:0:0:
192,192,159029,1,0,1:0:0:0:
448,192,159029,1,0,0:0:0:0:
192,192,159191,1,0,0:0:0:0:
320,192,159272,1,0,1:0:0:0:
64,192,159353,1,2,0:0:0:0:
448,192,159353,1,0,1:0:0:0:
192,192,159516,1,0,1:0:0:0:
64,192,159678,128,0,160326:0:0:0:0:
320,192,159678,1,2,0:0:0:0:
448,192,159678,1,0,1:0:0:0:
320,192,159840,1,0,1:0:0:0:
448,192,160002,1,0,1:0:0:0:
192,192,160002,1,0,0:0:0:0:
448,192,160164,1,0,1:0:0:0:
320,192,160326,1,0,3:0:0:0:
192,192,160326,1,0,1:0:0:0:
448,192,160407,1,0,3:0:0:0:
64,192,160489,1,0,3:0:0:0:
192,192,160570,1,0,3:0:0:0:
320,192,160651,1,0,3:0:0:0:
448,192,160732,1,0,3:0:0:0:
64,192,160813,1,0,3:0:0:0:
192,192,160894,1,0,3:0:0:0:
320,192,160975,128,2,161056:3:0:0:0:
192,192,161299,128,0,161380:3:0:0:0:
192,192,161624,128,0,161705:3:0:0:0:
448,192,161948,128,2,162029:0:0:0:0:
64,192,162110,1,0,3:0:0:0:
192,192,162151,1,0,3:0:0:0:
320,192,162191,1,0,3:0:0:0:
448,192,162232,1,0,3:0:0:0:
320,192,162272,128,2,162435:0:0:0:0:
320,192,162597,128,2,162759:0:0:0:0:
320,192,162921,128,2,163083:0:0:0:0:
448,192,163083,128,2,163164:0:0:0:0:
192,192,163164,128,2,163245:0:0:0:0:
64,192,163245,128,2,163407:0:0:0:0:
192,192,163407,128,2,163570:0:0:0:0:
320,192,163570,128,2,163732:0:0:0:0:
448,192,163732,128,2,163894:0:0:0:0:
320,192,163894,128,2,164056:0:0:0:0:
448,192,164056,128,2,164218:0:0:0:0:
192,192,164218,128,2,164543:0:0:0:0:
320,192,164543,128,2,164705:0:0:0:0:
192,192,164705,128,2,164867:0:0:0:0:
64,192,164867,128,2,165029:0:0:0:0:
192,192,165029,128,2,165191:0:0:0:0:
448,192,165191,128,2,165516:0:0:0:0:
64,192,165516,128,2,165678:0:0:0:0:
192,192,165516,128,2,165678:0:0:0:0:
320,192,165678,128,2,165840:0:0:0:0:
192,192,165840,128,2,166002:0:0:0:0:
448,192,166002,128,2,166326:0:0:0:0:
320,192,166326,128,2,166489:0:0:0:0:
192,192,166489,128,2,166651:0:0:0:0:
320,192,166651,128,2,166813:0:0:0:0:
448,192,166813,128,2,167137:0:0:0:0:
64,192,167137,1,2,0:0:0:0:
192,192,167218,1,2,0:0:0:0:
320,192,167299,1,2,0:0:0:0:
448,192,167380,1,2,0:0:0:0:
320,192,167462,128,2,167786:0:0:0:0:
192,192,167786,128,2,168110:0:0:0:0:
64,192,168110,128,2,168272:0:0:0:0:
448,192,168272,128,2,168353:0:0:0:0:
320,192,168353,128,2,168435:0:0:0:0:
192,192,168435,128,2,168597:0:0:0:0:
448,192,168597,128,2,168921:0:0:0:0:
192,192,168921,128,2,169083:0:0:0:0:
320,192,169083,128,2,169245:0:0:0:0:
448,192,169245,128,2,169570:0:0:0:0:
192,192,169570,128,2,169894:0:0:0:0:
320,192,169894,128,2,170056:0:0:0:0:
192,192,170056,128,2,170218:0:0:0:0:
448,192,170056,128,0,170218:0:0:0:0:
320,192,170218,1,2,0:0:0:0:
64,192,170299,1,2,0:0:0:0:
320,192,170380,1,2,0:0:0:0:
192,192,170543,128,2,170624:0:0:0:0:
448,192,170543,128,0,170624:0:0:0:0:
64,192,170705,1,2,0:0:0:0:
320,192,170786,1,2,0:0:0:0:
64,192,170867,1,2,0:0:0:0:
192,192,171029,1,2,0:0:0:0:
448,192,171029,1,0,0:0:0:0:
320,192,171191,128,2,171516:0:0:0:0:
448,192,171516,128,2,171678:0:0:0:0:
320,192,171678,128,2,171840:0:0:0:0:
448,192,171840,128,2,172002:0:0:0:0:
64,192,172002,1,2,0:0:0:0:
192,192,172002,128,0,172326:0:0:0:0:
320,192,172083,1,2,0:0:0:0:
448,192,172164,1,2,0:0:0:0:
64,192,172245,1,2,0:0:0:0:
320,192,172326,1,2,0:0:0:0:
448,192,172326,128,0,172651:3:0:0:0:
